osu file format v14

[General]
AudioFilename: miku lmao.mp3
AudioLeadIn: 0
PreviewTime: 36985
Countdown: 0
SampleSet: Soft
StackLeniency: 0.7
Mode: 0
LetterboxInBreaks: 0
WidescreenStoryboard: 1

[Editor]
Bookmarks: 9942,19173,28404,37634
DistanceSpacing: 1.5
BeatDivisor: 8
GridSize: 4
TimelineZoom: 1.8

[Metadata]
Title:All Star
TitleUnicode:All Star
Artist:Hatsune Miku
ArtistUnicode:初音ミク
Creator:Midge
Version:Hard
Source:
Tags:smash mouth cover vocaloid shrek
BeatmapID:1070359
BeatmapSetID:369520

[Difficulty]
HPDrainRate:5
CircleSize:4
OverallDifficulty:6
ApproachRate:8
SliderMultiplier:1.99999990463257
SliderTickRate:1

[Events]
//Background and Video events
0,0,"maxresdefault.jpg",0,0
//Break Periods
//Storyboard Layer 0 (Background)
//Storyboard Layer 1 (Fail)
//Storyboard Layer 2 (Pass)
//Storyboard Layer 3 (Foreground)
//Storyboard Sound Samples

[TimingPoints]
-1596,576.923076923077,4,2,0,70,1,0
134,-100,4,2,0,70,0,0
37634,-100,4,2,0,70,0,1
46721,-100,4,2,0,70,0,0
46865,-100,4,2,0,70,0,1
53932,-100,4,2,0,70,0,0
54221,-133.333333333333,4,2,0,70,0,0
54365,-133.333333333333,4,2,0,50,0,0
54942,-200,4,2,0,30,0,0
55519,-200,4,2,0,20,0,0
55807,-200,4,2,0,15,0,0
56096,-200,4,2,0,10,0,0

[Colours]
Combo1 : 132,66,0
Combo2 : 128,128,0

[HitObjects]
381,145,134,6,0,P|417:92|467:79,2,99.9999952316285,2|0|2,0:0|0:0|0:0,0:0:0:0:
360,293,1000,1,0,0:0:0:0:
237,206,1288,1,8,0:0:0:0:
237,206,1865,2,0,L|152:138,1,99.9999952316285,2|8,0:0|0:0,0:0:0:0:
288,68,2442,1,8,0:0:0:0:
237,206,2730,6,0,P|203:228|57:176,1,199.999990463257,2|0,0:0|0:0,0:0:0:0:
165,75,3596,2,0,P|210:56|272:56,1,99.9999952316285,8|2,0:0|0:0,0:0:0:0:
339,181,4173,2,0,L|233:148,1,99.9999952316285,2|8,0:0|0:0,0:0:0:0:
243,151,5038,1,10,0:0:0:0:
386,194,5327,6,0,P|449:251|460:273,1,99.9999952316285,2|0,0:0|0:0,0:0:0:0:
305,277,5904,2,0,P|241:262|202:236,1,99.9999952316285,8|2,0:0|0:0,0:0:0:0:
154,106,6480,1,2,0:0:0:0:
292,163,6769,1,8,0:0:0:0:
144,188,7057,1,8,0:0:0:0:
248,79,7346,6,0,P|315:72|387:177,2,199.999990463257,2|0|2,0:0|0:0|0:0,0:0:0:0:
248,79,9077,1,8,0:0:0:0:
206,222,9365,2,0,P|240:247|312:243,1,99.9999952316285,4|10,0:0|0:0,0:0:0:0:
420,162,9942,5,2,0:0:0:0:
271,178,10230,1,0,0:0:0:0:
393,92,10519,2,0,B|418:77|418:77|504:67,2,99.9999952316285,12|2|2,0:0|0:0|0:0,0:0:0:0:
348,235,11384,1,8,0:0:0:0:
224,149,11673,1,12,0:0:0:0:
78,186,11961,6,0,P|58:212|143:324,1,199.999990463257,2|0,0:0|0:0,0:0:0:0:
171,177,12827,2,0,P|150:126|97:100,1,99.9999952316285,12|2,0:0|0:0,0:0:0:0:
147,249,13404,1,2,0:0:0:0:
262,153,13692,1,8,0:0:0:0:
403,203,13980,1,12,0:0:0:0:
262,153,14269,6,0,B|234:119|170:127|170:127|110:133|74:82,1,199.999990463257,2|0,0:0|0:0,0:0:0:0:
152,40,15134,1,12,0:0:0:0:
198,204,15423,1,2,0:0:0:0:
198,204,16000,5,8,0:0:0:0:
227,57,16288,1,12,0:0:0:0:
347,147,16577,1,2,0:0:0:0:
198,204,16865,2,0,P|142:224|96:311,1,149.999992847443,2|2,0:0|0:0,0:0:0:0:
165,331,17442,2,0,B|198:349|198:349|232:318|325:318,1,149.999992847443,6|2,0:0|0:0,0:0:0:0:
378,329,18019,2,0,P|431:307|349:271,1,199.999990463257,2|6,0:0|0:0,0:0:0:0:
228,346,18884,5,8,0:0:0:0:
228,346,19029,1,8,0:0:0:0:
228,346,19173,2,0,B|227:312|227:312|268:240,1,99.9999952316285,6|0,0:0|0:0,0:0:0:0:
315,203,19605,1,0,0:0:0:0:
367,148,19750,2,0,P|385:114|385:98,1,49.9999976158143,8|0,0:0|0:0,0:0:0:0:
333,50,20038,2,0,P|315:83|315:100,1,49.9999976158143,2|0,0:0|0:0,0:0:0:0:
246,125,20327,2,0,P|224:174|171:207,2,99.9999952316285,2|0|8,0:0|0:0|0:0,0:0:0:0:
246,125,21048,1,0,0:0:0:0:
230,273,21336,5,0,0:0:0:0:
230,273,21480,2,0,P|191:303|171:349,1,99.9999952316285,2|0,0:0|0:0,0:0:0:0:
100,372,21913,1,0,0:0:0:0:
49,316,22057,2,0,P|87:285|107:239,1,99.9999952316285,8|2,0:0|0:0,0:0:0:0:
87,166,22490,1,0,0:0:0:0:
114,95,22634,2,0,L|162:52,1,49.9999976158143,2|0,0:0|0:0,0:0:0:0:
213,102,22923,2,0,L|175:135,1,49.9999976158143,0|0,0:0|0:0,0:0:0:0:
207,203,23211,2,0,L|256:160,2,49.9999976158143,8|0|0,0:0|0:0|0:0,0:0:0:0:
356,215,23788,6,0,L|318:248,1,49.9999976158143,0|6,0:0|0:0,0:0:0:0:
361,312,24077,2,0,B|341:331|341:331|311:315|256:318,2,99.9999952316285,0|8|2,0:0|0:0|0:0,0:0:0:0:
435,301,24798,1,0,0:0:0:0:
477,239,24942,2,0,P|485:172|458:130,2,99.9999952316285,2|0|8,0:0|0:0|0:0,0:0:0:0:
386,119,25807,2,0,L|342:159,1,49.9999976158143,2|0,0:0|0:0,0:0:0:0:
340,227,26096,6,0,B|322:251|322:251|264:248|239:220,1,99.9999952316285,2|0,0:0|0:0,0:0:0:0:
210,172,26529,1,0,0:0:0:0:
144,134,26673,2,0,L|77:154,1,49.9999976158143,8|0,0:0|0:0,0:0:0:0:
53,210,26961,2,0,L|107:244,1,49.9999976158143,2|0,0:0|0:0,0:0:0:0:
137,298,27250,2,0,L|34:344,2,99.9999952316285,2|0|8,0:0|0:0|0:0,0:0:0:0:
285,318,28115,1,2,0:0:0:0:
341,268,28259,1,0,0:0:0:0:
393,213,28404,6,0,P|409:187|412:155,1,49.9999976158143,6|2,0:0|0:0,0:0:0:0:
310,58,28836,2,0,P|294:84|291:116,1,49.9999976158143,2|8,0:0|0:0,0:0:0:0:
440,94,29269,6,0,P|414:78|382:75,1,49.9999976158143,2|2,0:0|0:0,0:0:0:0:
285,177,29701,2,0,P|311:193|343:196,1,49.9999976158143,8|8,0:0|0:0,0:0:0:0:
419,316,30134,6,0,P|393:300|361:297,1,49.9999976158143,2|8,0:0|0:0,0:0:0:0:
303,321,30423,1,0,0:0:0:0:
236,354,30567,2,0,P|191:366|132:339,1,99.9999952316285,8|0,0:0|0:0,0:0:0:0:
52,228,31144,2,0,P|97:216|156:243,1,99.9999952316285,0|0,0:0|0:0,0:0:0:0:
268,320,31721,1,0,0:0:0:0:
268,320,31865,2,0,L|353:255,1,99.9999952316285,2|0,0:0|0:0,0:0:0:0:
196,252,32442,1,8,0:0:0:0:
347,259,32730,6,0,P|381:239|446:241,2,99.9999952316285,2|6|0,0:0|0:0|0:0,0:0:0:0:
204,216,33596,2,0,P|139:236|134:236,1,49.9999976158143,8|0,0:0|0:0,0:0:0:0:
103,183,33884,2,0,P|168:163|173:163,1,49.9999976158143,2|0,0:0|0:0,0:0:0:0:
220,140,34173,1,2,0:0:0:0:
364,179,34461,2,0,L|422:201,2,49.9999976158143,2|2|8,0:0|0:0|0:0,0:0:0:0:
220,140,35038,5,2,0:0:0:0:
220,140,35327,1,2,0:0:0:0:
157,204,37057,6,0,P|147:223|136:164,1,174.99999165535,6|0,0:0|0:0,0:0:0:0:
168,168,37634,6,0,L|229:182,1,49.9999976158143,6|0,0:0|0:0,0:0:0:0:
258,241,37923,2,0,L|315:236,1,49.9999976158143,2|0,0:0|0:0,0:0:0:0:
359,290,38211,1,8,0:0:0:0:
426,257,38355,1,0,0:0:0:0:
455,187,38500,1,0,0:0:0:0:
449,112,38644,1,0,0:0:0:0:
398,56,38788,6,0,P|373:103|387:151,1,99.9999952316285,2|2,0:0|0:0,0:0:0:0:
483,258,39365,2,0,L|435:290,1,49.9999976158143,8|0,0:0|0:0,0:0:0:0:
375,249,39654,2,0,L|304:229,1,49.9999976158143,0|0,0:0|0:0,0:0:0:0:
272,285,39942,5,2,0:0:0:0:
145,205,40230,1,2,0:0:0:0:
277,133,40519,2,0,L|338:98,1,49.9999976158143,8|0,0:0|0:0,0:0:0:0:
387,140,40807,2,0,P|352:188|297:211,2,99.9999952316285,0|2|2,0:0|0:0|0:0,0:0:0:0:
260,58,41673,5,8,0:0:0:0:
260,58,41817,1,0,0:0:0:0:
260,58,41961,1,0,0:0:0:0:
260,58,42105,1,0,0:0:0:0:
260,58,42250,2,0,B|249:76|249:76|209:69|166:83,1,99.9999952316285,6|2,0:0|0:0,0:0:0:0:
90,208,42827,1,8,0:0:0:0:
234,167,43115,2,0,P|260:161|283:159,1,49.9999976158143,0|0,0:0|0:0,0:0:0:0:
346,200,43404,6,0,P|402:221|456:207,1,99.9999952316285,2|2,0:0|0:0,0:0:0:0:
344,99,43980,1,8,0:0:0:0:
268,95,44125,1,0,0:0:0:0:
200,127,44269,1,0,0:0:0:0:
163,192,44413,1,0,0:0:0:0:
170,266,44557,2,0,P|158:340|129:375,1,99.9999952316285,2|2,0:0|0:0,0:0:0:0:
47,244,45134,1,8,0:0:0:0:
68,95,45423,2,0,P|102:44|146:21,1,99.9999952316285,0|2,0:0|0:0,0:0:0:0:
270,88,46000,1,2,0:0:0:0:
270,88,46144,1,0,0:0:0:0:
270,88,46288,2,0,P|248:123|233:133,1,49.9999976158143,8|0,0:0|0:0,0:0:0:0:
171,156,46577,2,0,P|153:173|142:195,1,49.9999976158143,0|0,0:0|0:0,0:0:0:0:
149,270,46865,6,0,B|147:294|147:294|188:261|236:273,1,99.9999952316285,6|2,0:0|0:0,0:0:0:0:
363,323,47442,1,8,0:0:0:0:
409,180,47730,1,0,0:0:0:0:
409,180,47875,1,0,0:0:0:0:
409,180,48019,2,0,P|406:124|367:80,1,99.9999952316285,2|2,0:0|0:0,0:0:0:0:
273,195,48596,1,8,0:0:0:0:
211,237,48740,1,0,0:0:0:0:
137,252,48884,1,0,0:0:0:0:
63,233,49029,1,0,0:0:0:0:
20,172,49173,2,0,P|67:143|123:156,1,99.9999952316285,2|2,0:0|0:0,0:0:0:0:
232,233,49750,2,0,P|284:251|337:242,1,99.9999952316285,8|0,0:0|0:0,0:0:0:0:
329,95,50327,6,0,L|267:133,1,49.9999976158143,2|0,0:0|0:0,0:0:0:0:
236,176,50615,2,0,L|180:184,1,49.9999976158143,2|0,0:0|0:0,0:0:0:0:
148,248,50904,1,8,0:0:0:0:
148,248,51048,1,0,0:0:0:0:
148,248,51192,1,0,0:0:0:0:
148,248,51336,1,0,0:0:0:0:
148,248,51480,6,0,B|167:264|167:264|252:249,1,99.9999952316285,6|2,0:0|0:0,0:0:0:0:
389,230,52057,1,8,0:0:0:0:
269,321,52346,2,0,L|211:333,1,49.9999976158143,0|0,0:0|0:0,0:0:0:0:
150,358,52634,1,2,0:0:0:0:
77,337,52779,1,0,0:0:0:0:
33,275,52923,1,2,0:0:0:0:
31,200,53067,1,0,0:0:0:0:
64,133,53211,2,0,P|91:108|122:96,1,49.9999976158143,8|0,0:0|0:0,0:0:0:0:
177,111,53500,2,0,P|198:98|215:80,1,49.9999976158143,0|0,0:0|0:0,0:0:0:0:
283,110,53788,6,0,P|339:102|387:115,1,99.9999952316285,2|0,0:0|0:0,0:0:0:0:
331,176,54365,6,0,P|365:186|396:217,1,74.9999992847443,2|0,0:0|0:0,0:0:0:0:
331,252,54942,6,0,P|341:270|349:301,1,49.9999976158143,2|0,0:0|0:0,0:0:0:0:
274,304,55519,5,2,0:0:0:0:
274,304,55807,1,4,0:0:0:0:
274,304,56096,1,2,0:0:0:0:
