osu file format v14

[General]
AudioFilename: matryoshka.mp3
AudioLeadIn: 0
PreviewTime: 47593
Countdown: 0
SampleSet: None
StackLeniency: 0.7
Mode: 0
LetterboxInBreaks: 1
WidescreenStoryboard: 1

[Editor]
Bookmarks: 15261,24627,29310,38676,66773,76139,85505,103798,122968,132334,141700,150481,152529,162773,172139,181505
DistanceSpacing: 1
BeatDivisor: 4
GridSize: 8
TimelineZoom: 1

[Metadata]
Title:MATRYOSHKA (Box Cutter Ver.)
TitleUnicode:MATRYOSHKA (Box Cutter Ver.)
Artist:Hatsune Miku & Megpoid Gumi
ArtistUnicode:Hatsune Miku & Megpoid Gumi
Creator:DT-sama
Version:Schizophrenia
Source:Mapper's Creativity
Tags:just pretend I cut the mp3.
BeatmapID:1967659
BeatmapSetID:942335

[Difficulty]
HPDrainRate:8
CircleSize:4
OverallDifficulty:8
ApproachRate:9
SliderMultiplier:1.6
SliderTickRate:0.5

[Events]
//Background and Video events
0,0,"png.jpg",0,0
//Break Periods
//Storyboard Layer 0 (Background)
//Storyboard Layer 1 (Fail)
//Storyboard Layer 2 (Pass)
//Storyboard Layer 3 (Foreground)
//Storyboard Sound Samples

[TimingPoints]
4725,292.682926829268,4,1,0,80,1,0
186105,252.100840336134,4,1,0,80,1,0
190155,230.769230769231,4,1,0,80,1,0
193830,214.285714285714,4,1,0,80,1,0

[Colours]
Combo1 : 105,0,210
Combo2 : 0,198,0
Combo3 : 0,109,219
Combo4 : 210,0,0

[HitObjects]
93,77,4724,5,0,0:0:0:0:
419,77,5017,1,0,0:0:0:0:
419,307,5310,1,0,0:0:0:0:
93,307,5603,1,0,0:0:0:0:
256,39,5895,5,0,0:0:0:0:
351,55,6042,1,0,0:0:0:0:
401,127,6188,1,0,0:0:0:0:
483,156,6334,1,0,0:0:0:0:
483,156,6407,1,0,0:0:0:0:
483,156,6481,1,0,0:0:0:0:
422,218,6627,1,0,0:0:0:0:
339,206,6773,1,0,0:0:0:0:
285,133,6920,1,0,0:0:0:0:
61,52,7066,1,0,0:0:0:0:
61,52,7212,2,0,L|13:133,1,80
162,96,7505,1,0,0:0:0:0:
162,96,7651,2,0,L|213:23,1,80
229,30,7871,1,0,0:0:0:0:
255,28,7944,1,0,0:0:0:0:
455,69,8090,1,0,0:0:0:0:
407,318,8237,1,0,0:0:0:0:
296,315,8383,1,0,0:0:0:0:
305,193,8529,1,0,0:0:0:0:
423,206,8676,1,0,0:0:0:0:
423,206,8749,1,0,0:0:0:0:
423,206,8822,1,0,0:0:0:0:
360,304,8968,1,0,0:0:0:0:
239,289,9114,1,0,0:0:0:0:
191,185,9261,1,0,0:0:0:0:
16,277,9407,1,0,0:0:0:0:
194,274,9554,1,0,0:0:0:0:
63,88,9700,1,0,0:0:0:0:
27,347,9846,1,0,0:0:0:0:
302,265,9993,1,0,0:0:0:0:
246,7,10139,1,0,0:0:0:0:
243,12,10212,1,0,0:0:0:0:
246,7,10285,1,0,0:0:0:0:
34,98,10431,1,0,0:0:0:0:
172,218,10578,6,0,L|267:198,1,80
491,65,10871,2,0,L|413:77,1,40
394,202,11017,2,0,L|396:303,1,80
484,137,11310,1,0,0:0:0:0:
338,105,11456,1,0,0:0:0:0:
196,156,11603,1,0,0:0:0:0:
51,126,11749,2,0,L|6:31,1,80
68,332,12042,2,0,L|125:243,1,80
305,345,12334,1,0,0:0:0:0:
236,232,12481,1,0,0:0:0:0:
291,119,12627,2,0,L|221:46,1,80
45,165,12920,1,0,0:0:0:0:
192,287,13066,1,0,0:0:0:0:
262,182,13212,1,0,0:0:0:0:
152,140,13359,1,0,0:0:0:0:
110,278,13505,1,0,0:0:0:0:
268,342,13651,1,0,0:0:0:0:
329,123,13798,1,0,0:0:0:0:
326,113,13871,1,0,0:0:0:0:
329,123,13944,1,0,0:0:0:0:
458,302,14090,1,0,0:0:0:0:
131,62,14237,1,0,0:0:0:0:
356,338,14383,1,0,0:0:0:0:
231,37,14529,1,0,0:0:0:0:
241,355,14676,1,0,0:0:0:0:
371,60,14822,1,0,0:0:0:0:
131,310,14968,1,0,0:0:0:0:
93,265,15042,1,0,0:0:0:0:
59,222,15115,1,0,0:0:0:0:
445,178,15261,5,0,0:0:0:0:
406,257,15407,1,0,0:0:0:0:
291,247,15554,1,0,0:0:0:0:
266,217,15627,1,0,0:0:0:0:
245,186,15700,1,0,0:0:0:0:
241,84,15846,1,0,0:0:0:0:
342,64,15993,1,0,0:0:0:0:
384,167,16139,1,0,0:0:0:0:
222,285,16285,1,0,0:0:0:0:
217,290,16359,1,0,0:0:0:0:
222,285,16432,5,0,0:0:0:0:
96,138,16578,1,0,0:0:0:0:
96,138,16651,1,0,0:0:0:0:
96,138,16724,1,0,0:0:0:0:
412,138,16871,1,0,0:0:0:0:
360,143,16944,1,0,0:0:0:0:
301,93,17017,1,0,0:0:0:0:
230,85,17090,1,0,0:0:0:0:
187,128,17164,1,0,0:0:0:0:
208,212,17237,1,0,0:0:0:0:
297,223,17310,1,0,0:0:0:0:
369,95,17456,1,0,0:0:0:0:
493,47,17603,5,0,0:0:0:0:
331,55,17749,1,0,0:0:0:0:
488,150,17895,1,0,0:0:0:0:
246,150,18042,1,0,0:0:0:0:
424,233,18188,1,0,0:0:0:0:
281,248,18334,1,0,0:0:0:0:
273,289,18407,1,0,0:0:0:0:
264,330,18481,1,0,0:0:0:0:
453,326,18627,1,0,0:0:0:0:
205,237,18773,5,0,0:0:0:0:
412,257,18920,1,0,0:0:0:0:
190,234,19066,5,0,0:0:0:0:
423,260,19212,1,0,0:0:0:0:
173,232,19359,5,0,0:0:0:0:
436,261,19505,1,0,0:0:0:0:
401,259,19578,1,0,0:0:0:0:
371,255,19651,1,0,0:0:0:0:
153,230,19798,1,0,0:0:0:0:
347,253,19944,5,0,0:0:0:0:
259,105,20090,1,0,0:0:0:0:
313,285,20237,5,0,0:0:0:0:
352,88,20383,1,0,0:0:0:0:
293,316,20529,5,0,0:0:0:0:
438,127,20676,1,0,0:0:0:0:
271,352,20822,5,0,0:0:0:0:
470,225,20968,1,0,0:0:0:0:
74,207,21115,5,0,0:0:0:0:
264,17,21261,1,0,0:0:0:0:
470,169,21407,1,0,0:0:0:0:
330,357,21554,1,0,0:0:0:0:
155,142,21700,2,0,L|232:178,1,80
429,98,21993,2,0,L|395:203,1,80
176,271,22285,2,0,L|316:311,1,120
326,308,22578,1,0,0:0:0:0:
326,63,22724,1,0,0:0:0:0:
155,127,22871,1,0,0:0:0:0:
381,173,23017,1,0,0:0:0:0:
166,278,23164,1,0,0:0:0:0:
335,328,23310,1,0,0:0:0:0:
483,134,23456,2,0,L|406:72,1,80
77,47,23749,2,0,L|2:118,1,80
44,290,24042,1,0,0:0:0:0:
94,313,24115,1,0,0:0:0:0:
133,327,24188,1,0,0:0:0:0:
174,333,24261,1,0,0:0:0:0:
228,358,24334,1,0,0:0:0:0:
392,337,24481,2,0,L|416:300,1,40
330,68,24627,6,0,L|239:102,1,80
112,212,24920,2,0,L|200:229,1,80
466,152,25212,1,0,0:0:0:0:
349,189,25359,1,0,0:0:0:0:
505,273,25505,1,0,0:0:0:0:
322,91,25651,2,0,L|221:87,1,80
110,202,25944,1,0,0:0:0:0:
171,140,26090,1,0,0:0:0:0:
171,140,26164,1,0,0:0:0:0:
169,133,26310,1,0,0:0:0:0:
218,217,26456,1,0,0:0:0:0:
269,216,26529,1,0,0:0:0:0:
308,203,26603,1,0,0:0:0:0:
336,182,26676,1,0,0:0:0:0:
258,127,26822,1,0,0:0:0:0:
193,348,26968,2,0,L|275:303,1,80
448,286,27261,2,0,L|383:206,1,80
329,63,27554,2,0,L|254:131,1,80
116,230,27846,2,0,L|190:257,2,40
352,252,28139,1,0,0:0:0:0:
161,80,28285,1,0,0:0:0:0:
144,282,28432,1,0,0:0:0:0:
463,72,28578,1,0,0:0:0:0:
449,282,28724,1,0,0:0:0:0:
274,24,28871,1,0,0:0:0:0:
285,31,28944,1,0,0:0:0:0:
274,44,29017,1,0,0:0:0:0:
344,88,29090,1,0,0:0:0:0:
374,153,29164,1,0,0:0:0:0:
277,283,29310,5,0,0:0:0:0:
72,197,29456,1,0,0:0:0:0:
181,343,29603,1,0,0:0:0:0:
447,192,29749,1,0,0:0:0:0:
381,352,29895,1,0,0:0:0:0:
148,39,30042,1,0,0:0:0:0:
276,166,30130,1,0,0:0:0:0:
289,151,30130,1,0,0:0:0:0:
82,290,30188,1,0,0:0:0:0:
348,40,30334,1,0,0:0:0:0:
410,266,30481,5,0,0:0:0:0:
261,263,30627,1,0,0:0:0:0:
365,307,30773,5,0,0:0:0:0:
264,167,30920,1,0,0:0:0:0:
304,325,31067,5,0,0:0:0:0:
343,116,31212,1,0,0:0:0:0:
241,326,31359,5,0,0:0:0:0:
442,142,31505,1,0,0:0:0:0:
465,312,31651,2,0,L|358:305,1,80
145,193,31944,2,0,L|279:208,1,120
304,197,32237,1,0,0:0:0:0:
232,52,32383,1,0,0:0:0:0:
103,97,32456,1,0,0:0:0:0:
98,263,32529,1,0,0:0:0:0:
284,330,32676,1,0,0:0:0:0:
455,166,32749,1,0,0:0:0:0:
344,27,32822,1,0,0:0:0:0:
168,193,32968,1,0,0:0:0:0:
351,332,33115,1,0,0:0:0:0:
509,103,33261,1,0,0:0:0:0:
88,43,33407,1,0,0:0:0:0:
101,310,33554,1,0,0:0:0:0:
141,344,33627,1,0,0:0:0:0:
212,349,33700,1,0,0:0:0:0:
304,277,33846,1,0,0:0:0:0:
295,136,33993,1,0,0:0:0:0:
110,195,34139,1,0,0:0:0:0:
333,212,34285,1,0,0:0:0:0:
70,272,34432,1,0,0:0:0:0:
289,293,34578,1,0,0:0:0:0:
144,321,34724,1,0,0:0:0:0:
256,325,34871,1,0,0:0:0:0:
112,361,35017,1,0,0:0:0:0:
299,218,35164,1,0,0:0:0:0:
31,238,35310,1,0,0:0:0:0:
353,165,35456,1,0,0:0:0:0:
45,37,35603,1,0,0:0:0:0:
276,101,35749,1,0,0:0:0:0:
169,45,35895,1,0,0:0:0:0:
294,94,36042,1,0,0:0:0:0:
156,83,36188,1,0,0:0:0:0:
70,238,36334,5,0,0:0:0:0:
208,244,36481,1,0,0:0:0:0:
210,117,36627,1,0,0:0:0:0:
49,99,36773,1,0,0:0:0:0:
76,287,36920,5,0,0:0:0:0:
244,245,37066,1,0,0:0:0:0:
176,133,37212,1,0,0:0:0:0:
28,190,37359,1,0,0:0:0:0:
155,353,37505,5,0,0:0:0:0:
298,147,37651,1,0,0:0:0:0:
142,53,37798,1,0,0:0:0:0:
46,177,37944,1,0,0:0:0:0:
227,277,38090,5,0,0:0:0:0:
346,96,38164,1,0,0:0:0:0:
184,43,38310,1,0,0:0:0:0:
91,202,38383,1,0,0:0:0:0:
95,207,38676,2,0,L|211:283,2,120
91,202,39407,1,0,0:0:0:0:
201,259,39554,1,0,0:0:0:0:
333,228,39700,1,0,0:0:0:0:
392,217,39846,2,0,L|265:193,1,120
274,194,40285,1,0,0:0:0:0:
280,197,40578,1,0,0:0:0:0:
280,197,40724,1,0,0:0:0:0:
280,197,40871,1,0,0:0:0:0:
82,119,41017,2,0,L|215:220,1,160
145,179,41456,1,0,0:0:0:0:
76,140,41603,2,0,L|209:241,1,160
115,222,42042,1,0,0:0:0:0:
29,185,42188,5,0,0:0:0:0:
103,285,42334,1,0,0:0:0:0:
286,308,42481,1,0,0:0:0:0:
461,77,42627,1,0,0:0:0:0:
155,24,42773,5,0,0:0:0:0:
50,211,42920,1,0,0:0:0:0:
273,322,43066,1,0,0:0:0:0:
426,67,43212,1,0,0:0:0:0:
348,22,43359,2,0,L|455:161,1,160
356,45,43798,1,0,0:0:0:0:
278,0,43945,2,0,L|385:139,1,160
269,57,44383,1,0,0:0:0:0:
191,16,44529,5,0,0:0:0:0:
221,107,44676,1,0,0:0:0:0:
157,152,44822,1,0,0:0:0:0:
255,228,44895,1,0,0:0:0:0:
128,289,44968,1,0,0:0:0:0:
301,357,45115,1,0,0:0:0:0:
74,273,45261,1,0,0:0:0:0:
279,208,45407,1,0,0:0:0:0:
150,125,45554,1,0,0:0:0:0:
243,33,45700,2,0,L|379:38,2,120
357,52,46285,2,0,L|238:57,2,120
232,70,46871,5,0,0:0:0:0:
245,66,47164,5,0,0:0:0:0:
222,47,47456,5,0,0:0:0:0:
214,73,47603,5,0,0:0:0:0:
344,146,47749,1,0,0:0:0:0:
259,187,47895,1,0,0:0:0:0:
469,306,48042,1,0,0:0:0:0:
131,282,48188,1,0,0:0:0:0:
240,249,48334,1,0,0:0:0:0:
504,212,48481,1,0,0:0:0:0:
411,156,48627,1,0,0:0:0:0:
41,132,48773,1,0,0:0:0:0:
398,53,48920,1,0,0:0:0:0:
58,307,49066,1,0,0:0:0:0:
187,43,49212,1,0,0:0:0:0:
274,114,49359,1,0,0:0:0:0:
121,158,49505,1,0,0:0:0:0:
316,322,49651,1,0,0:0:0:0:
465,139,49798,1,0,0:0:0:0:
226,10,49944,1,0,0:0:0:0:
53,203,50090,1,0,0:0:0:0:
257,359,50237,1,0,0:0:0:0:
446,220,50383,1,0,0:0:0:0:
478,211,50456,1,0,0:0:0:0:
420,237,50529,1,0,0:0:0:0:
102,117,50676,1,0,0:0:0:0:
66,164,50822,1,0,0:0:0:0:
34,173,50895,1,0,0:0:0:0:
92,147,50968,1,0,0:0:0:0:
410,267,51115,1,0,0:0:0:0:
296,32,51261,1,0,0:0:0:0:
25,81,51407,1,0,0:0:0:0:
171,363,51554,1,0,0:0:0:0:
495,278,51700,1,0,0:0:0:0:
213,161,51846,1,0,0:0:0:0:
13,310,51993,1,0,0:0:0:0:
313,129,52139,1,0,0:0:0:0:
466,347,52285,1,0,0:0:0:0:
211,79,52432,1,0,0:0:0:0:
6,214,52578,1,0,0:0:0:0:
338,44,52724,1,0,0:0:0:0:
401,131,52871,1,0,0:0:0:0:
288,125,53017,1,0,0:0:0:0:
440,276,53164,1,0,0:0:0:0:
500,340,53310,1,0,0:0:0:0:
354,311,53456,1,0,0:0:0:0:
234,211,53603,1,0,0:0:0:0:
254,340,53749,1,0,0:0:0:0:
179,138,53895,1,0,0:0:0:0:
401,158,54042,1,0,0:0:0:0:
239,254,54188,1,0,0:0:0:0:
462,273,54261,1,0,0:0:0:0:
346,264,54334,1,0,0:0:0:0:
258,147,54481,1,0,0:0:0:0:
143,76,54554,1,0,0:0:0:0:
63,163,54627,1,0,0:0:0:0:
341,84,54700,1,0,0:0:0:0:
141,251,54846,1,0,0:0:0:0:
178,288,54920,1,0,0:0:0:0:
366,217,55066,1,0,0:0:0:0:
275,215,55212,1,0,0:0:0:0:
330,283,55359,1,0,0:0:0:0:
357,205,55432,1,0,0:0:0:0:
302,133,55505,1,0,0:0:0:0:
170,152,55578,1,0,0:0:0:0:
210,136,55724,1,0,0:0:0:0:
339,98,55871,1,0,0:0:0:0:
224,66,55944,1,0,0:0:0:0:
88,130,56090,1,0,0:0:0:0:
476,252,56164,1,0,0:0:0:0:
289,66,56310,1,0,0:0:0:0:
151,168,56383,1,0,0:0:0:0:
467,142,56529,1,0,0:0:0:0:
244,251,56603,1,0,0:0:0:0:
390,92,56676,1,0,0:0:0:0:
373,97,56749,1,0,0:0:0:0:
301,174,56822,1,0,0:0:0:0:
384,204,56895,1,0,0:0:0:0:
460,157,56968,1,0,0:0:0:0:
474,78,57042,1,0,0:0:0:0:
421,23,57115,1,0,0:0:0:0:
341,21,57188,1,0,0:0:0:0:
290,86,57261,1,0,0:0:0:0:
450,263,57407,5,0,0:0:0:0:
237,309,57554,1,0,0:0:0:0:
315,214,57700,1,0,0:0:0:0:
360,271,57846,1,0,0:0:0:0:
154,236,57920,1,0,0:0:0:0:
248,190,57993,1,0,0:0:0:0:
276,291,58066,1,0,0:0:0:0:
143,137,58212,1,0,0:0:0:0:
233,140,58285,1,0,0:0:0:0:
157,298,58432,1,0,0:0:0:0:
27,226,58578,1,0,0:0:0:0:
51,89,58724,1,0,0:0:0:0:
195,42,58871,1,0,0:0:0:0:
302,103,59017,1,0,0:0:0:0:
321,217,59164,1,0,0:0:0:0:
262,339,59237,1,0,0:0:0:0:
125,319,59310,1,0,0:0:0:0:
53,217,59456,1,0,0:0:0:0:
385,122,59603,1,0,0:0:0:0:
165,247,59749,1,0,0:0:0:0:
330,186,59895,1,0,0:0:0:0:
110,128,60042,1,0,0:0:0:0:
371,323,60188,1,0,0:0:0:0:
340,34,60334,1,0,0:0:0:0:
172,336,60481,1,0,0:0:0:0:
239,92,60627,1,0,0:0:0:0:
166,252,60773,1,0,0:0:0:0:
362,137,60920,1,0,0:0:0:0:
40,184,61066,1,0,0:0:0:0:
194,325,61212,1,0,0:0:0:0:
506,242,61359,1,0,0:0:0:0:
268,162,61505,1,0,0:0:0:0:
149,190,61651,1,0,0:0:0:0:
311,217,61798,1,0,0:0:0:0:
128,101,61944,1,0,0:0:0:0:
289,66,62090,6,0,L|221:126,1,80
385,79,62383,5,0,0:0:0:0:
378,180,62529,1,0,0:0:0:0:
159,144,62676,6,0,L|91:204,1,80
255,157,62969,5,0,0:0:0:0:
248,258,63115,1,0,0:0:0:0:
66,310,63261,5,0,0:0:0:0:
239,343,63407,1,0,0:0:0:0:
280,177,63554,1,0,0:0:0:0:
106,137,63700,1,0,0:0:0:0:
143,364,63846,5,0,0:0:0:0:
310,276,63993,1,0,0:0:0:0:
204,98,64139,1,0,0:0:0:0:
39,218,64285,1,0,0:0:0:0:
443,294,64432,1,0,0:0:0:0:
322,224,64578,1,0,0:0:0:0:
341,355,64724,1,0,0:0:0:0:
443,149,64798,1,0,0:0:0:0:
277,141,64944,1,0,0:0:0:0:
295,218,65017,1,0,0:0:0:0:
389,73,65164,1,0,0:0:0:0:
121,43,65310,1,0,0:0:0:0:
158,113,65456,1,0,0:0:0:0:
336,78,65603,1,0,0:0:0:0:
38,190,65749,1,0,0:0:0:0:
294,141,65895,1,0,0:0:0:0:
99,305,66042,1,0,0:0:0:0:
319,195,66188,1,0,0:0:0:0:
290,353,66334,1,0,0:0:0:0:
363,224,66481,1,0,0:0:0:0:
426,320,66627,1,0,0:0:0:0:
485,232,66700,1,0,0:0:0:0:
437,130,66773,1,0,0:0:0:0:
