osu file format v14

[General]
AudioFilename: audio.mp3
AudioLeadIn: 0
PreviewTime: 178401
Countdown: 0
SampleSet: Normal
StackLeniency: 0.7
Mode: 0
LetterboxInBreaks: 0
WidescreenStoryboard: 1

[Editor]
DistanceSpacing: 0.8
BeatDivisor: 2
GridSize: 32
TimelineZoom: 1.1

[Metadata]
Title:Eraser Girl
TitleUnicode:Eraser Girl
Artist:Hatsune Miku & GUMI
ArtistUnicode:Hatsune Miku & GUMI
Creator:Henry10nic
Version:Easy
Source:Vocaloid
Tags:Shoujo Keshigomu maretu
BeatmapID:1735634
BeatmapSetID:828378

[Difficulty]
HPDrainRate:2.7
CircleSize:3.1
OverallDifficulty:3
ApproachRate:3.2
SliderMultiplier:0.999999904632568
SliderTickRate:1

[Events]
//Background and Video events
0,0,"Captura de pantalla (15).png",0,0
Video,-840,"Hatsune Miku & GUMI - Eraser Girl.mp4"
//Break Periods
2,8848,17307
2,94987,102851
2,152610,154535
2,156769,158099
//Storyboard Layer 0 (Background)
//Storyboard Layer 1 (Fail)
//Storyboard Layer 2 (Pass)
//Storyboard Layer 3 (Foreground)
//Storyboard Sound Samples

[TimingPoints]
4490,594.059405940594,4,1,0,100,1,0
75183,-100,4,1,0,100,0,1
94787,-100,4,1,0,100,0,0
132806,-100,4,1,0,100,0,1
152410,-100,4,1,0,100,0,0
188054,-100,4,1,0,100,0,1

[Colours]
Combo1 : 96,96,96
Combo2 : 255,255,255

[HitObjects]
106,263,4490,6,0,B|124:282|152:295|176:295|194:286|213:270,1,99.9999904632568
234,226,5678,2,0,B|284:220|336:236,1,99.9999904632568
393,221,6866,2,0,B|382:150|323:126|300:126,1,99.9999904632568
245,90,8054,1,0,0:0:0:0:
177,184,8648,1,0,0:0:0:0:
83,128,18747,6,0,B|82:197|117:282|181:270,1,149.999985694885
190,253,19935,2,0,L|251:170,1,99.9999904632568
366,146,21420,5,0,0:0:0:0:
374,231,22014,1,0,0:0:0:0:
333,191,22311,2,0,P|303:182|285:169,3,49.9999952316284
174,98,23796,5,0,0:0:0:0:
185,141,24390,2,0,B|237:171|254:149|273:108|312:162|311:197,1,149.999985694885
230,197,25876,2,0,B|257:137|272:106|284:82|312:111|332:145|355:175|368:191,2,199.999980926514
110,90,28549,6,0,L|108:168,1,49.9999952316284
167,194,29143,2,0,L|166:260,1,49.9999952316284
92,214,29737,2,0,B|93:244|83:293|141:289,1,99.9999904632568
291,105,30925,5,0,0:0:0:0:
248,173,31222,1,0,0:0:0:0:
327,184,31519,2,0,B|363:137|355:81|307:44|230:49,1,199.999980926514
123,91,33301,6,0,B|155:102|193:115|161:142|118:175|215:198,2,149.999985694885
152,93,35678,2,0,B|215:60|257:56|286:50|330:53|379:77|344:223|253:168,1,299.99997138977
167,215,37757,6,0,L|205:111,1,99.9999904632568
277,122,38945,2,0,P|330:162|345:208,1,99.9999904632568
216,74,40133,2,0,P|172:109|104:83,1,99.9999904632568
221,219,41321,1,0,0:0:0:0:
298,165,41915,1,0,0:0:0:0:
359,151,42509,6,0,P|408:190|403:241,3,99.9999904632568
250,233,44886,1,0,0:0:0:0:
246,153,45480,1,0,0:0:0:0:
278,104,46074,2,0,L|175:104,1,99.9999904632568
142,176,47262,6,0,B|132:202|128:212|119:233|115:242|140:243|166:243|184:242,4,99.9999904632568
200,121,50232,1,0,0:0:0:0:
319,128,50826,1,0,0:0:0:0:
372,235,51420,1,0,0:0:0:0:
298,267,52014,6,0,L|228:266,1,49.9999952316284
230,230,52608,2,0,L|209:180,1,49.9999952316284
206,144,53202,2,0,L|255:108,1,49.9999952316284
281,94,53796,2,0,L|317:129,1,49.9999952316284
430,257,54688,5,0,0:0:0:0:
318,260,55282,1,0,0:0:0:0:
199,184,55876,2,0,L|212:135,2,49.9999952316284
157,214,57064,5,0,0:0:0:0:
250,136,57658,1,0,0:0:0:0:
340,200,58252,1,0,0:0:0:0:
361,68,58846,1,0,0:0:0:0:
381,162,59440,6,0,B|402:214|370:271|331:267|303:205|248:225|241:153|165:218,1,299.99997138977
71,230,61816,1,0,0:0:0:0:
84,116,62410,1,0,0:0:0:0:
198,192,63004,2,0,L|221:144,2,49.9999952316284
245,89,63895,5,0,0:0:0:0:
340,162,64490,1,0,0:0:0:0:
328,281,65084,1,0,0:0:0:0:
248,278,65381,1,0,0:0:0:0:
286,205,65678,1,0,0:0:0:0:
362,203,67163,5,0,0:0:0:0:
316,152,67460,2,0,P|294:136|270:136,1,49.9999952316284
216,110,68054,1,0,0:0:0:0:
157,158,69539,6,0,L|145:213,3,49.9999952316284
332,133,71024,1,0,0:0:0:0:
299,206,71618,1,0,0:0:0:0:
167,106,72212,5,0,0:0:0:0:
196,194,72806,1,0,0:0:0:0:
256,192,73103,12,0,74589,0:0:0:0:
227,111,75183,6,0,L|285:111,1,49.9999952316284
113,103,76074,6,0,L|144:156,1,49.9999952316284
204,185,76668,2,0,L|239:247,1,49.9999952316284
236,91,77262,2,0,L|267:148,1,49.9999952316284
327,151,77856,1,0,0:0:0:0:
342,240,78450,6,0,L|286:240,1,49.9999952316284
279,164,79044,2,0,L|224:165,1,49.9999952316284
206,91,79638,2,0,L|146:91,1,49.9999952316284
126,131,80232,1,0,0:0:0:0:
266,223,80826,5,0,0:0:0:0:
208,171,81123,2,0,P|195:200|194:238,1,49.9999952316284
125,233,81717,2,0,B|90:211|84:175,3,49.9999952316284
165,124,82905,1,0,0:0:0:0:
241,101,83499,1,0,0:0:0:0:
317,123,84093,1,0,0:0:0:0:
380,170,84688,1,0,0:0:0:0:
333,187,84985,1,0,0:0:0:0:
296,224,85579,6,0,B|324:248|342:260|354:255,1,49.9999952316284
356,186,86173,1,0,0:0:0:0:
285,83,86767,1,0,0:0:0:0:
173,99,87361,1,0,0:0:0:0:
219,131,87955,6,0,B|183:182|194:232|227:263|237:270,1,149.999985694885
288,265,89143,2,0,B|296:206|288:177|283:164|274:138|255:124,1,149.999985694885
188,94,90331,5,0,0:0:0:0:
267,98,90925,1,0,0:0:0:0:
336,137,91519,1,0,0:0:0:0:
327,176,91816,2,0,L|294:229,1,49.9999952316284
256,192,92410,12,0,94787,0:0:0:0:
135,95,104291,6,0,P|159:107|179:129,3,49.9999952316284
144,192,105480,2,0,P|100:236|126:316,1,149.999985694885
230,303,106668,5,0,0:0:0:0:
363,279,107262,1,0,0:0:0:0:
419,233,107559,2,0,P|438:209|429:181,1,49.9999952316284
428,125,108153,2,0,P|420:98|388:84,1,49.9999952316284
334,59,108747,1,0,0:0:0:0:
343,137,109341,6,0,B|315:144|289:157|268:176|261:193|283:207|300:198|295:176|281:167|251:158|226:151|188:148,1,199.999980926514
129,106,110826,1,0,0:0:0:0:
160,174,111123,1,0,0:0:0:0:
233,154,111717,6,0,P|268:153|286:173,4,49.9999952316284
321,208,113202,1,0,0:0:0:0:
353,223,113499,1,0,0:0:0:0:
418,266,114390,6,0,B|356:314|290:310|255:307|225:274,1,199.999980926514
185,218,115876,2,0,B|207:202|206:191|192:187|170:185|153:175|153:161|165:148|192:141|212:129,1,99.9999904632568
267,63,117064,5,0,0:0:0:0:
396,95,117658,1,0,0:0:0:0:
413,167,117955,2,0,P|404:189|382:204,2,49.9999952316284
309,196,118846,1,0,0:0:0:0:
256,122,119440,5,0,0:0:0:0:
187,119,119737,1,0,0:0:0:0:
226,157,120034,2,0,B|194:162|179:182|171:220|181:251|216:272|251:269|279:260|292:237,1,199.999980926514
346,207,121519,1,0,0:0:0:0:
381,164,121816,2,0,P|404:142|411:121,1,49.9999952316284
367,97,122410,1,0,0:0:0:0:
306,121,122707,2,0,P|287:110|257:112,1,49.9999952316284
209,129,123301,1,0,0:0:0:0:
81,57,123895,6,0,L|79:114,2,49.9999952316284
55,171,124787,1,0,0:0:0:0:
131,169,125084,1,0,0:0:0:0:
95,229,125381,2,0,L|95:280,2,49.9999952316284
148,165,126272,6,0,L|198:165,2,49.9999952316284
242,213,127163,1,0,0:0:0:0:
243,143,127460,1,0,0:0:0:0:
303,177,127757,2,0,L|355:177,2,49.9999952316284
412,251,128648,5,0,0:0:0:0:
424,168,128945,1,0,0:0:0:0:
406,90,129242,1,0,0:0:0:0:
361,142,129539,2,0,B|348:174|325:188|285:182|259:168|235:153|209:166,1,149.999985694885
256,192,130727,12,0,132212,0:0:0:0:
357,182,132806,6,0,P|334:197|306:204,1,49.9999952316284
280,227,133698,5,0,0:0:0:0:
224,220,134292,1,0,0:0:0:0:
113,175,134886,6,0,L|105:225,2,49.9999952316284
155,255,136074,6,0,P|176:227|194:222,1,49.9999952316284
228,218,136668,2,0,P|256:193|267:169,1,49.9999952316284
261,142,137262,2,0,P|272:102|297:92,1,49.9999952316284
319,74,137856,1,0,0:0:0:0:
430,117,138450,5,0,0:0:0:0:
435,198,139044,2,0,P|426:225|404:240,1,49.9999952316284
335,219,139638,2,0,B|293:170|229:184|216:128,1,149.999985694885
177,87,140826,1,0,0:0:0:0:
105,78,141123,2,0,L|72:123,3,49.9999952316284
65,189,142311,1,0,0:0:0:0:
50,288,142608,1,0,0:0:0:0:
164,289,143202,6,0,P|198:276|211:251,1,49.9999952316284
197,196,143796,2,0,P|206:168|231:154,1,49.9999952316284
288,150,144390,2,0,P|322:143|336:112,1,49.9999952316284
333,55,144985,1,0,0:0:0:0:
213,67,145579,5,0,0:0:0:0:
144,82,146173,1,0,0:0:0:0:
69,83,146470,2,0,L|62:143,1,49.9999952316284
74,207,147064,1,0,0:0:0:0:
71,266,147955,5,0,0:0:0:0:
103,288,148252,2,0,B|137:300|174:311|195:307|219:293,1,99.9999904632568
263,292,149143,1,0,0:0:0:0:
207,276,149440,2,0,P|166:269|141:255,1,49.9999952316284
83,214,150034,2,0,B|96:161|135:122|169:140|216:142|241:115|256:69|260:46|324:30|365:35|418:78,1,399.999961853027
150,181,155975,5,0,0:0:0:0:
195,184,156569,1,0,0:0:0:0:
122,157,159539,6,0,L|121:213,3,49.9999952316284
185,239,160727,1,0,0:0:0:0:
230,290,161024,1,0,0:0:0:0:
296,284,161321,2,0,P|326:280|340:251,2,49.9999952316284
285,196,162212,6,0,B|271:167|261:145|252:125|240:171|232:212|211:177|201:155|189:138|184:125,1,149.999985694885
136,83,163400,1,0,0:0:0:0:
70,81,163697,1,0,0:0:0:0:
104,144,163994,1,0,0:0:0:0:
170,188,164589,2,0,B|232:218|251:273|252:303|216:334|176:309|174:282|184:256|218:230|293:208,1,299.99997138977
359,209,166965,6,0,L|359:158,2,49.9999952316284
360,85,168153,2,0,P|386:77|415:85,1,49.9999952316284
435,158,168747,1,0,0:0:0:0:
378,105,169341,6,0,B|350:77|335:77|324:78|308:87|293:112|269:119|247:114|229:102|210:80|194:73,1,199.999980926514
135,59,170826,1,0,0:0:0:0:
89,100,171123,1,0,0:0:0:0:
162,122,171717,6,0,B|205:152|208:177|194:193|167:215,1,99.9999904632568
110,220,172905,2,0,B|78:244|68:260|78:282|104:294|130:300,1,99.9999904632568
149,291,174093,1,0,0:0:0:0:
227,282,174687,1,0,0:0:0:0:
305,269,175282,1,0,0:0:0:0:
382,248,175579,2,0,L|370:195,1,49.9999952316284
354,125,176470,6,0,B|388:84|423:74|463:88,1,99.9999904632568
354,125,177658,6,0,B|316:94|282:90|248:119,1,99.9999904632568
134,81,178549,6,0,P|95:191|192:347,1,299.99997138977
379,327,180925,2,0,B|427:224|434:139|360:45,1,299.99997138977
309,107,183301,2,0,B|297:142|272:161|216:167|172:134,2,149.999985694885
256,192,185678,12,0,187757,0:0:0:0:
127,182,188351,6,0,L|174:140,1,49.9999952316284
201,163,188945,2,0,L|246:115,1,49.9999952316284
275,128,189539,2,0,L|217:184,1,49.9999952316284
215,194,190133,1,0,0:0:0:0:
170,261,190727,6,0,P|193:279|226:272,1,49.9999952316284
253,221,191321,2,0,P|274:195|298:194,1,49.9999952316284
350,182,191915,2,0,P|376:192|395:172,1,49.9999952316284
427,144,192509,1,0,0:0:0:0:
405,110,193103,6,0,P|394:82|371:61,3,49.9999952316284
346,46,194292,1,0,0:0:0:0:
306,43,194589,2,0,P|276:30|254:38,1,49.9999952316284
226,42,195145,1,0,0:0:0:0:
111,46,195777,1,0,0:0:0:0:
31,55,196371,1,0,0:0:0:0:
34,94,196965,2,0,B|10:115|10:115|14:145,1,49.9999952316284
144,106,197856,5,0,0:0:0:0:
201,161,198450,5,0,0:0:0:0:
253,206,199044,5,0,0:0:0:0:
319,211,199638,5,0,0:0:0:0:
358,219,200232,6,0,B|371:273|426:275|447:244|463:220|451:187|421:168|420:146|454:131,1,199.999980926514
446,106,201717,1,0,0:0:0:0:
424,72,202014,1,0,0:0:0:0:
358,110,202608,6,0,P|336:98|301:106,3,49.9999952316284
271,101,203796,1,0,0:0:0:0:
192,111,204390,1,0,0:0:0:0:
103,118,204985,6,0,B|145:158|161:202|138:269|95:259|107:227|124:212|157:233|177:265|224:288,1,249.999976158142
267,312,206767,1,0,0:0:0:0:
334,308,207361,6,0,B|359:255|395:226|466:228|470:272|436:270|416:258|426:221|450:192|458:140,1,249.999976158142,0|0,0:3|0:3,0:3:0:0:
452,85,209143,1,0,0:0:0:0:
374,64,209737,5,0,0:0:0:0:
334,58,210034,2,0,P|306:51|279:58,1,49.9999952316284
255,80,210628,2,0,P|224:90|202:80,3,49.9999952316284
159,77,211816,1,0,0:0:0:0:
89,116,212410,1,0,0:0:0:0:
118,190,213004,1,0,0:0:0:0:
48,228,213598,2,0,P|37:271|54:283,1,49.9999952316284
135,262,214489,6,0,B|184:241|219:253|243:267|287:316|254:330|215:315|231:279|259:257|294:247|327:241|342:242,1,249.999976158142
374,238,216272,1,0,0:0:0:0:
419,201,216866,6,0,L|401:150,3,49.9999952316284
372,127,218054,1,0,0:0:0:0:
307,79,218648,1,0,0:0:0:0:
233,81,219242,6,0,B|199:30|199:30|178:95|178:95|132:59|132:59|123:129,1,249.999976158142
106,156,221024,1,0,0:0:0:0:
50,213,221618,6,0,L|85:257,3,49.9999952316284
104,284,222806,1,0,0:0:0:0:
167,331,223400,1,0,0:0:0:0:
256,283,223994,6,0,B|199:223|181:204|169:187|159:160|163:124|169:102|182:81|217:68|238:75|259:102,1,299.99997138977
