osu file format v14

[General]
AudioFilename: audio.mp3
AudioLeadIn: 0
PreviewTime: 43029
Countdown: 0
SampleSet: Soft
StackLeniency: 0.3
Mode: 0
LetterboxInBreaks: 0
WidescreenStoryboard: 1

[Editor]
DistanceSpacing: 1.1
BeatDivisor: 4
GridSize: 32
TimelineZoom: 1

[Metadata]
Title:Smiley Contrast
TitleUnicode:Smiley Contrast
Artist:Hatsune (CV: Ohashi Ayaka), Shiori (CV: Koshimizu Ami)
ArtistUnicode:ハツネ (CV: 大橋彩香)、シオリ (CV: 小清水亜美)
Creator:Riana
Version:Normal
Source:プリンセスコネクト!Re:Dive
Tags:プリコネR princess connect redive 全ストーリーイベント エンディングテーマ priconne character song 04 ハツネのプレゼント大作戦! present daisakusen japanese video game cygames never log off never_log_off kaguya sama kaguya_sama mimari
BeatmapID:2029068
BeatmapSetID:967502

[Difficulty]
HPDrainRate:3
CircleSize:2.5
OverallDifficulty:4
ApproachRate:5
SliderMultiplier:1.1
SliderTickRate:1

[Events]
//Background and Video events
Video,-2767,"ED.mp4"
0,0,"duo.jpg",0,0
//Break Periods
2,73847,75623
//Storyboard Layer 0 (Background)
//Storyboard Layer 1 (Fail)
//Storyboard Layer 2 (Pass)
//Storyboard Layer 3 (Foreground)
//Storyboard Layer 4 (Overlay)
//Storyboard Sound Samples

[TimingPoints]
-647,352.941176470588,4,2,2,70,1,0
1647,-100,4,2,2,70,0,0
3588,-100,4,2,2,60,0,0
26176,-100,4,2,2,50,0,0
37470,-100,4,2,2,60,0,0
41705,-100,4,2,2,70,0,0
43117,-100,4,2,2,90,0,1
65705,-100,4,2,2,80,0,0
71352,-100,4,2,2,85,0,0
71882,-100,4,2,2,90,0,0
72411,-100,4,2,2,95,0,0
72941,-100,4,2,2,100,0,0
74176,-100,4,2,2,50,0,0
79823,-100,4,2,2,5,0,0

[Colours]
Combo1 : 254,197,254
Combo2 : 255,231,155
Combo3 : 254,186,209
Combo4 : 203,203,228

[HitObjects]
77,212,3588,6,0,P|126:169|184:168,1,110,6|8,1:2|0:2,0:2:0:0:
226,182,4117,2,0,P|279:172|317:134,1,110,2|2,0:2|0:2,0:2:0:0:
405,51,4823,2,0,P|400:108|430:165,1,110,2|0,0:2|0:2,0:2:0:0:
464,198,5352,1,8,0:2:0:0:
464,198,5529,2,0,P|469:255|394:342,1,165,2|10,0:2|0:2,0:2:0:0:
287,317,6411,6,0,P|239:303|169:320,1,110,2|8,1:2|0:2,0:2:0:0:
128,344,6941,2,0,P|74:354|21:340,1,110,2|2,0:2|0:2,0:2:0:0:
84,236,7647,2,0,P|89:179|59:122,1,110,2|0,0:2|0:2,0:2:0:0:
25,89,8176,1,10,0:2:0:0:
117,10,8529,1,2,1:2:0:0:
228,55,8882,1,10,0:2:0:0:
216,175,9235,6,0,P|292:176|328:149,1,110,2|8,1:2|0:2,0:2:0:0:
363,117,9764,1,0,0:2:0:0:
363,117,9941,1,2,1:2:0:0:
459,190,10294,1,8,2:2:0:0:
422,305,10647,2,0,P|346:304|310:331,1,110,2|8,1:2|0:2,0:2:0:0:
275,363,11176,1,0,0:2:0:0:
275,363,11352,1,2,1:2:0:0:
179,290,11705,1,8,0:2:0:0:
97,200,12058,6,0,P|72:141|88:80,1,110,2|10,1:2|0:2,0:2:0:0:
198,77,12764,2,0,P|223:136|207:197,1,110,2|10,1:2|0:2,0:2:0:0:
179,290,13470,2,0,P|237:289|292:336,2,110,2|10|2,1:2|0:2|1:2,0:2:0:0:
82,364,14529,1,10,0:2:0:0:
15,262,14882,6,0,P|2:198|30:147,1,110,6|8,1:2|0:2,0:2:0:0:
49,106,15411,2,0,P|67:55|53:2,1,110,2|2,0:2|0:2,0:2:0:0:
160,60,16117,2,0,P|217:65|274:35,1,110,2|0,0:2|0:2,0:2:0:0:
307,1,16647,1,8,0:2:0:0:
307,1,16823,2,0,P|364:-4|451:71,1,165,2|10,0:2|0:2,0:2:0:0:
503,165,17705,6,0,P|453:159|387:188,1,110,2|8,1:2|0:2,0:2:0:0:
358,226,18235,2,0,P|307:245|252:241,1,110,2|2,0:2|0:2,0:2:0:0:
137,201,18941,2,0,P|132:258|162:315,1,110,2|0,0:2|0:2,0:2:0:0:
200,342,19470,1,10,0:2:0:0:
321,339,19823,1,2,1:2:0:0:
430,286,20176,1,10,0:2:0:0:
487,179,20529,6,0,P|496:108|473:63,1,110,6|8,1:2|0:2,0:2:0:0:
436,35,21058,2,0,P|364:26|320:49,1,110,2|2,0:2|0:2,0:2:0:0:
302,158,21764,2,0,P|249:177|140:144,1,165,2|8,0:2|0:2,0:2:0:0:
31,187,22647,2,0,P|4:144|2:75,1,110,2|10,1:2|0:2,0:2:0:0:
94,10,23352,6,0,P|151:19|197:71,1,110,2|8,1:2|0:2,0:2:0:0:
219,105,23882,2,0,P|259:140|313:148,1,110,2|2,0:2|0:2,0:2:0:0:
419,90,24588,1,2,0:2:0:0:
498,181,24941,2,0,P|498:227|468:284,1,110,0|0,0:2|0:2,0:2:0:0:
424,323,25470,2,0,P|373:335|310:308,1,110,2|8,1:2|3:2,0:2:0:0:
199,303,26176,6,0,P|169:259|181:184,1,110,6|0,1:2|0:2,0:2:0:0:
210,158,26705,1,2,1:2:0:0:
210,158,26882,1,2,1:2:0:0:
312,222,27235,1,8,0:2:0:0:
421,169,27588,6,0,P|451:125|439:50,1,110,2|0,1:2|0:2,0:2:0:0:
410,24,28117,1,2,1:2:0:0:
410,24,28294,1,2,1:2:0:0:
313,96,28647,1,8,0:2:0:0:
235,189,29000,6,0,P|237:238|276:293,1,110,2|2,1:2|0:2,0:2:0:0:
323,315,29529,1,2,0:2:0:0:
443,302,29882,1,2,0:0:0:0:
484,189,30235,2,0,P|422:162|340:216,1,165,2|2,0:0|0:0,0:0:0:0:
250,131,31117,2,0,P|240:67|265:16,1,110,2|8,1:2|0:2,0:2:0:0:
377,13,31823,6,0,P|448:29|483:73,1,110,2|2,1:2|0:2,0:2:0:0:
491,111,32352,2,0,P|475:182|431:217,1,110,2|2,1:2|0:2,0:2:0:0:
335,165,33058,2,0,P|220:159|279:308,1,330,2|0,1:2|0:2,0:2:0:0:
323,276,34294,1,8,0:2:0:0:
423,207,34647,6,0,P|431:157|392:88,1,110,2|2,1:2|0:2,0:2:0:0:
360,65,35176,1,2,1:2:0:0:
240,45,35529,1,2,0:2:0:0:
136,107,35882,2,0,P|100:166|105:283,1,165,2|2,1:2|0:2,0:2:0:0:
188,338,36764,2,0,P|209:266|197:214,1,110,2|8,1:2|0:2,0:2:0:0:
249,120,37470,6,0,P|322:170|405:138,2,165,2|0|8,3:2|0:2|0:2,0:2:0:0:
197,10,38882,1,2,1:2:0:0:
78,32,39235,1,8,0:2:0:0:
55,150,39588,2,0,P|43:198|62:271,1,110,2|8,1:2|3:2,0:2:0:0:
171,288,40294,6,0,P|216:286|239:273,2,55,6|2|8,1:2|1:2|0:2,0:2:0:0:
161,106,41176,1,8,0:2:0:0:
246,191,41529,2,0,P|313:189|366:149,1,110,8|2,0:2|1:2,0:2:0:0:
388,121,42058,1,8,0:2:0:0:
504,88,42411,2,0,P|502:155|462:208,1,110,8|8,0:2|3:2,0:2:0:0:
446,240,42941,1,2,1:2:0:0:
446,240,43117,6,0,P|397:269|332:267,1,110,6|8,1:2|0:2,0:2:0:0:
224,254,43823,2,0,P|212:214|210:192,2,55,2|0|8,1:2|0:2|0:2,0:2:0:0:
259,303,44352,1,0,0:2:0:0:
140,329,44705,2,0,P|112:286|101:208,1,110,0|0,0:2|0:2,0:2:0:0:
112,169,45235,1,2,1:2:0:0:
188,74,45588,1,8,0:2:0:0:
306,99,45941,6,0,P|335:148|333:213,1,110,6|8,1:2|0:2,0:2:0:0:
326,320,46647,2,0,P|291:333|264:334,2,55,2|0|8,1:2|0:2|0:2,0:2:0:0:
366,292,47176,2,0,P|412:262|517:297,1,165,2|8,0:2|0:2,0:2:0:0:
477,175,48058,1,2,1:2:0:0:
505,57,48411,1,8,0:2:0:0:
395,6,48764,6,0,P|336:8|287:55,1,110,6|8,1:2|0:2,0:2:0:0:
248,149,49470,2,0,P|218:144|191:121,2,55,2|0|8,1:2|0:2|0:2,0:2:0:0:
308,154,50000,1,0,0:2:0:0:
308,154,50176,2,0,P|359:171|406:235,1,110,6|8,1:2|0:2,0:2:0:0:
502,270,50882,2,0,P|512:322|479:391,1,110,2|8,1:2|0:2,0:2:0:0:
388,315,51588,6,0,P|377:262|411:194,1,110,6|8,1:2|0:2,0:2:0:0:
502,152,52294,1,2,1:2:0:0:
510,31,52647,1,8,0:2:0:0:
381,16,53000,2,0,P|328:5|260:39,1,110,6|8,1:2|0:2,0:2:0:0:
223,133,53705,1,2,1:2:0:0:
137,46,54058,1,10,3:2:0:0:
16,60,54411,6,0,P|2:126|25:184,1,110,6|8,1:2|0:2,0:2:0:0:
50,281,55117,2,0,P|12:275|-6:263,2,55,2|0|8,1:2|0:2|0:2,0:2:0:0:
107,260,55647,1,2,0:2:0:0:
139,143,56000,2,0,P|192:123|266:140,1,110,0|0,0:2|0:2,0:2:0:0:
294,162,56529,2,0,P|348:167|398:148,1,110,2|8,1:2|0:2,0:2:0:0:
490,67,57235,6,0,P|516:150|503:194,1,110,6|8,1:2|0:2,0:2:0:0:
450,275,57941,2,0,P|480:292|517:294,2,55,2|0|8,1:2|0:2|0:2,0:2:0:0:
404,234,58470,2,0,P|348:201|286:224,1,110,2|0,0:2|0:2,0:2:0:0:
195,258,59176,2,0,P|136:260|76:174,1,165,2|8,0:2|0:2,0:2:0:0:
80,121,59882,1,0,0:2:0:0:
80,121,60058,6,0,P|114:77|182:62,1,110,6|8,1:2|0:2,0:2:0:0:
285,53,60764,1,2,1:2:0:0:
383,128,61117,2,0,P|361:176|345:188,2,55,8|0|6,0:2|0:2|1:2,0:2:0:0:
407,11,61823,1,8,0:2:0:0:
511,72,62176,1,2,1:2:0:0:
490,191,62529,1,8,0:2:0:0:
391,261,62882,6,0,P|384:305|409:382,1,110,6|8,1:2|0:2,0:2:0:0:
279,352,63588,2,0,P|244:323|165:307,1,110,2|8,1:2|0:2,0:2:0:0:
125,327,64117,2,0,P|63:328|1:234,1,165,2|8,0:2|0:2,0:2:0:0:
71,154,65000,2,0,P|75:111|66:81,2,55,2|0|8,3:2|3:2|3:2,0:2:0:0:
193,166,65705,6,0,P|270:155|311:188,1,110,6|8,1:2|0:2,0:2:0:0:
381,255,66411,2,0,P|413:294|432:303,2,55,2|0|8,1:2|0:2|0:2,0:2:0:0:
389,194,66941,2,0,P|420:139|480:124,1,110,0|0,0:2|0:2,0:2:0:0:
374,38,67647,1,0,0:2:0:0:
254,72,68000,2,0,P|237:36|240:0,2,55,0|8|0,0:2|0:2|0:2,0:2:0:0:
273,129,68529,6,0,P|244:201|194:220,1,110,6|8,1:2|0:2,0:2:0:0:
112,156,69235,2,0,P|103:105|91:88,2,55,2|0|8,1:2|0:2|0:2,0:2:0:0:
78,207,69764,2,0,P|77:270|121:312,1,110,0|0,0:2|0:2,0:2:0:0:
225,328,70470,1,0,0:2:0:0:
319,251,70823,2,0,P|363:276|376:301,1,55,0|8,0:2|0:2,0:2:0:0:
470,336,71352,6,0,P|488:282|470:214,1,110,6|0,1:2|3:2,0:2:0:0:
437,186,71882,1,2,1:2:0:0:
288,82,72411,2,0,P|270:136|288:204,1,110,2|0,1:2|3:2,0:2:0:0:
321,232,72941,1,2,1:2:0:0:
409,73,73470,5,6,1:2:0:0:
409,73,73647,1,8,0:2:0:0:
170,333,76823,6,0,B|256:298|256:298|365:331|365:331|359:220|359:220|416:140|416:140|320:111|320:111|255:28|255:28|193:105|193:105|95:145|95:145|175:243,1,935,2|0,0:2|0:2,0:2:0:0:
