osu file format v14

[General]
AudioFilename: RSmiley_Contrast_EDHD.mp3
AudioLeadIn: 0
PreviewTime: 43744
Countdown: 0
SampleSet: None
StackLeniency: 0.7
Mode: 0
LetterboxInBreaks: 0
WidescreenStoryboard: 0

[Editor]
Bookmarks: 26823,43764,55058,74823
DistanceSpacing: 0.5
BeatDivisor: 4
GridSize: 32
TimelineZoom: 1.9

[Metadata]
Title:Smiley Contrast
TitleUnicode:Smiley Contrast
Artist:Hatsune (CV: Ohashi Ayaka), Shiori (CV: Koshimizu Ami)
ArtistUnicode:ハツネ(CV:大橋彩香)、シオリ(CV:小清水亜美)
Creator:Cami
Version:Egao!
Source:プリンセスコネクト!Re:Dive
Tags:Princess Connect priconne Character song 04 event cygames
BeatmapID:1951896
BeatmapSetID:934959

[Difficulty]
HPDrainRate:5
CircleSize:3.7
OverallDifficulty:7
ApproachRate:8.5
SliderMultiplier:1.55
SliderTickRate:1

[Events]
//Background and Video events
0,0,"chrome_LBaPdspksb.jpg",0,0
Video,0,"video.mp4"
//Break Periods
//Storyboard Layer 0 (Background)
//Storyboard Layer 1 (Fail)
//Storyboard Layer 2 (Pass)
//Storyboard Layer 3 (Foreground)
//Storyboard Sound Samples

[TimingPoints]
-20,352.941176470588,4,2,1,50,1,0
2274,-250,4,2,1,50,0,0
4215,-125,4,2,1,50,0,0
26803,-142.857142857143,4,2,1,50,0,0
33685,-125,4,2,1,50,0,0
35274,-142.857142857143,4,2,1,50,0,0
38097,-116.279069767442,4,2,1,50,0,0
42156,-74.0740740740741,4,2,1,50,0,0
43038,-80,4,2,1,50,0,0
43744,-80,4,2,1,65,0,1
63509,-76.9230769230769,4,2,1,65,0,1
65274,-80,4,2,1,65,0,1
66332,-100,4,2,1,60,0,0

[Colours]
Combo1 : 204,176,177
Combo2 : 235,156,235
Combo3 : 238,211,142
Combo4 : 249,189,191

[HitObjects]
117,239,332,5,8,0:0:0:0:
162,237,420,1,8,0:0:0:0:
206,234,508,1,8,0:0:0:0:
251,230,596,1,8,0:0:0:0:
295,224,685,6,0,P|300:175|303:133,1,77.5,6|0,1:2|0:0,0:0:0:0:
238,315,1038,1,10,0:0:0:0:
104,234,1215,6,0,P|86:187|72:147,1,77.5,6|0,1:2|0:0,0:0:0:0:
85,152,1480,1,4,0:3:0:0:
92,143,1568,1,4,0:3:0:0:
249,319,1744,6,0,P|277:278|301:243,1,77.5,6|0,1:2|0:0,0:0:0:0:
293,240,2009,1,8,0:0:0:0:
295,224,2097,1,8,0:0:0:0:
439,345,2274,6,0,P|416:289|398:148,1,201.5,6|0,1:2|0:0,0:0:0:0:
412,140,3509,5,10,1:2:0:0:
189,197,3685,1,10,1:2:0:0:
170,190,4215,6,0,P|185:150|191:126,1,62,2|0,1:2|0:0,0:0:0:0:
123,40,4568,1,10,0:0:0:0:
55,74,4744,2,0,L|142:69,1,62,2|0,0:0|1:0,0:0:0:0:
67,164,5097,2,0,L|-20:159,1,62,2|8,0:0|0:0,0:0:0:0:
130,260,5450,6,0,P|186:219|252:248,1,124,2|0,0:0|0:0,0:0:0:0:
214,362,5979,1,10,0:0:0:0:
140,337,6156,2,0,L|149:270,1,62,2|0,0:0|1:0,0:0:0:0:
234,231,6509,5,2,0:0:0:0:
326,347,6685,5,10,0:0:0:0:
408,306,6862,1,2,0:0:0:0:
498,344,7038,6,0,P|459:311|476:230,1,124,2|8,1:2|0:0,0:0:0:0:
368,160,7568,2,0,P|383:203|379:241,1,62,2|0,0:0|1:0,0:0:0:0:
290,236,7921,2,0,P|275:193|279:155,1,62,2|8,0:0|0:0,0:0:0:0:
314,96,8274,6,0,L|462:118,1,124,2|0,0:0|0:0,0:0:0:0:
333,12,8803,2,0,B|253:10|280:45|204:47,1,124,10|2,0:0|1:2,0:0:0:0:
127,17,9332,5,0,0:0:0:0:
48,174,9509,5,10,0:0:0:0:
7,50,9685,1,2,0:0:0:0:
84,91,9862,6,0,P|75:143|69:225,1,124,2|8,1:2|0:0,0:0:0:0:
123,308,10391,1,2,0:0:0:0:
168,241,10568,2,0,P|159:198|154:175,1,62,2|0,1:2|0:0,0:0:0:0:
238,298,10921,2,0,P|257:258|268:237,1,62,8|0,0:0|0:0,0:0:0:0:
370,228,11274,6,0,P|316:250|254:204,1,124,2|8,1:2|0:0,0:0:0:0:
308,115,11803,1,2,0:0:0:0:
380,151,11979,2,0,P|386:187|384:226,1,62,2|0,1:2|0:0,0:0:0:0:
451,274,12332,2,0,P|459:244|472:216,1,62,8|0,0:0|0:0,0:0:0:0:
477,91,12685,6,0,P|492:117|512:141,1,62,2|0,1:2|0:0,0:0:0:0:
426,26,13038,2,0,P|404:47|378:65,1,62,10|0,0:0|0:0,0:0:0:0:
247,119,13391,2,0,P|294:112|336:124,1,62,2|0,1:2|0:0,0:0:0:0:
370,228,13744,2,0,P|323:235|281:223,1,62,10|0,0:0|0:0,0:0:0:0:
176,178,14097,5,2,1:2:0:0:
89,243,14274,5,2,0:0:0:0:
3,159,14450,2,0,P|17:110|22:83,1,62,10|0,0:0|0:0,0:0:0:0:
110,233,14803,2,0,P|96:184|91:157,1,62,2|0,1:2|0:0,0:0:0:0:
210,285,15156,1,10,0:0:0:0:
276,240,15332,1,2,0:0:0:0:
373,347,15509,6,0,P|330:346|300:323,1,62,6|0,1:2|0:0,0:0:0:0:
268,223,15862,1,10,0:0:0:0:
298,150,16038,2,0,P|289:176|282:225,1,62,2|0,0:0|1:0,0:0:0:0:
217,129,16391,2,0,P|211:98|202:68,1,62,2|8,0:0|0:0,0:0:0:0:
106,166,16744,6,0,P|159:194|185:256,1,124,2|0,0:0|0:0,0:0:0:0:
84,325,17274,1,10,0:0:0:0:
39,259,17450,2,0,P|87:248|125:254,1,62,2|0,0:0|1:0,0:0:0:0:
193,268,17803,5,0,0:0:0:0:
291,177,17979,5,10,0:0:0:0:
367,201,18156,1,2,0:0:0:0:
314,90,18332,5,2,1:2:0:0:
274,189,18509,2,0,P|288:246|299:276,1,62,2|8,0:0|0:0,0:0:0:0:
356,362,18862,2,0,P|364:332|371:301,1,62,2|0,0:0|1:0,0:0:0:0:
385,217,19215,2,0,P|423:233|458:261,1,62,2|8,0:0|0:0,0:0:0:0:
507,105,19568,6,0,P|439:141|390:113,1,124,2|2,0:0|0:0,0:0:0:0:
277,64,20097,2,0,P|289:15|295:0,1,62,10|0,0:0|0:0,0:0:0:0:
215,123,20450,2,0,P|225:152|231:182,1,62,2|0,1:2|0:0,0:0:0:0:
373,208,20803,5,10,0:0:0:0:
317,316,20979,1,2,0:0:0:0:
259,259,21156,6,0,P|219:265|183:282,1,62,2|0,1:2|0:0,0:0:0:0:
95,353,21509,1,10,0:0:0:0:
111,273,21685,2,0,P|117:303|119:334,1,62,2|0,0:0|1:0,0:0:0:0:
22,263,22038,2,0,P|23:232|30:201,1,62,2|8,0:0|0:0,0:0:0:0:
127,169,22391,6,0,P|175:167|228:109,1,124,2|0,0:0|0:0,0:0:0:0:
226,36,22921,1,8,0:0:0:0:
148,88,23097,5,0,0:0:0:0:
235,138,23274,2,0,P|272:131|304:128,1,62,2|0,1:2|0:0,0:0:0:0:
347,190,23627,1,10,0:0:0:0:
341,204,23803,1,0,0:0:0:0:
256,296,23979,6,0,P|249:249|238:220,1,62,2|0,1:2|0:0,0:0:0:0:
173,196,24332,1,10,0:0:0:0:
110,323,24509,2,0,P|145:330|190:323,1,62,2|0,0:0|1:0,0:0:0:0:
165,185,24862,2,0,P|130:178|85:185,1,62,2|8,0:0|0:0,0:0:0:0:
38,128,25215,6,0,P|64:175|39:252,1,124,2|0,0:0|0:0,0:0:0:0:
99,334,25744,1,10,0:0:0:0:
169,284,25921,1,2,0:0:0:0:
166,268,26009,1,2,0:0:0:0:
154,257,26097,1,2,1:2:0:0:
251,311,26274,1,10,0:0:0:0:
280,321,26362,1,8,0:0:0:0:
310,323,26450,1,10,0:0:0:0:
340,315,26538,1,8,0:0:0:0:
366,298,26626,1,10,0:0:0:0:
385,274,26715,1,8,0:0:0:0:
396,245,26803,6,0,B|293:232|337:185|246:174,1,162.749995033264,6|0,1:2|1:0,0:0:0:0:
174,179,27509,1,2,1:2:0:0:
316,107,27862,1,8,0:0:0:0:
316,107,28215,6,0,P|285:158|252:258,1,162.749995033264,2|0,1:2|1:0,0:0:0:0:
180,317,28921,2,0,P|180:289|173:263,1,54.2499983444214,2|0,1:2|0:0,0:0:0:0:
92,172,29274,1,8,0:0:0:0:
92,172,29627,6,0,P|63:137|68:56,1,108.499996688843,2|2,1:2|0:0,0:0:0:0:
197,85,30156,2,0,P|166:93|138:103,1,54.2499983444214,2|0,1:2|1:0,0:0:0:0:
249,21,30509,1,2,0:0:0:0:
328,150,30685,2,0,P|354:159|387:168,1,54.2499983444214,8|2,0:2|0:0,0:0:0:0:
437,111,31038,6,0,P|417:160|412:275,1,162.749995033264,2|0,1:2|0:0,0:0:0:0:
458,338,31744,1,2,1:2:0:0:
297,273,32097,1,8,0:0:0:0:
297,273,32450,6,0,P|241:301|197:340,1,108.499996688843,2|0,1:2|0:0,0:0:0:0:
127,366,32979,1,0,1:0:0:0:
127,366,33156,2,0,P|117:321|108:288,1,54.2499983444214,2|0,1:2|0:0,0:0:0:0:
144,176,33509,1,8,0:0:0:0:
97,112,33685,6,0,P|99:195|78:246,2,124,2|0|0,1:2|1:0|1:0,0:0:0:0:
47,49,34568,1,0,1:0:0:0:
209,128,34921,1,8,0:0:0:0:
209,128,35274,6,0,P|261:117|318:76,1,108.499996688843,2|2,1:2|0:0,0:0:0:0:
363,30,35803,1,2,1:2:0:0:
363,30,35979,2,0,P|355:61|347:98,1,54.2499983444214,0|2,1:0|0:0,0:0:0:0:
431,200,36332,1,8,0:0:0:0:
512,207,36509,6,0,P|467:204|407:254,1,108.499996688843,2|0,1:2|1:0,0:0:0:0:
372,304,37038,2,0,P|382:347|394:372,1,54.2499983444214,2|0,0:0|1:0,0:0:0:0:
318,243,37391,1,2,1:2:0:0:
213,338,37568,5,8,0:0:0:0:
387,317,37744,1,8,0:0:0:0:
239,212,37921,1,8,0:0:0:0:
225,204,38009,1,8,0:0:0:0:
208,206,38097,6,0,P|260:238|341:208,1,133.300002033997,6|8,1:2|0:0,0:0:0:0:
383,151,38627,1,2,1:2:0:0:
383,151,38803,2,0,P|373:99|373:70,1,66.6500010169983,0|0,1:2|0:0,0:0:0:0:
485,174,39156,2,0,P|444:220|431:247,1,66.6500010169983,10|0,0:0|0:0,0:0:0:0:
455,309,39509,5,2,1:2:0:0:
501,94,39862,2,0,P|494:57|407:32,1,133.300002033997,8|2,0:0|1:2,0:0:0:0:
362,101,40391,1,2,0:0:0:0:
275,31,40568,1,8,0:0:0:0:
277,16,40656,1,8,0:0:0:0:
277,0,40744,1,8,0:0:0:0:
178,158,40921,5,14,1:2:0:0:
340,111,41097,1,10,1:2:0:0:
463,232,41274,1,10,1:2:0:0:
463,309,41450,1,8,0:3:0:0:
394,272,41627,1,0,1:0:0:0:
193,351,41803,5,6,1:2:0:0:
345,133,42156,6,0,P|283:50|184:103,1,209.250000798225,6|8,1:2|0:0,0:0:0:0:
130,234,42685,1,8,0:0:0:0:
229,202,42862,1,8,0:0:0:0:
68,140,43038,2,0,P|56:78|44:42,1,96.875,10|0,0:2|0:0,0:0:0:0:
32,17,43303,1,8,0:0:0:0:
32,17,43391,1,10,0:0:0:0:
158,152,43568,1,10,0:0:0:0:
322,46,43744,6,0,P|369:37|413:54,1,96.875,6|0,1:2|0:0,0:0:0:0:
403,229,44097,2,0,P|355:237|311:220,1,96.875,10|0,0:0|1:0,0:0:0:0:
462,148,44450,1,10,0:0:0:0:
393,249,44627,2,0,P|411:340|422:368,1,96.875,2|8,1:2|0:0,0:0:0:0:
208,235,44979,6,0,P|268:238|298:104,1,193.75,2|2,1:2|1:2,0:0:0:0:
238,101,45509,1,8,0:0:0:0:
180,160,45685,1,2,1:2:0:0:
53,111,45862,2,0,P|37:64|17:15,1,96.875,10|0,0:0|1:0,0:0:0:0:
99,179,46215,2,0,P|80:223|65:269,1,96.875,10|0,0:0|1:0,0:0:0:0:
203,341,46568,6,0,P|250:350|294:333,1,96.875,10|0,1:2|0:0,0:0:0:0:
284,158,46921,2,0,P|236:150|192:167,1,96.875,10|0,0:0|1:0,0:0:0:0:
355,237,47274,1,10,0:0:0:0:
383,120,47450,1,2,1:2:0:0:
339,245,47627,1,8,0:0:0:0:
471,106,47803,6,0,P|436:50|310:71,1,193.75,6|0,1:2|1:0,0:0:0:0:
222,146,48332,1,10,0:0:0:0:
256,224,48509,5,2,1:2:0:0:
131,167,48685,2,0,P|141:112|161:62,1,96.875,10|0,0:0|0:0,0:0:0:0:
50,218,49038,2,0,P|66:263|74:311,1,96.875,10|0,0:0|1:0,0:0:0:0:
224,344,49391,6,0,B|336:306|302:394|433:351,1,193.75,6|8,1:2|0:0,0:0:0:0:
405,189,49921,2,0,P|368:241|378:295,1,96.875,2|8,1:2|0:0,0:0:0:0:
453,262,50274,5,2,1:2:0:0:
425,102,50450,1,10,0:0:0:0:
497,163,50627,5,2,1:2:0:0:
336,115,50803,6,0,P|288:110|232:147,1,96.875,6|0,1:2|1:0,0:0:0:0:
139,261,51156,2,0,P|181:282|229:277,1,96.875,10|0,0:2|1:0,0:0:0:0:
110,177,51509,2,0,P|70:203|50:247,1,96.875,10|0,0:2|1:0,0:0:0:0:
197,193,51862,2,0,P|193:145|165:106,1,96.875,10|0,0:2|1:0,0:0:0:0:
135,94,52127,1,0,0:0:0:0:
135,94,52215,6,0,P|197:105|269:8,1,193.75,6|8,1:2|0:0,0:0:0:0:
181,23,52744,1,2,1:2:0:0:
294,160,52921,5,10,0:0:0:0:
401,109,53097,1,2,1:2:0:0:
468,154,53274,2,0,P|477:201|480:274,1,96.875,10|0,0:0|1:0,0:0:0:0:
292,345,53627,5,14,1:2:0:0:
268,338,53715,1,8,0:0:0:0:
244,331,53803,2,0,P|224:274|202:230,1,96.875,0|8,1:0|0:0,0:0:0:0:
54,326,54156,1,2,1:2:0:0:
125,198,54332,5,10,0:0:0:0:
147,169,54420,1,8,0:0:0:0:
178,151,54508,1,10,0:0:0:0:
214,146,54596,1,2,0:0:0:0:
251,160,54685,5,2,1:2:0:0:
294,181,54773,1,8,0:0:0:0:
341,176,54861,1,8,0:0:0:0:
380,148,54949,1,8,0:0:0:0:
399,104,55038,6,0,P|390:48|343:13,1,96.875,6|0,1:2|0:0,0:0:0:0:
287,190,55391,2,0,P|296:246|343:281,1,96.875,10|0,0:2|0:0,0:0:0:0:
451,272,55744,1,2,1:2:0:0:
314,284,55921,1,2,1:2:0:0:
467,187,56097,1,10,0:0:0:0:
386,347,56274,6,0,P|314:318|191:291,1,193.75,2|2,1:2|0:0,0:0:0:0:
188,298,56715,1,0,0:0:0:0:
177,305,56803,1,8,0:0:0:0:
120,201,56979,1,2,0:2:0:0:
239,102,57156,5,2,1:2:0:0:
224,184,57332,1,2,0:0:0:0:
319,68,57509,2,0,P|283:28|212:19,1,96.875,10|0,0:0|0:0,0:0:0:0:
78,138,57862,6,0,P|78:196|115:240,1,96.875,2|0,1:2|0:0,0:0:0:0:
259,191,58215,2,0,P|262:143|238:101,1,96.875,10|0,0:0|0:0,0:0:0:0:
168,165,58568,1,2,1:2:0:0:
262,206,58744,1,2,0:0:0:0:
198,83,58921,1,10,0:0:0:0:
57,239,59097,6,0,P|48:300|46:352,1,96.875,2|0,1:2|0:0,0:0:0:0:
57,350,59362,1,8,0:0:0:0:
64,359,59450,1,2,0:0:0:0:
182,263,59627,1,8,0:0:0:0:
334,328,59803,6,0,B|227:298|238:376|134:345,1,193.75,2|0,0:0|0:0,0:0:0:0:
46,226,60332,1,8,0:0:0:0:
217,202,60509,1,2,0:0:0:0:
214,226,60597,1,8,0:0:0:0:
199,244,60685,6,0,P|137:178|180:98,1,193.75,6|10,1:2|0:0,0:0:0:0:
304,123,61215,2,0,P|321:167|311:213,1,96.875,2|0,0:0|1:0,0:0:0:0:
239,172,61568,1,2,0:0:0:0:
366,69,61744,1,10,0:0:0:0:
323,221,61921,1,2,0:0:0:0:
159,123,62097,6,0,P|112:123|71:149,1,96.875,2|0,1:2|0:0,0:0:0:0:
124,322,62450,2,0,P|171:322|212:296,1,96.875,10|0,0:0|0:0,0:0:0:0:
352,123,62803,2,0,P|399:123|440:149,1,96.875,2|0,1:2|0:0,0:0:0:0:
388,322,63156,2,0,P|340:322|299:296,1,96.875,10|0,0:0|0:0,0:0:0:0:
168,115,63509,6,0,P|141:48|123:22,1,100.749995388031,2|0,1:2|0:0,0:0:0:0:
162,234,63862,1,10,0:0:0:0:
251,129,64038,1,0,0:0:0:0:
215,305,64215,5,2,1:2:0:0:
434,236,64391,1,2,0:0:0:0:
320,208,64568,5,8,0:0:0:0:
354,113,64744,2,0,B|330:161|351:213|351:213|372:259|342:335,1,201.499990776062,6|2,0:0|0:0,0:0:0:0:
209,363,65274,2,0,P|153:342|111:332,1,96.875,10|2,0:0|0:0,0:0:0:0:
104,341,65538,1,2,0:0:0:0:
91,350,65627,5,10,0:0:0:0:
50,360,65715,1,8,0:0:0:0:
13,340,65803,1,8,0:0:0:0:
3,294,65891,1,8,0:0:0:0:
25,254,65979,2,0,P|63:249|92:258,3,48.4375,4|4|8|8,0:3|0:3|0:3|0:3,0:0:0:0:
133,194,66332,6,0,P|120:154|114:113,1,77.5,6|0,1:2|0:0,0:0:0:0:
201,266,66685,2,0,P|223:230|240:192,1,77.5,10|0,0:0|1:0,0:0:0:0:
353,135,67038,5,10,0:0:0:0:
325,58,67215,1,2,1:2:0:0:
342,153,67391,5,10,0:0:0:0:
436,90,67568,2,0,P|472:78|510:70,1,77.5,2|8,1:2|0:0,0:0:0:0:
470,181,67921,2,0,P|447:234|434:280,1,77.5,2|8,1:2|0:2,0:2:0:0:
368,340,68274,2,0,P|355:303|338:268,1,77.5,2|8,1:2|0:2,0:2:0:0:
252,210,68627,1,2,1:2:0:0:
165,337,68803,5,10,0:0:0:0:
170,352,68979,1,0,1:0:0:0:
34,275,69156,6,0,P|92:240|138:232,1,77.5,10|0,1:2|1:0,0:0:0:0:
240,230,69509,2,0,P|193:181|150:161,1,77.5,10|0,0:2|1:0,0:0:0:0:
66,73,69862,5,10,0:0:0:0:
33,149,70038,1,2,1:2:0:0:
133,25,70215,1,10,0:0:0:0:
204,178,70391,6,0,P|182:240|161:280,1,77.5,2|8,1:2|0:0,0:0:0:0:
270,106,70744,2,0,P|307:160|337:193,1,77.5,2|8,1:2|0:0,0:0:0:0:
419,231,71097,2,0,P|356:251|324:277,1,77.5,2|8,1:2|0:0,0:0:0:0:
267,360,71450,1,2,1:2:0:0:
349,372,71627,2,0,P|334:299|314:231,1,116.25,10|0,0:0|0:0,0:0:0:0:
303,242,71979,6,0,P|254:214|209:206,1,77.5,6|2,1:2|0:0,0:0:0:0:
201,220,72244,1,8,0:0:0:0:
192,229,72332,1,10,0:0:0:0:
48,225,72509,6,0,P|96:196|126:161,1,77.5,6|2,1:2|0:0,0:0:0:0:
118,147,72774,1,8,0:0:0:0:
114,135,72862,1,10,0:0:0:0:
190,13,73038,6,0,P|190:69|205:112,1,77.5,6|2,1:2|0:0,0:0:0:0:
222,112,73303,1,8,0:0:0:0:
235,114,73391,1,10,0:0:0:0:
368,67,73568,5,10,0:0:0:0:
346,34,73656,1,8,0:0:0:0:
311,18,73744,2,0,P|280:34|261:52,1,38.75,10|4,0:0|0:3,0:0:0:0:
249,117,73921,2,0,P|279:133|298:151,1,38.75,8|8,0:3|0:3,0:0:0:0:
315,281,74097,5,6,1:2:0:0:
448,119,74274,1,6,1:2:0:0:
256,192,74803,12,2,77450,0:0:0:0:
