osu file format v14

[General]
AudioFilename: audio.mp3
AudioLeadIn: 0
PreviewTime: 182572
Countdown: 0
SampleSet: Soft
StackLeniency: 0.5
Mode: 0
LetterboxInBreaks: 0
WidescreenStoryboard: 1

[Editor]
Bookmarks: 8841,16005,32124,39288,53617,67945,75109,85856,100184,114512,121676,128841,143169,157497,171826,186154,193318,200482,221975,236303,257796,264960
DistanceSpacing: 1.4
BeatDivisor: 4
GridSize: 16
TimelineZoom: 4.299999

[Metadata]
Title:YURAGI ~Kuroshiro Chocho~
TitleUnicode:YURAGI ~黒白蝶々~
Artist:Hatsuki Yura, Seraph
ArtistUnicode:葉月ゆら, Seraph
Creator:Z5553
Version:Hard
Source:
Tags:asymmetry gothic japanese rock doujin miku hinode drop pratanallis
BeatmapID:3691780
BeatmapSetID:1724147

[Difficulty]
HPDrainRate:5
CircleSize:3.4
OverallDifficulty:6
ApproachRate:7
SliderMultiplier:1.2
SliderTickRate:1

[Events]
//Background and Video events
0,0,"bg.jpeg",0,0
//Break Periods
2,114712,120626
2,200682,205925
//Storyboard Layer 0 (Background)
//Storyboard Layer 1 (Fail)
//Storyboard Layer 2 (Pass)
//Storyboard Layer 3 (Foreground)
//Storyboard Layer 4 (Overlay)
//Storyboard Sound Samples

[TimingPoints]
1677,447.76119402985,4,2,1,100,1,0
1900,-111.111111111111,4,2,1,100,0,0
7050,-111.111111111111,4,2,1,50,0,0
8841,-100,4,2,1,90,0,0
30333,-111.111111111111,4,2,1,70,0,0
32124,-90.9090909090909,4,2,1,100,0,1
37497,-90.9090909090909,4,2,1,70,0,0
39288,-105.263157894737,4,2,1,65,0,0
67945,-111.111111111111,4,2,1,50,0,0
75109,-100,4,2,1,70,0,0
78691,-95.2380952380952,4,2,1,80,0,0
85856,-111.111111111111,4,2,1,80,0,0
93020,-105.263157894737,4,2,1,75,0,0
100184,-90.9090909090909,4,2,1,85,0,1
112721,-90.9090909090909,4,2,1,85,0,0
114512,-90.9090909090909,4,2,1,100,0,0
121676,-100,4,2,1,80,0,0
127050,-100,4,2,1,50,0,0
128841,-111.111111111111,4,2,1,50,0,0
147647,-111.111111111111,4,2,1,80,0,0
148094,-111.111111111111,4,2,1,50,0,0
155706,-111.111111111111,4,2,1,100,0,0
157497,-90.9090909090909,4,2,1,80,0,1
170035,-90.9090909090909,4,2,1,70,0,1
171377,-90.9090909090909,4,2,1,60,0,1
171826,-105.263157894737,4,2,1,75,0,0
176303,-105.263157894737,4,2,1,85,0,0
177199,-105.263157894737,4,2,1,75,0,0
182572,-95.2380952380952,4,2,1,75,0,0
186154,-95.2380952380952,4,2,1,100,0,1
189736,-86.9565217391305,4,2,1,100,0,1
193318,-100,4,2,1,100,0,0
200482,-100,4,2,1,40,0,0
207647,-111.111111111111,4,2,1,50,0,0
219065,-111.111111111111,4,2,1,75,0,0
221975,-86.9565217391305,4,2,1,100,0,1
234512,-86.9565217391305,4,2,1,100,0,0
236303,-80,4,2,1,90,0,1
257124,-80,4,2,1,80,0,0
257796,-105.263157894737,4,2,1,80,0,0
263169,-105.263157894737,4,2,1,70,0,0

[Colours]
Combo1 : 255,115,255
Combo2 : 192,192,192
Combo3 : 255,98,98
Combo4 : 210,164,255
Combo5 : 255,198,255
Combo6 : 128,128,128
Combo7 : 255,128,0
Combo8 : 169,83,255

[HitObjects]
66,58,1677,5,2,2:0:0:0:
66,58,1900,2,0,B|97:66|97:105|73:108|77:146|123:168|123:168|142:153|180:160|180:160|199:194|176:231,1,270,0|0,2:0|2:0,2:0:0:0:
59,333,3468,2,0,B|131:354|131:354|177:322|177:322|240:331|257:378|257:378|287:335|335:345,1,324,2|0,2:0|2:0,2:0:0:0:
454,384,5259,54,0,B|489:360|489:360|497:300|449:264|449:264|481:240|476:201|476:201|429:166|446:112,1,324,2|0,2:0|2:0,2:0:0:0:
482,21,7050,2,0,P|428:9|378:32,1,108,2|2,2:0|2:0,2:0:0:0:
280,96,7945,2,0,P|226:108|176:85,1,108,2|2,2:0|2:0,2:0:0:0:
83,8,8841,70,0,B|60:18|60:18|36:43|42:80,1,90,2|2,2:0|2:0,2:0:0:0:
99,139,9400,1,2,2:0:0:0:
133,162,9512,2,0,P|151:209|100:269,1,120,6|0,2:0|2:0,2:0:0:0:
0,384,10632,54,0,L|106:375,1,90,2|2,2:0|2:0,2:0:0:0:
159,330,11191,1,2,2:0:0:0:
189,301,11303,2,0,L|314:290,1,120,6|0,2:0|2:0,2:0:0:0:
506,133,12423,54,0,P|448:152|388:138,1,120,10|2,2:0|2:0,2:0:0:0:
344,70,13094,1,2,2:0:0:0:
283,128,13318,2,0,L|212:120,1,60,10|2,2:0|2:0,2:0:0:0:
159,175,13766,2,0,L|88:167,1,60,2|2,2:0|2:0,2:0:0:0:
34,84,14214,53,14,2:0:0:0:
159,89,14550,1,14,2:0:0:0:
254,6,14885,1,14,2:0:0:0:
254,6,15109,2,0,B|305:52|351:23|351:23|401:24|418:74,1,180,2|2,2:0|2:0,2:0:0:0:
458,127,16005,102,0,L|482:262,1,120,6|0,3:2|2:0,2:0:0:0:
505,384,16900,1,2,3:0:0:0:
443,326,17124,1,10,2:0:0:0:
359,338,17348,1,2,2:0:0:0:
289,291,17572,1,10,2:0:0:0:
219,337,17796,54,0,B|163:323|163:323|116:370,1,120,6|0,3:2|2:0,2:0:0:0:
0,384,18691,1,2,3:2:0:0:
51,317,18915,1,10,2:0:0:0:
8,244,19139,1,2,2:0:0:0:
59,177,19363,1,10,2:0:0:0:
12,107,19587,54,0,B|60:92|60:92|74:100|74:100|131:86,1,120,6|2,3:2|2:0,2:0:0:0:
178,159,20259,1,10,2:0:0:0:
178,159,20482,2,0,B|226:173|226:173|240:165|240:165|297:179,1,120,2|2,3:2|2:0,2:0:0:0:
343,111,21154,1,10,2:0:0:0:
343,111,21378,2,0,L|412:121,1,60,2|10,3:2|2:0,2:0:0:0:
396,203,21826,2,0,L|465:213,1,60,2|10,2:0|2:0,2:0:0:0:
510,147,22274,53,2,3:2:0:0:
508,63,22497,1,10,2:0:0:0:
449,2,22721,1,2,2:0:0:0:
365,10,22945,1,10,2:0:0:0:
311,74,23169,54,0,P|261:109|197:102,1,120,6|2,3:2|2:0,2:0:0:0:
150,40,23841,1,10,2:0:0:0:
150,38,24065,2,0,P|111:28|79:33,1,60,2|10,3:2|2:0,2:0:0:0:
38,94,24512,2,0,L|27:168,1,60,2|10,2:0|2:0,2:0:0:0:
73,225,24960,1,6,3:2:0:0:
4,378,25408,1,2,2:0:0:0:
101,311,25856,1,2,3:2:0:0:
16,293,26303,1,2,2:0:0:0:
101,311,26751,54,0,B|154:302|154:302|164:311|164:311|218:304,1,120,6|2,3:2|2:0,2:0:0:0:
274,243,27423,1,10,2:0:0:0:
274,243,27647,2,0,B|327:251|327:251|337:243|337:243|391:249,1,120,2|2,3:2|2:0,2:0:0:0:
500,375,28542,2,0,P|479:320|485:249,1,120,6|2,3:2|2:0,2:0:0:0:
508,179,29214,1,10,2:0:0:0:
508,179,29438,2,0,L|487:98,1,60,2|10,3:2|2:0,2:0:0:0:
418,159,29885,2,0,L|397:78,1,60,2|10,2:0|2:0,2:0:0:0:
413,25,30333,54,0,P|474:20|501:1,2,81.0000000000001,2|0|2,2:0|2:0|2:0,2:0:0:0:
339,43,31229,1,2,2:0:0:0:
272,7,31453,1,2,2:0:0:0:
197,16,31676,1,0,2:0:0:0:
141,67,31900,1,2,2:0:0:0:
122,141,32124,70,0,B|117:207|117:207|138:277,1,132,10|0,2:0|2:0,2:0:0:0:
226,248,32796,1,8,2:0:0:0:
218,340,33020,1,8,2:0:0:0:
132,375,33244,1,8,2:0:0:0:
42,353,33468,1,8,2:0:0:0:
12,265,33691,1,8,2:0:0:0:
55,183,33915,54,0,B|32:132|32:132|44:120|44:120|23:63,1,132,10|0,2:0|2:0,2:0:0:0:
100,12,34587,1,8,2:0:0:0:
192,14,34811,1,8,2:0:0:0:
214,103,35035,1,8,2:0:0:0:
304,120,35259,1,8,2:0:0:0:
324,209,35482,1,8,2:0:0:0:
415,222,35706,54,0,L|409:144,1,66,6|2,2:0|2:0,2:0:0:0:
469,85,36154,2,0,L|458:3,1,66,2|2,2:0|2:0,2:0:0:0:
368,8,36602,2,0,P|336:3|298:19,1,66,2|2,2:0|2:0,2:0:0:0:
229,67,37050,2,0,P|222:98|232:130,1,66,2|2,2:0|2:0,2:0:0:0:
294,199,37497,101,6,2:0:0:0:
496,380,38393,1,6,3:2:0:0:
247,215,39288,22,0,P|250:270|235:332,1,114,6|2,3:2|2:0,2:0:0:0:
164,361,39960,1,10,2:0:0:0:
112,300,40184,2,0,L|-5:287,1,114,2|2,3:2|2:0,2:0:0:0:
3,165,41079,2,0,P|-2:120|5:103,1,56.9999999999999,2|8,3:2|2:0,2:0:0:0:
34,87,41415,2,0,P|39:59|32:31,1,56.9999999999999,2|0,2:0|2:0,2:0:0:0:
0,6,41751,1,10,2:0:0:0:
0,6,41975,1,2,3:2:0:0:
152,146,42647,53,10,3:2:0:0:
152,146,42871,2,0,P|199:180|258:171,1,114,6|2,3:2|2:0,2:0:0:0:
273,41,43766,2,0,P|226:7|167:16,1,114,2|2,3:2|2:0,2:0:0:0:
382,75,44662,2,0,L|402:145,1,56.9999999999999,2|8,3:2|2:0,2:0:0:0:
433,147,44997,2,0,L|413:217,1,56.9999999999999,2|0,2:0|3:2,2:0:0:0:
387,228,45333,1,10,2:0:0:0:
387,228,45557,1,2,3:2:0:0:
488,379,46229,53,8,3:2:0:0:
488,379,46453,2,0,P|428:351|374:360,1,114,6|2,3:2|2:0,2:0:0:0:
191,263,47348,2,0,P|248:260|297:286,1,114,10|10,2:0|2:0,2:0:0:0:
130,347,48244,54,0,P|78:338|66:328,1,56.9999999999999,6|0,2:1|2:0,2:0:0:0:
58,322,48579,2,0,P|42:277|55:250,1,56.9999999999999,2|0,2:0|3:2,2:0:0:0:
54,249,48915,1,10,2:0:0:0:
79,211,49139,2,0,B|101:176|101:176|98:154,2,56.9999999999999,2|8|0,2:0|2:0|2:0,2:0:0:0:
23,60,50035,54,0,L|147:50,1,114,6|0,3:2|2:0,2:0:0:0:
293,23,50930,2,0,P|344:16|365:23,1,56.9999999999999,2|8,3:2|2:0,2:0:0:0:
385,33,51266,2,0,P|418:63|423:79,1,56.9999999999999,2|0,2:0|2:0,2:0:0:0:
409,112,51602,1,10,2:0:0:0:
409,112,51826,101,6,3:2:0:0:
501,188,52162,1,6,3:2:0:0:
494,307,52497,1,2,3:2:0:0:
494,307,52721,1,6,2:0:0:0:
219,143,53617,22,0,B|237:200|237:200|231:264,1,114,4|2,3:2|2:0,2:0:0:0:
178,313,54288,1,10,2:0:0:0:
238,365,54512,2,0,B|282:361|282:361|293:373|293:373|351:370,1,114,2|2,3:2|2:0,2:0:0:0:
504,369,55408,2,0,L|514:300,1,56.9999999999999,2|8,3:2|2:0,2:0:0:0:
479,289,55744,2,0,L|469:220,1,56.9999999999999,2|0,2:0|2:0,2:0:0:0:
496,202,56079,1,10,2:0:0:0:
496,202,56303,1,2,3:2:0:0:
512,39,56975,53,10,3:2:0:0:
512,39,57087,1,2,3:2:0:0:
512,39,57199,2,0,B|453:18|453:18|394:32,1,114,6|2,3:2|2:0,2:0:0:0:
270,118,58094,2,0,B|329:139|329:139|388:125,1,114,2|2,3:2|2:0,2:0:0:0:
216,51,58990,54,0,B|195:40|195:40|154:44,1,56.9999999999999,2|8,3:2|2:0,2:0:0:0:
125,61,59326,2,0,L|58:48,1,56.9999999999999,2|0,2:0|3:0,2:0:0:0:
44,25,59662,1,10,2:0:0:0:
44,25,59885,1,2,3:2:0:0:
187,230,60557,1,10,3:2:0:0:
187,230,60669,1,2,3:2:0:0:
187,230,60781,1,6,3:2:0:0:
137,299,61005,102,0,P|107:324|35:321,1,114,10|10,2:0|2:0,2:0:0:0:
9,246,61676,2,0,L|-2:187,2,56.9999999999999,2|10|2,3:2|2:0|2:0,2:0:0:0:
42,329,62348,1,10,2:0:0:0:
42,329,62460,1,2,2:0:0:0:
42,329,62572,1,6,3:2:0:0:
116,358,62796,70,0,P|170:334|229:339,1,114,10|10,2:0|2:0,2:0:0:0:
295,372,63468,2,0,L|362:362,1,56.9999999999999,2|10,3:2|2:0,2:0:0:0:
391,294,63915,2,0,L|458:304,1,56.9999999999999,2|10,2:0|3:2,2:0:0:0:
495,366,64363,21,6,3:2:0:0:
503,239,64811,2,0,P|510:203|507:177,1,56.9999999999999,2|10,2:0|2:0,2:0:0:0:
433,154,65259,2,0,P|431:125|438:97,1,56.9999999999999,2|10,3:2|2:0,2:0:0:0:
509,62,65706,2,0,P|510:33|503:5,1,56.9999999999999,2|10,2:0|2:0,2:0:0:0:
423,5,66154,1,10,3:2:0:0:
209,311,67050,1,2,2:0:0:0:
209,311,67945,6,0,L|190:203,1,108,2|2,3:2|3:2,2:0:0:0:
174,53,68841,2,0,P|236:49|267:70,2,81.0000000000001,2|2|2,3:2|3:2|2:0,2:0:0:0:
106,87,69736,2,0,P|52:139|53:233,1,162,2|0,3:2|2:0,2:0:0:0:
90,285,70632,2,0,B|117:318|117:318|155:327,2,80.9999975280763,2|2|2,3:2|3:2|2:0,2:0:0:0:
124,217,71527,54,0,P|172:222|192:236,1,54.0000000000001,2|0,3:2|2:0,2:0:0:0:
200,254,71863,2,0,L|258:254,1,54.0000000000001,2|0,2:0|2:0,2:0:0:0:
286,233,72199,1,2,2:0:0:0:
286,233,72423,1,2,3:2:0:0:
337,375,72871,1,2,2:0:0:0:
482,333,73318,1,2,3:2:0:0:
496,35,74662,69,2,2:0:0:0:
436,80,74885,1,2,2:0:0:0:
374,38,75109,2,0,P|310:27|249:51,1,120,2|8,3:2|1:2,2:0:0:0:
197,101,75781,1,2,2:0:0:0:
197,101,76005,2,0,L|182:228,1,120,2|10,3:2|2:0,2:0:0:0:
282,355,76900,2,0,B|204:350|238:389|153:376,1,120,2|10,3:2|1:2,2:0:0:0:
61,246,77796,2,0,P|55:171|63:148,2,90,2|2|2,3:2|2:0|2:0,2:0:0:0:
128,303,78691,54,0,L|137:369,1,63,6|8,3:2|2:0,2:0:0:0:
178,380,79027,2,0,P|212:377|241:356,1,63,2|0,2:0|3:0,2:0:0:0:
255,321,79363,1,10,2:0:0:0:
255,321,79587,1,2,3:2:0:0:
337,352,79811,38,0,P|391:315|380:247,1,126,10|10,2:0|2:0,2:0:0:0:
320,203,80482,1,2,3:2:0:0:
222,55,80930,2,0,B|274:17|274:17|344:30,1,125.999996154785,2|2,2:0|3:2,2:0:0:0:
449,87,81714,1,2,2:0:0:0:
444,223,82050,1,10,2:0:0:0:
444,223,82274,22,0,L|457:354,1,126,6|0,3:2|3:2,2:0:0:0:
283,381,83169,2,0,L|270:250,1,126,0|0,3:2|3:0,2:0:0:0:
233,174,83841,1,0,2:0:0:0:
148,199,84065,1,8,2:0:0:0:
58,12,85856,54,0,B|31:69|70:131|101:106|150:185|90:268,1,270,6|0,2:0|2:0,2:0:0:0:
38,350,87423,1,2,2:0:0:0:
38,350,87647,2,0,B|90:377|142:346|142:346|176:366|248:364|248:364|211:324|223:261,1,324,6|0,2:0|2:0,2:0:0:0:
250,163,89438,2,0,B|262:98|262:98|318:146|397:133|397:133|442:155|436:237,1,324,6|0,2:0|2:0,2:0:0:0:
393,307,91229,2,0,B|395:345|395:345|434:380,2,80.9999975280763,2|2|2,2:0|2:0|2:0,2:0:0:0:
432,242,92124,1,2,2:0:0:0:
417,167,92348,1,2,2:0:0:0:
351,129,92572,1,2,2:0:0:0:
277,146,92796,1,2,2:0:0:0:
236,214,93020,22,0,P|226:274|202:296,1,85.4999999999999,6|2,3:2|2:0,2:0:0:0:
173,306,93468,2,0,L|52:296,1,114,2|0,2:0|3:2,2:0:0:0:
15,229,94139,1,10,2:0:0:0:
64,166,94363,2,0,P|70:126|49:96,1,56.9999999999999,2|10,2:0|2:0,2:0:0:0:
52,32,94811,70,0,L|186:14,1,114,2|2,3:2|2:0,2:0:0:0:
221,81,95482,1,8,2:0:0:0:
221,81,95706,2,0,B|292:64|279:102|348:86,1,114,0|0,3:2|2:0,2:0:0:0:
415,80,96378,1,10,3:2:0:0:
415,80,96602,2,0,P|428:31|416:-4,2,85.4999999999999,6|2|10,3:2|2:0|2:0,2:0:0:0:
426,158,97497,2,0,P|472:191|517:187,2,85.4999999999999,2|2|2,3:2|2:0|2:0,2:0:0:0:
347,172,98393,5,2,2:0:0:0:
292,230,98617,1,2,2:0:0:0:
311,306,98841,1,2,2:0:0:0:
386,334,99065,1,2,2:0:0:0:
450,287,99288,1,2,2:0:0:0:
504,20,100184,70,0,B|447:13|470:49|386:35,1,99,6|2,3:2|2:0,2:0:0:0:
366,17,100632,2,0,B|308:27|308:27|274:101,1,132.00000402832,2|0,2:0|2:0,2:0:0:0:
274,185,101303,2,0,P|226:206|146:176,1,132,10|10,2:0|2:0,2:0:0:0:
122,100,101975,1,6,3:2:0:0:
122,100,102199,1,8,2:0:0:0:
0,0,103094,53,10,2:0:0:0:
6,92,103318,1,2,2:0:0:0:
60,166,103542,1,10,2:0:0:0:
141,208,103766,54,0,P|177:211|206:200,1,66,6|8,3:2|2:0,2:0:0:0:
238,168,104102,2,0,P|269:164|300:176,1,66,2|0,2:0|3:0,2:0:0:0:
331,212,104438,1,10,2:0:0:0:
357,300,104662,2,0,P|368:354|386:366,1,66,2|8,2:0|2:0,2:0:0:0:
418,370,104997,2,0,L|482:358,1,66,2|0,2:0|3:0,2:0:0:0:
503,316,105333,1,10,2:0:0:0:
447,242,105557,2,0,P|440:188|453:107,1,132,6|0,3:2|2:0,2:0:0:0:
353,371,106676,53,10,3:2:0:0:
279,315,106900,1,10,3:2:0:0:
199,362,107124,1,10,3:2:0:0:
134,295,107348,2,0,P|89:295|55:315,1,66,6|8,1:2|2:0,2:0:0:0:
38,337,107684,1,2,2:0:0:0:
15,377,107796,2,0,L|3:221,1,132,2|0,2:0|2:0,2:0:0:0:
52,165,108468,1,10,2:0:0:0:
143,169,108691,1,2,2:0:0:0:
198,95,108915,1,10,2:0:0:0:
287,119,109139,54,0,P|342:155|347:188,1,99,4|2,3:2|2:0,2:0:0:0:
345,230,109587,2,0,B|381:231|381:231|384:226|384:226|416:225,1,66,2|8,2:0|2:0,2:0:0:0:
489,179,110035,2,0,B|485:110|485:110|426:57,1,132,0|0,2:0|2:0,2:0:0:0:
369,23,110706,1,10,3:2:0:0:
369,23,110818,1,2,3:2:0:0:
369,23,110930,54,0,P|328:7|285:11,1,66,6|8,3:2|2:0,2:0:0:0:
236,67,111378,2,0,P|196:64|157:36,1,66,0|8,2:0|2:0,2:0:0:0:
87,17,111826,2,0,B|109:72|55:56|80:125,2,99,2|2|10,2:0|2:0|2:0,2:0:0:0:
0,0,112721,53,10,3:2:0:0:
120,207,113617,1,10,3:1:0:0:
0,384,114512,1,6,2:1:0:0:
466,22,121676,54,0,L|463:122,1,90,4|2,3:2|2:0,2:0:0:0:
458,154,122124,2,0,P|428:176|402:173,1,60,2|10,2:0|2:0,2:0:0:0:
333,132,122572,1,2,3:2:0:0:
284,200,122796,1,10,2:0:0:0:
321,275,123020,1,2,2:0:0:0:
406,299,123244,1,10,2:0:0:0:
481,262,123468,54,0,L|490:324,1,60,4|10,3:2|2:0,2:0:0:0:
425,376,123915,2,0,L|352:387,1,60,2|10,2:0|2:0,2:0:0:0:
284,363,124363,2,0,P|255:304|267:251,1,120,2|2,3:2|2:0,2:0:0:0:
191,101,125259,2,0,L|183:225,1,120,4|2,3:2|2:0,2:0:0:0:
87,358,126154,2,0,P|48:366|-5:355,2,90,6|2|2,3:2|2:0|2:0,2:0:0:0:
161,318,127050,1,2,2:0:0:0:
4,167,127945,1,2,2:0:0:0:
122,14,128841,70,0,P|175:31|236:19,1,108,2|2,2:0|2:0,2:0:0:0:
376,7,129736,2,0,P|389:71|374:122,1,108,2|2,2:0|2:0,2:0:0:0:
243,179,130632,2,0,L|256:267,2,81.0000000000001,2|0|2,2:0|2:0|2:0,2:0:0:0:
181,135,131527,1,2,2:0:0:0:
8,280,132199,1,2,2:0:0:0:
8,280,132311,1,2,2:0:0:0:
8,280,132423,54,0,P|6:348|26:390,1,108,6|2,2:0|2:0,2:0:0:0:
158,318,133318,2,0,L|277:301,1,108,2|2,2:0|2:0,2:0:0:0:
381,206,134214,2,0,B|395:163|395:163|379:125,2,80.9999975280763,2|2|2,2:0|2:0|2:0,2:0:0:0:
309,230,135109,1,2,2:0:0:0:
503,381,135781,1,2,2:0:0:0:
503,381,135893,1,2,2:0:0:0:
503,381,136005,54,0,L|511:264,1,108,6|2,2:0|2:0,2:0:0:0:
368,219,136900,2,0,L|360:102,1,108,2|2,2:0|2:0,2:0:0:0:
493,38,137796,2,0,P|461:25|413:23,2,81.0000000000001,2|2|2,2:0|2:0|2:0,2:0:0:0:
485,113,138691,1,2,2:0:0:0:
197,18,139587,54,0,B|188:55|224:76|201:133,1,108,2|0,2:0|2:0,2:0:0:0:
132,257,140482,2,0,P|156:322|166:333,2,81.0000000000001,2|2|2,2:0|2:0|2:0,2:0:0:0:
191,209,141378,1,2,2:0:0:0:
147,104,141714,1,2,2:0:0:0:
33,99,142050,1,2,2:0:0:0:
33,99,142274,1,2,2:0:0:0:
29,287,143169,5,6,2:0:0:0:
29,287,143617,1,2,3:2:0:0:
51,359,143841,1,2,2:0:0:0:
126,364,144065,2,0,B|180:365|180:365|226:328,1,108,2|2,2:0|3:2,2:0:0:0:
189,183,144960,1,2,2:0:0:0:
290,234,145296,1,0,2:0:0:0:
323,357,145632,1,0,2:0:0:0:
323,357,145856,1,2,2:0:0:0:
481,384,146527,1,2,2:0:0:0:
481,384,146639,1,2,2:0:0:0:
481,384,146751,54,0,B|499:331|499:331|476:268,1,108,2|2,2:0|3:2,2:0:0:0:
367,181,147647,2,0,B|349:132|349:132|367:79,1,108,2|2,2:0|3:2,2:0:0:0:
233,7,148542,1,2,2:0:0:0:
170,101,148878,1,0,2:0:0:0:
64,75,149214,1,2,2:0:0:0:
64,75,149438,1,2,2:0:0:0:
21,221,150109,2,0,L|4:175,2,27,2|2|2,2:0|2:0|2:0,2:0:0:0:
36,261,150557,38,0,P|71:311|118:324,1,108,2|2,2:0|2:0,2:0:0:0:
174,277,151229,2,0,P|204:269|238:274,2,54.0000000000001,2|2|2,2:0|2:0|3:2,2:0:0:0:
148,348,151900,2,0,L|144:379,2,27,2|2|2,2:0|2:0|2:0,2:0:0:0:
174,277,152348,2,0,L|185:165,1,108,2|2,2:0|2:0,2:0:0:0:
192,93,153020,2,0,P|224:71|252:68,1,54.0000000000001,2|2,2:0|2:0,2:0:0:0:
309,95,153468,2,0,P|334:87|355:69,1,54.0000000000001,2|2,3:2|2:0,2:0:0:0:
402,10,153915,69,6,3:2:0:0:
479,364,155706,1,6,2:0:0:0:
412,272,156042,1,6,2:0:0:0:
469,175,156378,1,6,2:0:0:0:
469,175,156602,1,14,2:0:0:0:
247,27,157497,6,0,P|232:92|239:140,1,99,2|0,3:2|2:0,2:0:0:0:
252,166,157945,2,0,L|175:174,1,66,2|10,2:0|2:0,2:0:0:0:
150,258,158393,1,2,3:2:0:0:
57,256,158617,1,10,2:0:0:0:
0,182,158841,1,2,2:0:0:0:
5,89,159065,1,10,2:0:0:0:
71,25,159288,54,0,L|147:17,1,66,2|10,3:2|2:0,2:0:0:0:
187,95,159736,2,0,L|263:103,1,66,2|10,2:0|2:0,2:0:0:0:
296,20,160184,2,0,L|372:12,1,66,2|10,3:2|2:0,2:0:0:0:
430,75,160632,2,0,L|506:83,1,66,2|10,2:0|2:0,2:0:0:0:
492,174,161079,54,0,P|508:231|498:318,1,132,2|2,3:2|2:0,2:0:0:0:
430,361,161751,1,10,2:0:0:0:
364,296,161975,2,0,L|218:286,1,132,2|2,3:2|2:0,2:0:0:0:
162,226,162647,1,10,2:0:0:0:
93,288,162871,2,0,P|55:281|23:256,1,66,10|10,3:0|2:0,2:0:0:0:
0,360,163318,2,0,P|38:367|70:392,1,66,10|10,2:0|2:0,2:0:0:0:
93,295,163766,1,10,3:2:0:0:
36,222,163990,1,10,2:0:0:0:
25,130,164214,1,10,2:0:0:0:
57,43,164438,1,10,2:0:0:0:
148,27,164662,54,0,B|191:22|191:22|271:55|251:153,1,198,6|10,3:2|2:0,2:0:0:0:
189,215,165557,1,2,3:0:0:0:
206,305,165781,1,10,2:0:0:0:
290,342,166005,1,2,2:0:0:0:
376,309,166229,1,10,2:0:0:0:
401,220,166453,54,0,B|404:130|404:130|419:123|419:123|422:23,1,198,6|10,3:2|2:0,2:0:0:0:
330,14,167348,1,2,3:0:0:0:
262,76,167572,1,10,2:0:0:0:
177,39,167796,1,2,2:0:0:0:
108,101,168020,1,10,2:0:0:0:
31,48,168244,70,0,L|-4:41,2,33,8|0|8,3:2|2:0|2:0,2:0:0:0:
32,140,168691,1,8,2:0:0:0:
33,166,168803,1,0,2:0:0:0:
34,192,168915,1,8,2:0:0:0:
114,236,169139,2,0,L|149:229,2,33,8|0|8,3:2|2:0|2:0,2:0:0:0:
113,328,169587,1,8,2:0:0:0:
112,354,169699,1,0,2:0:0:0:
111,380,169811,1,8,2:0:0:0:
19,361,170035,38,0,P|2:330|4:294,2,66,6|0|0,2:1|2:0|2:0,2:0:0:0:
112,335,170706,1,2,2:0:0:0:
112,335,170818,1,2,2:0:0:0:
112,335,170930,2,0,B|186:320|186:320|234:352,1,132.00000402832,2|2,2:0|2:0,2:0:0:0:
426,384,171826,38,0,B|463:337|463:337|458:278,1,113.999996955872,2|10,3:2|2:0,2:0:0:0:
333,217,172721,2,0,B|296:170|296:170|301:111,1,113.999996955872,2|10,3:2|2:0,2:0:0:0:
441,8,173617,2,0,B|429:38|429:38|390:51|348:26,1,114,2|8,3:2|2:0,2:0:0:0:
273,8,174288,1,2,2:0:0:0:
221,69,174512,2,0,B|199:95|199:95|176:8,1,114,2|8,3:2|2:0,2:0:0:0:
19,1,175408,54,0,B|-8:49|-8:49|7:111,1,113.999996955872,6|10,3:2|2:0,2:0:0:0:
158,151,176303,2,0,B|185:199|185:199|170:261,1,113.999996955872,2|10,3:2|2:0,2:0:0:0:
17,362,177199,2,0,P|68:386|130:366,1,114,2|8,3:2|2:0,2:0:0:0:
200,343,177871,1,2,2:0:0:0:
200,343,177982,1,2,2:0:0:0:
200,343,178094,2,0,L|268:332,1,56.9999999999999,2|0,3:2|2:0,2:0:0:0:
315,280,178542,1,8,2:0:0:0:
485,383,178990,54,0,L|498:265,1,114,6|10,3:2|2:0,2:0:0:0:
446,118,179885,2,0,B|475:83|475:83|475:32,2,85.4999999999999,2|2|2,3:2|2:0|2:0,2:0:0:0:
378,161,180781,1,2,3:2:0:0:
251,63,181229,102,0,P|177:49|138:72,1,114,10|2,2:0|3:2,2:0:0:0:
64,153,182012,1,2,2:0:0:0:
125,255,182348,1,2,2:0:0:0:
209,281,182572,2,0,P|256:267|271:243,1,63,6|8,3:2|2:0,2:0:0:0:
318,187,183020,2,0,P|321:149|304:121,1,63,0|10,2:0|2:0,2:0:0:0:
221,135,183468,1,2,3:2:0:0:
133,141,183691,1,8,2:0:0:0:
88,64,183915,1,0,2:0:0:0:
154,6,184139,1,8,2:0:0:0:
239,29,184363,54,0,P|298:35|360:14,1,126,4|0,3:2|2:0,2:0:0:0:
451,5,185035,1,8,2:0:0:0:
451,5,185259,2,0,L|471:143,1,126,2|0,3:2|2:0,2:0:0:0:
500,303,186154,53,6,2:0:0:0:
452,377,186378,1,8,2:0:0:0:
363,379,186602,1,2,2:0:0:0:
296,320,186826,1,8,2:0:0:0:
300,231,187050,1,2,2:0:0:0:
371,179,187274,1,8,2:0:0:0:
456,198,187497,1,2,2:0:0:0:
499,274,187721,1,8,2:0:0:0:
462,354,187945,1,6,2:0:0:0:
286,371,188393,53,2,2:0:0:0:
201,345,188617,1,8,2:0:0:0:
183,258,188841,1,2,2:0:0:0:
246,196,189065,1,8,2:0:0:0:
212,114,189288,1,2,2:0:0:0:
123,120,189512,1,8,2:0:0:0:
95,212,189736,2,0,P|91:267|114:360,1,138,6|0,2:0|2:0,2:0:0:0:
299,381,190632,70,0,L|291:234,1,138,2|0,2:0|2:0,2:0:0:0:
209,68,191527,1,6,2:0:0:0:
119,181,191863,1,6,2:0:0:0:
5,100,192199,1,6,2:0:0:0:
5,100,192423,1,6,2:0:0:0:
203,76,192871,2,0,L|209:126,2,34.5,8|8|0,2:0|2:0|3:2,2:0:0:0:
229,65,193206,1,0,3:2:0:0:
255,53,193318,22,0,P|304:44|358:64,1,90,6|6,2:0|2:0,2:0:0:0:
372,133,193878,1,2,2:0:0:0:
391,170,193990,2,0,P|429:206|496:190,1,120,6|2,2:1|2:0,2:0:0:0:
320,381,195109,54,0,P|269:344|229:342,1,90,6|6,2:0|2:0,2:0:0:0:
162,362,195669,1,2,2:0:0:0:
120,365,195781,2,0,P|70:332|54:266,1,120,6|2,2:1|2:0,2:0:0:0:
154,46,196900,54,0,L|293:37,1,120,10|2,2:0|2:0,2:0:0:0:
351,4,197572,1,2,2:0:0:0:
429,33,197796,2,0,P|444:70|440:102,1,60,10|2,2:0|2:0,2:0:0:0:
388,153,198244,2,0,P|390:183|403:210,1,60,2|2,2:0|2:0,2:0:0:0:
475,251,198691,53,14,2:0:0:0:
455,375,199027,1,14,2:0:0:0:
334,359,199363,1,2,2:0:0:0:
334,359,199587,2,0,L|315:291,2,60,2|2|2,2:0|2:0|2:0,2:0:0:0:
252,379,200259,1,2,3:2:0:0:
193,319,200482,1,2,2:0:0:0:
505,382,206975,69,0,2:0:0:0:
457,323,207199,1,2,2:0:0:0:
487,253,207423,1,0,2:0:0:0:
445,189,207647,2,0,P|380:176|356:163,2,81.0000000000001,2|2|2,2:0|2:0|2:0,2:0:0:0:
481,117,208766,2,0,P|498:65|443:28,1,108,0|2,2:0|2:0,2:0:0:0:
395,60,209438,2,0,L|303:55,1,81.0000000000001,2|2,2:0|2:0,2:0:0:0:
53,9,210557,53,2,2:0:0:0:
21,77,210781,1,2,2:0:0:0:
73,131,211005,1,2,2:0:0:0:
147,116,211229,2,0,L|212:102,1,54.0000000000001,2|0,2:1|2:0,2:1:0:0:
313,212,211900,1,0,2:0:0:0:
313,212,212124,2,0,P|321:258|296:328,1,108,2|2,2:1|2:1,2:1:0:0:
245,362,212796,1,0,2:0:0:0:
245,362,213020,2,0,B|194:378|194:378|134:360,1,108,0|2,2:1|2:1,2:1:0:0:
364,384,214139,53,2,2:0:0:0:
384,311,214363,1,2,2:1:0:0:
341,248,214587,1,2,2:0:0:0:
387,188,214811,2,0,P|424:202|475:196,1,81.0000000000001,2|0,2:0|2:0,2:0:0:0:
502,0,215930,53,2,2:0:0:0:
464,65,216154,1,2,2:0:0:0:
388,65,216378,1,2,2:0:0:0:
343,4,216602,2,0,P|308:31|261:44,1,81.0000000000001,2|2,2:0|2:0,2:0:0:0:
243,19,217050,2,0,L|231:128,1,108,2|2,2:0|2:1,2:0:0:0:
219,352,218169,54,0,L|225:386,2,27,0|0|2,2:0|2:0|2:0,2:0:0:0:
124,288,218729,1,0,2:0:0:0:
167,183,219065,1,2,2:0:0:0:
167,183,219288,21,2,2:0:0:0:
154,70,219624,1,0,2:0:0:0:
52,18,219960,1,0,2:0:0:0:
52,18,220184,1,2,2:0:0:0:
42,384,221975,70,0,P|29:342|43:307,1,68.9999999999999,2|8,3:2|2:0,2:0:0:0:
71,285,222311,2,0,P|77:251|64:219,1,68.9999999999999,2|0,2:0|3:2,2:0:0:0:
19,200,222647,1,10,2:0:0:0:
19,200,222871,1,0,3:2:0:0:
17,103,223094,54,0,L|174:88,1,138,10|10,2:0|2:0,2:0:0:0:
254,83,223766,1,2,3:2:0:0:
254,83,223990,1,8,2:0:0:0:
512,0,224885,53,10,2:0:0:0:
419,27,225109,1,10,2:0:0:0:
392,119,225333,1,10,2:0:0:0:
441,202,225557,2,0,L|434:285,1,68.9999999999999,6|8,3:2|2:0,2:0:0:0:
481,285,225893,2,0,L|474:368,1,68.9999999999999,2|0,2:0|3:2,2:0:0:0:
434,381,226229,1,10,2:0:0:0:
348,334,226453,54,0,B|316:318|316:318|279:327,1,68.9999999999999,2|8,3:2|2:0,2:0:0:0:
257,366,226788,2,0,B|225:382|225:382|188:373,1,68.9999999999999,2|0,2:0|3:2,2:0:0:0:
156,341,227124,1,10,2:0:0:0:
139,245,227348,2,0,L|157:100,1,138,6|0,3:2|2:0,2:0:0:0:
0,0,228468,53,10,3:2:0:0:
47,83,228691,1,10,3:2:0:0:
13,173,228915,1,10,3:2:0:0:
84,237,229139,2,0,P|101:285|100:309,1,68.9999999999999,6|8,3:2|2:0,2:0:0:0:
75,345,229475,1,2,2:0:0:0:
27,354,229587,1,2,2:0:0:0:
315,380,230259,53,10,2:0:0:0:
250,308,230482,1,2,2:0:0:0:
286,218,230706,1,10,2:0:0:0:
221,145,230930,2,0,L|232:61,1,68.9999999999999,6|8,3:2|2:0,2:0:0:0:
252,33,231266,1,2,2:0:0:0:
298,18,231378,1,2,2:0:0:0:
476,92,231826,2,0,B|486:164|443:136|461:230,1,138,0|0,3:2|2:0,2:0:0:0:
480,329,232497,1,10,2:0:0:0:
480,329,232609,1,2,2:0:0:0:
480,329,232721,54,0,L|403:335,1,68.9999999999999,10|8,2:0|2:0,2:0:0:0:
322,373,233169,2,0,L|245:379,1,68.9999999999999,8|8,2:0|2:0,2:0:0:0:
170,327,233617,2,0,B|120:345|130:310|60:325,2,103.5,6|6|6,2:0|2:0|2:0,2:0:0:0:
222,245,234512,1,6,2:1:0:0:
312,58,235408,1,2,2:0:0:0:
82,251,236303,54,0,B|53:241|53:241|40:182,1,75,6|8,3:2|2:0,2:0:0:0:
70,151,236639,2,0,B|82:114|82:114|58:80,1,75,0|0,2:0|3:2,2:0:0:0:
14,59,236975,1,8,2:0:0:0:
107,11,237199,2,0,L|185:2,1,75,0|8,3:2|2:0,2:0:0:0:
209,47,237535,2,0,L|287:38,1,75,0|0,2:0|3:2,2:0:0:0:
336,18,237871,53,10,2:0:0:0:
336,18,237982,1,2,2:0:0:0:
336,18,238094,2,0,P|324:76|405:131,1,150,2|0,3:2|2:0,2:0:0:0:
476,73,238766,1,10,2:0:0:0:
476,73,238878,1,2,2:0:0:0:
475,73,238990,2,0,B|489:119|473:150|473:150|480:166|480:166|465:192|479:216,1,150,2|0,3:2|2:0,2:0:0:0:
463,327,239662,53,10,2:0:0:0:
463,327,239774,1,2,2:0:0:0:
463,327,239885,2,0,P|403:321|376:328,1,75,6|8,3:2|2:0,2:0:0:0:
352,361,240221,2,0,P|292:367|265:360,1,75,2|0,2:0|2:0,2:0:0:0:
237,330,240557,1,10,2:0:0:0:
143,378,240781,2,0,L|129:292,1,75,2|8,3:2|2:0,2:0:0:0:
121,251,241117,2,0,B|115:226|115:226|51:192|51:192|52:155,1,112.5,2|10,2:0|2:0,2:0:0:0:
94,73,241676,2,0,P|154:43|210:59,2,112.5,2|2|10,3:2|2:0|2:0,2:0:0:0:
0,15,242572,1,2,3:2:0:0:
336,0,243468,53,2,3:2:0:0:
439,22,243691,1,10,2:0:0:0:
489,114,243915,1,2,2:0:0:0:
448,210,244139,1,10,2:0:0:0:
351,247,244363,2,0,L|271:235,1,75,2|10,3:2|2:0,2:0:0:0:
176,265,244811,2,0,P|156:305|167:351,1,75,2|10,2:0|2:0,2:0:0:0:
260,365,245259,53,2,3:2:0:0:
365,355,245482,1,10,2:0:0:0:
431,272,245706,1,2,2:0:0:0:
413,168,245930,1,10,3:2:0:0:
317,126,246154,1,2,3:2:0:0:
262,215,246378,1,10,2:0:0:0:
161,242,246602,1,2,2:0:0:0:
71,189,246826,1,10,2:0:0:0:
76,84,247050,54,0,B|104:40|104:40|218:34|218:34|192:99,1,225,6|10,3:2|2:0,2:0:0:0:
119,158,247945,2,0,B|82:214|82:214|89:315|89:315|125:359,1,225,6|10,3:2|2:0,2:0:0:0:
229,342,248841,2,0,B|326:334|326:334|357:355|357:355|458:352,1,225,6|10,3:2|2:0,2:0:0:0:
510,268,249736,1,6,3:1:0:0:
471,92,250184,1,2,2:0:0:0:
397,166,250408,1,2,2:0:0:0:
317,233,250632,54,0,L|232:217,1,75,6|8,3:2|2:0,2:0:0:0:
191,215,250968,2,0,P|146:217|124:240,1,75,2|0,2:0|3:2,2:0:0:0:
112,287,251303,1,10,2:0:0:0:
38,170,251751,2,0,B|32:133|32:133|-21:103|8:34,1,150,10|10,2:0|2:0,2:0:0:0:
113,22,252423,2,0,B|170:37|170:37|193:96,1,112.5,6|2,3:2|2:0,2:0:0:0:
442,341,253542,53,10,2:0:0:0:
383,254,253766,1,2,2:0:0:0:
437,163,253990,1,10,2:0:0:0:
393,67,254214,54,0,L|319:57,1,75,6|8,3:2|2:0,2:0:0:0:
280,93,254550,2,0,L|189:82,1,75,2|0,2:0|3:2,2:0:0:0:
174,41,254885,1,10,2:0:0:0:
71,21,255109,2,0,P|68:62|80:102,1,75,2|10,3:2|2:0,2:0:0:0:
115,131,255445,2,0,P|118:172|106:212,1,75,2|0,2:0|3:2,2:0:0:0:
70,239,255781,1,10,2:0:0:0:
12,326,256005,2,0,B|75:329|75:329|125:376,1,112.5,2|2,3:2|2:0,2:0:0:0:
483,377,257124,69,10,2:0:0:0:
420,333,257348,1,10,2:0:0:0:
343,341,257572,1,10,2:0:0:0:
294,281,257796,2,0,L|232:288,1,56.9999999999999,6|8,3:2|2:0,2:0:0:0:
169,247,258244,2,0,P|159:183|177:128,1,114,2|0,2:0|3:2,2:0:0:0:
252,127,258915,1,10,2:0:0:0:
330,109,259139,1,2,2:0:0:0:
409,92,259363,1,10,2:0:0:0:
488,76,259587,54,0,P|514:124|510:157,1,85.4999999999999,6|2,3:2|2:0,2:0:0:0:
479,177,260035,1,2,2:0:0:0:
390,308,260482,2,0,L|263:293,1,114,0|0,2:0|2:0,2:0:0:0:
220,239,261154,1,10,2:0:0:0:
220,239,261266,1,2,2:0:0:0:
220,239,261378,54,0,P|211:206|219:174,1,56.9999999999999,6|8,3:2|2:0,2:0:0:0:
176,113,261826,2,0,P|148:115|120:110,1,56.9999999999999,8|8,2:0|2:0,2:0:0:0:
44,84,262274,2,0,L|53:-6,2,85.4999999999999,10|0|10,2:0|2:0|2:0,2:0:0:0:
9,155,263169,1,6,2:0:0:0:
122,366,263841,2,0,L|114:398,3,19,0|0|0|6,3:0|3:0|3:0|3:2,2:0:0:0:
290,115,264960,85,6,2:1:0:0:
256,192,265035,12,0,266303,2:0:0:0:
255,6,266751,69,2,2:0:0:0:
255,6,266975,2,0,B|264:44|264:44|240:78|240:78|259:129|259:129|235:172,1,171,2|6,2:0|1:0,2:0:0:0:
