osu file format v14

[General]
AudioFilename: audio.mp3
AudioLeadIn: 0
PreviewTime: 182572
Countdown: 0
SampleSet: Soft
StackLeniency: 0.5
Mode: 0
LetterboxInBreaks: 0
WidescreenStoryboard: 1

[Editor]
Bookmarks: 8841,16005,32124,39288,53617,67945,75109,85856,100184,114512,121676,128841,143169,157497,171826,186154,193318,200482,221975,236303,257796,264960
DistanceSpacing: 1
BeatDivisor: 1
GridSize: 16
TimelineZoom: 2.900001

[Metadata]
Title:YURAGI ~Kuroshiro Chocho~
TitleUnicode:YURAGI ~黒白蝶々~
Artist:Hatsuki Yura, Seraph
ArtistUnicode:葉月ゆら, Seraph
Creator:Z5553
Version:Easy
Source:
Tags:asymmetry gothic japanese rock doujin miku hinode drop pratanallis
BeatmapID:3691791
BeatmapSetID:1724147

[Difficulty]
HPDrainRate:2
CircleSize:2
OverallDifficulty:2
ApproachRate:3
SliderMultiplier:1
SliderTickRate:1

[Events]
//Background and Video events
0,0,"bg.jpeg",0,0
//Break Periods
2,114712,120236
2,200482,206207
//Storyboard Layer 0 (Background)
//Storyboard Layer 1 (Fail)
//Storyboard Layer 2 (Pass)
//Storyboard Layer 3 (Foreground)
//Storyboard Layer 4 (Overlay)
//Storyboard Sound Samples

[TimingPoints]
1677,447.76119402985,4,2,1,100,1,0
7050,-100,4,2,1,50,0,0
8841,-100,4,2,1,90,0,0
30333,-100,4,2,1,70,0,0
32124,-100,4,2,1,100,0,1
37497,-100,4,2,1,70,0,0
39288,-100,4,2,1,65,0,0
67945,-100,4,2,1,50,0,0
75109,-100,4,2,1,70,0,0
78691,-100,4,2,1,80,0,0
93020,-100,4,2,1,75,0,0
100184,-100,4,2,1,85,0,1
112721,-100,4,2,1,85,0,0
114512,-100,4,2,1,100,0,0
121676,-100,4,2,1,80,0,0
127050,-100,4,2,1,50,0,0
147647,-100,4,2,1,80,0,0
148094,-100,4,2,1,50,0,0
155706,-100,4,2,1,100,0,0
157497,-100,4,2,1,80,0,1
170035,-100,4,2,1,70,0,1
171826,-100,4,2,1,75,0,0
176303,-100,4,2,1,85,0,0
177199,-100,4,2,1,75,0,0
186154,-100,4,2,1,100,0,1
193318,-100,4,2,1,100,0,0
207647,-100,4,2,1,50,0,0
219288,-100,4,2,1,75,0,0
221975,-100,4,2,1,100,0,1
234512,-100,4,2,1,100,0,0
236303,-100,4,2,1,90,0,1
257796,-100,4,2,1,80,0,0
263169,-100,4,2,1,70,0,0

[Colours]
Combo1 : 255,115,255
Combo2 : 192,192,192
Combo3 : 255,98,98
Combo4 : 210,164,255
Combo5 : 255,198,255
Combo6 : 128,128,128
Combo7 : 255,128,0
Combo8 : 169,83,255

[HitObjects]
192,376,1677,5,2,2:0:0:0:
2,186,3468,1,2,2:0:0:0:
192,0,5259,1,2,2:0:0:0:
377,186,7050,2,0,B|386:237|386:237|359:288,1,100,2|2,2:0|2:0,2:0:0:0:
277,330,7945,2,0,B|228:342|228:342|179:314,1,100,2|2,2:0|2:0,2:0:0:0:
133,229,8841,6,0,B|106:177|106:177|206:28|206:28|277:38,1,300,2|0,2:0|2:0,2:0:0:0:
363,7,10632,2,0,B|461:23|461:23|492:130|492:130|453:215,1,300,2|0,2:0|2:0,2:0:0:0:
471,309,12423,1,10,2:0:0:0:
297,210,13318,1,10,2:0:0:0:
164,359,14214,1,14,2:0:0:0:
260,332,14662,1,2,2:0:0:0:
346,382,15109,1,2,2:0:0:0:
473,227,16005,38,0,L|494:23,1,200,6|2,3:2|3:0,2:0:0:0:
396,5,17348,1,2,2:0:0:0:
320,71,17796,2,0,L|297:280,1,200,6|2,3:2|3:2,2:0:0:0:
239,350,19139,1,2,2:0:0:0:
139,355,19587,53,6,3:2:0:0:
21,193,20482,1,2,3:2:0:0:
90,5,21378,2,0,L|190:32,1,100,2|2,3:2|2:0,2:0:0:0:
255,103,22274,2,0,L|360:78,1,100,2|2,3:2|2:0,2:0:0:0:
437,26,23169,54,0,B|490:104|490:104|476:209,1,200,6|2,3:2|3:2,2:0:0:0:
390,261,24512,1,2,2:0:0:0:
411,358,24960,2,0,L|534:350,1,100,6|2,3:2|2:0,2:0:0:0:
490,253,25856,2,0,P|485:197|491:154,1,100,2|2,3:2|2:0,2:0:0:0:
512,51,26751,53,6,3:2:0:0:
314,19,27647,1,2,3:2:0:0:
148,131,28542,2,0,L|132:234,1,100,6|2,3:2|2:0,2:0:0:0:
40,269,29438,2,0,L|23:388,1,100,2|2,3:2|2:0,2:0:0:0:
124,348,30333,2,0,B|172:356|172:356|255:297|221:218,1,200,2|2,2:0|2:0,2:0:0:0:
49,129,32124,6,0,B|10:104|10:104|163:0,1,200,10|8,2:0|2:0,2:0:0:0:
233,44,33468,1,8,2:0:0:0:
331,27,33915,2,0,L|308:235,1,200,10|8,2:0|2:0,2:0:0:0:
241,299,35259,1,8,2:0:0:0:
318,369,35706,2,0,B|421:346|421:346|514:369,2,200,6|2|6,2:0|2:0|2:0,2:0:0:0:
402,187,38393,1,6,3:2:0:0:
256,42,39288,6,0,P|217:35|77:106,1,200,6|2,3:2|3:2,2:0:0:0:
53,199,40632,1,2,2:0:0:0:
109,281,41079,2,0,P|175:256|197:138,1,200,2|2,3:2|3:2,2:0:0:0:
355,33,42871,54,0,P|396:20|471:24,1,100,6|2,3:2|2:0,2:0:0:0:
472,117,43766,2,0,P|433:131|369:127,1,100,2|2,3:2|2:0,2:0:0:0:
293,186,44662,2,0,P|283:271|350:365,1,200,2|2,3:2|3:2,2:0:0:0:
145,373,46453,54,0,P|86:378|37:350,1,100,6|2,3:2|2:0,2:0:0:0:
13,268,47348,2,0,P|13:225|29:158,1,100,10|10,2:0|2:0,2:0:0:0:
86,90,48244,2,0,P|144:72|215:92,1,100,6|2,2:1|2:0,2:0:0:0:
240,158,49139,1,0,2:0:0:0:
43,120,50035,54,0,P|32:213|92:315,1,200,6|2,3:2|3:2,2:0:0:0:
174,272,51378,1,0,2:0:0:0:
220,360,51826,2,0,L|350:351,1,100,6|0,3:2|2:0,2:0:0:0:
415,382,52721,1,6,2:0:0:0:
245,253,53617,70,0,L|277:52,1,200,4|2,3:2|3:2,2:0:0:0:
363,5,54960,1,2,2:0:0:0:
457,37,55408,2,0,L|423:253,1,200,2|2,3:2|3:2,2:0:0:0:
453,330,56751,1,0,3:0:0:0:
367,382,57199,2,0,L|227:372,1,100,6|2,3:2|2:0,2:0:0:0:
204,296,58094,2,0,L|86:284,1,100,2|2,3:2|2:0,2:0:0:0:
51,200,58990,2,0,P|12:271|69:385,1,200
143,195,60781,54,0,P|137:109|14:40,1,200,6|2,3:2|2:0,2:0:0:0:
219,8,62572,2,0,B|409:-9|330:105|527:76,1,300,6|2,3:2|2:0,2:0:0:0:
503,179,64363,1,6,3:2:0:0:
443,259,64811,2,0,B|401:281|401:281|334:266,1,100,2|2,2:0|3:2,2:0:0:0:
257,229,65706,1,2,2:0:0:0:
197,309,66154,1,10,3:2:0:0:
385,377,67050,1,2,2:0:0:0:
193,321,67945,38,0,P|164:333|88:331,2,100,2|2|2,3:2|3:2|3:2,2:0:0:0:
228,119,69736,2,0,L|238:17,2,100,2|2|2,3:2|3:2|3:2,2:0:0:0:
62,190,71527,2,0,P|38:153|32:99,2,100,2|0|2,3:2|2:0|3:2,2:0:0:0:
162,189,72871,1,2,2:0:0:0:
211,275,73318,1,2,3:2:0:0:
493,375,74662,1,2,2:0:0:0:
410,319,75109,6,0,L|437:121,1,200,2|2,3:2|3:2,2:0:0:0:
493,37,76453,1,10,2:0:0:0:
395,15,76900,2,0,P|343:9|287:28,1,100,2|10,3:2|1:2,2:0:0:0:
237,101,77796,2,0,P|189:115|132:97,1,100,2|0,3:2|2:0,2:0:0:0:
71,31,78691,53,6,3:2:0:0:
7,107,79139,1,2,2:0:0:0:
39,201,79587,1,2,3:2:0:0:
1,381,80482,1,2,3:2:0:0:
73,315,80930,1,2,2:0:0:0:
148,249,81378,2,0,P|203:256|285:381,1,200,2|6,3:2|3:2,2:0:0:0:
384,359,82721,69,0,3:2:0:0:
480,333,83169,1,0,3:2:0:0:
500,235,83617,1,0,3:0:0:0:
439,155,84065,1,8,2:0:0:0:
58,31,85856,54,0,B|139:72|139:72|320:32|320:32|430:89,1,400,6|6,2:0|2:0,2:0:0:0:
512,300,89438,2,0,B|409:362|340:375|340:375|216:319|193:214,1,400,6|2,2:0|2:0,2:0:0:0:
322,72,92124,1,2,2:0:0:0:
223,88,92572,1,2,2:0:0:0:
240,186,93020,22,0,P|184:308|103:334,1,200,6|0,3:2|3:2,2:0:0:0:
31,312,94363,1,2,2:0:0:0:
2,216,94811,2,0,L|27:9,1,200,2|0,3:2|3:2,2:0:0:0:
125,20,96154,1,0,2:0:0:0:
193,92,96602,2,0,B|250:116|250:116|332:93|312:-2,2,200,6|2|2,3:2|3:2|2:0,2:0:0:0:
0,343,100184,38,0,B|138:338|138:338|161:355|161:355|309:355,1,300,6|0,3:2|2:0,2:0:0:0:
373,293,101975,2,0,P|398:247|308:138,1,200,6|0,3:2|2:0,2:0:0:0:
223,149,103318,1,2,2:0:0:0:
196,53,103766,2,0,B|103:25|103:25|4:64,2,200,6|2|6,3:2|2:0|3:2,2:0:0:0:
378,135,106453,1,0,2:0:0:0:
397,37,106900,1,10,3:2:0:0:
493,10,107348,54,0,P|511:78|477:219,1,200,6|0,1:2|2:0,2:0:0:0:
392,237,108691,1,2,2:0:0:0:
419,333,109139,2,0,L|198:344,1,200,4|0,3:2|2:0,2:0:0:0:
145,275,110482,1,0,2:0:0:0:
87,356,110930,54,0,P|35:354|-2:283,1,100,6|0,3:2|2:0,2:0:0:0:
43,230,111826,1,2,2:0:0:0:
8,136,112274,1,0,2:0:0:0:
82,70,112721,1,10,3:2:0:0:
192,236,113617,1,10,3:1:0:0:
178,36,114512,1,6,2:1:0:0:
512,21,121676,54,0,P|505:88|357:159,1,200,4|2,3:2|3:2,2:0:0:0:
332,94,123020,1,2,2:0:0:0:
244,141,123468,2,0,B|192:169|192:169|158:149|121:106|135:32,1,200,4|2,3:2|3:2,2:0:0:0:
34,31,124811,1,2,2:0:0:0:
3,126,125259,54,0,B|22:194|22:194|46:199|46:199|79:300,1,200,4|6,3:2|3:2,2:0:0:0:
178,306,126602,1,0,2:0:0:0:
244,381,127050,1,2,2:0:0:0:
312,193,127945,1,2,2:0:0:0:
400,372,128841,70,0,P|470:352|447:239,1,200,2|2,2:0|2:0,2:0:0:0:
366,200,130184,1,2,2:0:0:0:
349,105,130632,2,0,P|393:49|519:65,1,200,2|2,2:0|2:0,2:0:0:0:
369,204,132423,1,6,2:0:0:0:
188,118,133318,1,2,2:0:0:0:
16,221,134214,2,0,P|19:126|68:6,1,200,2|2,2:0|2:0,2:0:0:0:
279,69,136005,54,0,P|299:140|221:229,1,200,6|2,2:0|2:0,2:0:0:0:
127,259,137348,1,2,2:0:0:0:
125,359,137796,2,0,P|222:365|322:314,1,200,2|2,2:0|2:0,2:0:0:0:
505,377,139587,1,2,2:0:0:0:
421,195,140482,2,0,P|484:116|455:18,1,200,2|2,2:0|2:0,2:0:0:0:
365,1,141826,2,0,P|319:29|317:170,1,200,0|0,2:0|2:0,2:0:0:0:
313,262,143169,6,0,L|109:253,1,200,6|2,2:0|2:0,2:0:0:0:
33,192,144512,1,2,3:2:0:0:
39,92,144960,2,0,L|255:101,1,200,2|2,2:0|2:0,2:0:0:0:
310,286,146751,2,0,L|207:289,1,100,2|2,2:0|3:2,2:0:0:0:
138,218,147647,2,0,L|17:221,1,100,2|2,2:0|3:2,2:0:0:0:
3,315,148542,1,2,2:0:0:0:
156,186,149438,1,2,2:0:0:0:
40,25,150333,54,0,B|80:92|80:92|189:144|298:47,1,300,2|2,2:0|3:2,2:0:0:0:
379,21,152124,2,0,B|457:18|457:18|508:102|437:269,1,300,2|2,2:0|3:2,2:0:0:0:
360,191,153915,1,6,3:2:0:0:
499,355,155706,1,6,2:0:0:0:
346,272,156602,1,14,2:0:0:0:
175,376,157497,6,0,B|143:295|143:295|154:287|154:287|121:191,1,200,2|2,3:2|3:2,2:0:0:0:
27,160,158841,1,2,2:0:0:0:
71,70,159288,2,0,L|182:47,1,100,2|2,3:2|2:0,2:0:0:0:
254,102,160184,2,0,L|359:82,1,100,2|2,3:2|2:0,2:0:0:0:
439,132,161079,54,0,P|429:180|452:231,1,100,2|2,3:2|2:0,2:0:0:0:
444,326,161975,2,0,P|397:336|342:314,1,100,2|2,3:2|2:0,2:0:0:0:
319,224,162871,2,0,P|277:188|232:174,1,100,10|8,0:0|0:0,0:0:0:0:
133,189,163766,1,10,3:2:0:0:
76,271,164214,1,10,2:0:0:0:
107,365,164662,54,0,B|112:265|112:265|191:198|191:198|196:88,1,300,6|2,3:2|2:0,2:0:0:0:
123,33,166453,2,0,P|62:25|14:146,1,200,6|2,3:2|3:0,2:0:0:0:
106,147,167796,1,2,2:0:0:0:
196,101,168244,2,0,L|299:91,1,100,8|8,3:2|2:0,2:0:0:0:
356,12,169139,2,0,L|468:28,1,100,8|8,3:2|2:0,2:0:0:0:
501,115,170035,1,6,2:1:0:0:
512,288,170930,1,2,2:0:0:0:
313,315,171826,38,0,P|295:271|300:214,1,100,2|10,3:2|2:0,2:0:0:0:
360,141,172721,2,0,L|468:126,1,100,2|10,3:2|2:0,2:0:0:0:
419,35,173617,2,0,L|210:28,1,200,2|2,3:2|3:2,2:0:0:0:
154,104,174960,1,8,2:0:0:0:
102,18,175408,54,0,P|59:14|1:43,1,100,6|10,3:2|2:0,2:0:0:0:
0,138,176303,2,0,L|12:254,1,100,2|10,3:2|2:0,2:0:0:0:
61,323,177199,2,0,P|148:333|104:225,1,200,2|2,3:2|3:2,2:0:0:0:
208,159,178542,1,8,2:0:0:0:
305,194,178990,53,6,3:2:0:0:
329,292,179438,2,0,B|336:359|336:359|479:392|508:220,1,300,10|2,2:0|3:2,2:0:0:0:
495,144,181229,1,10,2:0:0:0:
394,145,181676,2,0,P|338:93|418:7,1,200,2|6,3:2|3:2,2:0:0:0:
489,51,183020,101,0,2:0:0:0:
398,6,183468,1,2,3:2:0:0:
301,31,183915,1,0,2:0:0:0:
297,130,184363,2,0,P|232:152|114:101,1,200,4|2,3:2|3:2,2:0:0:0:
37,41,185706,1,0,2:0:0:0:
2,135,186154,54,0,L|5:268,1,100,6|2,2:0|2:0,2:0:0:0:
64,315,187050,1,2,2:0:0:0:
163,304,187497,1,2,2:0:0:0:
206,213,187945,2,0,P|260:180|299:180,1,100,6|2,0:0|0:0,0:0:0:0:
398,200,188841,1,2,2:0:0:0:
455,281,189288,1,2,2:0:0:0:
430,377,189736,54,0,L|217:366,1,200,6|2,2:0|2:0,2:0:0:0:
30,376,191527,2,0,B|17:290|17:290|33:276|33:276|17:170,1,200,6|6,2:0|2:0,2:0:0:0:
105,133,192871,1,8,2:0:0:0:
60,43,193318,38,0,B|214:24|214:24|360:75,1,300,6|2,2:0|2:0,2:0:0:0:
441,29,195109,2,0,B|483:169|483:169|425:318,1,300,6|2,2:0|2:0,2:0:0:0:
353,244,196900,1,10,2:0:0:0:
159,295,197796,1,10,2:0:0:0:
344,376,198691,1,14,2:0:0:0:
443,364,199139,1,14,2:0:0:0:
486,273,199587,1,2,2:0:0:0:
27,12,207647,70,0,P|10:63|61:226,1,200,2|0,2:0|2:0,2:0:0:0:
236,245,209438,2,0,P|254:309|238:352,1,100,2|0,2:0|2:0,2:0:0:0:
50,375,210781,1,2,2:0:0:0:
101,297,211229,2,0,L|402:286,1,300,2|2,2:1|2:1,2:1:0:0:
434,191,213020,2,0,L|225:198,1,200,0|2,2:1|2:1,2:1:0:0:
162,127,214363,1,2,2:1:0:0:
198,34,214811,54,0,P|249:55|309:43,1,100,2|2,2:0|2:1,2:0:0:0:
489,13,216154,1,2,2:0:0:0:
489,118,216602,2,0,L|479:331,1,200,2|2,2:0|2:1,2:0:0:0:
280,340,218393,2,0,P|191:353|88:295,1,200,2|2,2:0|2:0,2:0:0:0:
152,221,219736,1,2,2:0:0:0:
66,173,220184,2,0,B|47:77|47:77|125:8,1,200,2|6,2:0|2:0,2:0:0:0:
312,13,221975,102,0,L|301:225,1,200,2|0,3:2|2:0,2:0:0:0:
382,346,223766,2,0,P|462:345|494:241,1,200,2|0,3:2|3:2,2:0:0:0:
426,171,225109,1,10,2:0:0:0:
340,222,225557,2,0,B|282:146|282:146|284:14,1,200,6|2,3:2|3:2,2:0:0:0:
185,20,226900,1,0,2:0:0:0:
106,76,227348,2,0,P|64:153|130:264,1,200,6|0,3:2|3:2,2:0:0:0:
204,265,228691,1,10,3:2:0:0:
209,367,229139,54,0,L|4:346,1,200,6|0,3:2|3:2,2:0:0:0:
53,256,230482,1,2,2:0:0:0:
17,162,230930,2,0,B|58:62|58:62|146:34,1,200,6|0,3:2|3:2,2:0:0:0:
345,25,232721,2,0,P|391:74|389:201,1,200,10|6,2:0|2:0,2:0:0:0:
322,279,234065,1,0,2:0:0:0:
368,367,234512,1,6,2:1:0:0:
502,219,235408,1,2,2:0:0:0:
311,280,236303,54,0,L|166:273,1,100,6|0,3:2|2:0,2:0:0:0:
157,371,237199,2,0,L|37:361,1,100,0|0,3:2|2:0,2:0:0:0:
43,263,238094,2,0,P|46:191|237:171,1,300,2|2,3:2|3:2,2:0:0:0:
325,204,239885,2,0,B|390:135|390:135|386:18,2,200,6|2|2,3:2|3:2|3:2,2:0:0:0:
256,130,242124,1,0,2:0:0:0:
188,55,242572,1,2,3:2:0:0:
385,25,243468,54,0,P|429:87|419:206,1,200,2|2,3:2|3:2,2:0:0:0:
331,254,244811,1,2,2:0:0:0:
364,348,245259,2,0,B|462:364|462:364|490:264,1,200,2|2,3:2|3:2,2:0:0:0:
423,191,246602,1,2,2:0:0:0:
338,244,247050,54,0,B|259:232|259:232|237:248|237:248|141:232,1,200,6|6,3:2|3:2,2:0:0:0:
77,306,248393,1,2,2:0:0:0:
3,241,248841,2,0,P|-4:211|66:51,1,200,6|6,3:2|3:1,2:0:0:0:
153,76,250184,1,2,2:0:0:0:
217,152,250632,54,0,B|391:157|320:57|491:53,1,300,6|0,3:2|2:0,2:0:0:0:
483,153,252423,2,0,B|487:227|487:227|462:256|462:256|464:345,1,200,6|0,3:2|3:2,2:0:0:0:
370,380,253766,1,2,2:0:0:0:
289,320,254214,2,0,P|281:268|304:217,1,100,6|0,3:2|2:0,2:0:0:0:
380,169,255109,2,0,P|388:117|365:66,1,100,2|0,3:2|2:0,2:0:0:0:
284,23,256005,1,2,3:2:0:0:
47,0,257796,70,0,P|89:86|16:197,1,200,6|0,3:2|3:2,2:0:0:0:
0,354,259587,2,0,P|86:304|180:334,1,200,6|0,3:2|2:0,2:0:0:0:
267,374,260930,1,0,2:0:0:0:
354,324,261378,2,0,L|361:202,1,100,6|8,3:2|2:0,2:0:0:0:
300,142,262274,1,10,2:0:0:0:
354,58,262721,1,8,2:0:0:0:
452,73,263169,1,6,2:0:0:0:
481,270,264065,1,6,3:2:0:0:
311,375,264960,85,6,2:1:0:0:
256,192,265408,12,6,267647,1:0:0:0:
