osu file format v14

[General]
AudioFilename: audio.mp3
AudioLeadIn: 0
PreviewTime: 48946
Countdown: 1
SampleSet: Soft
StackLeniency: 0.7
Mode: 0
LetterboxInBreaks: 0
WidescreenStoryboard: 0

[Editor]
DistanceSpacing: 1.2
BeatDivisor: 4
GridSize: 4
TimelineZoom: 2.899999

[Metadata]
Title:happy day
TitleUnicode:happy☆day
Artist:Hatsuki Yura
ArtistUnicode:葉月ゆら
Creator:My Angel Rize
Version:Expert
Source:
Tags:
BeatmapID:1864810
BeatmapSetID:892045

[Difficulty]
HPDrainRate:5
CircleSize:4
OverallDifficulty:9
ApproachRate:9.3
SliderMultiplier:1.8
SliderTickRate:1

[Events]
//Background and Video events
0,0,"BG.jpg",0,0
//Break Periods
//Storyboard Layer 0 (Background)
//Storyboard Layer 1 (Fail)
//Storyboard Layer 2 (Pass)
//Storyboard Layer 3 (Foreground)
//Storyboard Sound Samples

[TimingPoints]
407,337.078651685393,4,2,2,70,1,0
48946,-86.9565217391304,4,2,2,70,0,1
75912,-68.9655172413793,4,2,2,70,0,1
96137,-86.9565217391304,4,2,2,70,0,1

[HitObjects]
64,152,407,5,0,0:0:0:0:
212,260,575,1,0,0:0:0:0:
200,56,744,2,0,P|192:128|184:184,1,90
128,312,1081,2,0,P|120:240|112:184,1,90
72,120,1418,1,0,0:0:0:0:
212,260,1586,6,0,P|236:212|216:152,1,90
200,56,1923,1,0,0:0:0:0:
117,222,2092,1,0,0:0:0:0:
48,36,2260,1,0,0:0:0:0:
231,177,2429,2,0,L|351:161,1,90
372,184,2682,1,0,0:0:0:0:
372,184,2766,1,0,0:0:0:0:
492,160,2935,1,0,0:0:0:0:
282,114,3103,6,0,B|247:167|199:168|199:168|244:175|264:198,1,135
394,271,3440,2,0,P|378:203|366:167,1,90
176,80,3777,2,0,P|192:148|204:184,1,90
224,344,4114,5,0,0:0:0:0:
284,120,4283,1,0,0:0:0:0:
308,312,4620,5,0,0:0:0:0:
308,312,4957,1,0,0:0:0:0:
176,80,5126,1,0,0:0:0:0:
223,306,5463,6,0,L|255:298,1,22.5
203,334,5547,6,0,L|232:348,1,22.5
167,354,5631,6,0,L|180:384,1,22.5
137,353,5715,6,0,L|127:384,1,22.5
72,328,5800,6,0,L|168:320,1,90
288,140,6137,2,0,L|192:132,1,90
52,352,6474,2,0,L|144:377,1,90
300,116,6811,2,0,L|212:75,1,90
223,306,7148,5,0,0:0:0:0:
372,176,7317,1,0,0:0:0:0:
288,140,7485,2,0,P|300:216|328:344,1,180
488,212,7991,1,0,0:0:0:0:
388,180,8159,1,0,0:0:0:0:
400,272,8328,1,0,0:0:0:0:
512,112,8496,6,0,P|460:48|360:64,1,180
232,204,9002,1,0,0:0:0:0:
424,132,9171,1,0,0:0:0:0:
172,48,9339,2,0,L|72:84,1,90
288,140,9676,5,0,0:0:0:0:
288,140,10013,1,0,0:0:0:0:
447,230,10182,2,0,P|471:222|495:206,1,45
388,180,10350,2,0,P|364:188|340:204,1,45
412,384,10519,5,0,0:0:0:0:
484,276,10687,1,0,0:0:0:0:
440,132,10856,1,0,0:0:0:0:
232,24,11024,1,0,0:0:0:0:
164,112,11193,6,0,L|176:224,1,90
320,364,11530,2,0,L|332:252,1,90
136,96,11867,2,0,L|108:205,1,90
342,381,12204,2,0,L|391:279,1,90
240,124,12541,5,0,0:0:0:0:
320,364,12710,1,0,0:0:0:0:
208,384,12878,2,0,B|176:300|244:304|208:208,1,180
32,68,13384,1,0,0:0:0:0:
136,96,13553,1,0,0:0:0:0:
28,156,13721,1,0,0:0:0:0:
224,28,13890,5,0,0:0:0:0:
120,240,14058,1,0,0:0:0:0:
124,52,14227,5,0,0:0:0:0:
228,264,14395,1,0,0:0:0:0:
348,84,14564,5,0,0:0:0:0:
256,360,14732,2,0,L|264:248,1,90
216,20,15069,5,0,0:0:0:0:
224,28,15406,5,0,0:0:0:0:
232,36,15744,5,0,0:0:0:0:
168,324,15912,1,0,0:0:0:0:
464,200,16249,6,0,L|448:232,1,22.5
416,208,16333,2,0,L|432:240,1,22.5
380,220,16418,2,0,L|396:252,1,22.5
348,224,16502,2,0,L|332:256,1,22.5
276,184,16586,6,0,P|208:184|72:168,1,180
16,96,17092,1,0,0:0:0:0:
168,104,17260,2,0,L|292:80,1,90
472,276,17598,5,0,0:0:0:0:
376,224,17766,2,0,L|408:108,1,90
212,10,18103,2,0,P|240:70|284:106,1,90
328,240,18440,2,0,P|366:186|377:130,1,90
120,168,18777,2,0,P|182:188|239:180,1,90
24,40,19114,1,0,0:0:0:0:
48,216,19283,6,0,P|96:160|128:28,1,180
0,152,19789,1,0,0:0:0:0:
208,188,19957,1,0,0:0:0:0:
24,40,20126,1,0,0:0:0:0:
120,168,20294,1,0,0:0:0:0:
256,36,20463,2,0,P|344:8|432:64,1,180
164,24,20968,5,0,0:0:0:0:
336,104,21137,2,0,L|308:216,1,90
272,332,21474,1,0,0:0:0:0:
216,160,21642,1,0,0:0:0:0:
132,264,21811,1,0,0:0:0:0:
380,251,21980,6,0,P|304:232|206:283,1,180
72,360,22485,1,0,0:0:0:0:
272,332,22654,1,0,0:0:0:0:
120,240,22822,1,0,0:0:0:0:
220,164,22991,1,0,0:0:0:0:
132,100,23159,6,0,L|164:296,1,180
280,332,23665,1,0,0:0:0:0:
36,236,23833,2,0,P|52:172|92:120,1,90
204,40,24171,1,0,0:0:0:0:
176,256,24339,1,0,0:0:0:0:
132,100,24508,1,0,0:0:0:0:
288,320,24676,2,0,P|280:216|200:160,1,180
52,240,25182,5,0,0:0:0:0:
204,264,25350,1,0,0:0:0:0:
16,340,25519,1,0,0:0:0:0:
140,192,25687,1,0,0:0:0:0:
288,320,25856,2,0,P|308:272|304:196,1,90
160,28,26193,5,0,0:0:0:0:
204,264,26362,1,0,0:0:0:0:
344,116,26530,1,0,0:0:0:0:
72,64,26699,5,0,0:0:0:0:
136,160,26867,1,0,0:0:0:0:
280,200,27036,1,0,0:0:0:0:
464,76,27204,1,0,0:0:0:0:
174,86,27373,6,0,L|210:302,1,180
392,316,27878,1,0,0:0:0:0:
300,240,28047,2,0,L|316:360,1,90
416,328,28384,5,0,0:0:0:0:
203,263,28553,2,0,P|239:203|283:183,1,90
120,36,28890,2,0,P|84:96|40:116,1,90
300,240,29227,1,0,0:0:0:0:
156,146,29395,2,0,P|180:222|236:318,1,180
372,376,29901,1,0,0:0:0:0:
396,184,30069,6,0,P|356:116|228:112,1,180
156,146,30575,1,0,0:0:0:0:
8,72,30744,2,0,L|32:192,1,90
24,384,31081,1,0,0:0:0:0:
122,322,31249,2,0,L|158:130,1,180
108,24,31755,5,0,0:0:0:0:
240,164,31923,2,0,P|292:184|360:176,1,90
492,92,32260,1,0,0:0:0:0:
312,120,32429,1,0,0:0:0:0:
488,224,32598,1,0,0:0:0:0:
330,289,32766,6,0,B|294:225|294:225|314:105,1,180
488,224,33272,2,0,L|464:320,1,90
284,364,33609,1,0,0:0:0:0:
384,212,33777,1,0,0:0:0:0:
165,346,33946,6,0,B|269:334|269:334|333:286,1,180
432,144,34451,1,0,0:0:0:0:
188,212,34620,1,0,0:0:0:0:
420,276,34789,1,0,0:0:0:0:
260,76,34957,1,0,0:0:0:0:
260,332,35126,1,0,0:0:0:0:
496,200,35294,1,0,0:0:0:0:
164,92,35463,6,0,B|176:196|176:196|224:260,1,180
420,276,35968,1,0,0:0:0:0:
260,76,36137,1,0,0:0:0:0:
320,256,36305,1,0,0:0:0:0:
428,104,36474,1,0,0:0:0:0:
88,192,36642,5,0,0:0:0:0:
88,192,36980,1,0,0:0:0:0:
284,120,37148,1,0,0:0:0:0:
104,304,37317,5,0,0:0:0:0:
188,64,37485,1,0,0:0:0:0:
256,276,37654,5,0,0:0:0:0:
84,64,37822,1,0,0:0:0:0:
80,56,37906,1,0,0:0:0:0:
76,48,37991,1,0,0:0:0:0:
340,132,38159,6,0,B|220:112|272:180|124:152,1,180
68,204,38665,1,0,0:0:0:0:
188,64,38833,2,0,P|228:28|284:24,1,90
165,157,39171,1,0,0:0:0:0:
80,16,39339,1,0,0:0:0:0:
80,16,39676,5,0,0:0:0:0:
184,180,39845,2,0,L|160:292,1,90
360,112,40182,2,0,L|336:0,1,90
184,180,40519,1,0,0:0:0:0:
312,240,40687,1,0,0:0:0:0:
136,124,40856,6,0,B|129:185|129:185|146:243|146:243|132:318,1,180
312,240,41362,1,0,0:0:0:0:
256,364,41530,2,0,P|224:308|224:240,1,90
372,152,41867,1,0,0:0:0:0:
336,336,42036,1,0,0:0:0:0:
336,336,42373,5,0,0:0:0:0:
412,136,42541,2,0,P|476:144|516:184,1,90
312,240,42878,1,0,0:0:0:0:
372,48,43047,1,0,0:0:0:0:
232,172,43215,1,0,0:0:0:0:
200,80,43384,1,0,0:0:0:0:
132,288,43553,6,0,P|188:336|280:300,1,180
452,188,44058,2,0,P|396:168|332:180,1,90
284,304,44395,1,0,0:0:0:0:
480,204,44564,1,0,0:0:0:0:
504,344,44732,1,0,0:0:0:0:
344,200,44901,6,0,B|316:88|376:152|344:0,1,180
212,176,45406,2,0,P|224:228|260:292,1,90
344,200,45744,1,0,0:0:0:0:
140,316,45912,2,0,P|187:341|259:355,1,90
504,344,46249,5,0,0:0:0:0:
504,344,46586,1,0,0:0:0:0:
216,176,46755,1,0,0:0:0:0:
408,100,46923,5,0,0:0:0:0:
328,380,47092,1,0,0:0:0:0:
240,44,47260,1,0,0:0:0:0:
424,312,47429,5,0,0:0:0:0:
108,244,47766,5,0,0:0:0:0:
424,312,48103,5,0,0:0:0:0:
88,272,48272,1,0,0:0:0:0:
88,272,48609,6,0,L|52:276,1,22.5
108,244,48693,6,0,L|72:248,1,22.5
128,216,48777,6,0,L|92:220,1,22.5
148,188,48862,6,0,L|112:192,1,22.5
114,115,48946,6,0,P|114:179|138:231,1,103.500001974106
336,352,49283,2,0,P|350:289|338:233,1,103.500001974106
24,140,49620,2,0,B|4:192|4:192|16:264,1,103.500001974106
440,340,49957,2,0,B|447:284|447:284|419:217,1,103.500001974106
244,68,50294,5,0,0:0:0:0:
124,356,50463,1,0,0:0:0:0:
248,312,50631,2,0,B|228:196|228:196|168:112,1,207.000003948212
16,88,51137,1,0,0:0:0:0:
176,123,51305,1,0,0:0:0:0:
64,12,51474,1,0,0:0:0:0:
256,192,51642,6,0,P|344:200|388:120,1,155.250002961159
424,132,51980,2,0,L|408:24,1,103.500001974106
256,0,52317,1,0,0:0:0:0:
164,208,52485,1,0,0:0:0:0:
312,120,52654,1,0,0:0:0:0:
140,188,52822,5,0,0:0:0:0:
140,188,53159,1,0,0:0:0:0:
363,113,53328,2,0,L|295:121,1,51.7500009870529
256,192,53496,2,0,L|324:200,1,51.7500009870529
512,132,53665,5,0,0:0:0:0:
311,119,53833,1,0,0:0:0:0:
110,106,54002,1,0,0:0:0:0:
208,324,54171,1,0,0:0:0:0:
327,205,54339,6,0,P|363:141|351:77,1,103.500001974106
56,32,54676,2,0,P|20:96|32:160,1,103.500001974106
288,332,55013,2,0,L|256:224,1,103.500001974106
139,6,55350,2,0,L|107:114,1,103.500001974106
258,232,55687,5,0,0:0:0:0:
216,12,55856,1,0,0:0:0:0:
316,92,56024,2,0,B|332:224|280:160|304:316,1,207.000003948212
232,136,56530,1,0,0:0:0:0:
416,248,56699,1,0,0:0:0:0:
258,232,56867,1,0,0:0:0:0:
472,152,57036,5,0,0:0:0:0:
408,280,57204,1,0,0:0:0:0:
216,12,57373,1,0,0:0:0:0:
258,232,57541,1,0,0:0:0:0:
444,68,57710,1,0,0:0:0:0:
128,164,57878,1,0,0:0:0:0:
276,344,58047,1,0,0:0:0:0:
356,116,58215,5,0,0:0:0:0:
360,92,58553,1,0,0:0:0:0:
364,68,58890,1,0,0:0:0:0:
408,280,59058,1,0,0:0:0:0:
408,280,59395,6,0,L|368:288,1,25.8750004935265
348,264,59480,6,0,L|308:272,1,25.8750004935265
288,248,59564,6,0,L|248:256,1,25.8750004935265
228,232,59648,6,0,L|188:240,1,25.8750004935265
164,272,59732,6,0,P|72:252|52:232,1,103.500001974106
364,68,60069,2,0,P|456:88|476:108,1,103.500001974106
16,292,60406,2,0,L|32:176,1,103.500001974106
492,56,60744,2,0,L|508:172,1,103.500001974106
196,368,61081,5,0,0:0:0:0:
312,144,61249,1,0,0:0:0:0:
444,288,61418,2,0,B|392:320|392:320|248:296,1,207.000003948212
312,116,61923,1,0,0:0:0:0:
192,192,62092,1,0,0:0:0:0:
184,32,62260,1,0,0:0:0:0:
430,186,62429,6,0,P|350:174|310:90,1,155.250002961159
264,112,62766,2,0,L|280:8,1,103.500001974106
192,192,63103,1,0,0:0:0:0:
396,84,63272,1,0,0:0:0:0:
280,224,63440,1,0,0:0:0:0:
152,64,63609,5,0,0:0:0:0:
152,64,63946,1,0,0:0:0:0:
280,224,64114,2,0,L|264:300,1,51.7500009870529
192,192,64283,2,0,L|176:116,1,51.7500009870529
396,84,64451,5,0,0:0:0:0:
320,332,64620,1,0,0:0:0:0:
468,252,64789,1,0,0:0:0:0:
352,152,64957,1,0,0:0:0:0:
172,288,65126,6,0,L|48:280,1,103.500001974106
376,64,65463,2,0,L|500:56,1,103.500001974106
16,344,65800,2,0,P|-4:292|12:220,1,103.500001974106
496,16,66137,2,0,P|516:68|500:140,1,103.500001974106
248,368,66474,5,0,0:0:0:0:
356,40,66642,1,0,0:0:0:0:
248,112,66811,2,0,B|288:208|288:208|300:328,1,207.000003948212
132,368,67317,1,0,0:0:0:0:
208,240,67485,1,0,0:0:0:0:
276,376,67654,1,0,0:0:0:0:
104,344,67822,5,0,0:0:0:0:
304,344,67991,1,0,0:0:0:0:
52,236,68159,1,0,0:0:0:0:
328,200,68328,1,0,0:0:0:0:
24,84,68496,1,0,0:0:0:0:
392,48,68665,1,0,0:0:0:0:
208,304,68833,1,0,0:0:0:0:
124,24,69002,5,0,0:0:0:0:
116,44,69339,1,0,0:0:0:0:
108,64,69676,1,0,0:0:0:0:
392,48,69845,1,0,0:0:0:0:
328,200,70013,5,0,0:0:0:0:
188,12,70182,2,0,P|200:28|224:40,1,25.8750004935265
216,76,70266,2,0,P|235:80|261:74,1,25.8750004935265
284,100,70350,2,0,P|301:90|317:69,1,25.8750004935265
356,100,70435,2,0,P|363:81|362:54,1,25.8750004935265
428,72,70519,5,0,0:0:0:0:
204,31,70687,1,0,0:0:0:0:
452,60,70856,1,0,0:0:0:0:
248,208,71024,2,0,B|124:188|180:256|48:232,1,207.000003948212
220,288,71530,2,0,P|208:344|164:400,1,103.500001974106
84,144,71867,6,0,L|100:32,1,103.500001974106
182,184,72204,2,0,L|205:18,1,155.250002961159
176,16,72541,1,0,0:0:0:0:
84,144,72710,1,0,0:0:0:0:
160,0,72878,1,0,0:0:0:0:
256,192,73047,1,0,0:0:0:0:
324,44,73215,6,0,P|416:16|520:76,1,207.000003948212
396,216,73721,1,0,0:0:0:0:
232,92,73890,1,0,0:0:0:0:
448,104,74058,1,0,0:0:0:0:
200,108,74227,1,0,0:0:0:0:
264,332,74395,5,0,0:0:0:0:
492,184,74732,5,0,0:0:0:0:
72,264,75069,5,0,0:0:0:0:
360,300,75238,1,0,0:0:0:0:
360,300,75575,6,0,L|348:260,1,25.8750004935265
392,248,75659,6,0,L|404:208,1,25.8750004935265
364,184,75744,6,0,L|352:144,1,25.8750004935265
396,124,75828,6,0,L|408:84,1,25.8750004935265
341,55,75912,6,0,L|364:189,1,130.500003982544
112,332,76249,2,0,L|135:197,1,130.500003982544
436,81,76586,2,0,B|412:145|412:145|356:189,1,130.500003982544
75,302,76923,2,0,B|100:239|100:239|156:195,1,130.500003982544
328,24,77260,5,0,0:0:0:0:
240,268,77429,1,0,0:0:0:0:
172,144,77598,2,0,P|88:70|85:185,1,261.000007965088
280,120,78103,1,0,0:0:0:0:
104,48,78272,1,0,0:0:0:0:
300,88,78440,1,0,0:0:0:0:
104,320,78609,6,0,B|92:216|92:216|116:112,1,195.750005973816
220,44,78946,2,0,P|216:136|172:192,1,130.500003982544
272,356,79283,1,0,0:0:0:0:
112,124,79451,1,0,0:0:0:0:
16,304,79620,1,0,0:0:0:0:
316,200,79789,5,0,0:0:0:0:
316,200,80126,1,0,0:0:0:0:
116,244,80294,2,0,P|92:208|88:168,1,65.250001991272
200,212,80463,2,0,P|205:254|191:292,1,65.250001991272
36,360,80631,5,0,0:0:0:0:
6,192,80800,1,0,0:0:0:0:
99,51,80968,1,0,0:0:0:0:
265,13,81137,1,0,0:0:0:0:
480,200,81305,6,0,L|464:336,1,130.500003982544
28,104,81642,2,0,L|44:240,1,130.500003982544
508,208,81980,2,0,B|516:288|488:352,1,130.500003982544
0,100,82317,2,0,B|-8:180|20:244,1,130.500003982544
432,112,82654,5,0,0:0:0:0:
176,324,82822,1,0,0:0:0:0:
292,368,82991,2,0,B|196:344|196:344|76:228,1,261.000007965088
104,44,83496,1,0,0:0:0:0:
284,112,83665,1,0,0:0:0:0:
144,216,83833,1,0,0:0:0:0:
312,88,84002,5,0,0:0:0:0:
344,336,84171,1,0,0:0:0:0:
224,188,84339,1,0,0:0:0:0:
64,368,84508,1,0,0:0:0:0:
476,248,84676,1,0,0:0:0:0:
40,152,84845,1,0,0:0:0:0:
512,68,85013,1,0,0:0:0:0:
176,324,85182,5,0,0:0:0:0:
140,312,85519,5,0,0:0:0:0:
104,300,85856,5,0,0:0:0:0:
416,244,86024,1,0,0:0:0:0:
416,244,86362,6,0,L|360:232,1,32.625000995636
360,200,86446,6,0,L|304:188,1,32.625000995636
304,156,86530,6,0,L|248:144,1,32.625000995636
248,112,86614,6,0,L|192:100,1,32.625000995636
144,176,86699,6,0,B|140:88|132:40,1,130.500003982544
456,336,87036,2,0,B|460:248|468:200,1,130.500003982544
16,192,87373,2,0,B|-4:128|-4:128|4:48,1,130.500003982544
496,344,87710,2,0,B|516:280|516:280|508:200,1,130.500003982544
176,8,88047,5,0,0:0:0:0:
240,364,88215,1,0,0:0:0:0:
384,236,88384,2,0,P|424:140|372:-24,1,261.000007965088
208,60,88890,1,0,0:0:0:0:
288,220,89058,1,0,0:0:0:0:
388,0,89227,1,0,0:0:0:0:
108,52,89395,6,0,B|92:136|92:136|112:204|112:204|92:296,1,195.750005973816
72,312,89732,2,0,P|132:344|200:320,1,130.500003982544
376,204,90069,1,0,0:0:0:0:
296,24,90238,1,0,0:0:0:0:
240,264,90406,1,0,0:0:0:0:
396,48,90575,1,0,0:0:0:0:
352,336,90744,5,0,0:0:0:0:
208,144,90912,1,0,0:0:0:0:
472,208,91081,5,0,0:0:0:0:
212,256,91249,1,0,0:0:0:0:
392,184,91418,1,0,0:0:0:0:
404,376,91586,5,0,0:0:0:0:
31,220,91754,1,0,0:0:0:0:
320,278,91923,1,0,0:0:0:0:
100,384,92092,6,0,P|84:288|88:208,1,130.500003982544
472,172,92429,2,0,P|488:76|484:-4,1,130.500003982544
34,348,92766,2,0,B|22:276|22:276|38:164,1,130.500003982544
508,184,93103,2,0,B|520:112|520:112|504:0,1,130.500003982544
152,16,93440,5,0,0:0:0:0:
256,364,93609,1,0,0:0:0:0:
472,172,93777,2,0,B|316:140|376:212|192:168,1,261.000007965088
416,272,94283,1,0,0:0:0:0:
288,92,94451,1,0,0:0:0:0:
192,284,94620,1,0,0:0:0:0:
468,168,94789,5,0,0:0:0:0:
60,264,94957,1,0,0:0:0:0:
496,360,95126,1,0,0:0:0:0:
156,52,95294,1,0,0:0:0:0:
32,376,95463,1,0,0:0:0:0:
352,160,95631,1,0,0:0:0:0:
0,0,95800,1,0,0:0:0:0:
272,384,95968,5,0,0:0:0:0:
424,208,96305,5,0,0:0:0:0:
48,272,96642,5,0,0:0:0:0:
456,360,96811,1,0,0:0:0:0:
