osu file format v14

[General]
AudioFilename: audio.mp3
AudioLeadIn: 0
PreviewTime: 49281
Countdown: 0
SampleSet: Soft
StackLeniency: 0.3
Mode: 0
LetterboxInBreaks: 0
EpilepsyWarning: 1
WidescreenStoryboard: 1

[Editor]
DistanceSpacing: 0.5
BeatDivisor: 4
GridSize: 8
TimelineZoom: 2

[Metadata]
Title:Yuki no Hana (GoldenWolf -METAL MIX-)
TitleUnicode:雪の華 (GoldenWolf -METAL MIX-)
Artist:Hatsuki Yura
ArtistUnicode:葉月ゆら
Creator:Xenok
Version:Snow
Source:
Tags:David- Moge-ko piano soft voice girl japanese snow flower drums
BeatmapID:1521024
BeatmapSetID:720424

[Difficulty]
HPDrainRate:5
CircleSize:4.6
OverallDifficulty:9
ApproachRate:9.3
SliderMultiplier:1.4
SliderTickRate:1

[Events]
//Background and Video events
0,0,"yuki no hana.jpg",0,0
//Break Periods
2,47368,48727
//Storyboard Layer 0 (Background)
//Storyboard Layer 1 (Fail)
//Storyboard Layer 2 (Pass)
//Storyboard Layer 3 (Foreground)
//Storyboard Sound Samples

[TimingPoints]
271,422.535211267606,3,2,1,60,1,0
271,-133.333333333333,3,2,1,60,0,0
5172,333.333333333333,3,2,1,60,1,0
5338,422.535211267606,3,2,1,60,1,0
6183,-133.333333333333,3,2,1,60,0,0
6499,-133.333333333333,3,2,1,5,0,0
6605,422.535211267606,3,2,3,60,1,0
6816,-100,3,2,15,60,0,0
7238,-100,3,2,15,20,0,0
7309,-100,3,2,15,25,0,0
7379,-100,3,2,15,30,0,0
8506,-100,3,2,15,20,0,0
8577,-100,3,2,15,25,0,0
8647,-100,3,2,15,30,0,0
8718,-100,3,2,15,60,0,0
9774,-100,3,2,15,20,0,0
9845,-100,3,2,15,25,0,0
9915,-100,3,2,15,30,0,0
9986,-100,3,2,15,60,0,0
11041,-100,3,2,15,20,0,0
11112,-100,3,2,15,25,0,0
11182,-100,3,2,15,30,0,0
11253,-100,3,2,15,60,0,0
12309,-100,3,2,15,20,0,0
12380,-100,3,2,15,25,0,0
12450,-100,3,2,15,30,0,0
12521,-100,3,2,15,60,0,0
13576,-100,3,2,15,20,0,0
13647,-100,3,2,15,25,0,0
13717,-100,3,2,15,30,0,0
13788,-100,3,2,15,60,0,0
14210,-100,3,2,13,60,0,0
14844,-100,3,2,12,60,0,0
15055,-100,3,2,13,60,0,0
15266,-100,3,2,15,60,0,0
15478,-100,3,2,13,60,0,0
15689,-100,3,2,12,60,0,0
15900,-100,3,2,11,60,0,0
16323,-100,3,2,12,60,0,0
16534,-100,3,2,11,60,0,0
16745,-100,3,2,8,60,0,0
16957,-100,3,2,15,60,0,0
17168,-100,3,2,4,60,0,0
17802,-100,3,2,15,60,0,0
18013,-100,3,2,4,60,0,0
18224,-100,3,2,15,60,0,0
18435,-100,3,2,4,60,0,0
19069,-100,3,2,15,60,0,0
19280,-100,3,2,4,60,0,0
19492,-100,3,2,15,60,0,0
19703,-100,3,2,4,60,0,0
20337,-100,3,2,15,60,0,0
20548,-100,3,2,4,60,0,0
20759,-100,3,2,15,60,0,0
20970,-100,3,2,4,60,0,0
21182,-100,3,2,15,60,0,0
21393,-100,3,2,4,60,0,0
22027,-100,3,2,15,60,0,0
22238,-100,3,2,4,60,0,0
22450,-100,3,2,15,60,0,0
22661,-100,3,2,4,60,0,0
23295,-100,3,2,15,60,0,0
23506,-100,3,2,4,60,0,0
24562,-100,3,2,15,60,0,0
24773,-100,3,2,4,60,0,0
25513,-100,3,2,13,60,0,0
25619,-100,3,2,4,60,0,0
25935,-100,3,2,12,60,0,0
26041,-100,3,2,4,60,0,0
26358,-100,3,2,11,60,0,0
26464,-100,3,2,4,60,0,0
26886,-100,3,2,3,60,0,0
27203,-100,3,2,6,60,0,0
27731,-100,3,2,13,60,0,0
28154,-100,3,2,12,60,0,0
28365,-100,3,2,6,60,0,0
30266,-100,3,2,13,60,0,0
30689,-100,3,2,12,60,0,0
30900,-100,3,2,6,60,0,0
31957,-100,3,2,10,60,0,0
32274,-100,3,2,6,60,0,0
32802,-100,3,2,12,60,0,0
33225,-100,3,2,11,60,0,0
33436,-100,3,2,6,60,0,0
35337,-100,3,2,12,60,0,0
35760,-100,3,2,11,60,0,0
35971,-100,3,2,6,20,0,0
36076,-100,3,2,6,30,0,0
36182,-100,3,2,6,20,0,0
36288,-100,3,2,6,30,0,0
36393,-100,3,2,6,50,0,0
36499,-100,3,2,6,30,0,0
36605,-100,3,2,6,50,0,0
36710,-100,3,2,6,40,0,0
36816,-100,3,2,6,50,0,0
36921,-100,3,2,6,60,0,0
37027,-100,3,2,2,60,0,0
37238,-100,3,2,15,60,0,0
39351,-100,3,2,4,60,0,0
39562,-100,3,2,8,60,0,0
39879,-100,3,2,15,60,0,0
41464,-100,3,2,4,60,0,0
41675,-100,3,2,4,20,0,0
41745,-100,3,2,4,25,0,0
41816,-100,3,2,4,30,0,0
41886,-100,3,2,4,35,0,0
41957,-100,3,2,4,40,0,0
42027,-100,3,2,4,50,0,0
42097,-100,3,2,13,60,0,0
42520,-100,3,2,15,60,0,0
42802,-100,3,2,12,60,0,0
43224,-100,3,2,15,60,0,0
43506,-100,3,2,11,60,0,0
43928,-100,3,2,15,60,0,0
44633,-100,3,2,10,60,0,0
44844,-100,3,2,15,20,0,0
44915,-100,3,2,15,25,0,0
44985,-100,3,2,15,30,0,0
45056,-100,3,2,15,60,0,0
45266,-100,3,2,2,60,0,0
45478,-100,3,2,15,20,0,0
45549,-100,3,2,15,25,0,0
45619,-100,3,2,15,30,0,0
45690,-100,3,2,15,60,0,0
45900,-100,3,2,3,60,0,0
46112,-100,3,2,15,20,0,0
46183,-100,3,2,15,25,0,0
46253,-100,3,2,15,30,0,0
46324,-100,3,2,8,60,0,0
46534,-100,3,2,15,20,0,0
46605,-100,3,2,15,25,0,0
46675,-100,3,2,15,30,0,0
46746,-100,3,2,2,60,0,0
46957,-100,3,2,15,20,0,0
47028,-100,3,2,15,25,0,0
47098,-100,3,2,15,30,0,0
47169,-100,3,2,10,60,0,0
49281,-133.333333333333,3,2,1,60,0,0
49597,-133.333333333333,3,2,1,5,0,0
49703,-100,3,2,8,60,0,0
49914,-100,3,2,15,60,0,0
50337,-100,3,2,15,20,0,0
50408,-100,3,2,15,25,0,0
50478,-100,3,2,15,30,0,0
50549,-100,3,2,15,60,0,0
51605,-100,3,2,15,20,0,0
51676,-100,3,2,15,25,0,0
51746,-100,3,2,15,30,0,0
51817,-100,3,2,15,60,0,0
52872,-100,3,2,15,20,0,0
52943,-100,3,2,15,25,0,0
53013,-100,3,2,15,30,0,0
53084,-100,3,2,15,60,0,0
54140,-100,3,2,15,20,0,0
54211,-100,3,2,15,25,0,0
54281,-100,3,2,15,30,0,0
54352,-100,3,2,15,60,0,0
55407,-100,3,2,15,20,0,0
55478,-100,3,2,15,25,0,0
55548,-100,3,2,15,30,0,0
55619,-100,3,2,15,60,0,0
56675,-100,3,2,15,20,0,0
56746,-100,3,2,15,25,0,0
56816,-100,3,2,15,30,0,0
56887,-100,3,2,15,60,0,0
57309,-100,3,2,13,60,0,0
57520,-100,3,2,15,60,0,0
57943,-100,3,2,12,60,0,0
58154,-100,3,2,13,60,0,0
58365,-100,3,2,15,60,0,0
58576,-100,3,2,13,60,0,0
58999,-100,3,2,13,60,0,0
59210,-100,3,2,15,60,0,0
59421,-100,3,2,12,60,0,0
59633,-100,3,2,15,60,0,0
59844,-100,3,2,3,60,0,0
60055,-100,3,2,6,60,0,0
64914,-100,3,2,13,60,0,0
65231,-100,3,2,6,60,0,0
65337,-100,3,2,15,20,0,0
65408,-100,3,2,15,25,0,0
65478,-100,3,2,15,30,0,0
65549,-100,3,2,15,60,0,0
65759,-100,3,2,12,60,0,0
66182,-100,3,2,15,60,0,0
66393,-100,3,2,15,20,0,0
66464,-100,3,2,15,25,0,0
66534,-100,3,2,15,30,0,0
66605,-100,3,2,15,60,0,0
66816,-100,3,2,13,60,0,0
67027,-100,3,2,11,60,0,0
67450,-66.6666666666667,3,1,10,60,0,1
67520,-66.6666666666667,3,1,4,60,0,1
72520,-66.6666666666667,3,1,2,60,0,1
72590,-66.6666666666667,3,1,4,60,0,1
77590,-100,3,2,13,40,0,0
78013,-100,3,2,12,40,0,0
78435,-100,3,2,11,40,0,0
78858,-100,3,2,1,60,0,0
79140,-100,3,2,1,20,0,0
79210,-100,3,2,1,30,0,0
79281,-100,3,2,1,60,0,0
79562,-100,3,2,1,20,0,0
79632,-100,3,2,1,30,0,0
79703,-100,3,2,1,60,0,0
79985,-100,3,2,1,20,0,0
80055,-100,3,2,1,30,0,0
80126,-100,3,2,11,40,0,0
80548,-100,3,2,12,40,0,0
80971,-1000,3,2,13,40,0,0
81393,-1000,3,2,1,60,0,0

[Colours]
Combo1 : 220,185,255
Combo2 : 157,255,255
Combo3 : 255,191,255
Combo4 : 209,209,233

[HitObjects]
131,215,271,5,2,0:0:0:0:
83,158,482,1,0,0:0:0:0:
108,89,693,1,0,0:0:0:0:
181,76,904,1,0,0:0:0:0:
203,202,1116,1,2,0:0:0:0:
228,133,1327,1,0,0:0:0:0:
58,229,1538,5,2,0:0:0:0:
318,243,2595,5,0,0:0:0:0:
318,243,2700,1,0,0:0:0:0:
318,243,2806,1,2,0:0:0:0:
218,164,3017,1,0,0:0:0:0:
263,106,3228,1,0,0:0:0:0:
336,117,3440,1,0,0:0:0:0:
246,233,3651,1,2,0:0:0:0:
364,185,3862,1,0,0:0:0:0:
191,97,4073,5,2,0:0:0:0:
139,286,5172,5,0,0:0:0:0:
154,263,5255,1,0,0:0:0:0:
170,243,5338,1,2,0:0:0:0:
445,178,6183,6,0,P|409:166|362:173,1,78.7500030040742,2|0,0:0|0:0,0:0:0:0:
299,214,6605,6,0,L|287:140,1,70,4|4,1:0|0:0,0:0:0:0:
277,66,7026,1,8,0:0:0:0:
277,66,7237,1,8,0:0:0:0:
268,73,7309,1,8,0:0:0:0:
259,80,7379,1,8,0:0:0:0:
250,88,7449,1,8,0:0:0:0:
221,6,7661,1,8,0:0:0:0:
316,138,7872,5,0,1:0:0:0:
316,138,8083,1,4,0:0:0:0:
176,148,8295,1,8,0:0:0:0:
141,238,8506,1,8,0:0:0:0:
136,228,8576,1,8,0:0:0:0:
130,217,8647,1,8,0:0:0:0:
125,207,8717,1,8,0:0:0:0:
92,140,8928,1,0,1:0:0:0:
186,152,9140,6,0,L|256:172,1,70,0|4,1:0|0:0,0:0:0:0:
348,130,9562,1,8,0:0:0:0:
279,70,9773,1,8,0:0:0:0:
270,63,9843,1,8,0:0:0:0:
261,55,9914,1,8,0:0:0:0:
252,48,9984,1,8,0:0:0:0:
171,79,10196,1,8,0:0:0:0:
338,8,10407,6,0,L|418:19,1,70,0|4,1:0|0:0,0:0:0:0:
488,81,10829,1,8,0:0:0:0:
402,129,11040,1,8,0:0:0:0:
406,139,11112,1,8,0:0:0:0:
410,149,11182,1,8,0:0:0:0:
414,160,11252,1,8,0:0:0:0:
440,233,11464,1,4,1:2:0:0:
499,179,11675,5,0,1:0:0:0:
499,179,11886,1,4,0:0:0:0:
285,209,12097,1,8,0:0:0:0:
222,265,12309,1,8,0:0:0:0:
213,272,12379,1,8,0:0:0:0:
204,280,12449,1,8,0:0:0:0:
196,288,12520,1,8,0:0:0:0:
275,321,12731,1,8,0:0:0:0:
165,216,12943,6,0,P|142:165|141:149,1,70,0|4,1:0|0:0,0:0:0:0:
279,37,13365,2,0,P|272:71|254:101,1,70,8|8,0:0|0:0,0:0:0:0:
247,110,13647,1,8,0:0:0:0:
238,118,13717,1,8,0:0:0:0:
228,124,13788,1,8,0:0:0:0:
187,52,13999,1,4,1:2:0:0:
351,89,14210,5,4,0:0:0:0:
351,89,14421,1,4,0:0:0:0:
187,52,14633,1,4,0:0:0:0:
152,53,14738,1,4,0:0:0:0:
121,69,14844,1,4,0:0:0:0:
100,97,14949,1,4,0:0:0:0:
93,131,15055,1,4,0:0:0:0:
173,127,15266,1,0,1:0:0:0:
7,38,15478,5,4,0:0:0:0:
11,72,15583,1,4,0:0:0:0:
16,107,15689,1,4,0:0:0:0:
20,141,15795,1,4,0:0:0:0:
25,176,15900,1,4,0:0:0:0:
40,272,16112,1,4,0:0:0:0:
118,215,16323,1,4,0:0:0:0:
145,193,16428,1,4,0:0:0:0:
172,171,16534,1,4,0:0:0:0:
289,361,16745,5,4,1:2:0:0:
410,291,16957,1,4,0:0:0:0:
393,285,17062,2,0,L|356:272,1,35,0|4,1:0|0:0,0:0:0:0:
236,232,17379,1,8,0:0:0:0:
403,200,17590,1,4,1:2:0:0:
386,194,17696,1,0,1:0:0:0:
337,176,17802,1,12,0:0:0:0:
387,75,18013,5,4,1:2:0:0:
223,46,18225,1,4,0:0:0:0:
240,40,18330,2,0,L|273:28,1,35,0|4,1:0|0:0,0:0:0:0:
129,83,18647,1,8,0:0:0:0:
219,157,18858,1,4,1:2:0:0:
236,151,18964,1,0,1:0:0:0:
285,132,19069,1,12,0:0:0:0:
153,183,19281,5,4,1:2:0:0:
231,345,19492,1,4,0:0:0:0:
233,327,19597,2,0,L|236:278,1,35,0|4,1:0|0:0,0:0:0:0:
133,314,19914,1,8,0:0:0:0:
254,353,20126,1,4,1:2:0:0:
256,335,20231,1,0,1:0:0:0:
264,283,20337,1,12,0:0:0:0:
381,345,20548,5,4,1:2:0:0:
445,194,20759,1,4,0:0:0:0:
430,203,20865,2,0,L|384:232,1,35,0|4,1:0|0:0,0:0:0:0:
444,96,21182,1,12,0:0:0:0:
399,123,21287,1,8,0:0:0:0:
384,132,21393,1,4,1:2:0:0:
188,258,21710,1,0,1:0:0:0:
195,253,21762,1,0,1:0:0:0:
202,248,21816,6,0,L|188:177,1,70,4|4,1:2|0:0,0:0:0:0:
94,140,22133,1,0,1:0:0:0:
97,157,22238,2,0,L|104:192,1,35,4|0,0:0|0:0,0:0:0:0:
172,100,22450,1,8,0:0:0:0:
80,60,22661,1,4,1:2:0:0:
281,148,22978,1,0,1:0:0:0:
272,144,23030,1,0,1:0:0:0:
264,140,23083,6,0,L|336:129,1,70,4|4,1:2|0:0,0:0:0:0:
421,45,23400,1,0,1:0:0:0:
403,47,23506,2,0,L|368:52,1,35,4|0,0:0|0:0,0:0:0:0:
283,61,23717,1,8,0:0:0:0:
421,120,23928,1,4,1:2:0:0:
288,222,24246,1,0,1:0:0:0:
294,216,24298,1,0,1:0:0:0:
301,211,24351,6,0,L|226:215,1,70,4|4,1:2|0:0,0:0:0:0:
97,223,24668,1,0,1:0:0:0:
114,222,24774,2,0,L|148:220,1,35,4|0,0:0|0:0,0:0:0:0:
22,229,24985,1,8,0:0:0:0:
175,10,25196,2,0,L|174:82,1,70,8|0,1:2|1:0,0:0:0:0:
104,111,25513,1,4,0:0:0:0:
103,102,25565,1,4,0:0:0:0:
102,93,25619,5,0,0:0:0:0:
237,161,25935,1,4,0:0:0:0:
237,155,25988,1,4,0:0:0:0:
237,148,26041,5,0,0:0:0:0:
128,224,26358,1,4,0:0:0:0:
127,219,26410,1,4,0:0:0:0:
126,214,26464,6,0,L|175:239,1,35,0|0,1:0|0:0,0:0:0:0:
301,304,26675,1,8,0:0:0:0:
305,236,26781,1,8,0:0:0:0:
309,167,26886,5,4,1:2:0:0:
390,32,27203,1,0,1:0:0:0:
396,48,27309,2,0,L|352:56,1,35,4|0,1:2|0:0,0:0:0:0:
282,67,27520,2,0,L|238:59,1,35,8|0,0:0|0:0,0:0:0:0:
98,21,27731,5,4,0:0:0:0:
240,133,27942,1,4,0:0:0:0:
73,200,28154,1,4,0:0:0:0:
157,167,28365,5,4,1:2:0:0:
26,70,28576,1,8,0:0:0:0:
240,211,28893,1,0,1:0:0:0:
224,218,28999,1,12,0:0:0:0:
235,135,29210,1,4,1:2:0:0:
302,187,29421,5,4,1:2:0:0:
405,91,29738,1,0,1:0:0:0:
410,107,29844,2,0,L|420:143,1,35,4|0,1:2|0:0,0:0:0:0:
438,214,30055,2,0,L|427:250,1,35,8|0,0:0|0:0,0:0:0:0:
386,361,30266,5,4,0:0:0:0:
221,326,30478,1,4,0:0:0:0:
333,200,30689,1,4,0:0:0:0:
278,267,30900,5,4,1:2:0:0:
164,384,31112,1,8,0:0:0:0:
169,160,31428,1,0,1:0:0:0:
174,176,31533,1,12,0:0:0:0:
199,255,31745,1,0,1:0:0:0:
94,159,31957,5,4,1:0:0:0:
169,45,32274,1,0,1:0:0:0:
185,46,32379,2,0,L|240:54,1,35,4|0,1:2|0:0,0:0:0:0:
298,63,32590,2,0,L|353:54,1,35,8|0,0:0|0:0,0:0:0:0:
440,58,32802,5,4,0:0:0:0:
431,224,33013,1,4,0:0:0:0:
292,134,33224,1,4,0:0:0:0:
358,179,33435,5,4,1:2:0:0:
225,89,33647,1,12,0:0:0:0:
164,316,33964,1,0,1:0:0:0:
179,326,34069,1,12,0:0:0:0:
252,289,34281,1,4,1:2:0:0:
179,326,34492,5,4,1:2:0:0:
337,358,34809,1,0,1:0:0:0:
339,341,34914,2,0,L|345:281,1,35,4|0,1:2|0:0,0:0:0:0:
349,227,35126,2,0,L|343:167,1,35,12|0,0:0|0:0,0:0:0:0:
330,63,35337,5,4,0:0:0:0:
221,161,35549,1,4,0:0:0:0:
191,18,35759,1,4,0:0:0:0:
221,161,35971,5,8,0:0:0:0:
236,188,36076,1,8,0:0:0:0:
238,208,36182,1,8,0:0:0:0:
230,235,36288,1,8,0:0:0:0:
221,269,36393,1,8,0:0:0:0:
221,293,36499,1,8,0:0:0:0:
230,307,36605,1,8,0:0:0:0:
263,317,36710,1,8,0:0:0:0:
313,292,36816,1,8,0:0:0:0:
382,296,36921,1,8,0:0:0:0:
457,336,37027,6,0,B|464:301|464:301|454:249,1,70,4|0,1:2|0:0,0:0:0:0:
409,140,37344,1,0,1:0:0:0:
411,157,37450,2,0,L|415:192,1,35,0|0,1:0|0:0,0:0:0:0:
403,69,37661,1,8,0:0:0:0:
301,136,37872,2,0,L|231:128,1,70,0|4,1:0|0:0,0:0:0:0:
99,117,38295,5,0,1:0:0:0:
50,293,38506,1,4,0:0:0:0:
45,310,38612,1,0,1:0:0:0:
238,259,38928,1,12,0:0:0:0:
124,212,39140,5,0,1:0:0:0:
165,364,39351,2,0,L|150:306,1,35,4|0,0:0|0:0,0:0:0:0:
124,212,39562,5,4,1:2:0:0:
289,97,39879,1,0,1:0:0:0:
307,298,40196,1,4,1:2:0:0:
172,86,40513,5,0,1:0:0:0:
354,173,40830,1,0,1:0:0:0:
189,289,41147,1,0,1:0:0:0:
289,97,41464,5,4,1:2:0:0:
296,92,41675,6,8,L|292:129,3,23.3333333333333
285,200,41957,1,8,0:0:0:0:
284,205,42027,1,8,0:0:0:0:
283,210,42097,6,0,P|312:230|328:236,1,46.6666666666667,4|4,0:0|0:0,0:0:0:0:
401,228,42379,1,4,0:0:0:0:
202,231,42520,5,0,1:0:0:0:
88,254,42661,1,8,0:0:0:0:
156,296,42802,1,4,0:0:0:0:
126,128,42943,6,0,P|124:106|144:67,1,46.6666666666667,4|4,0:0|0:0,0:0:0:0:
188,27,43224,1,0,1:0:0:0:
280,250,43365,5,8,0:0:0:0:
215,200,43506,1,4,0:0:0:0:
204,121,43647,1,4,0:0:0:0:
352,218,43788,5,4,0:0:0:0:
266,254,43928,1,0,1:0:0:0:
253,259,44069,1,0,1:0:0:0:
136,363,44210,5,8,0:0:0:0:
123,270,44351,1,0,0:0:0:0:
110,177,44492,1,0,1:0:0:0:
109,172,44562,1,0,1:0:0:0:
104,130,44633,5,4,1:2:0:0:
214,227,44844,5,8,0:0:0:0:
207,224,44914,1,8,0:0:0:0:
200,220,44984,1,8,0:0:0:0:
194,217,45055,1,8,0:0:0:0:
290,191,45266,5,4,1:2:0:0:
350,85,45478,5,8,0:0:0:0:
347,92,45548,1,8,0:0:0:0:
343,99,45618,1,8,0:0:0:0:
340,105,45689,1,8,0:0:0:0:
436,79,45900,5,4,1:2:0:0:
381,219,46112,5,8,0:0:0:0:
383,213,46182,1,8,0:0:0:0:
386,205,46252,1,8,0:0:0:0:
402,166,46323,5,4,1:2:0:0:
242,161,46534,5,8,0:0:0:0:
246,166,46604,1,8,0:0:0:0:
251,172,46674,1,8,0:0:0:0:
277,206,46745,5,4,1:2:0:0:
363,74,46957,5,8,0:0:0:0:
356,75,47027,1,8,0:0:0:0:
348,76,47097,1,8,0:0:0:0:
306,82,47168,5,4,1:2:0:0:
306,82,49281,6,0,P|337:71|396:89,1,78.7500030040742,2|0,0:0|0:0,0:0:0:0:
462,61,49703,6,0,L|456:143,1,70,4|4,1:2|0:0,0:0:0:0:
450,218,50126,1,8,0:0:0:0:
450,218,50337,1,8,0:0:0:0:
437,211,50407,1,8,0:0:0:0:
424,205,50477,1,8,0:0:0:0:
412,199,50548,1,8,0:0:0:0:
336,249,50759,1,8,0:0:0:0:
331,157,50971,5,0,1:0:0:0:
331,157,51182,1,4,0:0:0:0:
254,208,51393,1,8,0:0:0:0:
247,121,51605,1,8,0:0:0:0:
246,109,51675,1,8,0:0:0:0:
245,97,51745,1,8,0:0:0:0:
244,86,51816,1,8,0:0:0:0:
237,0,52027,1,4,1:2:0:0:
162,71,52238,6,0,L|168:157,1,70,0|4,1:0|0:0,0:0:0:0:
145,237,52661,1,8,0:0:0:0:
239,206,52872,1,8,0:0:0:0:
250,202,52942,1,8,0:0:0:0:
261,198,53012,1,8,0:0:0:0:
272,194,53083,1,8,0:0:0:0:
286,273,53295,1,8,0:0:0:0:
239,341,53506,6,0,L|165:332,1,70,0|4,1:0|0:0,0:0:0:0:
78,321,53928,1,8,0:0:0:0:
78,321,54140,1,8,0:0:0:0:
83,310,54210,1,8,0:0:0:0:
89,300,54280,1,8,0:0:0:0:
95,290,54351,1,8,0:0:0:0:
132,221,54562,1,4,1:2:0:0:
222,213,54774,6,0,L|294:207,1,70,0|4,1:0|0:0,0:0:0:0:
371,195,55196,1,8,0:0:0:0:
423,119,55407,1,8,0:0:0:0:
420,107,55478,1,8,0:0:0:0:
417,96,55548,1,8,0:0:0:0:
414,85,55618,1,8,0:0:0:0:
497,95,55830,1,8,0:0:0:0:
341,116,56041,5,0,1:0:0:0:
341,116,56252,1,4,0:0:0:0:
149,83,56464,2,0,P|198:72|221:76,1,70,8|8,0:0|0:0,0:0:0:0:
227,79,56745,1,8,0:0:0:0:
236,85,56816,1,8,0:0:0:0:
244,93,56886,1,8,0:0:0:0:
188,157,57097,1,4,1:2:0:0:
73,52,57309,6,0,L|63:132,1,70,4|0,0:0|1:0,0:0:0:0:
59,208,57626,1,8,0:0:0:0:
59,204,57678,1,8,0:0:0:0:
59,201,57731,5,8,0:0:0:0:
113,295,57943,1,4,0:0:0:0:
174,182,58154,5,4,0:0:0:0:
174,182,58365,1,0,1:0:0:0:
232,68,58576,5,4,0:0:0:0:
232,68,58999,5,4,0:0:0:0:
280,166,59210,1,0,1:0:0:0:
387,141,59421,1,4,0:0:0:0:
280,166,59633,2,0,L|233:176,1,35,8|0,0:0|0:0,0:0:0:0:
138,198,59844,5,4,1:2:0:0:
212,312,60055,1,8,0:0:0:0:
217,294,60161,2,0,L|226:255,2,35,0|4|8,1:0|0:0|0:0,0:0:0:0:
104,343,60478,1,0,1:0:0:0:
106,336,60548,1,0,1:0:0:0:
108,328,60618,1,0,1:0:0:0:
109,321,60689,2,0,L|119:281,1,35,12|0,0:0|0:0,0:0:0:0:
138,198,60900,1,0,1:0:0:0:
51,225,61112,5,4,1:2:0:0:
205,260,61323,1,8,0:0:0:0:
221,255,61428,2,0,L|271:243,2,35,0|4|8,1:0|0:0|0:0,0:0:0:0:
279,334,61745,1,0,1:0:0:0:
286,332,61815,1,0,1:0:0:0:
294,330,61885,1,0,1:0:0:0:
301,328,61957,2,0,L|351:316,1,35,8|0,0:0|0:0,0:0:0:0:
423,295,62168,1,0,1:2:0:0:
447,207,62379,5,4,1:2:0:0:
414,108,62590,1,8,0:0:0:0:
397,115,62696,1,0,1:0:0:0:
380,122,62802,2,0,L|320:118,1,35,4|8,0:0|0:0,0:0:0:0:
238,114,63013,1,0,1:0:0:0:
245,114,63083,1,0,1:0:0:0:
253,115,63153,1,0,1:0:0:0:
261,115,63224,2,0,L|281:158,1,35,12|0,0:0|0:0,0:0:0:0:
315,229,63435,1,0,0:0:0:0:
263,305,63647,5,4,1:2:0:0:
355,313,63857,1,8,0:0:0:0:
372,314,63963,1,0,1:0:0:0:
389,315,64069,2,0,L|407:278,1,35,4|8,0:0|0:0,0:0:0:0:
436,210,64281,1,0,1:0:0:0:
439,203,64351,1,0,1:0:0:0:
442,196,64421,1,0,1:0:0:0:
446,189,64492,2,0,L|393:199,1,35,12|0,0:0|0:0,0:0:0:0:
319,218,64703,2,0,L|266:208,1,35,0|0,1:0|0:0,0:0:0:0:
181,186,64914,6,0,P|197:116|221:88,1,105,4|0,1:2|1:0,0:0:0:0:
292,102,65337,2,8,L|299:128,2,23.3333333333333
265,26,65548,1,0,1:0:0:0:
388,79,65759,5,4,0:0:0:0:
389,170,65971,1,4,0:0:0:0:
325,249,66182,6,0,P|284:237|238:246,1,70,0|8,1:0|0:0,0:0:0:0:
251,242,66464,1,8,0:0:0:0:
244,245,66534,1,8,0:0:0:0:
237,246,66605,1,8,0:0:0:0:
214,100,66816,5,4,0:0:0:0:
228,174,67027,1,4,0:0:0:0:
228,174,67450,5,4,0:2:0:0:
210,170,67520,1,0,0:0:0:0:
193,170,67590,1,0,0:0:0:0:
176,173,67661,1,0,0:0:0:0:
159,179,67731,1,0,0:0:0:0:
144,188,67802,1,0,0:0:0:0:
131,199,67872,6,0,L|145:239,5,35.0000013351441,12|0|0|0|0|0,0:2|0:0|0:0|0:0|0:0|0:0,0:0:0:0:
53,280,68295,6,0,L|64:246,5,35.0000013351441,12|0|0|0|0|0,0:2|0:0|0:0|0:0|0:0|0:0,0:0:0:0:
163,308,68717,5,12,0:2:0:0:
178,316,68787,1,0,0:0:0:0:
194,323,68857,1,0,0:0:0:0:
210,329,68928,1,0,0:0:0:0:
228,332,68998,1,0,0:0:0:0:
245,332,69069,1,0,0:0:0:0:
262,329,69139,1,12,0:2:0:0:
279,323,69209,1,0,0:0:0:0:
295,317,69280,1,0,0:0:0:0:
311,309,69350,1,0,0:0:0:0:
327,303,69421,1,0,0:0:0:0:
344,298,69491,1,0,0:0:0:0:
361,295,69562,1,12,0:2:0:0:
379,295,69632,1,0,0:0:0:0:
396,297,69702,1,0,0:0:0:0:
413,301,69773,1,0,0:0:0:0:
430,307,69843,1,0,0:0:0:0:
446,314,69914,1,0,0:0:0:0:
461,321,69985,6,0,L|451:286,5,35.0000013351441,12|0|0|0|0|0,0:2|0:0|0:0|0:0|0:0|0:0,0:0:0:0:
499,225,70407,6,0,L|509:190,5,35.0000013351441,12|0|0|0|0|0,0:2|0:0|0:0|0:0|0:0|0:0,0:0:0:0:
461,129,70830,5,12,0:2:0:0:
448,117,70900,1,0,0:0:0:0:
432,108,70970,1,0,0:0:0:0:
416,102,71041,1,0,0:0:0:0:
399,100,71111,1,0,0:0:0:0:
381,102,71182,1,0,0:0:0:0:
364,107,71252,6,0,L|353:69,5,35.0000013351441,12|0|0|0|0|0,0:2|0:0|0:0|0:0|0:0|0:0,0:0:0:0:
258,46,71675,1,12,0:2:0:0:
264,62,71745,1,0,0:0:0:0:
265,79,71815,1,0,0:0:0:0:
262,96,71886,1,0,0:0:0:0:
254,112,71956,1,0,0:0:0:0:
242,125,72027,1,0,0:0:0:0:
227,134,72097,1,12,0:2:0:0:
240,145,72167,1,0,0:0:0:0:
250,159,72237,1,0,0:0:0:0:
256,175,72308,1,0,0:0:0:0:
257,193,72379,2,0,P|249:220|231:234,1,35.0000013351441
84,183,72520,5,12,0:2:0:0:
101,179,72590,1,0,0:0:0:0:
118,180,72660,1,0,0:0:0:0:
135,185,72731,1,0,0:0:0:0:
150,194,72801,1,0,0:0:0:0:
162,207,72872,1,0,0:0:0:0:
171,223,72943,6,0,L|194:175,5,35.0000013351441,12|0|0|0|0|0,0:2|0:0|0:0|0:0|0:0|0:0,0:0:0:0:
100,265,73365,6,0,L|111:298,5,35.0000013351441,12|0|0|0|0|0,0:2|0:0|0:0|0:0|0:0|0:0,0:0:0:0:
208,303,73788,5,12,0:2:0:0:
221,292,73858,1,0,0:0:0:0:
237,284,73928,1,0,0:0:0:0:
254,279,73999,1,0,0:0:0:0:
271,277,74069,1,0,0:0:0:0:
289,279,74140,1,0,0:0:0:0:
305,284,74210,1,12,0:2:0:0:
291,273,74280,1,0,0:0:0:0:
275,265,74350,1,0,0:0:0:0:
258,260,74421,1,0,0:0:0:0:
241,258,74491,1,0,0:0:0:0:
223,260,74562,1,0,0:0:0:0:
207,265,74633,1,12,0:2:0:0:
220,254,74703,1,0,0:0:0:0:
236,246,74773,1,0,0:0:0:0:
253,241,74844,1,0,0:0:0:0:
270,239,74914,1,0,0:0:0:0:
288,241,74985,1,0,0:0:0:0:
304,246,75055,6,0,L|295:204,5,35.0000013351441,12|0|0|0|0|0,0:2|0:0|0:0|0:0|0:0|0:0,0:0:0:0:
226,168,75478,6,0,L|235:126,5,35.0000013351441,12|0|0|0|0|0,0:2|0:0|0:0|0:0|0:0|0:0,0:0:0:0:
304,90,75900,5,12,0:2:0:0:
320,84,75970,1,0,0:0:0:0:
337,82,76040,1,0,0:0:0:0:
355,84,76111,1,0,0:0:0:0:
371,90,76181,1,0,0:0:0:0:
386,100,76252,1,0,0:0:0:0:
398,113,76323,5,12,0:2:0:0:
385,124,76393,1,0,0:0:0:0:
376,139,76463,1,0,0:0:0:0:
374,157,76534,1,0,0:0:0:0:
377,174,76604,1,0,0:0:0:0:
386,189,76675,1,0,0:0:0:0:
399,200,76745,1,12,0:2:0:0:
412,211,76815,1,0,0:0:0:0:
421,226,76885,1,0,0:0:0:0:
424,243,76956,1,0,0:0:0:0:
421,260,77026,1,0,0:0:0:0:
413,275,77097,1,0,0:0:0:0:
400,287,77168,1,12,0:2:0:0:
384,294,77238,1,0,0:0:0:0:
366,295,77308,1,0,0:0:0:0:
349,291,77379,1,0,0:0:0:0:
335,282,77450,2,0,P|304:276|275:284,1,35.0000013351441
156,226,77590,6,0,P|146:248|140:282,2,46.6666666666667,4|4|4,0:0|0:0|0:0,0:0:0:0:
257,183,78013,5,4,0:0:0:0:
300,276,78154,2,4,P|276:285|254:285,1,46.6666666666667
343,91,78435,5,4,0:0:0:0:
368,158,78576,1,4,0:0:0:0:
394,226,78717,1,4,0:0:0:0:
382,334,78858,5,8,0:0:0:0:
462,203,79140,1,8,0:0:0:0:
464,214,79210,1,8,0:0:0:0:
466,225,79281,5,8,0:0:0:0:
312,221,79563,1,8,0:0:0:0:
321,213,79633,1,8,0:0:0:0:
329,206,79703,5,8,0:0:0:0:
402,341,79985,1,8,0:0:0:0:
391,337,80055,1,8,0:0:0:0:
381,334,80125,5,4,0:0:0:0:
275,296,80548,5,4,0:0:0:0:
129,242,80971,6,0,L|115:237,1,14,4|2,0:0|0:0,0:0:0:0:
294,222,82661,5,0,0:0:0:0:
