osu file format v14

[General]
AudioFilename: audio.mp3
AudioLeadIn: 0
PreviewTime: 108188
Countdown: 0
SampleSet: Soft
StackLeniency: 0.7
Mode: 0
LetterboxInBreaks: 0
EpilepsyWarning: 1
WidescreenStoryboard: 1

[Editor]
Bookmarks: 18536,37319,54014,70449,70710,87406,108275,124971,141667,160449,177145,198014,214710,231406,248101,264797
DistanceSpacing: 1
BeatDivisor: 6
GridSize: 32
TimelineZoom: 2.899999

[Metadata]
Title:Yoiyami Hanabi
TitleUnicode:宵闇花火
Artist:Hatsuki Yura
ArtistUnicode:葉月ゆら
Creator:Half
Version:Hanabi
Source:
Tags:Len Yoiyami renso kitan utaite 宵闇恋想奇譚 Coppertine
BeatmapID:1777995
BeatmapSetID:850399

[Difficulty]
HPDrainRate:7
CircleSize:4.5
OverallDifficulty:8.8
ApproachRate:9.2
SliderMultiplier:3
SliderTickRate:1

[Events]
//Background and Video events
0,0,"BG.png",0,0
//Break Periods
//Storyboard Layer 0 (Background)
//Storyboard Layer 1 (Fail)
//Storyboard Layer 2 (Pass)
//Storyboard Layer 3 (Foreground)
//Storyboard Sound Samples

[TimingPoints]
-246,521.739130434783,4,2,1,50,1,0
1840,-285.714285714284,4,2,1,50,0,0
17754,-100,4,2,1,50,0,0
18536,-100,4,2,1,80,0,0
22188,-133.333333333333,4,2,1,80,0,0
22710,-100,4,2,1,80,0,0
26101,-133.333333333333,4,2,1,80,0,0
26884,-100,4,2,1,80,0,0
30536,-133.333333333333,4,2,1,80,0,0
31058,-100,4,2,1,80,0,0
33667,-133.333333333333,4,2,1,80,0,0
34188,-100,4,2,1,80,0,0
37058,-133.333333333333,4,2,1,80,0,0
37319,-133.333333333333,4,2,1,65,0,0
40710,-153.846153846153,4,2,1,65,0,0
40971,-117.647058823529,4,2,1,65,0,0
41493,-133.333333333333,4,2,1,65,0,0
44884,-153.846153846153,4,2,1,65,0,0
45145,-117.647058823529,4,2,1,65,0,0
45580,-133.333333333333,4,2,1,65,0,0
49058,-153.846153846153,4,2,1,65,0,0
49319,-117.647058823529,4,2,1,65,0,0
49580,-133.333333333333,4,2,1,65,0,0
54014,-111.111111111111,4,2,1,75,0,0
62101,-133.333333333333,4,2,1,75,0,0
62362,-111.111111111111,4,2,1,75,0,0
70449,-66.6666666666667,4,2,1,75,0,0
70710,-125,4,2,1,65,0,0
74101,-153.846153846154,4,2,1,65,0,0
74362,-117.647058823529,4,2,1,65,0,0
74623,-125,4,2,1,65,0,0
78275,-153.846153846154,4,2,1,65,0,0
78536,-117.647058823529,4,2,1,65,0,0
78797,-125,4,2,1,65,0,0
82449,-153.846153846154,4,2,1,65,0,0
82710,-117.647058823529,4,2,1,65,0,0
82971,-125,4,2,1,65,0,0
87406,-111.111111111111,4,2,1,75,0,0
95493,-133.333333333333,4,2,1,75,0,0
95754,-111.111111111111,4,2,1,75,0,0
106188,-208.333333333333,4,2,1,75,0,0
106971,-133.333333333333,4,2,1,75,0,0
108275,-100,4,2,1,90,0,1
111406,-90.9090909090909,4,2,1,90,0,1
112188,-100,4,2,1,90,0,1
115580,-90.9090909090909,4,2,1,90,0,1
116362,-100,4,2,1,90,0,1
119754,-90.9090909090909,4,2,1,90,0,1
120797,-100,4,2,1,90,0,1
121840,-90.9090909090909,4,2,1,90,0,1
122623,-100,4,2,1,90,0,1
123927,-90.9090909090909,4,2,1,90,0,1
124971,-100,4,2,1,90,0,1
141667,-125,4,2,1,80,0,0
160449,-133.333333333333,4,2,1,65,0,0
168536,-100,4,2,1,65,0,0
168797,-133.333333333333,4,2,1,65,0,0
177145,-111.111111111111,4,2,1,75,0,0
198014,-100,4,2,1,90,0,1
214449,-90.9090909090909,4,2,1,90,0,1
215232,-100,4,2,1,90,0,1
264797,-200,4,2,1,90,0,0
264884,-200,4,2,1,55,0,0
284623,-333.333333333333,4,2,1,55,0,0
294535,558.139534883721,4,2,1,50,1,0
295093,600,4,2,1,45,1,0
295693,634.920634920635,4,2,1,40,1,0
296010,674.157303370787,4,2,1,35,1,0
296347,810.810810810811,4,2,1,30,1,0
296752,895.522388059701,4,2,1,30,1,0
297199,1016.94915254237,4,2,1,30,1,0
297707,1333.33333333333,4,2,1,30,1,0

[Colours]
Combo1 : 210,13,43
Combo2 : 255,91,91
Combo3 : 255,179,179

[HitObjects]
256,192,275,12,0,1580,0:0:0:0:
167,253,1840,6,0,L|114:258,1,52.4999983978272,4|0,0:1|0:0,0:0:0:0:
192,126,2362,2,0,L|254:120,1,52.4999983978272,8|0,0:0|0:0,0:0:0:0:
290,9,2884,1,2,0:1:0:0:
366,80,3145,1,0,0:0:0:0:
305,165,3406,1,8,0:0:0:0:
376,242,3667,1,0,0:0:0:0:
440,159,3927,6,0,L|502:153,1,52.4999983978272
366,80,4449,2,0,L|428:74,1,52.4999983978272,8|0,0:0|0:0,0:0:0:0:
349,245,4971,2,0,L|411:239,3,52.4999983978272,2|0|8|0,0:1|0:0|0:0|0:0,0:0:0:0:
224,151,6014,6,0,L|162:145,3,52.4999983978272,2|0|8|0,0:1|0:0|0:0|0:0,0:0:0:0:
126,61,7058,2,0,L|73:55,1,52.4999983978272,2|0,0:1|0:0,0:0:0:0:
28,181,7580,2,0,L|80:186,1,52.4999983978272,8|0,0:0|0:0,0:0:0:0:
100,313,8101,6,0,L|152:318,1,52.4999983978272
323,275,8623,2,0,L|271:270,1,52.4999983978272,8|0,0:0|0:0,0:0:0:0:
171,145,9145,2,0,L|223:150,3,52.4999983978272,2|0|8|0,0:1|0:0|0:0|0:0,0:0:0:0:
401,32,10188,6,0,L|458:24,1,52.4999983978272,4|0,0:1|0:0,0:0:0:0:
430,178,10710,2,0,L|378:185,1,52.4999983978272,8|0,0:0|0:0,0:0:0:0:
318,98,11232,1,2,0:1:0:0:
244,173,11493,1,0,0:0:0:0:
182,87,11754,1,8,0:0:0:0:
107,162,12015,1,0,0:0:0:0:
85,286,12275,6,0,L|75:343,1,52.4999983978272
266,265,12797,2,0,L|256:322,1,52.4999983978272,8|0,0:0|0:0,0:0:0:0:
177,177,13319,2,0,L|167:228,3,52.4999983978272,2|0|8|0,0:1|0:0|0:0|0:0,0:0:0:0:
291,80,14362,6,0,L|300:28,3,52.4999983978272,2|0|8|0,0:1|0:0|0:0|0:0,0:0:0:0:
382,138,15406,2,0,L|372:189,1,52.4999983978272,2|0,0:1|0:0,0:0:0:0:
503,115,15927,2,0,L|512:63,1,52.4999983978272,8|0,0:0|0:0,0:0:0:0:
372,189,16449,6,0,L|381:137,1,52.4999983978272,4|0,0:0|0:0,0:0:0:0:
291,80,16971,2,0,L|300:28,1,52.4999983978272,4|0,0:0|0:0,0:0:0:0:
171,159,17493,2,0,L|179:109,1,43.749998664856,4|0,0:0|0:0,0:0:0:0:
155,76,17754,6,0,L|133:196,1,100,8|8,0:0|0:0,0:0:0:0:
113,289,18014,1,4,0:0:0:0:
223,247,18188,1,4,0:0:0:0:
223,247,18275,2,0,P|266:250|221:271,1,125,10|0,1:0|0:0,0:0:0:0:
333,302,18536,6,0,P|317:252|354:184,1,100,6|0,0:1|0:0,0:0:0:0:
429,198,18797,2,0,P|379:204|330:207,1,100,2|0,0:1|0:0,0:0:0:0:
175,128,19058,2,0,P|172:109|157:79,2,50,10|4|4,0:2|0:0|0:0,0:0:0:0:
173,141,19319,2,0,L|288:149,1,100,2|0,0:1|0:0,0:0:0:0:
444,49,19580,6,0,P|418:33|333:114,1,150,4|2,0:0|0:1,0:0:0:0:
397,141,19927,1,4,0:0:0:0:
401,153,20014,1,4,0:0:0:0:
404,163,20101,2,0,P|398:215|386:320,1,150,10|2,0:2|0:1,0:0:0:0:
511,283,20536,5,6,0:0:0:0:
404,331,20623,2,0,B|308:338|361:292|255:303,2,150,4|2|10,0:0|0:1|0:2,0:0:0:0:
382,253,21232,1,4,0:0:0:0:
409,228,21319,1,4,0:0:0:0:
447,224,21406,2,0,P|497:242|510:291,1,100,2|0,0:1|0:0,0:0:0:0:
404,331,21667,6,0,P|339:338|299:343,1,100,6|0,0:0|0:0,0:0:0:0:
190,284,21927,2,0,P|125:277|85:272,1,100,2|0,0:0|0:0,0:0:0:0:
16,281,22188,6,0,L|90:272,1,75.000002861023,10|0,0:0|0:0,0:0:0:0:
264,275,22449,2,0,L|190:284,1,75.000002861023,2|6,0:0|0:0,0:0:0:0:
90,271,22710,6,0,P|84:198|79:151,1,100,4|0,0:0|0:0,0:0:0:0:
196,46,22971,2,0,P|221:25|204:60,1,100,2|0,0:1|0:0,0:0:0:0:
109,6,23232,2,0,P|159:56|151:147,1,150,10|2,0:0|0:1,0:0:0:0:
11,245,23667,5,6,0:0:0:0:
102,188,23754,2,0,P|97:237|93:287,1,100,4|0,0:0|0:0,0:0:0:0:
220,360,24014,1,2,0:1:0:0:
193,327,24101,1,4,0:0:0:0:
192,285,24188,1,4,0:0:0:0:
225,254,24275,2,0,P|271:254|323:287,1,100,10|0,0:0|0:0,0:0:0:0:
440,162,24536,2,0,P|391:163|359:200,1,100,2|0,0:1|0:0,0:0:0:0:
441,370,24797,6,0,B|429:320|406:277,1,100,4|0,0:0|0:0,0:0:0:0:
359,200,25058,2,0,B|371:150|404:87,1,100,2|0,0:1|0:0,0:0:0:0:
316,280,25319,2,0,B|266:294|195:297,1,100,10|0,0:0|0:0,0:0:0:0:
406,277,25580,2,0,B|443:312|481:372,1,100,2|0,0:1|0:0,0:0:0:0:
269,207,25840,5,6,0:0:0:0:
262,196,25927,1,4,0:0:0:0:
284,176,26014,1,4,0:0:0:0:
267,170,26101,2,0,P|258:136|257:99,1,56.2500021457673,2|0,0:0|0:0,0:0:0:0:
89,19,26362,2,0,P|152:32|229:44,1,112.500004291535,10|2,0:0|0:0,0:0:0:0:
406,52,26797,1,6,0:0:0:0:
335,21,26884,6,0,P|356:81|366:143,1,100,4|0,0:0|0:0,0:0:0:0:
424,244,27145,2,0,P|441:197|452:148,1,100,2|0,0:1|0:0,0:0:0:0:
249,175,27406,6,0,P|245:139|233:101,2,50,10|4|4,0:0|0:0|0:0,0:0:0:0:
260,167,27667,2,0,P|310:175|355:197,1,100,2|4,0:1|0:0,0:0:0:0:
414,370,27927,1,4,0:0:0:0:
484,280,28188,5,2,0:1:0:0:
434,298,28275,1,4,0:0:0:0:
379,287,28362,1,4,0:0:0:0:
339,331,28449,2,0,B|234:344|297:292|193:307,1,150,10|2,0:0|0:1,0:0:0:0:
5,348,28884,5,6,0:0:0:0:
88,371,28971,2,0,P|80:321|72:246,1,100,4|0,0:0|0:0,0:0:0:0:
173,135,29232,2,0,P|166:184|160:234,1,100,2|0,0:1|0:0,0:0:0:0:
10,206,29493,1,10,0:0:0:0:
3,198,29580,1,4,0:0:0:0:
1,186,29667,1,4,0:0:0:0:
7,176,29754,2,0,P|50:166|92:192,1,100,2|0,0:1|0:0,0:0:0:0:
193,309,30014,6,0,P|264:300|332:291,1,100,6|0,0:0|0:0,0:0:0:0:
347,357,30275,2,0,P|337:310|292:296,1,100,2|0,0:0|0:0,0:0:0:0:
434,231,30536,6,0,L|343:223,1,75.000002861023,10|0,0:0|0:0,0:0:0:0:
209,198,30797,2,0,P|202:156|198:115,1,75.000002861023,2|2,0:0|0:0,0:0:0:0:
319,8,31058,6,0,P|307:68|296:140,1,100,4|0,0:0|0:0,0:0:0:0:
475,129,31319,2,0,P|444:74|380:86,1,100,2|0,0:1|0:0,0:0:0:0:
315,223,31580,2,0,P|330:263|323:297,2,50,10|4|4,0:0|0:0|0:0,0:0:0:0:
307,214,31840,2,0,P|258:205|209:198,1,100,2|0,0:1|0:0,0:0:0:0:
65,369,32101,1,4,0:0:0:0:
24,290,32362,5,2,0:1:0:0:
78,271,32449,1,4,0:0:0:0:
123,309,32536,1,4,0:0:0:0:
177,292,32623,2,0,B|283:282|215:337|335:324,1,150,10|2,0:0|0:1,0:0:0:0:
436,285,33058,5,0,0:0:0:0:
339,338,33145,2,0,P|344:287|353:229,1,100,4|0,0:0|0:0,0:0:0:0:
500,155,33406,2,0,P|442:169|427:226,1,100,2|0,0:1|0:0,0:0:0:0:
277,133,33667,6,0,P|325:147|362:159,1,75.000002861023,10|0,0:0|0:0,0:0:0:0:
374,76,33927,2,0,P|338:64|302:54,1,75.000002861023,2|2,0:1|0:0,0:0:0:0:
295,39,34188,5,6,0:0:0:0:
207,53,34362,1,2,0:0:0:0:
203,31,34449,1,4,0:0:0:0:
116,54,34710,5,10,0:0:0:0:
219,191,34884,1,2,0:0:0:0:
100,235,34971,2,0,P|104:183|111:114,1,100,4|0,0:0|0:0,0:0:0:0:
116,54,35232,6,0,B|215:53|148:93|266:80,2,150,6|0|0,0:0|0:0|0:0,0:0:0:0:
316,146,36014,6,0,P|314:97|274:69,1,100,2|2,0:0|0:0,0:0:0:0:
203,31,36275,1,2,0:0:0:0:
475,87,36536,6,0,P|410:54|363:75,1,100,2|2,0:0|0:0,0:0:0:0:
316,146,36797,2,0,P|306:216|305:271,1,100,6|6,0:0|0:0,0:0:0:0:
152,263,37058,2,0,P|176:316|184:358,1,75.000002861023,10|0,0:0|0:0,0:0:0:0:
292,338,37319,6,0,P|236:335|189:364,1,112.500004291535,4|0,0:1|0:0,0:0:0:0:
15,309,37754,1,4,0:0:0:0:
0,298,37840,2,0,P|33:280|68:268,1,75.000002861023,8|0,0:0|0:0,0:0:0:0:
220,206,38101,2,0,P|186:188|151:176,1,75.000002861023,4|0,0:0|0:0,0:0:0:0:
29,169,38362,1,2,0:1:0:0:
23,95,38623,6,0,P|24:136|33:182,1,75.000002861023,4|0,0:0|0:0,0:0:0:0:
131,34,38884,1,8,0:0:0:0:
152,21,38971,1,4,0:0:0:0:
176,18,39058,1,4,0:0:0:0:
203,25,39145,2,0,P|243:36|290:27,1,75.000002861023,4|0,0:0|0:0,0:0:0:0:
393,0,39406,6,0,P|370:50|390:102,1,112.500004291535,4|0,0:0|0:0,0:0:0:0:
510,190,39840,1,4,0:0:0:0:
510,190,39927,2,0,P|454:195|395:209,2,112.500004291535,8|4|2,0:0|0:0|0:1,0:1:0:0:
316,143,40710,6,0,L|309:239,1,81.2499962806703,4|0,0:0|0:0,0:0:0:0:
276,246,40971,6,0,L|287:114,1,127.50000243187,8|4,0:0|0:0,0:0:0:0:
152,11,41406,1,4,0:0:0:0:
136,21,41493,6,0,P|123:81|119:133,1,112.500004291535,4|0,0:0|0:0,0:0:0:0:
0,248,41927,1,4,0:0:0:0:
11,255,42014,2,0,P|51:241|83:223,1,75.000002861023,8|0,0:0|0:0,0:0:0:0:
237,258,42275,2,0,P|204:229|173:211,1,75.000002861023,4|0,0:0|0:0,0:0:0:0:
103,348,42536,1,2,0:1:0:0:
120,361,42797,6,0,P|159:359|195:352,1,75.000002861023,4|0,0:0|0:0,0:0:0:0:
322,273,43058,2,0,P|312:328|340:380,2,112.500004291535,8|4|4,0:0|0:0|0:0,0:0:0:0:
412,202,43840,5,4,0:0:0:0:
279,134,44014,1,4,0:0:0:0:
290,121,44101,2,0,P|331:116|365:116,1,75.000002861023,8|0,0:0|0:0,0:0:0:0:
153,105,44362,2,0,P|188:83|214:55,1,75.000002861023,4|0,0:0|0:0,0:0:0:0:
191,250,44623,1,2,0:1:0:0:
184,266,44884,6,0,L|269:256,1,81.2499962806703,4|0,0:0|0:0,0:0:0:0:
293,286,45145,6,4,L|158:300,1,127.50000243187,12|4,0:0|0:0,0:0:0:0:
79,81,45580,5,4,0:0:0:0:
50,158,45667,2,0,P|94:122|160:123,1,112.500004291535,4|0,0:1|0:0,0:0:0:0:
328,224,46101,1,4,0:0:0:0:
341,207,46188,2,0,P|337:170|319:135,1,75.000002861023,8|0,0:0|0:0,0:0:0:0:
249,4,46449,2,0,P|232:37|228:74,1,75.000002861023,4|0,0:0|0:0,0:0:0:0:
408,15,46710,1,2,0:1:0:0:
426,4,46971,6,0,L|417:94,1,75.000002861023,4|0,0:0|0:0,0:0:0:0:
488,192,47232,1,8,0:0:0:0:
464,183,47319,1,4,0:0:0:0:
440,184,47406,1,4,0:0:0:0:
415,196,47493,1,4,0:0:0:0:
307,296,47667,5,4,0:0:0:0:
321,283,47754,2,0,P|322:245|316:208,1,75.000002861023,4|0,0:0|0:0,0:0:0:0:
334,65,48014,2,0,P|301:84|273:108,1,75.000002861023,4|0,0:0|0:0,0:0:0:0:
115,146,48275,2,0,P|164:174|217:194,2,112.500004291535,8|4|2,0:0|0:0|0:1,0:0:0:0:
0,158,49058,6,0,P|1:118|19:83,1,81.2499962806703,4|0,0:0|0:0,0:0:0:0:
51,66,49319,6,0,P|49:129|23:186,1,127.50000243187,8|4,0:0|0:0,0:0:0:0:
11,320,49754,5,4,0:0:0:0:
0,342,49840,2,0,P|53:340|115:332,1,112.500004291535,4|0,0:0|0:0,0:0:0:0:
201,300,50275,1,4,0:0:0:0:
211,277,50362,2,0,P|251:268|295:266,1,75.000002861023,8|0,0:0|0:0,0:0:0:0:
120,204,50623,2,0,P|82:201|46:192,1,75.000002861023,4|0,0:0|0:0,0:0:0:0:
235,88,50884,1,2,0:1:0:0:
227,111,51145,6,0,L|322:98,1,75.000002861023,4|0,0:0|0:0,0:0:0:0:
408,22,51406,2,0,P|389:68|402:107,1,75.000002861023,8|0,0:0|0:0,0:0:0:0:
493,266,51667,2,0,P|454:232|403:231,1,93.7500035762788,4|0,0:0|0:0,0:0:0:0:
358,281,51927,6,0,P|377:229|361:176,1,112.500004291535,4|4,0:0|0:0,0:0:0:0:
210,105,52362,1,4,0:0:0:0:
228,117,52449,2,0,P|267:111|304:99,1,75.000002861023,8|0,0:0|0:0,0:0:0:0:
236,238,52710,2,0,P|200:247|160:268,1,75.000002861023,4|0,0:0|0:0,0:0:0:0:
24,165,52971,2,0,P|49:191|87:215,1,75.000002861023,2|4,0:1|0:0,0:0:0:0:
82,383,53232,2,0,P|85:345|81:309,1,75.000002861023,8|0,0:0|0:0,0:0:0:0:
155,171,53493,5,8,0:0:0:0:
153,146,53579,1,4,0:0:0:0:
152,121,53666,1,4,0:0:0:0:
151,96,53754,2,0,L|146:14,1,75.000002861023,4|0,0:0|0:0,0:0:0:0:
237,24,54014,6,0,P|237:68|241:113,1,89.999997253418,12|0,3:1|0:0,0:0:0:0:
324,145,54275,2,0,P|285:122|241:113,1,89.999997253418,0|0,3:0|0:0,0:0:0:0:
418,205,54536,2,0,P|375:213|337:237,1,89.999997253418,8|0,3:2|0:0,0:0:0:0:
332,326,54797,2,0,P|335:281|337:237,1,89.999997253418,0|0,3:0|0:0,0:0:0:0:
148,209,55058,6,0,P|90:199|18:189,1,89.999997253418,4|0,3:2|0:0,0:0:0:0:
68,277,55319,2,0,P|112:284|157:292,1,89.999997253418,0|0,3:0|0:0,0:0:0:0:
254,270,55580,2,0,P|229:307|223:352,1,89.999997253418,8|0,3:2|0:0,0:0:0:0:
120,366,55840,2,0,P|62:356|-10:346,1,89.999997253418,0|0,3:0|0:0,0:0:0:0:
68,277,56101,6,0,P|76:233|57:193,1,89.999997253418,4|0,3:2|0:0,0:0:0:0:
208,120,56362,2,0,P|169:141|155:183,1,89.999997253418,0|0,3:0|0:0,0:0:0:0:
6,82,56623,2,0,P|59:101|112:108,1,89.999997253418,8|0,3:2|0:0,0:0:0:0:
110,97,56884,1,4,3:2:0:0:
307,91,57058,1,8,3:2:0:0:
286,99,57145,6,0,P|294:55|303:11,1,89.999997253418,8|0,3:3|0:0,0:0:0:0:
384,81,57406,2,0,P|374:125|366:169,1,89.999997253418,8|0,3:3|0:0,0:0:0:0:
495,275,57667,2,0,P|487:230|478:186,1,89.999997253418,8|0,3:3|0:0,0:0:0:0:
409,260,57927,2,0,P|418:304|426:349,1,89.999997253418,8|8,3:3|0:2,0:0:0:0:
245,298,58188,6,0,P|298:309|369:328,1,89.999997253418,4|0,3:2|0:0,0:0:0:0:
142,183,58449,2,0,P|89:194|18:213,1,89.999997253418,0|0,3:0|0:0,0:0:0:0:
157,266,58710,2,0,P|145:331|142:381,1,89.999997253418,8|0,3:2|0:0,0:0:0:0:
230,209,58971,2,0,P|225:164|215:120,1,89.999997253418,0|0,3:0|0:0,0:0:0:0:
320,22,59232,6,0,P|310:66|305:110,1,89.999997253418,4|0,3:2|0:0,0:0:0:0:
144,18,59493,2,0,P|189:15|228:37,1,89.999997253418,0|0,3:0|0:0,0:0:0:0:
384,128,59754,2,0,P|344:147|321:185,1,89.999997253418,8|0,3:2|0:0,0:0:0:0:
230,266,60014,2,0,P|241:326|249:377,1,89.999997253418,0|0,3:0|0:0,0:0:0:0:
245,354,60275,6,0,P|298:357|297:271,1,134.999995880127,4|0,3:2|0:0,0:0:0:0:
431,327,60710,1,4,0:2:0:0:
432,327,60797,2,0,P|414:266|412:179,1,134.999995880127,8|4,3:2|0:0,0:0:0:0:
447,32,61232,1,8,3:2:0:0:
407,113,61319,6,0,P|387:72|353:44,1,89.999997253418,8|0,3:0|0:0,0:0:0:0:
236,90,61580,2,0,P|280:99|319:120,1,89.999997253418,8|0,3:0|0:0,0:0:0:0:
165,26,61840,5,8,3:0:0:0:
135,59,61927,1,0,3:0:0:0:
95,48,62014,1,0,3:0:0:0:
69,69,62101,2,0,P|80:125|81:171,1,75.000002861023,8|8,3:0|0:2,0:0:0:0:
16,192,62362,6,0,P|58:179|81:142,1,89.999997253418,4|0,3:1|0:0,0:0:0:0:
74,266,62623,2,0,P|62:317|57:360,1,89.999997253418,0|0,3:0|0:0,0:0:0:0:
161,227,62884,2,0,P|213:228|244:277,1,89.999997253418,8|0,3:2|0:0,0:0:0:0:
309,350,63145,2,0,P|275:378|232:376,1,89.999997253418,0|0,3:0|0:0,0:0:0:0:
146,338,63406,6,0,P|104:344|57:353,1,89.999997253418,4|0,3:2|0:0,0:0:0:0:
161,227,63667,2,0,P|119:220|72:211,1,89.999997253418,0|0,3:0|0:0,0:0:0:0:
243,123,63927,2,0,P|298:138|317:181,1,89.999997253418,8|0,3:2|0:0,0:0:0:0:
366,311,64188,2,0,P|373:259|400:211,1,89.999997253418,4|8,3:2|0:2,0:0:0:0:
508,67,64449,6,0,P|465:89|357:92,1,134.999995880127,4|0,3:2|0:2,0:0:0:0:
370,82,64884,5,4,3:2:0:0:
300,22,64971,2,0,P|240:19|220:113,1,134.999995880127,8|4,3:2|0:2,0:0:0:0:
78,211,65406,5,8,3:2:0:0:
170,188,65493,2,0,P|184:134|183:62,1,89.999997253418,8|0,3:3|0:0,0:0:0:0:
235,254,65754,2,0,P|181:268|119:305,1,89.999997253418,8|0,3:0|0:0,0:0:0:0:
259,164,66014,2,0,P|298:203|361:238,1,89.999997253418,8|0,3:0|0:0,0:0:0:0:
305,320,66275,2,0,P|359:291|413:296,1,89.999997253418,8|8,3:0|0:0,0:0:0:0:
496,338,66536,5,4,3:2:0:0:
502,317,66797,1,4,3:2:0:0:
491,281,67058,1,8,3:2:0:0:
419,247,67319,1,4,3:2:0:0:
328,304,67493,1,8,3:2:0:0:
328,304,67580,5,4,3:2:0:0:
176,351,67754,1,8,3:2:0:0:
176,351,67840,1,4,3:2:0:0:
18,209,68101,1,8,3:2:0:0:
107,0,68362,1,4,3:2:0:0:
123,19,68623,6,0,P|70:14|13:8,1,89.999997253418,8|0,3:2|0:0,0:0:0:0:
286,48,68884,2,0,P|235:46|177:43,1,89.999997253418,8|0,3:2|0:0,0:0:0:0:
454,27,69145,6,0,P|403:25|345:22,1,89.999997253418,8|0,3:2|0:0,0:0:0:0:
85,119,69406,2,0,P|130:118|175:117,1,89.999997253418,8|0,3:2|0:0,0:0:0:0:
322,181,69667,6,0,P|277:179|232:177,1,89.999997253418,8|8,3:2|0:2,0:0:0:0:
397,138,69927,1,4,3:2:0:0:
171,306,70101,5,8,3:2:0:0:
270,337,70188,2,0,P|243:292|265:224,1,89.999997253418,4|8,3:2|3:2,0:0:0:0:
465,244,70449,6,0,B|383:235|413:283|323:275,1,150.000005722046,4|0,3:2|0:0,0:0:0:0:
117,149,70710,6,0,B|190:146|164:183|241:176,1,120,4|0,0:1|0:0,0:0:0:0:
375,80,71145,1,4,0:0:0:0:
362,95,71232,2,0,P|323:104|280:103,1,80,8|0,0:0|0:0,0:0:0:0:
82,69,71493,2,0,P|120:60|160:60,1,80,4|0,0:0|0:0,0:0:0:0:
147,235,71754,1,2,0:1:0:0:
162,250,72014,6,0,L|156:335,1,80,4|0,0:0|0:0,0:0:0:0:
24,384,72275,5,8,0:0:0:0:
26,360,72361,1,4,0:0:0:0:
28,336,72448,1,4,0:0:0:0:
30,312,72536,2,0,L|38:215,1,80,4|0,0:0|0:0,0:0:0:0:
7,137,72797,6,0,P|46:155|84:149,1,80,4|0,0:0|0:0,0:0:0:0:
224,75,73058,2,0,P|188:57|149:61,1,80,4|0,0:0|0:0,0:0:0:0:
83,0,73319,2,0,P|65:39|71:77,1,80,8|0,0:0|0:0,0:0:0:0:
147,215,73580,2,0,P|164:179|160:140,1,80,4|0,0:0|0:0,0:0:0:0:
127,314,73840,1,2,0:1:0:0:
120,335,74101,6,0,L|40:350,1,81.2499962806703,4|0,0:0|0:0,0:0:0:0:
22,384,74362,6,0,L|147:361,1,127.50000243187,8|4,0:0|0:0,0:0:0:0:
244,220,74797,5,4,0:0:0:0:
271,149,74884,2,0,P|270:209|305:259,1,120,4|0,0:0|0:0,0:0:0:0:
460,282,75319,1,4,0:0:0:0:
473,295,75406,2,0,P|431:306|381:311,1,80,8|0,0:0|0:0,0:0:0:0:
227,350,75667,2,0,P|270:360|319:366,1,80,4|0,0:0|0:0,0:0:0:0:
392,200,75927,1,2,0:1:0:0:
404,182,76188,6,0,P|401:140|396:99,1,80,4|0,0:0|0:0,0:0:0:0:
318,18,76449,2,0,P|383:28|427:-2,2,120,8|4|4,0:0|0:0|0:0,0:0:0:0:
189,189,77232,1,4,0:0:0:0:
113,49,77406,1,4,0:0:0:0:
104,63,77493,2,0,P|145:73|188:73,1,80,8|0,0:0|0:0,0:0:0:0:
339,119,77754,2,0,P|299:119|260:129,1,80,4|0,0:0|0:0,0:0:0:0:
205,266,78014,2,0,P|201:226|188:188,1,80,2|0,0:1|0:0,0:0:0:0:
66,130,78275,6,0,L|55:210,1,81.2499962806703,4|0,0:0|0:0,0:0:0:0:
21,230,78536,6,0,L|37:104,1,127.50000243187,8|4,0:0|0:0,0:0:0:0:
207,64,78971,5,4,0:0:0:0:
130,37,79058,2,0,P|192:37|235:-7,1,120,4|4,0:1|0:0,0:0:0:0:
417,48,79493,1,4,0:0:0:0:
408,62,79580,2,0,P|365:59|324:50,1,80,8|0,0:0|0:0,0:0:0:0:
264,137,79840,2,0,P|224:139|184:147,1,80,4|0,0:0|0:0,0:0:0:0:
349,238,80101,1,2,0:1:0:0:
362,220,80362,6,0,L|447:209,1,80,4|0,0:0|0:0,0:0:0:0:
341,353,80623,1,8,0:0:0:0:
314,352,80709,1,4,0:0:0:0:
290,342,80796,1,4,0:0:0:0:
272,322,80884,2,0,P|232:321|185:331,1,80,4|4,0:0|0:0,0:0:0:0:
29,284,81145,6,0,P|72:282|117:269,1,80,4|0,0:0|0:0,0:0:0:0:
123,103,81406,2,0,P|103:141|91:186,1,80,4|0,0:0|0:0,0:0:0:0:
217,286,81667,2,0,P|206:247|187:212,1,80,8|0,0:0|0:0,0:0:0:0:
29,284,81927,2,0,P|72:282|117:269,1,80,4|0,0:0|0:0,0:0:0:0:
284,119,82188,2,0,P|244:120|205:130,1,80,2|0,0:1|0:0,0:0:0:0:
365,168,82449,6,0,L|374:87,1,81.2499962806703,4|0,0:0|0:0,0:0:0:0:
406,65,82710,6,0,L|391:191,1,127.50000243187,8|0,0:0|0:0,0:0:0:0:
374,315,83145,5,4,0:0:0:0:
446,354,83232,2,0,P|373:354|334:405,1,120,4|4,0:0|0:0,0:0:0:0:
188,275,83667,1,4,0:0:0:0:
197,257,83754,2,0,P|240:252|288:254,1,80,8|0,0:0|0:0,0:0:0:0:
121,359,84014,2,0,P|95:324|78:281,1,80,4|0,0:0|0:0,0:0:0:0:
139,119,84275,1,2,0:1:0:0:
154,111,84536,6,0,P|159:70|160:23,1,80,4|0,0:0|0:0,0:0:0:0:
28,184,84797,2,0,P|69:201|112:203,1,80,8|0,0:0|0:0,0:0:0:0:
319,88,85058,2,0,P|278:71|235:69,1,80,4|0,0:0|0:0,0:0:0:0:
278,283,85319,6,0,P|341:276|399:251,1,120,4|0,0:0|0:0,0:0:0:0:
175,157,85754,1,4,0:0:0:0:
163,175,85840,2,0,P|153:217|151:269,1,80,8|0,0:0|0:0,0:0:0:0:
319,88,86101,2,0,P|315:48|306:9,1,80,4|0,0:0|0:0,0:0:0:0:
258,179,86362,5,2,0:1:0:0:
279,193,86448,1,4,0:0:0:0:
306,197,86535,1,4,0:0:0:0:
332,193,86623,2,0,P|377:193|412:211,1,80,8|0,0:0|0:0,0:0:0:0:
503,310,86884,5,8,0:0:0:0:
476,313,86970,1,4,0:0:0:0:
450,316,87057,1,4,0:0:0:0:
423,319,87145,2,0,L|325:329,1,80,4|0,0:0|0:0,0:0:0:0:
106,371,87406,6,0,P|163:329|202:342,1,89.999997253418,4|0,3:1|0:0,0:0:0:0:
290,204,87667,2,0,P|272:245|259:288,1,89.999997253418,0|0,3:2|0:0,0:0:0:0:
148,156,87927,2,0,P|165:197|178:240,1,89.999997253418,8|0,3:2|0:0,0:0:0:0:
4,240,88188,2,0,P|47:251|89:267,1,89.999997253418,0|0,3:2|0:0,0:0:0:0:
17,73,88449,6,0,P|31:116|42:160,1,89.999997253418,4|0,3:2|0:0,0:0:0:0:
166,67,88710,2,0,P|156:111|148:156,1,89.999997253418,0|0,3:1|0:0,0:0:0:0:
301,128,88971,2,0,P|260:174|224:214,1,89.999997253418,8|0,3:2|0:0,0:0:0:0:
382,250,89232,2,0,P|339:265|297:280,1,89.999997253418,0|0,3:0|0:0,0:0:0:0:
398,381,89493,5,4,3:2:0:0:
177,330,89754,1,4,3:2:0:0:
470,180,89927,1,4,3:2:0:0:
469,180,90014,2,0,P|407:167|359:160,1,89.999997253418,8|0,3:2|0:0,0:0:0:0:
290,203,90275,2,0,P|276:153|257:106,1,89.999997253418,4|8,3:2|0:2,0:0:0:0:
312,31,90536,5,8,3:0:0:0:
32,96,90710,1,4,3:2:0:0:
32,96,90797,2,0,P|94:83|142:76,1,89.999997253418,8|0,3:0|0:0,0:0:0:0:
75,258,91058,2,0,P|88:206|104:158,1,89.999997253418,8|0,3:0|0:0,0:0:0:0:
3,191,91319,1,8,3:0:0:0:
196,366,91493,1,8,3:2:0:0:
196,366,91580,6,0,P|149:359|76:348,1,89.999997253418,4|0,3:2|0:0,0:0:0:0:
21,369,91840,1,4,3:2:0:0:
277,305,92014,1,4,3:2:0:0:
277,305,92101,6,0,P|239:275|182:229,1,89.999997253418,8|0,3:2|0:0,0:0:0:0:
367,315,92362,2,0,P|374:287|384:257,2,44.999998626709,0|4|4,3:0|0:2|0:2,0:0:0:0:
443,148,92623,6,0,P|452:192|464:235,1,89.999997253418,4|0,3:2|0:0,0:0:0:0:
363,99,92884,2,0,P|341:138|323:179,1,89.999997253418,0|0,3:2|0:0,0:0:0:0:
333,10,93145,1,8,3:2:0:0:
333,10,93406,2,0,P|291:26|250:46,1,89.999997253418,4|8,3:2|3:2,0:0:0:0:
50,31,93667,6,0,P|131:37|155:117,1,134.999995880127,4|0,3:2|3:0,0:0:0:0:
101,185,94101,1,4,3:2:0:0:
101,185,94188,2,0,P|94:140|81:97,1,89.999997253418,8|0,3:2|0:0,0:0:0:0:
250,46,94449,2,0,P|236:88|230:133,1,89.999997253418,4|8,3:2|0:2,0:0:0:0:
194,218,94710,6,0,P|238:227|277:260,1,89.999997253418,8|0,3:3|0:0,0:0:0:0:
324,119,94971,2,0,P|351:154|363:198,1,89.999997253418,8|0,3:0|0:0,0:0:0:0:
464,350,95232,5,8,3:0:0:0:
447,323,95319,1,0,3:2:0:0:
465,293,95406,1,0,3:2:0:0:
444,255,95493,2,0,P|457:213|463:177,1,75.000002861023,8|8,3:0|0:2,0:0:0:0:
505,72,95754,6,0,P|466:99|396:104,1,89.999997253418,4|0,3:1|0:0,0:0:0:0:
363,198,96014,2,0,P|317:185|268:135,1,89.999997253418,0|0,3:0|0:0,0:0:0:0:
175,170,96275,2,0,P|155:126|162:57,1,89.999997253418,8|0,3:2|0:0,0:0:0:0:
206,11,96536,1,4,3:2:0:0:
5,108,96710,1,4,3:2:0:0:
13,80,96797,5,4,3:2:0:0:
70,361,97058,1,4,3:2:0:0:
271,200,97319,1,8,3:2:0:0:
48,69,97580,1,4,3:2:0:0:
138,179,97754,1,4,3:2:0:0:
138,179,97840,6,0,P|207:190|297:205,1,134.999995880127,4|4,3:2|3:2,0:0:0:0:
499,104,98275,1,4,3:2:0:0:
469,23,98362,2,0,P|402:41|388:79,1,89.999997253418,8|0,3:2|0:0,0:0:0:0:
276,27,98623,2,0,P|300:81|311:136,1,89.999997253418,4|8,3:2|0:2,0:0:0:0:
271,200,98884,5,8,3:3:0:0:
28,150,99058,1,0,3:0:0:0:
59,124,99145,2,0,P|49:165|39:226,1,89.999997253418,8|0,3:0|0:0,0:0:0:0:
183,254,99406,2,0,P|165:212|129:188,1,89.999997253418,8|0,3:0|0:0,0:0:0:0:
3,297,99667,2,0,P|51:292|111:287,1,89.999997253418,8|8,3:0|0:2,0:0:0:0:
245,358,99927,5,4,3:1:0:0:
271,340,100188,1,4,3:2:0:0:
321,353,100362,1,0,3:2:0:0:
321,353,100449,1,8,3:2:0:0:
422,312,100710,1,4,3:2:0:0:
462,189,100884,1,8,3:2:0:0:
462,189,100971,5,4,3:2:0:0:
386,41,101145,1,8,3:2:0:0:
386,41,101232,1,4,3:2:0:0:
160,61,101406,1,4,3:2:0:0:
160,61,101493,1,8,3:2:0:0:
134,43,101754,6,0,P|141:91|145:136,1,89.999997253418,4|8,3:2|0:2,0:0:0:0:
28,175,102014,6,0,B|119:166|68:219|185:208,1,134.999995880127,4|4,3:1|0:2,0:0:0:0:
6,332,102449,1,4,3:2:0:0:
6,332,102536,2,0,P|20:285|64:262,1,89.999997253418,8|0,3:2|0:2,0:2:0:0:
127,315,102797,2,0,P|184:301|226:295,1,89.999997253418,4|0,3:2|0:2,0:0:0:0:
392,364,103058,6,0,P|348:331|341:275,1,89.999997253418,4|0,3:2|0:2,0:0:0:0:
295,221,103319,2,0,P|329:193|374:192,1,89.999997253418,4|0,3:2|0:2,0:0:0:0:
477,145,103580,2,0,P|460:186|455:231,1,89.999997253418,8|0,3:2|0:0,0:0:0:0:
372,20,103840,2,0,P|388:61|393:106,1,89.999997253418,4|0,3:2|0:0,0:0:0:0:
209,66,104101,6,0,P|254:71|299:78,1,89.999997253418,4|0,3:1|0:2,0:0:0:0:
299,78,104362,1,4,3:2:0:0:
127,201,104536,1,0,3:2:0:0:
127,201,104623,2,0,P|82:205|37:212,1,89.999997253418,8|0,3:2|0:2,0:0:0:0:
25,53,104884,2,0,P|71:79|71:147,1,89.999997253418,8|8,3:2|0:2,0:0:0:0:
37,212,105145,6,0,P|29:256|22:301,1,89.999997253418,4|8,3:2|0:2,0:0:0:0:
98,373,105406,1,4,3:2:0:0:
98,373,105667,2,0,P|167:370|187:308,1,134.999995880127,8|4,3:2|3:2,0:0:0:0:
139,216,106101,5,8,3:2:0:0:
201,304,106188,2,0,P|203:241|227:158,1,144.000003515625,4|8,3:1|3:2,0:0:0:0:
224,163,106971,6,0,P|264:160|309:157,1,75.000002861023,4|8,3:2|3:2,0:0:0:0:
381,180,107232,1,4,3:1:0:0:
393,29,107493,6,0,P|377:63|361:97,1,75.000002861023,8|4,3:2|3:2,0:0:0:0:
422,242,107754,2,0,P|402:211|381:179,1,75.000002861023,8|8,3:2|3:2,0:0:0:0:
224,163,108014,2,0,P|264:160|309:157,1,75.000002861023,4|0,3:2|0:0,0:0:0:0:
307,282,108275,6,0,P|258:284|208:291,1,100,4|0,0:1|0:0,0:0:0:0:
167,384,108536,2,0,P|153:337|179:297,1,100,2|0,0:1|0:0,0:0:0:0:
134,137,108797,2,0,P|144:113|163:95,2,50,10|0|0,0:0|0:0|0:0,0:0:0:0:
137,169,109058,2,0,P|84:179|32:178,1,100,2|0,0:1|0:0,0:0:0:0:
166,24,109319,6,0,P|225:59|233:111,1,100,4|0,0:0|0:0,0:0:0:0:
374,76,109580,2,0,P|315:111|307:163,1,100,2|0,0:1|0:0,0:0:0:0:
242,273,109840,2,0,P|234:221|221:166,1,100,10|0,0:2|0:0,0:0:0:0:
328,286,110101,2,0,P|320:338|307:393,1,100,2|0,0:1|0:0,0:0:0:0:
441,264,110362,6,0,P|465:273|484:288,2,50,4|4|4,0:2|0:0|0:0,0:0:0:0:
419,273,110623,2,0,P|408:224|403:174,1,100,2|0,0:1|0:0,0:0:0:0:
232,155,110884,1,10,0:0:0:0:
254,130,110971,1,4,0:0:0:0:
289,126,111058,1,4,0:0:0:0:
317,139,111145,2,0,P|328:90|333:40,1,100,2|0,0:1|0:0,0:0:0:0:
498,20,111406,6,0,P|475:66|423:86,1,110.000003356934,6|0,0:0|0:0,0:0:0:0:
253,11,111667,2,0,P|202:29|177:76,1,110.000003356934,10|0,0:0|0:0,0:0:0:0:
211,252,111927,2,0,P|180:209|76:209,1,165.000005035401,10|2,0:0|0:1,0:0:0:0:
214,358,112362,1,4,0:2:0:0:
234,378,112449,6,0,P|290:373|352:363,1,100,4|0,0:0|0:0,0:0:0:0:
380,265,112710,2,0,P|399:313|374:360,1,100,2|0,0:1|0:0,0:0:0:0:
439,196,112971,2,0,P|466:193|487:182,2,50,10|4|4,0:0|0:0|0:0,0:0:0:0:
407,175,113232,2,0,P|358:169|315:193,1,100,2|0,0:1|0:0,0:0:0:0:
249,307,113493,6,0,P|210:279|196:231,1,100,4|0,0:0|0:0,0:0:0:0:
105,245,113754,2,0,P|109:197|142:158,1,100,2|0,0:1|0:0,0:0:0:0:
88,85,114014,2,0,P|132:67|188:80,1,100,10|0,0:0|0:0,0:0:0:0:
325,149,114275,2,0,P|280:168|232:156,1,100,2|0,0:1|0:0,0:0:0:0:
375,66,114536,6,0,P|425:130|421:164,1,100,4|0,0:0|0:0,0:0:0:0:
413,179,114797,2,0,P|473:171|524:164,1,100,2|0,0:1|0:0,0:0:0:0:
397,279,115058,6,0,P|337:287|286:294,1,100,10|0,0:0|0:0,0:0:0:0:
272,383,115319,2,0,P|247:323|287:285,1,100,2|0,0:1|0:0,0:0:0:0:
172,262,115580,6,0,P|118:269|68:291,1,110.000003356934,6|0,0:0|0:0,0:0:0:0:
285,220,115840,2,0,P|235:195|182:182,1,110.000003356934,10|0,0:0|0:0,0:0:0:0:
39,150,116101,2,0,B|135:165|95:80|213:102,1,165.000005035401,10|2,0:0|0:1,0:0:0:0:
402,0,116536,1,4,0:2:0:0:
431,15,116623,6,0,P|448:69|456:119,1,100,4|0,0:0|0:0,0:0:0:0:
364,164,116884,2,0,P|413:166|455:141,1,100,2|0,0:1|0:0,0:0:0:0:
337,52,117145,1,10,0:0:0:0:
293,46,117231,1,4,0:0:0:0:
254,64,117318,1,4,0:0:0:0:
236,103,117406,2,0,P|207:135|152:147,1,100,2|0,0:1|0:0,0:0:0:0:
89,0,117667,6,0,P|68:51|60:101,1,100,4|0,0:0|0:0,0:0:0:0:
12,257,117927,2,0,P|10:202|-2:154,1,100,2|0,0:1|0:0,0:0:0:0:
112,266,118188,2,0,P|106:290|92:310,2,50,10|4|4,0:0|0:0|0:0,0:0:0:0:
108,225,118449,2,0,P|159:243|224:243,1,100,2|0,0:1|0:0,0:0:0:0:
263,133,118710,5,4,0:0:0:0:
295,129,118796,1,4,0:0:0:0:
323,147,118883,1,4,0:0:0:0:
333,178,118971,2,0,P|331:234|317:282,1,100,2|0,0:1|0:0,0:0:0:0:
246,357,119232,2,0,P|224:350|189:347,2,50,10|4|4,0:0|0:0|0:0,0:0:0:0:
270,384,119493,2,0,P|326:384|381:359,1,100,2|0,0:1|0:0,0:0:0:0:
488,237,119754,6,0,P|486:299|472:361,1,110.000003356934,6|0,0:0|0:0,0:0:0:0:
414,195,120014,2,0,P|419:140|433:87,1,110.000003356934,10|0,0:0|0:0,0:0:0:0:
512,2,120275,2,0,P|440:47|367:24,1,165.000005035401,10|2,0:0|0:1,0:0:0:0:
161,101,120710,1,4,0:0:0:0:
183,88,120797,6,0,P|237:89|302:99,1,100,4|0,0:1|0:0,0:0:0:0:
322,192,121058,2,0,P|343:142|325:103,1,100,2|0,0:1|0:0,0:0:0:0:
191,242,121319,2,0,B|277:231|233:293|339:288,1,150,10|2,0:0|0:1,0:0:0:0:
191,336,121754,1,4,0:0:0:0:
172,356,121840,6,0,P|101:350|66:336,1,110.000003356934,4|0,0:0|0:0,0:0:0:0:
106,234,122101,2,0,P|51:235|0:255,1,110.000003356934,10|0,0:0|0:0,0:0:0:0:
125,90,122362,2,0,P|149:150|104:236,1,165.000005035401,10|2,0:0|0:1,0:0:0:0:
43,46,122797,1,4,0:0:0:0:
61,23,122884,6,0,P|108:-2|162:5,1,100,4|0,0:1|0:0,0:0:0:0:
307,41,123145,2,0,P|261:61|211:69,1,100,2|0,0:1|0:0,0:0:0:0:
457,75,123406,2,0,B|371:75|415:130|325:130,1,150,10|2,0:0|0:1,0:0:0:0:
389,303,123840,1,4,0:0:0:0:
391,278,123927,6,0,P|343:237|291:213,1,110.000003356934,6|0,0:0|0:0,0:0:0:0:
220,120,124188,2,0,P|208:181|213:238,1,110.000003356934,10|0,0:0|0:0,0:0:0:0:
164,350,124449,2,0,P|222:329|270:296,1,110.000003356934,10|10,0:0|0:0,0:0:0:0:
328,130,124710,1,4,0:0:0:0:
328,130,124971,6,0,P|377:137|423:156,1,100,4|0,0:1|0:0,0:0:0:0:
267,29,125232,1,2,0:1:0:0:
239,66,125319,1,4,0:0:0:0:
205,69,125406,1,4,0:0:0:0:
194,93,125493,2,0,P|144:69|86:65,1,100,10|0,0:0|0:0,0:0:0:0:
65,200,125754,2,0,P|44:151|-6:104,1,100,2|0,0:1|0:0,0:0:0:0:
170,192,126014,6,0,P|149:238|146:292,1,100,4|0,0:0|0:0,0:0:0:0:
8,276,126275,2,0,P|50:306|83:364,1,100,2|0,0:1|0:0,0:0:0:0:
256,348,126536,2,0,P|206:350|164:377,1,100,10|0,0:0|0:0,0:0:0:0:
372,299,126797,2,0,P|317:267|250:271,1,100,2|0,0:1|0:0,0:0:0:0:
448,356,127058,6,0,P|463:301|502:259,1,100,4|0,0:0|0:0,0:0:0:0:
401,66,127319,1,2,0:1:0:0:
424,101,127406,1,4,0:0:0:0:
415,123,127493,1,4,0:0:0:0:
434,155,127580,2,0,P|387:128|300:133,1,100,10|0,0:0|0:0,0:0:0:0:
226,58,127840,2,0,P|275:51|317:25,1,100,2|0,0:1|0:0,0:0:0:0:
71,33,128101,6,0,P|123:63|157:123,1,100,6|0,0:0|0:0,0:0:0:0:
57,290,128362,1,10,0:0:0:0:
37,255,128449,1,4,0:0:0:0:
58,203,128536,1,4,0:0:0:0:
115,192,128623,2,0,P|174:218|232:217,1,100,10|0,0:0|0:0,0:0:0:0:
130,354,128884,2,0,P|80:359|36:382,1,100,2|4,0:1|0:0,0:0:0:0:
268,156,129145,6,0,P|238:232|238:334,1,150,4|2,0:0|0:1,0:0:0:0:
233,299,129667,2,0,P|293:311|333:340,1,100,10|0,0:0|0:0,0:0:0:0:
493,351,129927,2,0,P|433:363|393:392,1,100,2|0,0:1|0:0,0:0:0:0:
341,189,130188,6,0,P|375:225|395:271,1,100,4|0,0:0|0:0,0:0:0:0:
502,124,130449,1,2,0:1:0:0:
468,84,130536,1,4,0:0:0:0:
436,85,130623,1,4,0:0:0:0:
418,96,130710,2,0,P|368:88|317:60,1,100,10|0,0:0|0:0,0:0:0:0:
174,111,130971,2,0,P|143:58|148:0,1,100,2|0,0:1|0:0,0:0:0:0:
0,129,131232,6,0,P|65:144|114:190,1,100,4|0,0:0|0:0,0:0:0:0:
263,117,131493,2,0,P|285:180|275:237,1,100,2|0,0:1|0:0,0:0:0:0:
56,276,131754,2,0,P|108:249|168:248,1,100,10|0,0:0|0:0,0:0:0:0:
385,222,132014,2,0,P|361:284|317:321,1,100,2|0,0:1|0:0,0:0:0:0:
239,294,132275,6,0,P|289:300|338:307,1,100,6|0,0:0|0:0,0:0:0:0:
475,359,132536,2,0,P|501:308|500:248,1,100,10|0,0:0|0:0,0:0:0:0:
408,57,132797,5,10,0:0:0:0:
408,57,133058,1,10,0:0:0:0:
159,83,133232,1,10,0:0:0:0:
264,36,133319,6,0,P|237:82|244:152,1,100,4|0,0:1|0:0,0:0:0:0:
331,185,133580,2,0,P|390:177|444:174,1,100,2|0,0:1|0:0,0:0:0:0:
469,258,133840,2,0,P|464:209|430:174,1,100,10|0,0:0|0:0,0:0:0:0:
300,288,134101,2,0,P|249:282|200:277,1,100,2|0,0:1|0:0,0:0:0:0:
41,346,134362,5,4,0:0:0:0:
75,307,134449,1,4,0:0:0:0:
64,252,134536,1,4,0:0:0:0:
19,219,134623,2,0,P|12:175|5:152,2,50,2|0|0,0:1|0:0|0:0,0:0:0:0:
127,163,134884,2,0,P|137:110|152:57,1,100,10|0,0:0|0:0,0:0:0:0:
0,13,135145,2,0,P|30:52|51:98,1,100,2|0,0:1|0:0,0:0:0:0:
245,79,135406,6,0,P|307:61|347:53,1,100,4|0,0:0|0:0,0:0:0:0:
393,220,135667,2,0,P|348:197|303:178,1,100,2|0,0:1|0:0,0:0:0:0:
283,291,135927,2,0,P|311:348|326:386,1,100,10|0,0:0|0:0,0:0:0:0:
492,270,136188,1,2,0:1:0:0:
484,243,136275,1,4,0:0:0:0:
499,212,136362,1,4,0:0:0:0:
473,173,136449,6,0,P|487:111|504:68,1,100,6|0,0:0|0:0,0:0:0:0:
343,91,136710,2,0,P|388:42|444:15,1,100,10|0,0:0|0:0,0:0:0:0:
369,204,136971,2,0,P|315:182|246:184,1,100,10|8,0:0|0:0,0:0:0:0:
173,48,137232,2,0,P|216:19|264:5,1,100,6|10,0:0|0:0,0:0:0:0:
173,48,137493,6,0,P|130:98|150:211,1,150,4|2,0:1|0:1,0:0:0:0:
129,178,138014,2,0,P|79:153|23:153,1,100,10|0,0:0|0:0,0:0:0:0:
194,242,138275,2,0,P|206:296|222:352,1,100,2|4,0:1|0:0,0:0:0:0:
108,269,138536,6,0,P|77:309|50:351,1,100,4|0,0:0|0:0,0:0:0:0:
249,163,138797,1,2,0:1:0:0:
297,170,138884,1,4,0:0:0:0:
333,210,138971,1,4,0:0:0:0:
333,267,139058,2,0,P|311:338|302:377,1,100,10|0,0:0|0:0,0:0:0:0:
500,238,139319,2,0,P|450:182|419:129,1,100,2|4,0:1|0:0,0:0:0:0:
356,45,139580,6,0,P|435:31|470:21,1,100,6|4,0:1|0:0,0:0:0:0:
198,150,139840,2,0,P|247:157|296:169,1,100,10|0,0:0|0:0,0:0:0:0:
15,76,140101,1,10,0:0:0:0:
35,124,140188,1,4,0:0:0:0:
17,181,140275,1,4,0:0:0:0:
50,232,140362,2,0,P|41:303|43:342,1,100,10|8,0:0|0:0,0:0:0:0:
52,344,140623,5,6,0:0:0:0:
235,321,140884,1,10,0:0:0:0:
182,240,141058,1,10,0:0:0:0:
182,240,141145,1,10,0:0:0:0:
448,215,141319,1,10,0:0:0:0:
448,215,141406,2,0,P|475:205|437:202,1,100,4|0,0:0|0:0,0:0:0:0:
333,125,141667,6,0,P|351:198|330:243,1,120,4|2,0:1|0:1,0:0:0:0:
487,302,142101,1,4,0:0:0:0:
469,332,142188,2,0,P|409:346|352:359,1,120,10|2,0:0|0:1,0:0:0:0:
140,349,142623,1,4,0:0:0:0:
162,326,142710,6,0,B|225:338|219:292|279:309,1,120,6|2,0:0|0:1,0:0:0:0:
154,212,143145,1,4,0:0:0:0:
129,234,143232,2,0,P|65:243|0:253,1,120,10|2,0:0|0:1,0:0:0:0:
88,1,143580,1,4,0:0:0:0:
131,5,143667,1,4,0:0:0:0:
156,37,143754,6,0,P|150:80|139:126,1,80,6|0,0:0|0:0,0:0:0:0:
307,46,144014,2,0,P|280:81|247:114,1,80,10|0,0:0|0:0,0:0:0:0:
443,126,144275,2,0,P|402:143|357:155,1,80,10|0,0:0|0:0,0:0:0:0:
512,268,144536,2,0,P|468:262|423:251,1,80,10|0,0:0|0:0,0:0:0:0:
251,292,144797,6,0,P|291:296|330:306,1,80,4|0,0:0|0:0,0:0:0:0:
307,211,145058,1,2,0:1:0:0:
297,172,145144,1,4,0:0:0:0:
266,148,145231,1,4,0:0:0:0:
227,149,145319,2,0,P|187:146|149:134,1,80,10|0,0:0|0:0,0:0:0:0:
25,39,145580,2,0,P|64:41|105:35,1,80,2|0,0:1|0:0,0:0:0:0:
34,252,145840,6,0,P|38:180|40:117,1,120,4|2,0:0|0:1,0:0:0:0:
128,278,146275,1,4,0:0:0:0:
76,343,146362,2,0,P|129:320|191:334,1,120,10|2,0:0|0:1,0:0:0:0:
382,252,146797,1,4,0:0:0:0:
361,277,146884,6,0,P|300:286|248:258,1,120,4|2,0:0|0:1,0:0:0:0:
108,169,147319,1,4,0:0:0:0:
135,184,147406,2,0,B|207:191|177:144|262:151,1,120,10|2,0:0|0:1,0:0:0:0:
445,206,147840,1,4,0:0:0:0:
462,176,147927,6,0,P|457:137|443:99,1,80,4|0,0:0|0:0,0:0:0:0:
135,86,148188,5,10,0:0:0:0:
362,20,148319,1,6,0:0:0:0:
106,95,148449,1,10,0:0:0:0:
260,138,148710,5,10,0:0:0:0:
77,83,148841,1,6,0:0:0:0:
289,147,148971,1,10,0:0:0:0:
167,199,149232,5,10,0:0:0:0:
322,151,149363,1,6,0:0:0:0:
138,208,149493,2,0,P|97:218|35:223,1,80,8|2,0:0|0:1,0:0:0:0:
20,344,149754,2,0,P|-3:309|0:270,1,80,4|0,0:0|0:0,0:0:0:0:
94,384,150014,6,0,P|155:383|226:367,1,120,4|2,0:1|0:1,0:0:0:0:
360,339,150449,1,4,0:0:0:0:
338,317,150536,2,0,B|266:320|306:273|208:276,1,120,10|2,0:0|0:1,0:0:0:0:
160,147,150971,5,4,0:0:0:0:
128,162,151058,2,0,P|102:214|126:271,1,120,4|2,0:0|0:1,0:0:0:0:
234,16,151493,5,4,0:0:0:0:
264,33,151580,2,0,P|277:100|239:147,1,120,10|2,0:0|0:1,0:0:0:0:
311,207,151927,1,4,0:0:0:0:
352,227,152014,1,4,0:0:0:0:
395,212,152101,6,0,P|409:171|413:135,1,80,6|0,0:0|0:0,0:0:0:0:
424,320,152362,2,0,P|461:297|487:272,1,80,10|0,0:0|0:0,0:0:0:0:
312,329,152623,2,0,P|274:351|248:376,1,80,10|0,0:0|0:0,0:0:0:0:
220,277,152884,2,0,P|177:270|141:272,1,80,10|0,0:0|0:0,0:0:0:0:
0,361,153145,6,0,P|4:320|18:278,1,80,4|0,0:0|0:0,0:0:0:0:
0,168,153406,1,2,0:1:0:0:
54,149,153493,1,4,0:0:0:0:
89,194,153580,1,4,0:0:0:0:
143,175,153667,2,0,P|187:164|243:137,1,80,10|0,0:0|0:0,0:0:0:0:
359,233,153927,2,0,P|321:217|283:208,1,80,2|4,0:1|0:0,0:0:0:0:
325,6,154188,6,0,P|321:60|300:129,1,120,4|2,0:1|0:1,0:0:0:0:
478,83,154623,1,4,0:0:0:0:
464,121,154710,2,0,P|435:165|380:217,1,120,10|2,0:0|0:1,0:0:0:0:
198,297,155058,1,4,0:0:0:0:
232,336,155145,1,4,0:0:0:0:
283,327,155232,6,0,P|345:334|403:323,1,120,4|2,0:0|0:1,0:0:0:0:
263,211,155667,1,4,0:0:0:0:
231,189,155754,2,0,P|187:192|133:187,1,80,10|0,0:0|0:0,0:0:0:0:
0,285,156014,2,0,P|44:282|90:275,1,80,2|4,0:1|0:0,0:0:0:0:
66,153,156275,6,0,P|84:118|114:91,1,80,4|0,0:1|0:0,0:0:0:0:
224,47,156536,2,0,P|194:16|148:-3,1,80,10|0,0:0|0:0,0:0:0:0:
333,101,156797,2,0,P|344:59|339:9,1,80,10|0,0:0|0:0,0:0:0:0:
464,139,157058,2,0,P|439:171|391:195,1,80,10|10,0:0|0:0,0:0:0:0:
380,198,157319,5,4,0:1:0:0:
229,287,157493,1,4,0:0:0:0:
261,303,157580,2,0,P|303:305|340:294,1,80,10|4,0:0|0:0,0:0:0:0:
273,168,157840,1,8,0:0:0:0:
233,141,157927,1,4,0:0:0:0:
185,145,158014,1,4,0:0:0:0:
148,177,158101,2,0,P|111:196|69:200,1,80,10|4,0:0|0:0,0:0:0:0:
168,384,158362,5,10,0:0:0:0:
191,361,158786,1,10,0:0:0:0:
215,337,159145,1,10,0:0:0:0:
68,35,159406,1,10,0:0:0:0:
481,190,159927,5,4,0:1:0:0:
481,190,160449,6,0,P|489:152|432:95,1,112.500004291535,4|0,0:1|0:0,0:0:0:0:
268,44,160884,1,4,0:0:0:0:
287,71,160971,2,0,P|278:118|268:168,1,75.000002861023,8|0,0:0|0:0,0:0:0:0:
179,124,161232,2,0,P|188:171|198:221,1,75.000002861023,4|0,0:0|0:0,0:0:0:0:
92,45,161493,6,0,P|81:105|70:175,1,112.500004291535,2|4,0:1|0:0,0:0:0:0:
59,350,161927,1,4,0:0:0:0:
26,341,162014,2,0,P|20:298|11:261,1,75.000002861023,8|0,0:0|0:0,0:0:0:0:
145,313,162275,2,0,P|186:320|226:331,1,75.000002861023,4|0,0:0|0:0,0:0:0:0:
98,236,162536,6,0,P|139:227|223:211,1,112.500004291535,4|0,0:0|0:0,0:0:0:0:
427,163,162971,1,4,0:0:0:0:
438,193,163058,2,0,P|424:253|420:284,1,75.000002861023,8|0,0:0|0:0,0:0:0:0:
345,192,163319,2,0,P|338:155|329:118,1,75.000002861023,4|0,0:0|0:0,0:0:0:0:
378,35,163580,5,2,0:1:0:0:
266,247,163754,1,4,0:0:0:0:
266,247,163840,2,0,P|197:232|144:222,1,112.500004291535,4|8,0:0|0:0,0:0:0:0:
155,224,164362,2,0,P|150:178|142:137,1,75.000002861023,4|0,0:0|0:0,0:0:0:0:
107,24,164623,6,0,P|65:57|70:111,1,112.500004291535,4|0,0:0|0:0,0:0:0:0:
237,185,165058,1,4,0:0:0:0:
237,185,165145,2,0,L|333:177,1,75.000002861023,8|0,0:0|0:0,0:0:0:0:
427,201,165406,2,0,L|372:121,1,75.000002861023,4|0,0:0|0:0,0:0:0:0:
362,0,165667,6,0,P|340:52|309:98,1,112.500004291535,2|4,0:1|0:0,0:0:0:0:
85,106,166101,1,4,0:0:0:0:
70,87,166188,2,0,P|82:49|103:17,1,75.000002861023,8|0,0:0|0:0,0:0:0:0:
139,169,166449,2,0,P|175:151|222:144,1,75.000002861023,4|0,0:0|0:0,0:0:0:0:
87,262,166710,6,0,P|162:278|212:314,1,112.500004291535,4|4,0:0|0:0,0:0:0:0:
410,358,167145,1,4,0:0:0:0:
385,341,167232,2,0,P|337:345|300:360,1,75.000002861023,8|0,0:0|0:0,0:0:0:0:
427,249,167493,2,0,P|454:288|485:313,1,75.000002861023,4|0,0:0|0:0,0:0:0:0:
326,258,167754,6,0,P|346:214|356:128,1,112.500004291535,2|4,0:1|0:0,0:0:0:0:
190,19,168188,1,4,0:0:0:0:
173,52,168275,2,0,P|230:40|272:35,1,75.000002861023,8|0,0:0|0:0,0:0:0:0:
466,19,168536,6,0,P|458:63|443:165,1,100,4|0,0:0|0:0,0:0:0:0:
450,117,168797,6,0,P|440:84|372:58,1,112.500004291535,4|0,0:0|0:0,0:0:0:0:
270,205,169232,1,4,0:0:0:0:
167,170,169319,2,0,P|184:222|191:262,1,75.000002861023,8|0,0:0|0:0,0:0:0:0:
261,339,169580,2,0,P|270:311|283:291,2,37.5000014305115,4|4|4,0:0|0:0|0:0,0:0:0:0:
264,352,169840,6,0,P|219:336|189:336,1,75.000002861023,2|0,0:1|0:0,0:0:0:0:
108,284,170101,2,0,P|69:311|51:336,1,75.000002861023,4|0,0:0|0:0,0:0:0:0:
28,212,170362,2,0,P|19:156|-7:92,1,112.500004291535,8|4,0:0|0:0,0:0:0:0:
211,17,170797,1,4,0:0:0:0:
219,41,170884,6,0,P|183:15|132:4,1,75.000002861023,4|0,0:0|0:0,0:0:0:0:
266,120,171145,2,0,P|297:85|339:65,1,75.000002861023,4|0,0:0|0:0,0:0:0:0:
203,212,171406,2,0,P|194:171|169:124,1,75.000002861023,8|0,0:0|0:0,0:0:0:0:
241,351,171667,2,0,P|253:304|274:264,1,75.000002861023,4|0,0:0|0:0,0:0:0:0:
275,274,171927,5,2,0:1:0:0:
492,183,172101,1,4,0:0:0:0:
492,183,172188,2,0,L|362:186,1,112.500004291535,4|8,0:0|0:0,0:0:0:0:
379,185,172710,2,0,P|401:220|407:258,1,75.000002861023,4|4,0:0|0:0,0:0:0:0:
434,99,172971,6,0,P|373:98|333:45,1,112.500004291535,4|0,0:0|0:0,0:0:0:0:
179,37,173406,1,4,0:0:0:0:
179,37,173493,2,0,P|237:26|272:17,1,75.000002861023,8|0,0:0|0:0,0:0:0:0:
82,84,173754,2,0,P|96:26|102:-3,1,75.000002861023,4|0,0:0|0:0,0:0:0:0:
5,137,174014,6,0,P|19:189|33:260,1,112.500004291535,2|4,0:1|0:0,0:0:0:0:
226,295,174449,1,4,0:0:0:0:
226,295,174536,2,0,P|214:349|212:372,1,75.000002861023,8|0,0:0|0:0,0:0:0:0:
318,322,174797,2,0,P|366:308|413:301,1,75.000002861023,4|0,0:0|0:0,0:0:0:0:
507,240,175058,6,0,P|454:232|372:200,1,112.500004291535,4|4,0:0|0:0,0:0:0:0:
217,142,175493,1,4,0:0:0:0:
239,129,175580,2,0,P|226:176|226:211,1,75.000002861023,8|0,0:0|0:0,0:0:0:0:
319,84,175840,2,0,P|366:71|396:54,1,75.000002861023,4|0,0:0|0:0,0:0:0:0:
240,37,176101,6,0,P|199:10|156:-6,1,75.000002861023,2|4,0:1|0:0,0:0:0:0:
13,93,176362,2,0,P|22:166|26:190,1,75.000002861023,8|0,0:0|0:0,0:0:0:0:
162,199,176623,1,8,0:0:0:0:
182,238,176710,1,4,0:0:0:0:
155,267,176797,1,4,0:0:0:0:
164,287,176884,2,0,P|158:331|153:386,1,75.000002861023,4|0,0:0|0:0,0:0:0:0:
356,274,177145,6,0,P|305:279|266:295,1,89.999997253418,4|0,3:1|0:0,0:0:0:0:
478,185,177406,2,0,P|435:188|389:180,1,89.999997253418,0|0,3:0|0:0,0:0:0:0:
395,0,177667,2,0,P|385:50|388:91,1,89.999997253418,8|0,3:2|0:0,0:0:0:0:
220,138,177927,2,0,P|262:147|308:136,1,89.999997253418,0|0,3:0|0:0,0:0:0:0:
166,14,178188,6,0,P|143:52|142:97,1,89.999997253418,4|0,3:2|0:0,0:0:0:0:
70,162,178449,2,0,P|32:138|10:99,1,89.999997253418,0|0,3:0|0:0,0:0:0:0:
2,285,178710,2,0,P|46:286|85:265,1,89.999997253418,8|0,3:2|0:0,0:0:0:0:
173,301,178971,2,0,P|172:346|149:384,1,89.999997253418,0|0,3:0|0:0,0:0:0:0:
294,205,179232,6,0,P|224:185|164:207,1,134.999995880127,4|0,3:2|0:0,0:0:0:0:
353,140,179667,1,4,3:2:0:0:
376,126,179754,2,0,P|332:111|275:82,1,89.999997253418,8|0,3:2|0:0,0:0:0:0:
442,55,180014,2,0,P|476:24|530:-10,1,89.999997253418,4|8,3:2|0:0,0:0:0:0:
466,152,180275,6,0,P|474:196|478:261,1,89.999997253418,8|0,3:0|0:0,0:0:0:0:
380,384,180536,2,0,P|383:339|392:295,1,89.999997253418,8|0,3:0|0:0,0:0:0:0:
493,352,180797,1,8,3:0:0:0:
294,240,180971,1,4,3:2:0:0:
269,223,181058,2,0,P|321:212|369:194,1,89.999997253418,8|8,3:0|0:0,0:0:0:0:
271,34,181319,6,0,P|261:86|257:134,1,89.999997253418,4|0,3:2|0:0,0:0:0:0:
195,279,181580,2,0,P|190:234|181:190,1,89.999997253418,0|0,3:0|0:0,0:0:0:0:
76,55,181840,2,0,P|117:73|159:87,1,89.999997253418,8|0,3:2|0:0,0:0:0:0:
22,207,182101,2,0,P|15:225|0:245,2,44.999998626709,0|4|4,3:0|3:2|3:2,0:0:0:0:
14,177,182362,6,0,P|65:165|124:157,1,89.999997253418,4|0,3:2|0:0,0:0:0:0:
47,366,182623,2,0,P|87:340|110:300,1,89.999997253418,0|0,3:0|0:0,0:0:0:0:
267,384,182884,2,0,P|220:373|163:368,1,89.999997253418,8|0,3:2|0:0,0:0:0:0:
171,193,183145,2,0,P|186:244|204:286,1,89.999997253418,0|0,3:0|0:0,0:0:0:0:
300,67,183406,6,0,P|292:138|274:214,1,134.999995880127,4|0,3:2|0:0,0:0:0:0:
481,175,183840,1,4,3:2:0:0:
491,143,183927,2,0,P|448:165|405:176,1,89.999997253418,8|0,3:2|0:0,0:0:0:0:
278,199,184188,2,0,P|318:225|349:256,1,89.999997253418,4|8,3:2|0:0,0:0:0:0:
432,362,184449,6,0,P|434:313|446:271,1,89.999997253418,8|0,3:0|0:0,0:0:0:0:
249,310,184710,1,8,3:0:0:0:
151,167,184971,5,8,3:0:0:0:
184,202,185057,1,4,3:2:0:0:
187,250,185144,1,4,3:2:0:0:
160,290,185232,2,0,P|159:333|181:374,1,89.999997253418,8|8,3:0|0:0,0:0:0:0:
37,328,185493,6,0,P|48:280|46:221,1,89.999997253418,4|0,3:1|0:0,0:0:0:0:
82,112,185754,2,0,P|34:126|-15:157,1,89.999997253418,0|0,3:0|0:0,0:0:0:0:
181,54,186014,2,0,P|144:20|92:-7,1,89.999997253418,8|0,3:2|0:0,0:0:0:0:
285,110,186275,2,0,P|295:62|294:2,1,89.999997253418,0|0,3:0|0:0,0:0:0:0:
484,155,186536,6,0,P|448:182|407:201,1,89.999997253418,4|0,3:2|0:0,0:0:0:0:
255,250,186797,2,0,P|297:265|341:271,1,89.999997253418,0|0,3:0|0:0,0:0:0:0:
454,384,187058,2,0,P|446:339|428:298,1,89.999997253418,8|0,3:2|0:0,0:0:0:0:
317,182,187319,1,4,3:2:0:0:
194,317,187493,1,8,3:2:0:0:
173,343,187580,6,0,P|168:287|149:209,1,134.999995880127,4|0,3:2|0:0,0:0:0:0:
30,166,188014,1,4,3:2:0:0:
30,166,188101,2,0,P|74:147|124:121,1,89.999997253418,8|0,3:2|0:0,0:0:0:0:
209,46,188362,2,0,P|203:93|200:149,1,89.999997253418,4|8,3:2|0:2,0:0:0:0:
67,329,188623,6,0,P|73:282|71:223,1,89.999997253418,8|0,3:0|0:0,0:0:0:0:
223,379,188884,2,0,P|204:335|173:285,1,89.999997253418,8|0,3:0|0:0,0:0:0:0:
384,330,189145,2,0,P|341:308|285:289,1,89.999997253418,8|0,3:0|0:0,0:0:0:0:
496,189,189406,2,0,P|452:207|402:238,1,89.999997253418,8|8,3:0|0:0,0:0:0:0:
496,46,189667,5,4,3:1:0:0:
502,67,189928,1,4,3:2:0:0:
491,103,190189,1,8,3:2:0:0:
419,137,190450,1,4,3:2:0:0:
328,80,190624,1,8,3:2:0:0:
328,80,190711,5,4,3:2:0:0:
176,33,190885,1,8,3:2:0:0:
176,33,190971,1,4,3:2:0:0:
18,175,191232,1,8,3:2:0:0:
107,384,191493,1,0,3:2:0:0:
363,321,191754,6,0,P|294:331|228:341,1,134.999995880127,4|0,3:1|0:2,0:0:0:0:
49,286,192188,1,4,3:2:0:0:
72,261,192275,2,0,P|113:256|164:250,1,89.999997253418,8|0,3:2|0:0,0:0:0:0:
136,139,192536,2,0,P|185:143|213:169,1,89.999997253418,4|0,3:2|0:0,0:0:0:0:
380,221,192797,6,0,P|342:243|288:235,1,89.999997253418,4|0,3:2|0:0,0:0:0:0:
334,43,193058,2,0,P|320:88|306:139,1,89.999997253418,4|0,3:2|0:0,0:0:0:0:
497,135,193319,2,0,P|444:130|397:127,1,89.999997253418,8|0,3:2|0:0,0:0:0:0:
442,297,193580,2,0,P|471:265|480:221,1,89.999997253418,4|0,3:2|0:0,0:0:0:0:
325,328,193840,6,0,P|348:371|401:382,1,89.999997253418,4|4,3:1|0:2,0:0:0:0:
222,272,194101,2,0,P|217:318|213:364,1,89.999997253418,4|0,3:2|0:2,0:0:0:0:
226,158,194362,2,0,P|177:165|141:196,1,89.999997253418,8|0,3:2|0:0,0:0:0:0:
31,320,194623,2,0,P|79:312|115:281,1,89.999997253418,8|8,3:2|0:2,0:0:0:0:
48,114,194884,6,0,P|43:164|40:221,1,89.999997253418,4|8,3:2|0:2,0:0:0:0:
191,65,195145,1,4,3:2:0:0:
328,220,195319,1,4,3:2:0:0:
350,251,195406,2,0,P|355:213|362:149,1,89.999997253418,8|0,3:2|0:2,0:0:0:0:
242,359,195667,2,0,P|232:321|216:256,1,89.999997253418,4|8,3:2|0:2,0:0:0:0:
466,329,195927,5,4,3:1:0:0:
512,83,196449,1,8,3:2:0:0:
327,123,196710,2,0,P|377:127|424:130,1,89.999997253418,4|8,3:2|3:2,0:0:0:0:
221,271,196971,1,4,3:1:0:0:
291,91,197232,6,0,P|341:95|388:98,1,89.999997253418,8|4,3:2|3:2,0:0:0:0:
185,242,197493,1,8,3:2:0:0:
321,304,197667,5,8,3:2:0:0:
198,61,197754,1,4,3:2:0:0:
198,61,198014,6,0,P|132:51|48:8,1,150,4|2,0:1|0:1,0:0:0:0:
57,15,198536,2,0,P|94:65|85:108,1,100,10|0,0:0|0:0,0:0:0:0:
4,198,198797,1,2,0:1:0:0:
41,201,198884,1,4,0:0:0:0:
72,234,198971,1,4,0:0:0:0:
114,228,199058,6,0,P|122:180|161:151,1,100,4|0,0:0|0:0,0:0:0:0:
338,104,199319,2,0,P|396:114|444:122,1,100,2|0,0:1|0:0,0:0:0:0:
213,9,199580,2,0,P|226:60|240:117,1,100,10|0,0:0|0:0,0:0:0:0:
336,286,199840,2,0,P|347:237|360:189,1,100,2|0,0:1|0:0,0:0:0:0:
360,189,200101,6,0,P|296:189|262:243,1,100,4|0,0:0|0:0,0:0:0:0:
363,376,200362,2,0,P|426:375|460:321,1,100,2|0,0:1|0:0,0:0:0:0:
243,302,200623,1,10,0:0:0:0:
239,311,200710,1,4,0:0:0:0:
238,318,200797,1,4,0:0:0:0:
245,335,200884,5,2,0:1:0:0:
208,318,200971,1,4,0:0:0:0:
164,338,201058,1,4,0:0:0:0:
112,318,201145,2,0,P|60:324|8:331,1,100,6|0,0:0|0:0,0:0:0:0:
51,149,201406,2,0,P|103:168|121:224,1,100,10|4,0:0|0:0,0:0:0:0:
217,28,201667,1,10,0:0:0:0:
210,53,201754,1,4,0:0:0:0:
223,86,201840,1,4,0:0:0:0:
197,126,201927,2,0,P|247:109|312:99,1,100,2|4,0:1|0:0,0:0:0:0:
495,101,202188,6,0,P|419:77|342:24,1,150,4|2,0:0|0:1,0:0:0:0:
359,39,202710,2,0,P|301:72|298:128,1,100,10|0,0:0|0:0,0:0:0:0:
380,253,202971,2,0,P|431:210|424:154,1,100,2|0,0:1|0:0,0:0:0:0:
291,195,203232,6,0,L|156:208,1,100,4|0,0:0|0:0,0:0:0:0:
12,323,203493,1,2,0:1:0:0:
3,302,203580,1,4,0:0:0:0:
14,252,203667,1,4,0:0:0:0:
61,230,203754,2,0,P|120:251|137:302,1,100,10|0,0:0|0:0,0:0:0:0:
201,384,204014,2,0,P|211:333|239:285,1,100,2|4,0:1|0:0,0:0:0:0:
96,137,204275,6,0,P|35:146|-13:155,1,100,4|0,0:0|0:0,0:0:0:0:
131,43,204536,2,0,P|114:90|96:137,1,100,2|0,0:1|0:0,0:0:0:0:
159,214,204797,2,0,P|126:176|96:137,1,100,8|0,0:0|0:0,0:0:0:0:
30,56,205058,1,2,0:1:0:0:
125,305,205232,1,4,0:0:0:0:
125,305,205319,6,0,P|61:316|11:328,1,100,6|0,0:0|0:0,0:0:0:0:
366,195,205580,2,0,P|413:209|462:219,1,100,10|0,0:0|0:0,0:0:0:0:
244,384,205840,2,0,B|255:286|194:343|224:209,1,150,10|2,0:0|0:1,0:0:0:0:
274,23,206275,1,4,0:0:0:0:
286,35,206362,6,0,P|219:22|162:15,1,100,4|0,0:1|0:0,0:0:0:0:
420,18,206623,2,0,P|486:38|504:91,1,100,2|0,0:1|0:0,0:0:0:0:
312,116,206884,1,10,0:0:0:0:
284,138,206971,1,2,0:0:0:0:
274,181,207058,1,2,0:0:0:0:
307,223,207145,1,2,0:1:0:0:
309,234,207232,1,2,0:0:0:0:
308,243,207319,1,2,0:0:0:0:
305,251,207406,6,0,P|290:311|283:371,1,100,4|0,0:0|0:0,0:0:0:0:
67,364,207667,1,2,0:1:0:0:
100,331,207753,1,4,0:0:0:0:
148,328,207840,1,4,0:0:0:0:
186,368,207927,2,0,P|247:355|318:344,1,100,10|0,0:0|0:0,0:0:0:0:
512,283,208188,2,0,P|451:270|380:259,1,100,2|4,0:1|0:0,0:0:0:0:
254,159,208449,6,0,P|237:100|214:42,1,100,4|0,0:0|0:0,0:0:0:0:
506,93,208710,2,0,P|488:139|475:188,1,100,2|0,0:1|0:0,0:0:0:0:
365,113,208971,2,0,P|374:55|380:1,1,100,10|0,0:0|0:0,0:0:0:0:
322,233,209232,1,2,0:1:0:0:
289,258,209319,1,4,0:0:0:0:
236,251,209406,1,4,0:0:0:0:
197,286,209493,6,0,P|136:269|79:265,1,100,6|0,0:0|0:0,0:0:0:0:
22,97,209754,2,0,P|71:90|119:76,1,100,10|0,0:0|0:0,0:0:0:0:
115,166,210014,1,10,0:0:0:0:
115,166,210275,2,0,P|103:215|99:265,1,100,2|4,0:1|0:0,0:0:0:0:
227,384,210536,6,0,P|284:361|266:271,1,150,4|2,0:1|0:1,0:0:0:0:
235,169,210971,1,4,0:0:0:0:
235,169,211058,2,0,P|245:108|254:62,1,100,10|0,0:0|0:0,0:0:0:0:
424,104,211319,2,0,P|379:119|328:133,1,100,2|4,0:1|0:0,0:0:0:0:
407,200,211580,5,6,0:0:0:0:
153,111,211754,1,4,0:0:0:0:
153,111,211840,2,0,P|143:50|134:4,1,100,10|0,0:0|0:0,0:0:0:0:
252,70,212101,1,10,0:0:0:0:
1,119,212362,2,0,P|63:133|76:188,1,100,2|4,0:1|0:0,0:0:0:0:
128,351,212623,6,0,P|137:276|159:204,1,150,4|2,0:1|0:1,0:0:0:0:
372,93,213058,1,4,0:0:0:0:
372,93,213145,2,0,P|443:77|491:58,1,100,10|0,0:0|0:0,0:0:0:0:
410,255,213406,2,0,P|362:239|313:229,1,100,2|0,0:1|0:0,0:0:0:0:
456,171,213667,5,6,0:0:0:0:
282,67,213840,1,6,0:0:0:0:
273,109,213927,1,10,0:0:0:0:
67,163,214101,1,6,0:0:0:0:
57,107,214188,2,0,P|126:119|183:127,1,100,10|10,0:0|0:0,0:0:0:0:
155,123,214449,2,0,P|158:68|100:51,1,110.000003356934,4|0,0:0|0:0,0:0:0:0:
96,302,214710,6,0,P|115:263|229:247,1,165.000005035401,4|2,0:1|0:1,0:0:0:0:
234,257,215232,2,0,P|230:207|237:153,1,100,10|0,0:0|0:0,0:0:0:0:
282,12,215493,1,2,0:1:0:0:
299,53,215579,1,4,0:0:0:0:
345,62,215666,1,4,0:0:0:0:
366,104,215754,6,0,P|358:163|341:207,1,100,4|0,0:0|0:0,0:0:0:0:
409,357,216014,2,0,P|360:363|319:336,1,100,2|0,0:1|0:0,0:0:0:0:
496,221,216275,2,0,P|436:252|392:277,1,100,10|0,0:0|0:0,0:0:0:0:
231,359,216536,2,0,P|230:310|259:269,1,100,2|0,0:1|0:0,0:0:0:0:
258,269,216797,6,0,P|249:216|236:167,1,100,4|0,0:0|0:0,0:0:0:0:
162,22,217058,2,0,P|149:74|140:124,1,100,2|0,0:1|0:0,0:0:0:0:
0,293,217319,1,10,0:0:0:0:
49,272,217406,1,4,0:0:0:0:
59,219,217493,1,4,0:0:0:0:
112,217,217580,2,0,P|137:211|167:194,2,50,2|4|4,0:1|0:0|0:0,0:0:0:0:
111,344,217840,6,0,P|166:335|190:300,1,100,6|0,0:0|0:0,0:0:0:0:
248,71,218101,2,0,P|241:124|235:182,1,100,10|0,0:0|0:0,0:0:0:0:
341,374,218362,2,0,P|332:323|318:271,1,100,10|0,0:0|0:0,0:0:0:0:
140,119,218623,1,2,0:1:0:0:
441,54,218797,1,4,0:0:0:0:
379,0,218884,6,0,B|404:55|404:55|364:142,1,150,4|2,0:0|0:1,0:0:0:0:
350,168,219406,2,0,L|468:181,1,100,10|0,0:0|0:0,0:0:0:0:
512,323,219667,1,2,0:1:0:0:
467,333,219754,1,4,0:0:0:0:
431,315,219840,1,4,0:0:0:0:
416,292,219927,6,0,P|363:272|319:277,1,100,4|0,0:0|0:0,0:0:0:0:
127,369,220188,2,0,P|182:379|224:368,1,100,2|4,0:1|0:0,0:0:0:0:
257,125,220449,2,0,P|253:180|247:252,1,100,10|0,0:0|0:0,0:0:0:0:
43,334,220710,2,0,P|69:295|120:278,1,100,2|4,0:1|0:0,0:0:0:0:
133,14,220971,6,0,L|102:120,1,100,4|0,0:0|0:0,0:0:0:0:
13,217,221232,2,0,L|110:193,1,100,2|0,0:1|0:0,0:0:0:0:
250,225,221493,2,0,L|180:152,1,100,10|0,0:0|0:0,0:0:0:0:
0,95,221754,1,2,0:1:0:0:
291,20,221927,1,4,0:0:0:0:
318,0,222014,6,0,P|316:52|302:109,1,100,6|0,0:0|0:0,0:0:0:0:
327,361,222275,2,0,P|337:309|359:255,1,100,10|0,0:0|0:0,0:0:0:0:
512,153,222536,2,0,P|464:137|351:198,1,150,10|2,0:0|0:1,0:0:0:0:
224,343,222971,1,4,0:0:0:0:
206,382,223058,6,0,P|160:305|95:293,1,150,4|2,0:1|0:1,0:0:0:0:
0,66,223580,1,10,0:0:0:0:
8,100,223667,1,2,0:0:0:0:
42,127,223754,1,2,0:0:0:0:
94,115,223841,1,2,0:1:0:0:
105,118,223928,1,2,0:0:0:0:
113,123,224015,1,2,0:0:0:0:
118,132,224101,6,0,P|166:121|231:94,1,100,4|0,0:0|0:0,0:0:0:0:
398,17,224362,2,0,P|350:6|276:-2,1,100,2|0,0:1|0:0,0:0:0:0:
259,261,224623,2,0,P|285:218|292:165,1,100,10|0,0:0|0:0,0:0:0:0:
398,17,224884,2,0,P|413:64|419:114,1,100,2|0,0:1|0:0,0:0:0:0:
512,230,225145,5,4,0:0:0:0:
476,236,225232,1,4,0:0:0:0:
448,259,225319,1,4,0:0:0:0:
436,293,225406,2,0,P|381:299|313:314,1,100,2|0,0:1|0:0,0:0:0:0:
142,132,225667,5,10,0:0:0:0:
208,155,225754,1,2,0:0:0:0:
248,205,225840,1,2,0:0:0:0:
259,261,225927,1,2,0:1:0:0:
243,307,226014,1,2,0:0:0:0:
210,336,226101,1,2,0:0:0:0:
174,344,226188,6,0,P|123:343|72:334,1,100,6|0,0:0|0:0,0:0:0:0:
24,188,226449,2,0,P|-7:240|1:279,1,100,10|0,0:0|0:0,0:0:0:0:
208,155,226710,2,0,P|202:103|186:53,1,100,10|10,0:0|0:0,0:0:0:0:
0,108,226971,1,6,0:0:0:0:
310,25,227145,1,10,0:0:0:0:
341,10,227232,6,0,P|330:82|323:165,1,150,4|2,0:1|0:1,0:0:0:0:
489,254,227754,2,0,P|437:230|388:205,1,100,10|0,0:0|0:0,0:0:0:0:
238,308,228014,2,0,P|284:274|330:245,1,100,2|4,0:1|0:0,0:0:0:0:
432,31,228275,6,0,P|421:79|412:136,1,100,4|0,0:0|0:0,0:0:0:0:
439,384,228536,2,0,P|405:350|390:297,1,100,2|0,0:1|0:0,0:0:0:0:
259,93,228797,2,0,P|251:150|253:194,1,100,10|0,0:0|0:0,0:0:0:0:
270,384,229058,2,0,P|221:383|174:355,1,100,2|4,0:1|0:0,0:0:0:0:
142,122,229319,5,4,0:1:0:0:
8,317,229493,1,6,0:0:0:0:
75,384,229580,2,0,P|82:334|94:286,1,100,10|0,0:0|0:0,0:0:0:0:
253,193,229840,2,0,P|206:211|158:224,1,100,10|0,0:0|0:0,0:0:0:0:
1,129,230101,2,0,P|40:160|75:195,1,100,10|10,0:0|0:0,0:0:0:0:
177,358,230362,5,6,0:0:0:0:
67,61,230536,1,6,0:0:0:0:
54,28,230623,2,0,P|114:38|163:49,1,100,10|10,0:0|0:0,0:0:0:0:
399,128,230884,2,0,P|339:138|290:149,1,100,10|10,0:0|0:0,0:0:0:0:
300,146,231145,1,6,0:0:0:0:
434,307,231319,1,6,0:0:0:0:
338,356,231406,6,0,P|358:289|372:211,1,150,4|2,0:1|0:1,0:0:0:0:
186,11,231927,2,0,P|196:67|209:117,1,100,10|0,0:0|0:0,0:0:0:0:
16,77,232188,2,0,P|64:87|113:97,1,100,2|4,0:1|0:0,0:0:0:0:
324,53,232449,6,0,P|296:116|304:158,1,100,4|0,0:0|0:0,0:0:0:0:
466,247,232710,1,2,0:1:0:0:
485,215,232797,1,4,0:0:0:0:
483,176,232884,1,4,0:0:0:0:
472,153,232971,2,0,P|432:125|382:121,1,100,10|0,0:0|0:0,0:0:0:0:
203,199,233232,2,0,P|183:137|151:86,1,100,2|4,0:1|0:0,0:0:0:0:
350,217,233493,6,0,P|337:285|333:333,1,100,4|0,0:0|0:0,0:0:0:0:
73,284,233754,2,0,P|97:327|109:375,1,100,2|0,0:1|0:0,0:0:0:0:
214,311,234014,5,10,0:0:0:0:
219,319,234101,1,2,0:0:0:0:
225,324,234188,1,2,0:0:0:0:
236,328,234275,1,2,0:1:0:0:
268,281,234362,1,2,0:0:0:0:
248,230,234449,1,2,0:0:0:0:
203,199,234536,6,0,L|151:206,2,50,4|4|4,0:0|0:0|0:0,0:0:0:0:
55,113,234797,2,0,P|116:124|169:125,1,100,10|4,0:0|0:0,0:0:0:0:
221,22,235058,5,10,0:0:0:0:
278,2,235145,1,2,0:0:0:0:
336,31,235232,1,2,0:0:0:0:
347,95,235319,1,2,0:1:0:0:
342,108,235406,1,2,0:0:0:0:
331,118,235493,1,2,0:0:0:0:
316,122,235580,6,0,P|310:166|308:242,1,100,4|0,0:0|0:0,0:0:0:0:
227,271,235840,2,0,P|248:321|254:372,1,100,2|0,0:1|0:0,0:0:0:0:
429,304,236101,2,0,P|379:303|309:299,1,100,10|0,0:0|0:0,0:0:0:0:
154,222,236362,2,0,P|103:256|35:226,1,100,2|4,0:1|0:0,0:0:0:0:
43,261,236623,6,0,P|54:212|57:154,1,100,4|0,0:0|0:0,0:0:0:0:
29,8,236884,1,2,0:1:0:0:
73,39,236971,1,4,0:0:0:0:
124,18,237058,1,4,0:0:0:0:
158,60,237145,2,0,B|259:48|191:104|337:69,1,150,10|2,0:0|0:1,0:0:0:0:
472,29,237580,1,4,0:0:0:0:
379,24,237667,6,0,P|420:55|423:128,1,100,4|4,0:0|0:0,0:0:0:0:
374,237,237927,2,0,P|309:228|259:220,1,100,2|4,0:1|0:0,0:0:0:0:
481,168,238188,2,0,P|485:228|511:288,1,100,10|4,0:0|0:0,0:0:0:0:
311,353,238449,2,0,P|375:340|431:333,1,100,2|4,0:1|0:0,0:0:0:0:
423,344,238710,5,6,0:0:0:0:
202,279,238884,5,6,0:0:0:0:
209,336,238971,1,10,0:0:0:0:
33,351,239145,5,6,0:0:0:0:
48,267,239232,2,0,B|52:236|52:236|39:230|39:230|47:218|45:149|18:94,1,150,10|2,0:0|0:1,0:0:0:0:
293,75,239667,1,4,0:0:0:0:
293,75,239754,6,0,P|336:51|397:91,1,100,4|0,0:1|0:0,0:0:0:0:
267,167,240014,2,0,P|217:169|168:178,1,100,2|0,0:1|0:0,0:0:0:0:
217,0,240275,2,0,P|201:57|194:112,1,100,10|0,0:0|0:0,0:0:0:0:
250,251,240536,1,2,0:1:0:0:
260,257,240623,1,4,0:0:0:0:
270,260,240710,1,4,0:0:0:0:
278,263,240797,6,0,P|330:258|390:250,1,100,4|0,0:0|0:0,0:0:0:0:
338,57,241058,2,0,P|343:109|351:169,1,100,2|0,0:1|0:0,0:0:0:0:
485,283,241319,1,10,0:0:0:0:
512,230,241406,1,2,0:0:0:0:
496,190,241493,1,2,0:0:0:0:
475,175,241580,1,2,0:1:0:0:
462,170,241667,1,2,0:0:0:0:
453,172,241754,1,2,0:0:0:0:
448,176,241840,6,0,P|394:164|334:155,1,100,4|4,0:0|0:0,0:0:0:0:
313,341,242101,2,0,P|263:348|199:362,1,100,2|4,0:1|0:0,0:0:0:0:
39,258,242362,1,10,0:0:0:0:
32,238,242449,1,4,0:0:0:0:
44,191,242536,1,4,0:0:0:0:
92,171,242623,2,0,P|121:175|153:181,2,50,2|4|4,0:1|0:0|0:0,0:0:0:0:
11,10,242884,6,0,P|27:67|43:117,1,100,6|0,0:0|0:0,0:0:0:0:
214,260,243145,2,0,P|221:212|253:154,1,100,10|0,0:0|0:0,0:0:0:0:
120,50,243406,1,10,0:0:0:0:
313,100,243580,1,10,0:0:0:0:
334,72,243667,2,0,P|281:80|228:87,1,100,4|4,0:0|0:0,0:0:0:0:
37,197,243927,6,0,P|102:202|131:285,1,150,4|2,0:1|0:1,0:0:0:0:
17,358,244362,1,4,0:0:0:0:
17,358,244449,2,0,P|67:353|119:349,1,100,10|4,0:0|0:0,0:0:0:0:
220,212,244710,2,0,P|272:236|288:298,1,100,2|4,0:1|0:0,0:0:0:0:
281,300,244971,5,6,0:0:0:0:
468,168,245145,1,6,0:0:0:0:
468,168,245232,2,0,P|459:106|440:44,1,100,10|6,0:0|0:0,0:0:0:0:
509,12,245493,1,10,0:0:0:0:
205,33,245754,2,0,P|262:48|294:103,1,100,2|4,0:1|0:0,0:0:0:0:
324,244,246014,6,0,P|339:153|385:81,1,150,4|2,0:1|0:1,0:0:0:0:
118,53,246449,1,4,0:0:0:0:
118,53,246536,2,0,P|137:111|144:155,1,100,10|4,0:0|0:0,0:0:0:0:
41,225,246797,2,0,P|90:234|137:251,1,100,2|4,0:1|0:0,0:0:0:0:
179,342,247058,5,6,0:0:0:0:
423,112,247232,1,6,0:0:0:0:
366,103,247319,1,10,0:0:0:0:
295,284,247493,1,6,0:0:0:0:
378,313,247580,6,0,P|367:258|360:211,1,100,10|10,0:0|0:0,0:0:0:0:
284,42,247840,2,0,P|274:90|266:140,1,100,6|0,0:0|0:0,0:0:0:0:
179,342,248101,6,0,P|176:272|163:186,1,150,4|2,0:1|0:1,0:0:0:0:
111,14,248623,1,10,0:0:0:0:
49,47,248710,1,4,0:0:0:0:
73,100,248797,1,4,0:0:0:0:
38,125,248884,2,0,P|26:177|18:228,1,100,2|4,0:1|0:0,0:0:0:0:
94,356,249145,6,0,P|47:339|-6:338,1,100,4|0,0:0|0:0,0:0:0:0:
156,161,249406,1,2,0:1:0:0:
137,193,249493,1,4,0:0:0:0:
139,232,249580,1,4,0:0:0:0:
150,255,249667,2,0,P|190:283|240:287,1,100,10|0,0:0|0:0,0:0:0:0:
398,176,249927,2,0,P|349:185|305:209,1,100,2|4,0:1|0:0,0:0:0:0:
230,384,250188,6,0,P|278:372|320:341,1,100,4|0,0:0|0:0,0:0:0:0:
248,115,250449,2,0,P|284:142|306:199,1,100,2|0,0:1|0:0,0:0:0:0:
449,312,250710,1,10,0:0:0:0:
432,319,250797,1,2,0:0:0:0:
416,320,250884,1,2,0:0:0:0:
402,314,250971,1,2,0:1:0:0:
423,248,251058,1,2,0:0:0:0:
470,238,251145,1,2,0:0:0:0:
495,204,251232,6,0,P|502:178|500:156,2,50,6|4|4,0:0|0:0|0:0,0:0:0:0:
368,60,251493,2,0,P|417:57|459:82,1,100,10|4,0:0|0:0,0:0:0:0:
222,184,251754,1,10,0:0:0:0:
273,165,251840,1,2,0:0:0:0:
294,115,251927,1,2,0:0:0:0:
272,65,252014,1,2,0:1:0:0:
267,50,252101,1,2,0:0:0:0:
271,36,252188,1,2,0:0:0:0:
290,20,252275,6,0,B|219:49|213:30|206:9|144:29,1,150,4|2,0:0|0:1,0:0:0:0:
5,233,252797,2,0,P|2:182|24:138,1,100,10|0,0:0|0:0,0:0:0:0:
173,376,253058,2,0,P|190:330|180:282,1,100,2|4,0:1|0:0,0:0:0:0:
0,338,253319,6,0,P|52:328|103:324,1,100,4|0,0:0|0:0,0:0:0:0:
347,260,253580,2,0,P|307:254|248:232,1,100,2|4,0:1|0:0,0:0:0:0:
109,89,253840,1,10,0:0:0:0:
102,130,253927,1,4,0:0:0:0:
126,164,254014,1,4,0:0:0:0:
164,177,254101,2,0,L|246:147,2,50,2|4|4,0:1|0:0|0:0,0:0:0:0:
307,48,254362,6,0,P|311:96|325:173,1,100,4|0,0:0|0:0,0:0:0:0:
439,333,254623,2,0,P|449:282|455:219,1,100,2|0,0:1|0:0,0:0:0:0:
512,71,254884,2,0,P|453:75|401:104,1,100,10|0,0:0|0:0,0:0:0:0:
251,265,255145,2,0,P|294:275|346:260,1,100,2|4,0:1|0:0,0:0:0:0:
416,92,255406,5,6,0:0:0:0:
124,240,255580,1,6,0:0:0:0:
184,227,255667,1,10,0:0:0:0:
204,28,255841,1,6,0:0:0:0:
121,0,255928,6,0,P|129:59|138:118,1,100,10|0,0:0|0:0,0:0:0:0:
139,124,256188,1,2,0:1:0:0:
327,184,256362,1,4,0:0:0:0:
414,366,256449,6,0,P|421:327|503:254,1,150,4|2,0:1|0:1,0:0:0:0:
457,45,256971,1,10,0:0:0:0:
423,106,257058,1,4,0:0:0:0:
370,82,257145,1,4,0:0:0:0:
340,112,257232,2,0,P|288:118|212:113,1,100,2|4,0:1|0:0,0:0:0:0:
146,15,257493,6,0,P|127:62|152:114,1,100,4|0,0:0|0:0,0:0:0:0:
287,299,257754,2,0,P|315:258|311:209,1,100,2|4,0:1|0:0,0:0:0:0:
45,199,258014,1,10,0:0:0:0:
82,230,258101,1,4,0:0:0:0:
129,227,258188,1,4,0:0:0:0:
166,196,258275,2,0,P|192:188|218:192,2,50,2|4|4,0:1|0:0|0:0,0:0:0:0:
240,370,258536,6,0,P|277:382|338:366,1,100,4|0,0:0|0:0,0:0:0:0:
512,304,258797,2,0,P|468:295|407:279,1,100,2|0,0:1|0:0,0:0:0:0:
308,191,259058,1,10,0:0:0:0:
266,133,259145,1,2,0:0:0:0:
278,65,259232,1,2,0:0:0:0:
335,30,259319,1,2,0:1:0:0:
358,30,259406,1,2,0:0:0:0:
379,38,259493,1,2,0:0:0:0:
397,52,259580,6,0,P|407:102|417:156,1,100,6|0,0:0|0:0,0:0:0:0:
299,384,259840,2,0,P|290:332|280:277,1,100,10|0,0:0|0:0,0:0:0:0:
109,87,260101,2,0,P|119:139|127:187,1,100,10|8,0:0|0:0,0:0:0:0:
378,247,260362,1,6,0:0:0:0:
117,278,260536,1,12,0:0:0:0:
100,366,260623,6,0,B|132:341|141:300|141:300|176:286|200:249,1,150,4|2,0:1|0:1,0:0:0:0:
50,28,261145,2,0,P|120:9|181:49,1,150,10|2,0:0|0:1,0:0:0:0:
188,59,261580,1,4,0:0:0:0:
462,59,261667,6,0,P|411:76|348:88,1,100,4|4,0:0|0:0,0:0:0:0:
321,302,261927,2,0,P|331:249|352:188,1,100,2|4,0:1|0:0,0:0:0:0:
188,59,262188,2,0,P|228:94|270:143,1,100,10|4,0:0|0:0,0:0:0:0:
512,206,262449,2,0,P|469:239|409:240,1,100,2|4,0:1|0:0,0:0:0:0:
175,298,262710,6,0,P|198:249|246:215,1,100,4|6,0:1|0:0,0:0:0:0:
462,59,262971,1,10,0:0:0:0:
410,315,263145,5,6,0:0:0:0:
379,175,263232,1,10,0:0:0:0:
254,76,263406,5,6,0:0:0:0:
233,220,263493,1,10,0:0:0:0:
102,292,263667,5,6,0:0:0:0:
92,147,263754,2,0,P|110:115|108:152,1,100,10|0,0:0|0:0,0:0:0:0:
260,356,264014,2,0,P|269:387|270:351,1,100,6|14,0:0|0:0,0:0:0:0:
354,80,264275,2,0,P|376:50|363:86,1,100,10|10,0:0|0:0,0:0:0:0:
410,315,264536,1,6,0:0:0:0:
207,57,264710,1,6,0:0:0:0:
188,38,264797,6,0,L|102:25,1,75,4|0,0:1|0:0,0:0:0:0:
0,189,265319,2,0,L|85:180,1,75,8|0,0:0|0:0,0:0:0:0:
157,274,265840,5,2,0:1:0:0:
201,121,266101,1,0,0:0:0:0:
274,340,266362,5,8,0:0:0:0:
240,206,266623,1,0,0:0:0:0:
196,363,266884,5,0,0:0:0:0:
325,266,267145,1,0,0:0:0:0:
371,345,267406,5,8,0:0:0:0:
340,190,267667,1,0,0:0:0:0:
193,148,267927,1,2,0:1:0:0:
130,201,268188,2,0,L|48:217,2,75,0|8|0,0:0|0:0|0:0,0:0:0:0:
133,32,268971,6,0,L|223:13,1,75
353,100,269493,2,0,L|279:84,1,75,8|0,0:0|0:0,0:0:0:0:
409,11,270014,5,2,0:1:0:0:
432,151,270275,1,0,0:0:0:0:
508,88,270536,5,8,0:0:0:0:
474,227,270797,1,0,0:0:0:0:
315,327,271058,5,0,0:0:0:0:
318,185,271319,1,0,0:0:0:0:
388,261,271580,5,8,0:0:0:0:
353,100,271840,1,0,0:0:0:0:
179,50,272101,1,2,0:1:0:0:
101,116,272362,2,0,L|55:123,5,37.5,2|2|10|2|2|2,0:0|0:0|0:0|0:0|0:0|0:0,0:0:0:0:
101,238,273145,6,0,L|110:328,1,75
228,384,273667,2,0,L|237:293,1,75,8|0,0:0|0:0,0:0:0:0:
298,125,274188,5,2,0:1:0:0:
182,236,274449,1,0,0:0:0:0:
221,75,274710,5,8,0:0:0:0:
266,217,274971,1,0,0:0:0:0:
337,317,275232,5,0,0:0:0:0:
352,164,275493,1,0,0:0:0:0:
492,118,275754,5,8,0:0:0:0:
473,271,276014,1,0,0:0:0:0:
337,317,276275,1,2,0:1:0:0:
261,275,276536,2,0,L|168:280,2,75,0|8|0,0:0|0:0|0:0,0:0:0:0:
57,201,277319,6,0,L|48:108,1,75
160,0,277840,2,0,L|152:74,1,75,8|0,0:0|0:0,0:0:0:0:
174,218,278362,5,2,0:1:0:0:
251,89,278623,1,0,0:0:0:0:
327,148,278884,5,8,0:0:0:0:
309,9,279145,1,0,0:0:0:0:
286,223,279406,5,0,0:0:0:0:
424,157,279667,1,0,0:0:0:0:
507,283,279927,5,8,0:0:0:0:
368,228,280188,1,0,0:0:0:0:
261,323,280449,1,2,0:1:0:0:
104,273,280710,5,2,0:0:0:0:
76,259,280840,1,2,0:0:0:0:
58,234,280970,1,10,0:0:0:0:
52,205,281101,1,2,0:0:0:0:
59,176,281231,1,2,0:0:0:0:
79,152,281362,1,2,0:0:0:0:
106,138,281492,5,2,0:0:0:0:
254,71,282014,1,0,0:0:0:0:
287,169,282536,5,0,0:0:0:0:
408,127,282797,1,0,0:0:0:0:
359,225,283058,5,0,0:0:0:0:
333,106,283319,1,0,0:0:0:0:
288,243,283580,5,0,0:0:0:0:
425,190,283840,1,0,0:0:0:0:
468,284,284101,5,0,0:0:0:0:
369,252,284361,1,0,0:0:0:0:
293,331,284623,1,0,0:0:0:0:
214,292,284884,2,0,L|166:295,2,44.999998626709
157,186,285667,5,0,0:0:0:0:
260,47,286188,1,0,0:0:0:0:
401,164,286710,5,0,0:0:0:0:
299,123,286971,1,0,0:0:0:0:
229,173,287232,5,0,0:0:0:0:
260,47,287493,1,0,0:0:0:0:
155,142,287754,5,0,0:0:0:0:
299,123,288014,1,0,0:0:0:0:
298,205,288275,5,0,0:0:0:0:
215,100,288536,1,0,0:0:0:0:
85,116,288797,1,0,0:0:0:0:
43,196,289058,2,0,L|41:227,5,22.4999993133545,2|2|2|2|2|2,0:0|0:0|0:0|0:0|0:0|0:0,0:0:0:0:
179,316,289840,5,2,0:0:0:0:
153,146,290362,1,0,0:0:0:0:
325,180,290884,5,0,0:0:0:0:
234,98,291145,1,0,0:0:0:0:
260,220,291406,5,0,0:0:0:0:
309,106,291667,1,0,0:0:0:0:
372,267,291927,5,0,0:0:0:0:
260,220,292188,1,0,0:0:0:0:
193,273,292449,5,0,0:0:0:0:
212,147,292710,1,0,0:0:0:0:
99,191,292971,1,0,0:0:0:0:
54,268,293232,2,0,L|46:314,2,44.999998626709
44,100,294014,5,0,0:0:0:0:
207,65,294535,1,0,0:0:0:0:
235,224,295093,5,0,0:0:0:0:
286,96,295393,1,0,0:0:0:0:
158,210,295693,5,0,0:0:0:0:
296,173,296010,1,0,0:0:0:0:
220,295,296347,5,0,0:0:0:0:
185,137,296752,5,0,0:0:0:0:
91,210,297199,5,0,0:0:0:0:
235,224,297707,5,0,0:0:0:0:
106,330,298373,5,0,0:0:0:0:
256,192,298457,12,0,301373,0:0:0:0:
