osu file format v14

[General]
AudioFilename: audio.mp3
AudioLeadIn: 0
PreviewTime: 45670
Countdown: 0
SampleSet: Normal
StackLeniency: 0.6
Mode: 0
LetterboxInBreaks: 0
WidescreenStoryboard: 1
SamplesMatchPlaybackRate: 1

[Editor]
Bookmarks: 115,14337,28559,45892,60559,67670,81892,85448,96114,113448,128114,135226,142337,149448,163670,177892,180114,187670,196114,210781,217892
DistanceSpacing: 2.7
BeatDivisor: 6
GridSize: 32
TimelineZoom: 2.800005

[Metadata]
Title:The Clockwork Rose -Tokei Shikake no Bara Shoujo-
TitleUnicode:The Clockwork Rose -時計仕掛けの薔薇少女-
Artist:Hatsuki Yura
ArtistUnicode:葉月ゆら
Creator:kimchii42
Version:Hard
Source:
Tags:gothic electronic hatsuki yura drop the clockwork rose japanese
BeatmapID:1938250
BeatmapSetID:810273

[Difficulty]
HPDrainRate:4.5
CircleSize:3.5
OverallDifficulty:6
ApproachRate:8
SliderMultiplier:3
SliderTickRate:1

[Events]
//Background and Video events
0,0,"bg-clockwork2x.jpg",0,0
//Break Periods
2,82091,84558
2,180559,186780
//Storyboard Layer 0 (Background)
//Storyboard Layer 1 (Fail)
//Storyboard Layer 2 (Pass)
//Storyboard Layer 3 (Foreground)
//Storyboard Layer 4 (Overlay)
//Storyboard Sound Samples

[TimingPoints]
114,444.444444444444,4,1,1,60,1,0
114,-181.818181818181,4,2,1,60,0,0
4113,-153.846153846153,4,2,1,60,0,0
4558,-181.818181818181,4,2,1,60,0,0
7225,-153.846153846153,4,2,1,70,0,0
11225,-133.333333333333,4,2,1,70,0,0
11669,-153.846153846153,4,2,1,70,0,0
14336,-142.857142857143,4,1,1,70,0,0
16336,-142.857142857143,4,1,2,70,0,0
17225,-142.857142857143,4,1,1,70,0,0
20558,-117.647058823529,4,1,1,70,0,0
21447,-142.857142857143,4,1,1,70,0,0
23447,-142.857142857143,4,1,2,70,0,0
24336,-142.857142857143,4,1,1,70,0,0
27669,-111.111111111111,4,1,1,70,0,0
28558,-166.666666666667,4,2,1,60,0,0
42780,-153.846153846154,4,1,1,60,0,0
46336,-133.333333333333,4,1,1,70,0,1
50002,-133.333333333333,4,1,2,70,0,1
50891,-133.333333333333,4,1,1,70,0,1
57891,-117.647058823529,4,1,1,70,0,1
58780,-153.846153846153,4,1,1,70,0,1
60558,-181.818181818181,4,2,1,50,0,0
65669,-125,4,2,1,70,0,0
67225,-199.999999999999,4,2,1,70,0,0
67669,-142.857142857142,4,1,1,70,0,0
71669,-125,4,1,1,70,0,0
72113,-142.857142857142,4,1,1,70,0,0
78780,-124.999999999999,4,1,1,70,0,0
79225,-142.857142857142,4,1,1,70,0,0
85447,-166.666666666666,4,2,1,30,0,0
86336,-166.666666666666,4,2,1,45,0,0
87225,-166.666666666666,4,2,1,60,0,0
87891,-117.647058823529,4,1,1,60,0,0
88558,-117.647058823529,4,1,1,70,0,0
89002,-142.857142857143,4,1,1,70,0,0
95225,-111.111111111111,4,1,1,70,0,0
96113,-166.666666666666,4,2,1,70,0,0
102336,-111.111111111111,4,2,1,70,0,0
103225,-166.666666666666,4,2,1,70,0,0
110336,-153.846153846153,4,1,1,70,0,0
113891,-133.333333333333,4,1,1,70,0,1
117669,-133.333333333333,4,1,2,70,0,1
118447,-133.333333333333,4,1,1,70,0,1
125447,-117.647058823529,4,1,1,70,0,1
126336,-153.846153846153,4,1,1,70,0,1
128113,-181.818181818181,4,1,1,50,0,0
133225,-125,4,1,1,70,0,0
134780,-200,4,1,1,70,0,0
135225,-117.647058823529,4,1,1,70,0,1
136113,-125,4,1,1,70,0,0
137225,-125,4,1,8,70,0,0
137447,-125,4,1,1,70,0,0
137669,-125,4,1,8,70,0,0
137891,-125,4,1,1,70,0,0
141447,-166.666666666667,4,1,1,70,0,0
142336,-117.647058823529,4,1,1,70,0,1
143225,-125,4,1,1,70,0,0
144336,-125,4,1,8,70,0,0
144558,-125,4,1,1,70,0,0
144780,-125,4,1,8,70,0,0
145002,-125,4,1,1,70,0,0
149002,-166.666666666667,4,1,1,70,0,0
149447,-125,4,1,1,70,0,1
160113,-142.857142857143,4,1,1,70,0,1
163225,-142.857142857143,4,1,1,70,0,0
163669,-142.857142857143,4,1,1,70,0,1
164558,-142.857142857143,4,1,1,70,0,0
170780,-142.857142857143,4,1,1,70,0,1
171669,-142.857142857143,4,1,1,70,0,0
187669,-181.818181818182,4,1,1,60,0,0
190558,-166.666666666667,4,1,1,60,0,0
191225,-153.846153846154,4,1,1,70,0,0
192113,-142.857142857143,4,1,1,70,0,0
193891,-250,4,1,1,70,0,0
194558,-142.857142857143,4,1,1,70,0,0
194780,-250.000000000001,4,1,1,70,0,0
194836,-250.000000000001,4,1,1,5,0,0
196113,-250.000000000001,4,1,1,70,0,0
196558,-133.333333333333,4,1,1,70,0,1
200336,-133.333333333333,4,1,2,70,0,1
201002,-133.333333333333,4,1,1,70,0,1
208113,-117.647058823529,4,1,1,70,0,1
209002,-153.846153846153,4,1,1,70,0,1
210780,-181.818181818181,4,1,1,70,0,0
216113,-125,4,1,1,70,0,0
217447,-200,4,1,1,70,0,0
217891,-142.857142857143,4,1,1,75,0,1
224558,-142.857142857143,4,1,1,75,0,0
225002,-142.857142857143,4,1,1,75,0,1
232113,-142.857142857143,4,1,1,75,0,0
232558,-181.818181818181,4,1,1,75,0,0
233002,-250,4,1,1,75,0,0
233447,-399.999999999997,4,1,1,75,0,0
233891,-142.857142857143,4,1,1,5,0,0

[Colours]
Combo1 : 255,155,200
Combo2 : 255,132,255
Combo3 : 250,135,179
Combo4 : 193,117,219

[HitObjects]
53,203,114,6,0,B|62:258|62:258|55:283,1,82.5000025177003,4|0,3:0|0:0,0:0:0:0:
18,302,447,1,0,0:0:0:0:
0,311,558,2,0,L|46:327,2,41.2500012588501
114,357,1002,1,0,0:0:0:0:
149,238,1225,1,0,0:0:0:0:
156,217,1336,2,0,B|191:238|191:238|234:228,1,82.5000025177003
279,224,1669,1,0,0:0:0:0:
279,224,1891,6,0,L|265:305,1,82.5000025177003
286,344,2225,1,0,0:0:0:0:
295,361,2336,2,0,L|344:369,1,41.2500012588501
327,307,2558,2,0,L|376:315,1,41.2500012588501
360,253,2780,6,0,B|419:264|419:264|432:287,2,82.5000025177003,0|0|2,0:0|0:0|0:0,0:0:0:0:
233,0,3669,6,0,L|241:49,3,41.2500012588501
276,57,4113,2,0,L|265:119,3,48.7499977684022
297,159,4558,6,0,L|246:168,1,41.2500012588501
246,228,4780,2,0,L|195:237,1,41.2500012588501
175,180,5002,2,0,L|86:194,1,82.5000025177003
0,92,5447,5,2,0:0:0:0:
0,92,5558,1,0,0:0:0:0:
0,92,5669,2,0,L|51:102,1,41.2500012588501
81,46,5891,5,0,0:0:0:0:
81,46,6002,1,0,0:0:0:0:
81,46,6113,2,0,L|133:56,1,41.2500012588501
163,0,6336,6,0,P|159:38|194:86,2,82.5000025177003,2|0|8,0:0|0:0|0:0,0:0:0:0:
453,33,7225,6,0,L|356:50,1,97.4999955368044,6|0,3:0|0:0,0:0:0:0:
320,59,7558,1,0,0:0:0:0:
299,62,7669,2,0,L|265:18,2,48.7499977684022,8|0|0,0:0|0:0|0:0,0:0:0:0:
391,174,8113,1,0,0:0:0:0:
263,137,8336,1,0,0:0:0:0:
242,129,8447,2,0,B|274:171|274:171|264:227,1,97.4999955368044
257,262,8780,1,0,0:0:0:0:
257,262,9002,6,0,L|151:245,1,97.4999955368044
119,197,9336,1,0,0:0:0:0:
100,201,9447,2,0,L|44:212,1,48.7499977684022,8|0,0:0|0:0,0:0:0:0:
95,278,9669,2,0,L|39:289,1,48.7499977684022
90,356,9891,6,0,B|12:371|12:371|-6:389,2,97.4999955368044,0|0|10,0:0|0:0|0:0,0:0:0:0:
0,63,10780,6,0,L|49:71,3,48.7499977684022
57,106,11225,2,0,L|119:95,3,56.2500021457673,8|0|0|0,0:0|0:0|0:0|0:0,0:0:0:0:
184,86,11669,6,0,L|175:137,1,48.7499977684022
246,115,11891,2,0,L|255:64,1,48.7499977684022
324,46,12113,2,0,L|315:97,3,48.7499977684022,8|0|0|0,0:0|0:0|0:0|0:0,0:0:0:0:
405,0,12558,5,2,0:0:0:0:
405,0,12669,1,0,0:0:0:0:
405,0,12780,2,0,L|414:51,1,48.7499977684022
453,99,13002,1,8,0:0:0:0:
453,99,13113,1,0,0:0:0:0:
453,99,13225,2,0,L|462:150,1,48.7499977684022
501,198,13447,2,0,B|448:206|448:206|425:237|425:237|372:246,1,146.249993305207,2|0,0:0|0:0,0:0:0:0:
352,240,13891,6,0,L|340:303,3,48.7499977684022,10|0|0|0,0:0|0:0|3:0|3:0,0:0:0:0:
340,312,14336,6,0,P|306:337|236:331,1,104.999996795654,6|0,3:0|0:0,0:0:0:0:
122,233,14780,1,8,0:0:0:0:
94,375,15002,1,0,0:0:0:0:
31,201,15225,2,0,P|76:224|126:216,1,104.999996795654,0|0,3:0|0:0,0:0:0:0:
132,197,15558,2,0,P|182:188|227:212,1,104.999996795654
320,308,15891,1,0,0:0:0:0:
340,326,16002,6,0,L|371:149,1,157.499995193482,0|2,0:0|0:0,0:0:0:0:
397,15,16558,2,0,P|367:45|297:51,1,104.999996795654,8|0,0:0|0:0,0:0:0:0:
251,0,16891,2,0,L|282:176,1,157.499995193482,2|0,0:0|0:0,0:0:0:0:
171,36,17447,2,0,P|120:32|77:60,1,104.999996795654,8|0,0:0|0:0,0:0:0:0:
0,197,17891,6,0,P|50:207|84:246,1,104.999996795654,0|0,3:0|0:0,0:0:0:0:
93,272,18225,2,0,P|103:220|142:186,1,104.999996795654
167,178,18558,1,0,0:0:0:0:
220,106,18780,6,0,P|251:146|253:197,1,104.999996795654,0|0,3:0|0:0,0:0:0:0:
243,223,19113,2,0,P|284:190|335:189,1,104.999996795654
360,198,19447,1,0,0:0:0:0:
447,178,19669,6,0,P|445:229|413:269,1,104.999996795654,0|0,3:0|0:0,0:0:0:0:
389,282,20002,2,0,P|441:283|481:315,1,104.999996795654
495,338,20336,1,0,0:0:0:0:
303,384,20558,6,0,P|239:322|276:239,1,191.250003647804,0|0,3:0|0:0,0:0:0:0:
300,228,21002,2,0,P|338:148|273:83,1,191.250003647804,10|0,0:0|0:0,0:0:0:0:
248,80,21447,6,0,L|354:60,1,104.999996795654,4|0,3:0|0:0,0:0:0:0:
467,39,21891,1,8,0:0:0:0:
417,166,22113,1,0,0:0:0:0:
512,296,22336,2,0,L|405:276,1,104.999996795654,0|0,3:0|0:0,0:0:0:0:
403,256,22669,2,0,L|296:275,1,104.999996795654
211,319,23002,1,0,0:0:0:0:
183,333,23113,6,0,P|208:257|184:182,1,157.499995193482,0|2,0:0|0:0,0:0:0:0:
43,119,23669,2,0,L|150:100,1,104.999996795654,8|0,0:0|0:0,0:0:0:0:
190,37,24002,2,0,P|164:112|188:187,1,157.499995193482,2|0,0:0|0:0,0:0:0:0:
330,251,24558,2,0,L|223:270,1,104.999996795654,8|0,0:0|0:0,0:0:0:0:
97,384,25002,6,0,P|46:374|13:335,1,104.999996795654,0|0,3:0|0:0,0:0:0:0:
4,309,25336,2,0,P|9:257|45:219,1,104.999996795654
70,208,25669,1,0,0:0:0:0:
165,262,25891,6,0,P|148:212|165:164,1,104.999996795654,0|0,3:0|0:0,0:0:0:0:
183,143,26225,2,0,P|229:121|280:133,1,104.999996795654
302,150,26558,1,0,0:0:0:0:
304,259,26780,6,0,P|338:219|388:210,1,104.999996795654,0|0,3:0|0:0,0:0:0:0:
416,215,27113,2,0,P|457:244|470:294,1,104.999996795654
469,322,27447,1,0,0:0:0:0:
232,384,27669,6,0,P|299:318|260:231,1,202.499993820191,0|0,3:0|0:0,0:0:0:0:
236,219,28113,2,0,P|196:132|232:79,1,134.999995880127,10|0,0:0|0:0,0:0:0:0:
233,79,28447,1,0,0:0:0:0:
264,66,28558,6,0,L|157:47,1,89.9999972534181,4|0,3:2|0:0,0:0:0:0:
49,0,29002,2,0,L|86:102,1,89.9999972534181,0|0,3:0|0:0,0:0:0:0:
100,220,29447,2,0,L|169:136,1,89.9999972534181,0|0,3:0|0:0,0:0:0:0:
171,133,29780,1,0,0:0:0:0:
185,116,29891,2,0,L|166:223,1,89.9999972534181,0|0,3:0|0:0,0:0:0:0:
21,335,30336,6,0,B|110:319|110:319|178:386,1,179.999994506836,0|0,3:0|3:0,0:0:0:0:
244,288,31002,1,0,0:0:0:0:
244,288,31225,2,0,L|253:234,2,44.999998626709,0|0|0,3:0|0:0|0:0,0:0:0:0:
240,310,31558,2,0,P|299:276|363:287,1,134.999995880127
467,384,32113,6,0,L|486:277,1,89.9999972534181,0|0,3:0|0:0,0:0:0:0:
506,161,32558,1,0,3:0:0:0:
442,216,32780,1,0,0:0:0:0:
428,228,32891,2,0,P|394:169|405:105,1,134.999995880127
490,0,33447,2,0,L|383:19,1,89.9999972534181,0|0,3:0|0:0,0:0:0:0:
305,111,33891,6,0,B|241:48|241:48|152:63,1,179.999994506836,0|0,3:0|3:0,0:0:0:0:
0,139,34558,1,0,0:0:0:0:
0,139,34780,2,0,L|54:148,2,44.999998626709,0|0|0,3:0|0:0|0:0,0:0:0:0:
155,202,35225,2,0,L|100:211,1,44.999998626709,0|0,3:0|0:0,0:0:0:0:
35,223,35447,1,0,3:0:0:0:
17,225,35558,1,0,3:0:0:0:
0,228,35669,6,0,P|32:236|63:291,1,89.9999972534181,6|0,3:2|0:0,0:0:0:0:
150,383,36113,2,0,P|141:350|173:295,1,89.9999972534181,0|0,3:0|0:0,0:0:0:0:
210,176,36558,2,0,P|185:200|122:199,1,89.9999972534181,0|0,3:0|0:0,0:0:0:0:
111,216,36891,2,0,L|136:73,1,134.999995880127
311,26,37447,2,0,B|219:41|219:41|186:11,2,134.999995880127,0|0|0,3:0|0:0|0:0,0:0:0:0:
471,0,38336,6,0,P|407:61|395:149,1,179.999994506836,0|0,3:0|3:0,0:0:0:0:
477,254,39002,1,0,0:0:0:0:
495,256,39113,1,0,0:0:0:0:
512,259,39225,6,0,L|405:278,1,89.9999972534181,0|0,3:0|0:0,0:0:0:0:
411,294,39558,2,0,L|304:275,1,89.9999972534181
310,259,39891,1,0,0:0:0:0:
214,384,40113,6,0,P|236:345|229:303,1,89.9999972534181,0|0,3:0|0:0,0:0:0:0:
214,284,40447,2,0,P|206:239|227:202,1,89.9999972534181
247,191,40780,1,0,0:0:0:0:
359,117,41002,6,0,L|252:98,1,89.9999972534181,0|0,3:0|0:0,0:0:0:0:
258,82,41336,2,0,L|151:101,1,89.9999972534181
157,117,41669,1,0,0:0:0:0:
51,31,41891,6,0,P|73:70|66:112,1,89.9999972534181,0|0,3:0|0:0,0:0:0:0:
51,131,42225,2,0,P|43:176|64:213,1,89.9999972534181
84,224,42558,1,0,0:0:0:0:
219,278,42780,6,0,B|172:264|172:264|127:295,1,97.4999955368044,0|0,3:0|0:0,0:0:0:0:
113,308,43113,1,0,0:0:0:0:
326,361,43447,6,0,B|373:375|373:375|418:344,1,97.4999955368044
432,331,43780,1,0,0:0:0:0:
369,121,44113,6,8,L|348:237,1,97.4999955368044
256,192,44558,12,10,45891,0:0:0:0:
196,265,46336,6,0,P|138:255|91:282,1,112.500004291535,6|0,3:0|0:0,0:0:0:0:
23,328,46669,2,0,P|59:283|60:228,1,112.500004291535,2|2,0:0|0:0,0:0:0:0:
0,46,47113,2,0,P|48:71|103:61,1,112.500004291535,2|0,0:0|0:0,0:0:0:0:
163,0,47447,1,0,0:0:0:0:
184,3,47558,1,0,0:0:0:0:
206,7,47669,2,0,L|269:18,3,56.2500021457673
292,22,48113,6,0,L|271:138,1,112.500004291535,0|0,3:0|0:0,0:0:0:0:
215,196,48447,2,0,L|325:156,1,112.500004291535
489,96,48891,2,0,P|451:141|451:195,1,112.500004291535
455,210,49225,1,0,0:0:0:0:
510,369,49447,2,0,L|400:349,1,112.500004291535,8|0,0:0|0:0,0:0:0:0:
290,329,49780,1,0,0:0:0:0:
268,325,49891,6,0,P|238:272|248:220,1,112.500004291535,2|2,3:1|0:0,0:0:0:0:
270,141,50225,2,0,P|239:192|189:210,1,112.500004291535,2|2,0:0|0:0,0:0:0:0:
0,273,50669,2,0,P|59:273|100:307,1,112.500004291535,2|0,0:0|0:0,0:0:0:0:
125,384,51002,1,0,0:0:0:0:
128,363,51113,1,0,0:0:0:0:
132,341,51225,2,0,L|143:272,3,56.2500021457673,0|0|0|0,3:0|0:0|0:0|0:0,0:0:0:0:
147,255,51669,6,0,L|127:138,1,112.500004291535,0|0,3:0|0:0,0:0:0:0:
72,79,52002,2,0,L|182:119,1,112.500004291535
389,0,52447,2,0,P|342:74|363:172,1,168.750006437302
490,198,52891,1,0,0:0:0:0:
510,206,53002,2,0,L|394:227,1,112.500004291535,10|0,0:0|0:0,0:0:0:0:
276,349,53447,6,0,P|306:296|296:244,1,112.500004291535,6|0,3:0|0:0,0:0:0:0:
271,167,53780,2,0,P|301:219|351:236,1,112.500004291535,2|2,0:0|0:0,0:0:0:0:
512,340,54225,2,0,P|451:340|411:375,1,112.500004291535,2|0,0:0|0:0,0:0:0:0:
330,384,54558,1,0,0:0:0:0:
309,381,54669,1,0,0:0:0:0:
287,377,54780,2,0,L|220:365,3,56.2500021457673,0|0|0|0,3:0|0:0|0:0|0:0,0:0:0:0:
201,362,55225,6,0,L|222:246,1,112.500004291535,0|0,3:0|0:0,0:0:0:0:
278,188,55558,2,0,L|168:228,1,112.500004291535
0,288,56002,2,0,P|33:234|18:163,1,112.500004291535
0,144,56336,6,0,L|116:165,2,112.500004291535,0|8|0,0:0|0:0|0:0,0:0:0:0:
149,0,57002,6,0,P|137:50|167:103,1,112.500004291535,0|0,3:0|0:0,0:0:0:0:
184,115,57336,2,0,P|233:126|287:97,1,112.500004291535
297,78,57669,1,0,0:0:0:0:
474,137,57891,6,0,L|333:163,1,127.50000243187,0|0,3:0|0:0,0:0:0:0:
166,207,58336,2,0,L|308:233,1,127.50000243187,8|0,0:0|0:0,0:0:0:0:
464,308,58780,6,0,P|380:289|291:360,1,194.999991073609,0|8,3:0|0:0,0:0:0:0:
156,384,59447,1,0,0:0:0:0:
156,384,59558,1,0,0:0:0:0:
156,384,59669,6,0,P|216:311|203:217,1,194.999991073609,0|8,3:0|0:0,0:0:0:0:
262,79,60336,1,0,3:0:0:0:
262,79,60447,1,0,3:0:0:0:
262,79,60558,6,0,P|223:99|186:93,1,82.5000025177003,0|0,3:0|0:0,0:0:0:0:
80,31,61002,2,0,L|96:125,1,82.5000025177003,0|0,3:0|0:0,0:0:0:0:
170,214,61447,2,0,P|90:156|16:175,1,165.000005035401,0|0,3:0|3:0,0:0:0:0:
0,289,62113,1,0,0:0:0:0:
0,289,62336,6,0,L|94:272,1,82.5000025177003,0|0,3:0|0:0,0:0:0:0:
145,348,62780,2,0,L|239:364,1,82.5000025177003,0|0,3:0|0:0,0:0:0:0:
249,366,63113,1,0,0:0:0:0:
272,370,63225,2,0,L|254:274,1,82.5000025177003,0|0,3:0|0:0,0:0:0:0:
327,187,63669,2,0,L|344:282,1,82.5000025177003,0|0,3:0|0:0,0:0:0:0:
417,366,64113,6,0,L|434:271,1,82.5000025177003,0|0,3:0|0:0,0:0:0:0:
450,189,64558,2,0,L|467:94,1,82.5000025177003,0|0,3:0|0:0,0:0:0:0:
482,9,65002,1,0,3:0:0:0:
392,23,65225,1,0,0:0:0:0:
302,37,65447,1,0,3:0:0:0:
212,51,65669,1,0,0:0:0:0:
110,0,65891,6,0,P|131:52|95:97,1,120,0|0,3:0|0:0,0:0:0:0:
71,104,66225,2,0,P|34:148|56:201,1,120,0|0,3:0|0:0,0:0:0:0:
78,215,66558,1,0,3:0:0:0:
244,263,66780,6,0,L|232:326,3,60,2|0|0|0,0:0|0:0|3:0|3:0,0:0:0:0:
230,345,67225,6,0,B|175:330|175:330|130:362,1,112.5,10|0,3:1|0:0,0:0:0:0:
98,384,67669,6,0,B|109:313|109:313|84:263,1,104.999996795654,6|0,3:1|0:0,0:0:0:0:
59,213,68002,1,0,0:0:0:0:
49,194,68113,2,0,L|-21:169,2,52.4999983978272,8|0|0,0:0|0:0|0:0,0:0:0:0:
192,244,68558,1,0,3:0:0:0:
143,130,68780,1,0,0:0:0:0:
130,104,68891,2,0,B|180:117|180:117|222:88,1,104.999996795654
241,75,69225,1,0,0:0:0:0:
241,75,69447,6,0,L|261:187,1,104.999996795654,0|0,3:0|0:0,0:0:0:0:
276,242,69780,1,0,0:0:0:0:
282,268,69891,2,0,L|333:277,1,52.4999983978272,8|0,0:0|0:0,0:0:0:0:
343,203,70113,2,0,L|394:212,1,52.4999983978272
404,138,70336,6,0,B|475:149|475:149|525:124,2,104.999996795654,0|0|10,3:0|0:0|0:0,0:0:0:0:
512,359,71225,6,0,L|460:349,3,52.4999983978272,0|0|0|0,3:0|0:0|0:0|0:0,0:0:0:0:
431,307,71669,2,0,L|348:321,3,60,8|0|0|0,0:0|0:0|0:0|0:0,0:0:0:0:
308,384,72113,2,0,L|298:332,1,52.4999983978272,0|0,3:0|0:0,0:0:0:0:
229,371,72336,2,0,L|219:319,1,52.4999983978272
150,358,72558,2,0,L|127:232,1,104.999996795654,8|0,0:0|0:0,0:0:0:0:
0,140,73002,5,0,3:0:0:0:
0,140,73113,1,0,0:0:0:0:
0,140,73225,2,0,L|51:149,1,52.4999983978272
79,78,73447,5,8,0:0:0:0:
79,78,73558,1,0,0:0:0:0:
79,78,73669,2,0,L|130:87,1,52.4999983978272
160,166,73891,6,0,P|177:94|216:65,2,104.999996795654,0|0|10,3:0|0:0|0:0,0:0:0:0:
422,285,74780,6,0,L|296:262,1,104.999996795654,6|0,3:0|0:0,0:0:0:0:
241,250,75113,1,0,0:0:0:0:
223,247,75225,2,0,L|198:317,2,52.4999983978272,8|0|0,0:0|0:0|0:0,0:0:0:0:
273,97,75669,1,0,3:0:0:0:
370,177,75891,1,0,0:0:0:0:
389,192,76002,2,0,L|492:173,1,104.999996795654
512,169,76336,1,0,0:0:0:0:
512,169,76558,6,0,B|481:125|481:125|494:75,1,104.999996795654,0|0,3:0|0:0,0:0:0:0:
445,16,76891,1,0,0:0:0:0:
431,0,77002,2,0,B|418:50|418:50,1,52.4999983978272,8|0,0:0|0:0,0:0:0:0:
349,12,77225,2,0,B|336:62,1,52.4999983978272
267,24,77447,6,0,B|249:93|249:93|270:145,2,104.999996795654,0|0|10,3:0|0:0|0:0,0:0:0:0:
29,0,78336,6,0,L|39:52,3,52.4999983978272,0|0|0|0,3:0|0:0|0:0|0:0,0:0:0:0:
81,81,78780,2,0,L|69:142,3,60,8|0|0|0,0:0|0:0|0:0|0:0,0:0:0:0:
0,205,79225,2,0,L|52:215,1,52.4999983978272,0|0,3:0|0:0,0:0:0:0:
70,294,79447,2,0,L|18:284,1,52.4999983978272
36,363,79669,2,0,L|88:373,3,52.4999983978272,8|0|0|0,0:0|0:0|0:0|0:0,0:0:0:0:
174,384,80113,5,0,3:0:0:0:
174,384,80225,1,0,0:0:0:0:
174,384,80336,2,0,L|183:332,1,52.4999983978272,0|0,0:0|3:0,0:0:0:0:
262,352,80558,5,8,0:0:0:0:
262,352,80669,1,0,0:0:0:0:
262,352,80780,2,0,L|271:300,1,52.4999983978272,0|0,3:0|0:0,0:0:0:0:
350,320,81002,6,0,B|358:263|358:263|392:239|392:239|401:182,1,157.499995193482
405,158,81447,6,0,P|356:100|282:113,1,157.499995193482,10|0,0:0|0:0,0:0:0:0:
272,127,81891,1,4,2:2:0:0:
316,161,85447,6,0,P|349:132|356:89,1,89.9999972534181,0|0,3:0|0:0,0:0:0:0:
354,66,85780,2,0,P|334:26|295:7,1,89.9999972534181
272,5,86113,1,0,0:0:0:0:
219,106,86336,6,0,P|210:62|177:34,1,89.9999972534181,0|0,3:0|0:0,0:0:0:0:
155,25,86669,2,0,P|111:21|75:46,1,89.9999972534181
61,66,87002,1,0,0:0:0:0:
122,162,87225,6,0,P|80:147|39:162,1,89.9999972534181,0|0,3:0|0:0,0:0:0:0:
20,177,87558,2,0,P|-4:213|0:256,1,89.9999972534181
9,279,87891,1,0,0:0:0:0:
101,336,88113,6,0,P|163:272|246:309,1,191.250003647804
257,333,88558,2,0,P|337:371|402:306,1,191.250003647804,10|0,0:0|0:0,0:0:0:0:
404,281,89002,6,0,L|427:406,1,104.999996795654,6|0,3:0|0:0,0:0:0:0:
502,273,89447,1,8,0:0:0:0:
385,177,89669,1,0,0:0:0:0:
512,55,89891,2,0,L|405:75,1,104.999996795654,0|0,3:0|0:0,0:0:0:0:
403,95,90225,2,0,L|296:76,1,104.999996795654
182,12,90558,1,0,0:0:0:0:
161,0,90669,6,0,P|199:62|185:141,1,157.499995193482
49,222,91225,2,0,L|156:241,1,104.999996795654,8|0,0:0|0:0,0:0:0:0:
226,213,91558,2,0,P|187:275|201:354,1,157.499995193482
373,276,92113,2,0,L|266:295,1,104.999996795654,8|0,0:0|0:0,0:0:0:0:
106,384,92558,6,0,P|98:333|123:288,1,104.999996795654,0|0,3:0|0:0,0:0:0:0:
143,269,92891,2,0,P|90:277|45:252,1,104.999996795654
30,232,93225,1,0,0:0:0:0:
109,187,93447,6,0,P|148:155|200:154,1,104.999996795654,0|0,3:0|0:0,0:0:0:0:
227,161,93780,2,0,P|193:119|192:68,1,104.999996795654
202,45,94113,1,0,0:0:0:0:
281,91,94336,6,0,P|328:109|355:153,1,104.999996795654,0|0,3:0|0:0,0:0:0:0:
362,180,94669,2,0,P|380:130|425:103,1,104.999996795654
450,100,95002,1,0,0:0:0:0:
455,268,95225,6,0,P|389:335|302:296,1,202.499993820191,0|0,3:0|0:0,0:0:0:0:
290,272,95669,2,0,P|203:232|150:268,1,134.999995880127,10|0,0:0|0:0,0:0:0:0:
150,269,96002,1,0,0:0:0:0:
137,300,96113,6,0,L|118:193,1,89.9999972534181,6|0,3:2|0:0,0:0:0:0:
40,103,96558,2,0,L|147:122,1,89.9999972534181,0|0,0:0|3:0,0:0:0:0:
248,198,97002,2,0,P|232:160|238:111,1,89.9999972534181,8|0,0:2|0:0,0:0:0:0:
245,96,97336,2,0,P|295:57|365:63,1,134.999995880127
475,138,97891,6,0,B|463:72|463:72|509:18,2,134.999995880127,0|0|0,3:0|3:0|3:0,0:0:0:0:
502,270,98780,6,0,P|476:236|431:217,1,89.9999972534181,8|0,0:2|0:0,0:0:0:0:
413,215,99113,2,0,P|354:238|324:302,1,134.999995880127
219,383,99669,6,0,L|112:364,1,89.9999972534181,0|0,3:0|0:0,0:0:0:0:
9,306,100113,2,0,P|50:307|94:285,1,89.9999972534181,0|0,0:0|3:0,0:0:0:0:
105,272,100447,2,0,P|124:212|95:148,1,134.999995880127
0,53,101002,6,0,L|107:72,1,89.9999972534181
215,117,101447,6,0,B|172:66|172:66|185:0,2,134.999995880127,0|0|0,3:0|3:0|3:0,0:0:0:0:
316,33,102336,6,0,P|383:99|344:186,1,202.499993820191,10|0,0:2|0:0,0:0:0:0:
320,198,102780,2,0,P|280:285|316:338,1,134.999995880127,0|0,0:0|3:0,0:0:0:0:
317,338,103113,1,0,3:0:0:0:
348,351,103225,6,0,L|241:370,1,89.9999972534181,4|0,3:2|0:0,0:0:0:0:
125,383,103669,2,0,L|162:280,1,89.9999972534181,0|0,3:0|0:0,0:0:0:0:
208,173,104113,2,0,L|277:256,1,89.9999972534181,0|0,3:0|0:0,0:0:0:0:
279,260,104447,1,0,0:0:0:0:
293,277,104558,2,0,L|311:169,1,89.9999972534181,0|0,3:0|0:0,0:0:0:0:
237,70,105002,2,0,B|273:96|273:96|365:79,2,134.999995880127,0|0|0,3:0|0:0|0:0,0:0:0:0:
70,0,105891,6,0,P|134:61|146:149,1,179.999994506836,0|0,3:0|3:0,0:0:0:0:
35,229,106558,1,0,0:0:0:0:
17,231,106669,1,0,0:0:0:0:
0,234,106780,6,0,P|34:205|77:205,1,89.9999972534181,0|0,3:0|0:0,0:0:0:0:
94,211,107113,2,0,P|128:240|135:281,1,89.9999972534181
133,299,107447,1,0,0:0:0:0:
237,383,107669,6,0,L|253:288,1,89.9999972534181,0|0,3:0|0:0,0:0:0:0:
247,277,108002,2,0,L|337:244,1,89.9999972534181
343,232,108336,1,0,0:0:0:0:
512,204,108558,6,0,P|469:216|429:199,1,89.9999972534181,0|0,3:0|0:0,0:0:0:0:
418,187,108891,2,0,P|398:146|409:106,1,89.9999972534181
419,92,109225,1,0,0:0:0:0:
320,0,109447,6,0,L|303:94,1,89.9999972534181,0|0,3:0|0:0,0:0:0:0:
310,106,109780,2,0,L|219:138,1,89.9999972534181
214,151,110113,1,0,0:0:0:0:
91,71,110336,6,0,B|105:118|105:118|74:163,1,97.4999955368044,0|0,3:0|0:0,0:0:0:0:
61,177,110669,1,0,0:0:0:0:
135,383,111002,6,0,B|121:336|121:336|152:291,1,97.4999955368044
165,277,111336,1,0,0:0:0:0:
379,322,111669,6,0,L|272:341,1,97.4999955368044,8|8,0:0|0:0,0:0:0:0:
256,192,112113,12,8,113446,0:0:0:0:
322,164,113891,6,0,P|380:174|427:147,1,112.500004291535,6|0,3:0|0:0,0:0:0:0:
492,97,114225,2,0,P|454:142|454:196,1,112.500004291535,2|2,0:0|0:0,0:0:0:0:
512,384,114669,2,0,P|491:328|444:301,1,112.500004291535,2|0,0:0|0:0,0:0:0:0:
389,363,115002,1,0,0:0:0:0:
368,366,115113,1,0,0:0:0:0:
346,370,115225,2,0,L|275:382,3,56.2500021457673,0|0|0|0,3:0|0:0|0:0|0:0,0:0:0:0:
261,384,115669,6,0,L|240:268,1,112.500004291535,0|0,3:0|0:0,0:0:0:0:
280,195,116002,2,0,L|190:271,1,112.500004291535
55,384,116447,2,0,P|84:332|74:279,1,112.500004291535
70,267,116780,1,0,0:0:0:0:
0,130,117002,2,0,L|110:109,1,112.500004291535,8|0,0:0|0:0,0:0:0:0:
211,27,117336,1,0,0:0:0:0:
227,12,117447,6,0,P|257:62|247:115,1,112.500004291535,2|2,3:1|0:0,0:0:0:0:
216,191,117780,2,0,P|244:139|295:121,1,112.500004291535,2|2,0:0|0:0,0:0:0:0:
495,112,118225,2,0,P|435:112|395:78,1,112.500004291535,2|0,0:0|0:0,0:0:0:0:
353,7,118558,1,0,0:0:0:0:
356,28,118669,1,0,0:0:0:0:
360,50,118780,2,0,L|373:126,3,56.2500021457673,0|0|0|0,3:0|0:0|0:0|0:0,0:0:0:0:
375,136,119225,6,0,L|355:253,1,112.500004291535,0|0,3:0|0:0,0:0:0:0:
387,325,119558,2,0,L|295:249,1,112.500004291535
143,116,120002,2,0,P|190:190|169:288,1,168.750006437302
44,324,120447,1,0,0:0:0:0:
24,332,120558,2,0,L|141:352,1,112.500004291535,10|0,0:0|0:0,0:0:0:0:
327,384,121002,6,0,P|337:325|310:278,1,112.500004291535,6|0,3:0|0:0,0:0:0:0:
279,202,121336,2,0,P|324:239|378:239,1,112.500004291535,2|2,0:0|0:0,0:0:0:0:
511,106,121780,2,0,P|465:68|411:68,1,112.500004291535,2|0,0:0|0:0,0:0:0:0:
349,120,122113,1,0,0:0:0:0:
328,123,122225,1,0,0:0:0:0:
306,127,122336,2,0,L|236:139,3,56.2500021457673,0|0|0|0,3:0|0:0|0:0|0:0,0:0:0:0:
220,142,122780,6,0,L|199:258,1,112.500004291535,0|0,3:0|0:0,0:0:0:0:
235,329,123113,2,0,L|145:252,1,112.500004291535
4,130,123558,2,0,P|62:140|109:113,1,112.500004291535
123,32,123891,6,0,L|144:148,2,112.500004291535,0|8|0,0:0|0:0|0:0,0:0:0:0:
277,102,124558,6,0,P|312:139|311:199,1,112.500004291535,0|0,3:0|0:0,0:0:0:0:
304,218,124891,2,0,P|334:177|394:166,1,112.500004291535
413,171,125225,1,0,0:0:0:0:
511,334,125447,6,0,L|486:200,1,127.50000243187,0|0,3:0|0:0,0:0:0:0:
440,23,125891,2,0,L|414:165,1,127.50000243187,8|0,0:0|0:0,0:0:0:0:
378,338,126336,6,0,P|370:242|294:186,1,194.999991073609,0|8,3:0|0:0,0:0:0:0:
207,62,127002,1,0,0:0:0:0:
207,62,127113,1,0,0:0:0:0:
207,62,127225,2,0,P|293:103|380:65,1,194.999991073609,0|8,3:0|0:0,0:0:0:0:
512,0,127891,1,0,3:0:0:0:
512,0,128002,1,0,3:0:0:0:
512,0,128113,6,0,L|496:87,1,82.5000025177003,0|0,3:0|0:0,0:0:0:0:
471,202,128558,2,0,P|444:167|408:157,1,82.5000025177003,0|0,3:0|0:0,0:0:0:0:
388,263,129002,6,0,L|356:90,1,165.000005035401,0|0,3:0|3:0,3:0:0:0:
284,0,129669,1,0,0:0:0:0:
284,0,129891,2,0,P|257:34|221:44,1,82.5000025177003,0|0,3:0|0:0,0:0:0:0:
105,0,130336,6,0,L|121:87,1,82.5000025177003,0|0,3:0|0:0,0:0:0:0:
126,109,130669,1,0,0:0:0:0:
132,138,130780,2,0,P|164:108|202:101,1,82.5000025177003,0|0,3:0|0:0,0:0:0:0:
266,212,131225,2,0,P|234:182|195:176,1,82.5000025177003,0|0,3:0|0:0,0:0:0:0:
105,259,131669,6,0,L|192:275,1,82.5000025177003,0|0,3:0|0:0,0:0:0:0:
287,344,132113,2,0,L|200:360,1,82.5000025177003,0|0,3:0|0:0,0:0:0:0:
83,379,132558,1,0,3:0:0:0:
69,289,132780,1,0,0:0:0:0:
55,199,133002,1,0,3:0:0:0:
41,109,133225,1,0,0:0:0:0:
126,24,133447,6,0,P|167:61|222:43,1,120,0|0,3:0|0:0,0:0:0:0:
236,23,133780,2,0,P|290:3|332:42,1,120,0|0,3:0|0:0,0:0:0:0:
338,67,134113,1,0,3:0:0:0:
512,151,134336,6,0,L|448:139,3,60,2|2|0|0,0:0|0:0|3:0|3:0,0:0:0:0:
430,137,134780,6,0,B|440:199|440:199|411:247,1,112.5,10|0,3:1|0:0,0:0:0:0:
402,262,135225,6,0,P|340:198|257:235,1,191.250003647804,6|0,3:1|0:0,0:0:0:0:
246,259,135669,2,0,P|166:297|101:232,1,191.250003647804,14|0,0:0|0:0,0:0:0:0:
98,207,136113,5,0,3:0:0:0:
42,380,136336,1,0,0:0:0:0:
42,380,136558,2,0,L|16:245,1,120,8|0,0:0|0:0,0:0:0:0:
15,236,136891,1,0,0:0:0:0:
9,210,137002,5,0,3:0:0:0:
39,93,137225,1,2,0:0:0:0:
116,184,137447,2,0,L|251:158,1,120,8|2,0:0|0:0,0:0:0:0:
298,80,137780,1,2,0:0:0:0:
317,58,137891,2,0,B|351:107|351:107|336:165,1,120,0|0,3:0|0:0,0:0:0:0:
248,285,138336,2,0,B|213:237|213:237|228:179,1,120,8|0,0:0|0:0,0:0:0:0:
467,223,138780,6,0,P|423:243|375:379,1,180,2|0,3:1|0:0,0:0:0:0:
377,384,139225,2,0,L|242:358,1,120,8|0,0:0|0:0,0:0:0:0:
233,355,139558,1,0,0:0:0:0:
207,349,139669,5,0,3:0:0:0:
90,240,139891,2,0,L|153:251,1,60
167,254,140113,1,8,0:0:0:0:
284,145,140336,2,0,L|221:156,1,60
207,160,140558,5,0,3:0:0:0:
149,90,140780,1,0,0:0:0:0:
180,4,141002,1,8,0:0:0:0:
238,73,141225,1,0,0:0:0:0:
118,176,141447,6,0,L|94:38,1,134.999995880127,0|0,3:0|0:0,0:0:0:0:
87,0,141891,2,0,L|63:137,1,134.999995880127,10|0,0:0|0:0,0:0:0:0:
56,167,142336,6,0,P|136:128|201:191,1,191.250003647804,4|0,3:0|0:0,3:0:0:0:
203,217,142780,2,0,P|265:280|348:241,1,191.250003647804,12|0,0:0|0:0,0:0:0:0:
360,219,143225,5,0,0:0:0:0:
401,384,143447,1,0,0:0:0:0:
401,384,143669,2,0,L|427:249,1,120,8|0,0:0|0:0,0:0:0:0:
430,240,144002,1,0,0:0:0:0:
436,214,144113,5,0,3:0:0:0:
493,326,144336,1,2,0:0:0:0:
512,188,144558,2,0,L|377:162,1,120,8|2,0:0|0:0,0:0:0:0:
251,198,144891,1,2,0:0:0:0:
226,205,145002,2,0,B|273:241|273:241|331:229,1,120,0|0,3:0|0:0,0:0:0:0:
362,89,145447,2,0,B|315:51|315:51|257:63,1,120,8|0,0:0|0:0,0:0:0:0:
101,215,145891,6,0,P|135:181|134:36,1,180,2|0,3:1|0:0,0:0:0:0:
135,35,146336,2,0,L|270:9,1,120,8|0,0:0|0:0,0:0:0:0:
279,6,146669,1,0,0:0:0:0:
305,0,146780,5,0,3:0:0:0:
421,54,147002,2,0,L|411:114,1,60
408,132,147225,1,8,0:0:0:0:
291,186,147447,2,0,L|302:246,1,60
304,264,147669,5,0,3:0:0:0:
389,294,147891,1,0,0:0:0:0:
458,236,148113,1,8,0:0:0:0:
372,206,148336,1,0,0:0:0:0:
320,352,148558,2,0,L|446:328,1,120,0|0,0:0|3:0,0:0:0:0:
512,242,149002,6,0,P|460:311|455:359,1,134.999995880127,10|0,0:0|0:0,0:0:0:0:
461,384,149447,6,0,L|437:257,1,120,6|0,3:0|0:0,0:0:0:0:
432,237,149780,1,0,0:0:0:0:
426,207,149891,2,0,P|399:241|321:263,1,120,8|0,0:0|0:0,0:0:0:0:
131,160,150336,6,0,P|185:172|232:214,1,120,0|0,3:0|0:0,0:0:0:0:
241,231,150669,2,0,P|246:313|187:384,1,180
0,317,151225,5,0,3:0:0:0:
77,247,151447,1,0,0:0:0:0:
99,227,151558,1,0,0:0:0:0:
122,207,151669,2,0,L|98:80,1,120,8|0,0:0|0:0,0:0:0:0:
94,59,152002,1,0,0:0:0:0:
86,27,152113,6,0,P|115:73|171:103,1,120,0|0,3:0|0:0,0:0:0:0:
191,106,152447,2,0,P|269:82|316:2,1,180
423,0,153002,6,0,L|399:127,1,120,0|0,3:0|0:0,0:0:0:0:
397,136,153336,1,0,0:0:0:0:
512,298,153669,6,0,L|488:171,1,120,0|0,0:0|3:0,0:0:0:0:
486,162,154002,1,0,0:0:0:0:
362,293,154336,6,0,P|335:259|257:237,1,120,8|0,0:0|0:0,0:0:0:0:
160,383,154780,2,0,B|194:335|194:335|172:216,2,180,0|0|0,3:0|0:0|0:0,0:0:0:0:
0,261,155669,2,0,P|51:277|113:263,1,120,0|0,3:0|0:0,0:0:0:0:
129,254,156002,2,0,P|172:184|154:94,1,180
0,0,156558,5,4,3:0:0:0:
59,85,156780,1,0,0:0:0:0:
59,85,157002,2,0,L|186:61,1,120,8|0,0:0|0:0,0:0:0:0:
205,57,157336,1,0,0:0:0:0:
236,52,157447,6,0,P|211:100|214:164,1,120,0|0,3:0|0:0,0:0:0:0:
221,179,157780,2,0,P|281:233|374:232,1,180
512,118,158336,5,0,3:0:0:0:
397,41,158558,1,0,0:0:0:0:
375,21,158669,1,0,0:0:0:0:
352,0,158780,2,0,L|328:127,1,120,8|0,0:0|0:0,0:0:0:0:
388,253,159225,6,0,P|350:213|290:194,1,120,0|0,3:0|0:0,0:0:0:0:
273,195,159558,2,0,P|201:233|170:320,1,180
39,384,160113,6,0,P|46:332|20:287,1,104.999996795654,0|0,3:0|0:0,0:0:0:0:
0,269,160447,2,0,P|52:277|96:251,1,104.999996795654
112,232,160780,1,0,0:0:0:0:
22,156,161002,6,0,P|53:115|54:63,1,104.999996795654,0|0,3:0|0:0,0:0:0:0:
44,37,161336,2,0,P|85:70|136:70,1,104.999996795654
160,61,161669,1,0,0:0:0:0:
305,0,161891,6,0,L|296:51,3,52.4999983978272,2|0|0|0,0:0|0:0|0:0|0:0,0:0:0:0:
259,60,162336,2,0,L|270:125,3,52.4999983978272,2|0|0|0,0:0|0:0|0:0|0:0,0:0:0:0:
305,120,162780,2,0,L|293:185,3,52.4999983978272,2|0|0|0,0:0|0:0|0:0|0:0,0:0:0:0:
262,198,163225,2,0,L|274:263,3,52.4999983978272,2|0|0|0,0:0|0:0|0:0|0:0,0:0:0:0:
276,276,163669,6,0,P|317:243|369:243,1,104.999996795654,6|0,3:0|0:0,0:0:0:0:
475,331,164113,2,0,L|484:279,1,52.4999983978272,14|0,0:0|0:0,0:0:0:0:
503,166,164447,2,0,L|376:142,1,104.999996795654
379,142,164780,5,0,0:0:0:0:
356,138,164891,1,0,0:0:0:0:
258,51,165113,2,0,L|268:-7,2,52.4999983978272
253,79,165447,6,0,P|212:46|160:46,1,104.999996795654,0|0,3:0|0:0,0:0:0:0:
11,93,165891,2,0,L|62:102,1,52.4999983978272,8|0,0:0|0:0,0:0:0:0:
186,123,166225,2,0,L|162:250,1,104.999996795654
161,251,166558,5,0,0:0:0:0:
156,277,166669,1,0,0:0:0:0:
61,329,166891,2,0,L|3:339,2,52.4999983978272
230,303,167336,6,0,L|220:354,2,52.4999983978272
321,250,167780,2,0,L|311:198,2,52.4999983978272
404,333,168225,6,0,L|394:384,2,52.4999983978272
409,312,168558,1,8,0:0:0:0:
434,316,168669,1,0,0:0:0:0:
460,319,168780,1,0,0:0:0:0:
486,322,168891,1,0,0:0:0:0:
512,326,169002,6,0,L|502:268,3,52.4999983978272,0|0|0|0,3:0|0:0|0:0|0:0,0:0:0:0:
477,246,169447,2,0,L|487:188,3,52.4999983978272,8|0|0|0,0:0|0:0|0:0|0:0,0:0:0:0:
512,166,169891,6,0,L|502:108,5,34.9999989318848,0|0|0|0|0|0,3:0|0:0|0:0|0:0|0:0|0:0,0:0:0:0:
512,93,170336,2,0,L|456:72,5,34.9999989318848,10|0|0|0|0|0,0:0|0:0|0:0|0:0|0:0|0:0,0:0:0:0:
448,56,170780,6,0,P|407:89|355:89,1,104.999996795654,6|0,3:0|0:0,0:0:0:0:
253,0,171225,2,0,L|262:52,1,52.4999983978272,14|0,0:0|0:0,0:0:0:0:
282,161,171558,2,0,L|155:137,1,104.999996795654
158,137,171891,5,0,0:0:0:0:
135,133,172002,1,0,0:0:0:0:
81,30,172225,2,0,L|23:20,2,52.4999983978272
102,34,172558,6,0,P|55:56|32:102,1,104.999996795654,0|0,3:0|0:0,0:0:0:0:
147,210,173002,2,0,L|95:219,1,52.4999983978272,8|0,0:0|0:0,0:0:0:0:
0,237,173336,2,0,L|24:364,1,104.999996795654
24,361,173669,5,0,0:0:0:0:
28,384,173780,1,0,0:0:0:0:
132,299,174002,2,0,L|142:241,2,52.4999983978272
279,357,174447,6,0,L|330:347,2,52.4999983978272
209,259,174891,2,0,L|157:249,2,52.4999983978272
298,165,175336,6,0,L|349:155,2,52.4999983978272
279,168,175669,1,8,0:0:0:0:
273,146,175780,1,0,0:0:0:0:
270,124,175891,1,0,0:0:0:0:
267,102,176002,1,0,0:0:0:0:
262,80,176113,6,0,L|203:70,3,52.4999983978272,0|0|0|0,3:0|0:0|0:0|0:0,0:0:0:0:
189,70,176558,2,0,L|155:110,3,52.4999983978272,8|0|0|0,0:0|0:0|0:0|0:0,0:0:0:0:
144,128,177002,6,0,L|165:182,5,34.9999989318848,0|0|0|0|0|0,3:0|0:0|0:0|0:0|0:0|0:0,0:0:0:0:
163,177,177447,2,0,L|220:185,5,34.9999989318848,10|0|0|0|0|0,0:0|0:0|0:0|0:0|0:0|0:0,0:0:0:0:
256,192,177891,5,4,0:2:0:0:
256,192,177947,12,0,179669,0:0:0:0:
323,137,187669,6,0,P|326:181|309:213,1,82.5000025177003,8|8,0:1|0:0,0:0:0:0:
257,272,188002,2,0,P|293:247|330:245,1,82.5000025177003,0|0,0:0|0:0,0:0:0:0:
474,269,188447,2,0,P|434:249|414:218,1,82.5000025177003,0|0,0:0|0:0,0:0:0:0:
491,185,188780,1,8,0:0:0:0:
494,164,188891,1,0,0:0:0:0:
498,142,189002,2,0,L|506:92,3,41.2500012588501,8|8|0|0,0:1|0:0|0:0|0:0,0:0:0:0:
512,56,189447,6,0,L|414:38,1,82.5000025177003,8|8,0:1|0:0,0:0:0:0:
413,0,189780,2,0,L|351:72,1,82.5000025177003,0|0,0:0|0:0,0:0:0:0:
265,171,190225,2,0,P|271:129|252:96,1,82.5000025177003,0|0,0:0|0:0,0:0:0:0:
192,54,190558,6,0,L|283:70,2,89.9999972534181,8|8|8,0:0|0:0|0:0,0:0:0:0:
34,7,191225,6,0,P|74:-6|121:14,1,97.4999955368044,8|8,0:1|0:0,0:0:0:0:
132,25,191558,2,0,P|144:65|123:113,1,97.4999955368044,8|8,0:0|0:0,0:0:0:0:
110,123,191891,1,8,0:0:0:0:
238,213,192113,6,8,L|118:232,1,104.999996795654,8|8,0:0|0:0,0:0:0:0:
0,314,192558,2,8,L|119:333,1,104.999996795654,8|8,0:0|0:0,0:0:0:0:
256,384,193002,6,8,L|260:354,14,26.2499991989136,8|8|8|8|8|8|8|8|8|8|8|8|8|8|8,0:0|0:0|0:0|0:0|0:0|0:0|0:0|0:0|0:0|0:0|0:0|0:0|0:0|0:0|0:0,0:0:0:0:
306,361,193891,6,8,L|309:341,10,15,8|8|8|8|8|8|8|8|8|8|8,0:0|0:0|0:0|0:0|0:0|0:0|0:0|0:0|0:0|0:0|0:0,0:0:0:0:
312,324,194558,2,0,L|380:335,1,52.4999983978272,10|10,0:1|0:1,0:1:0:0:
439,384,194780,6,0,P|392:310|430:163,1,240,6|0,3:0|0:0,0:0:0:0:
512,88,196113,6,0,L|444:77,1,60,10|0,0:0|0:0,0:0:0:0:
292,0,196558,6,0,P|302:60|274:110,1,112.500004291535,6|0,3:0|0:0,0:0:0:0:
218,162,196891,2,0,P|265:124|322:123,1,112.500004291535
486,221,197336,2,0,P|438:258|381:259,1,112.500004291535
361,188,197669,1,0,0:0:0:0:
358,209,197780,1,0,0:0:0:0:
354,231,197891,2,0,L|341:298,3,56.2500021457673,0|0|0|0,3:0|0:0|0:0|0:0,0:0:0:0:
340,316,198336,6,0,L|212:339,1,112.500004291535,0|0,3:0|0:0,0:0:0:0:
158,383,198669,2,0,L|202:262,1,112.500004291535
256,119,199113,2,0,P|211:157|157:157,1,112.500004291535
142,153,199447,1,0,0:0:0:0:
0,61,199669,6,0,L|23:189,1,112.500004291535,8|0,0:0|0:0,0:0:0:0:
5,287,200002,1,0,0:0:0:0:
0,313,200113,6,0,P|52:283|109:292,1,112.500004291535,4|2,3:0|0:0,0:0:0:0:
154,355,200447,2,0,P|125:302|134:246,1,112.500004291535,2|2,0:0|0:0,0:0:0:0:
255,118,200891,2,0,P|283:170|275:226,1,112.500004291535,2|0,0:0|0:0,0:0:0:0:
214,258,201225,1,0,0:0:0:0:
235,261,201336,1,0,0:0:0:0:
257,265,201447,2,0,L|319:276,3,56.2500021457673,0|0|0|0,3:0|0:0|0:0|0:0,0:0:0:0:
343,280,201891,6,0,L|469:302,1,112.500004291535,0|0,3:0|0:0,0:0:0:0:
512,358,202225,2,0,L|468:236,1,112.500004291535
512,45,202669,2,0,P|458:114|359:128,1,168.750006437302
280,42,203113,1,0,0:0:0:0:
258,19,203225,2,0,L|277:135,1,112.500004291535,10|0,0:0|0:0,0:0:0:0:
340,276,203669,6,0,P|279:265|229:293,1,112.500004291535,4|0,3:0|0:0,0:0:0:0:
177,350,204002,2,0,P|213:302|215:245,1,112.500004291535
108,87,204447,2,0,P|130:142|179:172,1,112.500004291535
213,95,204780,1,0,0:0:0:0:
234,92,204891,1,0,0:0:0:0:
256,88,205002,2,0,L|318:77,3,56.2500021457673,0|0|0|0,3:0|0:0|0:0|0:0,0:0:0:0:
342,72,205447,6,0,L|467:51,1,112.500004291535,0|0,3:0|0:0,0:0:0:0:
512,0,205780,2,0,L|468:121,1,112.500004291535
400,292,206225,2,0,P|379:232|315:197,1,112.500004291535
263,177,206558,6,0,L|379:156,2,112.500004291535,0|8|0,0:0|0:0|0:0,0:0:0:0:
117,205,207225,6,0,P|168:210|206:256,1,112.500004291535,0|0,3:0|0:0,0:0:0:0:
209,274,207558,2,0,P|202:323|156:364,1,112.500004291535
136,368,207891,1,0,0:0:0:0:
1,237,208113,6,0,L|23:111,1,127.50000243187,0|0,3:0|0:0,0:0:0:0:
100,0,208558,2,0,L|122:127,1,127.50000243187,8|0,0:0|0:0,0:0:0:0:
98,293,209002,6,0,P|172:234|278:264,1,194.999991073609,0|8,3:0|0:0,0:0:0:0:
426,241,209669,1,0,0:0:0:0:
426,241,209780,1,0,0:0:0:0:
426,241,209891,6,0,P|338:205|310:98,1,194.999991073609,0|8,3:0|0:0,0:0:0:0:
230,0,210558,1,0,3:0:0:0:
230,0,210669,1,0,3:0:0:0:
230,0,210780,6,0,P|235:43|217:76,1,82.5000025177003,0|0,3:0|0:0,0:0:0:0:
119,153,211225,2,0,L|213:169,1,82.5000025177003,0|0,3:0|0:0,0:0:0:0:
324,156,211669,2,0,P|266:236|285:310,1,165.000005035401,0|0,3:0|3:0,0:0:0:0:
364,382,212336,1,0,0:0:0:0:
364,382,212558,6,0,L|458:365,1,82.5000025177003,0|0,3:0|0:0,0:0:0:0:
512,289,213002,2,0,L|418:273,1,82.5000025177003,0|0,3:0|0:0,0:0:0:0:
408,271,213336,1,0,0:0:0:0:
385,267,213447,6,0,L|400:170,1,82.5000025177003,0|0,3:0|0:0,0:0:0:0:
322,88,213891,2,0,L|306:184,1,82.5000025177003,0|0,3:0|0:0,0:0:0:0:
288,292,214336,6,0,L|206:306,1,82.5000025177003,0|0,3:0|0:0,0:0:0:0:
186,184,214780,2,0,L|91:201,1,82.5000025177003,0|0,3:0|0:0,0:0:0:0:
34,301,215225,1,0,3:0:0:0:
48,211,215447,1,0,0:0:0:0:
62,121,215669,1,0,3:0:0:0:
76,31,215891,1,0,0:0:0:0:
146,89,216113,6,0,P|187:51|242:69,1,120,0|0,3:0|0:0,0:0:0:0:
258,90,216447,2,0,P|312:109|354:70,1,120,0|0,3:0|0:0,0:0:0:0:
360,45,216780,1,0,3:0:0:0:
511,141,217002,5,2,0:0:0:0:
490,144,217113,1,2,0:0:0:0:
470,147,217225,1,0,3:0:0:0:
450,152,217336,1,0,3:0:0:0:
429,155,217447,6,0,B|461:201|461:201|447:254,1,112.5,10|0,3:1|0:0,0:0:0:0:
442,273,217891,6,0,B|383:263|383:263|337:287,1,104.999996795654,6|0,3:1|0:0,0:0:0:0:
263,322,218225,1,0,0:0:0:0:
241,333,218336,2,0,L|252:398,2,52.4999983978272,8|0|0,0:0|0:0|0:0,0:0:0:0:
183,186,218780,2,0,B|231:208|231:208|279:184,1,104.999996795654,0|0,3:0|0:0,0:0:0:0:
456,29,219225,2,0,B|384:-4|384:-4|314:31,1,157.499995193482,8|0,0:0|0:0,0:0:0:0:
289,44,219669,6,0,L|173:23,1,104.999996795654,0|0,3:0|0:0,0:0:0:0:
82,64,220002,1,0,0:0:0:0:
57,78,220113,2,0,L|108:86,1,52.4999983978272,8|0,0:0|0:0,0:0:0:0:
78,159,220336,2,0,L|129:167,1,52.4999983978272
99,240,220558,6,0,B|169:253|169:253|192:278,2,104.999996795654,0|0|10,3:0|0:0|0:0,0:0:0:0:
307,384,221447,6,0,L|317:332,3,52.4999983978272,0|0|0|0,3:0|0:0|0:0|0:0,0:0:0:0:
356,321,221891,2,0,L|346:269,3,52.4999983978272,8|0|0|0,0:0|0:0|0:0|0:0,0:0:0:0:
276,201,222336,2,0,L|328:191,1,52.4999983978272,0|0,3:0|0:0,0:0:0:0:
289,122,222558,2,0,L|341:112,1,52.4999983978272
302,43,222780,2,0,L|428:20,1,104.999996795654,8|0,0:0|0:0,0:0:0:0:
512,154,223225,5,0,3:0:0:0:
512,154,223336,1,0,0:0:0:0:
512,154,223447,2,0,L|503:205,1,52.4999983978272
429,177,223669,5,8,0:0:0:0:
429,177,223780,1,0,0:0:0:0:
429,177,223891,2,0,L|420:228,1,52.4999983978272
489,280,224113,6,0,P|437:285|397:317,2,104.999996795654,0|0|10,3:0|0:0|0:0,0:0:0:0:
189,384,225002,6,0,L|167:257,1,104.999996795654,6|0,3:0|0:0,0:0:0:0:
158,201,225336,1,0,0:0:0:0:
154,180,225447,2,0,L|80:167,2,52.4999983978272,8|0|0,0:0|0:0|0:0,0:0:0:0:
296,247,225891,2,0,B|274:199|274:199|298:151,1,104.999996795654,0|0,3:0|0:0,0:0:0:0:
473,0,226336,2,0,B|506:72|506:72|471:142,1,157.499995193482,8|0,0:0|0:0,0:0:0:0:
460,164,226780,6,0,L|481:280,1,104.999996795654,0|0,3:0|0:0,0:0:0:0:
432,330,227113,1,0,0:0:0:0:
413,352,227225,2,0,L|405:301,1,52.4999983978272,8|0,0:0|0:0,0:0:0:0:
332,331,227447,2,0,L|324:280,1,52.4999983978272
251,310,227669,6,0,B|238:240|238:240|213:217,2,104.999996795654,0|0|10,3:0|0:0|0:0,0:0:0:0:
0,225,228558,6,0,L|51:217,3,52.4999983978272,8|0|0|0,0:0|0:0|3:0|0:0,0:0:0:0:
81,176,229002,2,0,L|132:184,3,52.4999983978272,8|0|0|0,0:0|0:0|3:0|0:0,0:0:0:0:
183,194,229447,6,0,L|175:143,3,52.4999983978272,8|0|0|0,0:0|0:0|3:0|0:0,0:0:0:0:
167,100,229891,1,8,0:0:0:0:
189,97,230002,1,0,0:0:0:0:
211,94,230113,1,0,3:0:0:0:
233,91,230225,1,0,0:0:0:0:
255,88,230336,6,8,L|313:77,3,52.4999983978272,8|8|8|8,3:1|0:1|3:1|0:1,3:1:0:0:
327,76,230780,2,0,L|365:121,3,52.4999983978272,8|0|0|0,0:1|3:0|0:0|0:0,0:0:0:0:
373,132,231225,2,0,L|358:172,6,26.2499991989136,2|2|2|2|2|2|2,0:0|0:0|0:0|0:0|0:0|0:0|0:0,0:0:0:0:
355,174,231669,2,0,L|312:181,6,26.2499991989136,2|2|2|2|2|2|2,0:1|0:0|0:0|0:0|0:0|0:0|0:0,0:0:0:0:
256,192,232113,5,4,2:1:0:0:
256,192,232169,12,0,233891,0:0:0:0:
