osu file format v14

[General]
AudioFilename: audio.mp3
AudioLeadIn: 0
PreviewTime: 45897
Countdown: 0
SampleSet: Normal
StackLeniency: 0.2
Mode: 0
LetterboxInBreaks: 0
WidescreenStoryboard: 1

[Editor]
Bookmarks: 120,14342,28564,35675,44675,46342,60564,67675,81897,96119,112119,113897,128119,135231,149453,163675,180564,187675,196563,210786,217897,232119,233897
DistanceSpacing: 0.3
BeatDivisor: 6
GridSize: 8
TimelineZoom: 2.699998

[Metadata]
Title:The Clockwork Rose -Tokei Shikake no Bara Shoujo-
TitleUnicode:The Clockwork Rose -時計仕掛けの薔薇少女-
Artist:Hatsuki Yura
ArtistUnicode:葉月ゆら
Creator:My Angel Watame
Version:Corruption
Source:
Tags:gothic electronic japanese 月棘苑子 jigake drop xlolicore- elsa valentine celine deppyforce kkipalt xenok
BeatmapID:1776939
BeatmapSetID:849824

[Difficulty]
HPDrainRate:6
CircleSize:4.2
OverallDifficulty:9
ApproachRate:9.5
SliderMultiplier:3
SliderTickRate:1

[Events]
//Background and Video events
0,0,"bg.jpg",0,0
//Break Periods
2,180763,185372
//Storyboard Layer 0 (Background)
//Storyboard Layer 1 (Fail)
//Storyboard Layer 2 (Pass)
//Storyboard Layer 3 (Foreground)
//Storyboard Layer 4 (Overlay)
//Storyboard Sound Samples

[TimingPoints]
120,444.444444444444,4,3,90,60,1,0
120,-100,4,3,90,60,0,0
231,-100,4,3,90,60,0,0
2786,-100,4,3,90,60,0,0
3231,-100,4,3,90,60,0,0
3675,-100,4,3,90,60,0,0
6342,-100,4,3,90,60,0,0
6786,-100,4,1,30,60,0,0
6897,-100,4,1,1,60,0,0
7231,-100,4,1,20,60,0,0
7342,-100,4,1,1,60,0,0
7675,-100,4,1,1,60,0,0
8119,-100,4,1,1,60,0,0
9453,-100,4,1,1,60,0,0
10342,-100,4,1,1,60,0,0
13897,-100,4,1,1,60,0,0
14342,-111.111111111111,4,1,20,60,0,0
14453,-111.111111111111,4,1,1,60,0,0
14564,-111.111111111111,4,1,1,60,0,0
16342,-76.9230769230769,4,1,12,60,0,0
16397,-76.9230769230769,4,3,12,5,0,0
16453,-76.9230769230769,4,1,12,60,0,0
16897,-111.111111111111,4,1,12,60,0,0
17231,-111.111111111111,4,1,1,60,0,0
20564,-83.3333333333333,4,1,1,60,0,0
21008,-111.111111111111,4,1,30,60,0,0
21119,-111.111111111111,4,1,1,60,0,0
21342,-90.9090909090908,4,1,1,60,0,0
21453,-111.111111111111,4,1,20,60,0,0
21564,-111.111111111111,4,1,1,60,0,0
23453,-76.9230769230769,4,3,12,60,0,0
23508,-76.9230769230769,4,3,12,5,0,0
23564,-76.9230769230769,4,3,12,60,0,0
24008,-100,4,3,12,60,0,0
24231,-100,4,1,1,60,0,0
24342,-100,4,1,1,60,0,0
26786,-111.111111111111,4,1,1,60,0,0
28564,-142.857142857143,4,2,20,60,0,0
28675,-142.857142857143,4,2,1,60,0,0
30342,-111.111111111111,4,2,1,60,0,0
31231,-142.857142857143,4,2,1,60,0,0
35675,-125,4,2,20,60,0,0
35786,-125,4,2,1,60,0,0
41008,-111.111111111111,4,2,1,60,0,0
42786,-142.857142857143,4,1,1,60,0,0
43119,-125,4,1,1,60,0,0
43453,-111.111111111111,4,1,1,60,0,0
43786,-99.9999999999999,4,1,1,60,0,0
44119,-90.9090909090909,4,1,1,60,0,0
44675,-125,4,2,1,60,0,0
45897,-125,4,1,30,60,0,0
46342,-83.3333333333333,4,1,20,80,0,1
46453,-83.3333333333333,4,1,1,80,0,1
50119,-66.6666666666667,4,1,12,80,0,1
50175,-66.6666666666667,4,2,12,5,0,1
50231,-76.9230769230769,4,1,12,80,0,1
51008,-76.9230769230769,4,1,1,80,0,1
53008,-142.857142857143,4,1,30,80,0,1
53453,-83.3333333333334,4,1,20,80,0,1
53564,-83.3333333333334,4,1,1,80,0,1
56342,-76.9230769230769,4,1,1,80,0,1
56508,-76.9230769230769,4,1,1,5,0,1
56564,-76.9230769230769,4,1,1,80,0,1
56731,-76.9230769230769,4,1,1,5,0,1
56786,-76.9230769230769,4,1,1,80,0,1
56953,-76.9230769230769,4,1,1,5,0,1
57008,-76.9230769230769,4,1,1,80,0,1
57453,-111.111111111111,4,1,1,80,0,1
57619,-111.111111111111,4,1,1,80,0,1
57675,-111.111111111111,4,1,1,80,0,1
57897,-83.3333333333333,4,1,1,80,0,1
60119,-83.3333333333333,4,1,30,80,0,1
60342,-83.3333333333333,4,1,1,80,0,1
60564,-142.857142857143,4,1,20,60,0,0
60786,-142.857142857143,4,1,1,60,0,0
65897,-100,4,1,1,75,0,0
66231,-83.3333333333333,4,1,1,75,0,0
67231,-83.3333333333333,4,1,30,75,0,0
67397,-83.3333333333333,4,1,30,5,0,0
67453,-71.4285714285714,4,1,1,75,0,0
67619,-71.4285714285714,4,1,1,5,0,0
67675,-90.9090909090909,4,1,20,60,0,0
67786,-90.9090909090909,4,1,1,60,0,0
74342,-76.9230769230769,4,1,30,60,0,0
74675,-76.9230769230769,4,1,1,60,0,0
74786,-90.9090909090909,4,1,20,60,0,0
74897,-90.9090909090909,4,1,1,60,0,0
81897,-111.111111111111,4,1,20,60,0,0
82008,-111.111111111111,4,2,1,60,0,0
83897,-76.9230769230769,4,2,12,60,0,0
83953,-76.9230769230769,4,2,12,5,0,0
84008,-76.9230769230769,4,2,12,60,0,0
84453,-111.111111111111,4,2,12,60,0,0
84675,-111.111111111111,4,2,1,60,0,0
85453,-111.111111111111,4,1,1,60,0,0
87897,-111.111111111111,4,1,1,50,0,0
88119,-125,4,1,1,40,0,0
88564,-90.9090909090908,4,1,30,60,0,0
89008,-99.9999999999999,4,1,20,60,0,0
89119,-99.9999999999999,4,1,1,60,0,0
91008,-76.9230769230769,4,1,12,60,0,0
91064,-76.9230769230769,4,1,12,5,0,0
91119,-76.9230769230769,4,1,12,60,0,0
91564,-100,4,1,12,60,0,0
91786,-100,4,1,1,60,0,0
94119,-125,4,1,1,60,0,0
94342,-100,4,1,1,60,0,0
96119,-166.666666666666,4,2,2,50,0,0
97231,-166.666666666666,4,2,1,50,0,0
97675,-166.666666666666,4,2,1,50,0,0
97897,-111.111111111111,4,2,2,50,0,0
98119,-111.111111111111,4,2,1,50,0,0
98231,-111.111111111111,4,2,2,50,0,0
98453,-111.111111111111,4,2,1,50,0,0
98786,-166.666666666666,4,2,2,50,0,0
99008,-166.666666666666,4,2,1,50,0,0
99675,-166.666666666666,4,2,2,50,0,0
99897,-166.666666666666,4,2,1,50,0,0
100564,-99.9999999999998,4,2,2,50,0,0
100786,-99.9999999999998,4,2,1,50,0,0
101008,-125,4,2,1,50,0,0
101453,-111.111111111111,4,2,2,50,0,0
101675,-111.111111111111,4,2,1,50,0,0
101786,-111.111111111111,4,2,2,50,0,0
102008,-111.111111111111,4,2,1,50,0,0
103231,-111.111111111111,4,2,1,50,0,0
106786,-111.111111111111,4,2,1,60,0,0
107675,-99.9999999999999,4,2,1,60,0,0
110342,-142.857142857143,4,1,1,60,0,0
110675,-125,4,1,1,60,0,0
111008,-111.111111111111,4,1,1,60,0,0
111342,-100,4,1,1,60,0,0
111675,-90.9090909090909,4,1,1,60,0,0
112119,-125,4,2,1,60,0,0
113453,-125,4,1,30,75,0,0
113897,-83.3333333333333,4,1,20,80,0,1
114008,-83.3333333333333,4,1,1,80,0,1
117675,-66.6666666666667,4,1,12,80,0,1
117731,-66.6666666666667,4,1,12,5,0,1
117786,-76.9230769230769,4,1,12,80,0,1
118564,-76.9230769230769,4,1,1,80,0,1
120564,-142.857142857143,4,1,30,80,0,1
121008,-83.3333333333333,4,1,20,80,0,1
121119,-83.3333333333333,4,1,1,80,0,1
123897,-76.9230769230769,4,1,1,80,0,1
124064,-76.9230769230769,4,1,1,5,0,1
124119,-76.9230769230769,4,1,1,80,0,1
124286,-76.9230769230769,4,1,1,5,0,1
124342,-76.9230769230769,4,1,1,80,0,1
124508,-76.9230769230769,4,1,1,5,0,1
124564,-76.9230769230769,4,1,1,80,0,1
124786,-111.111111111111,4,1,1,80,0,1
125453,-83.3333333333333,4,1,1,80,0,1
127675,-83.3333333333333,4,1,30,80,0,1
127897,-83.3333333333333,4,1,1,80,0,1
128119,-142.857142857143,4,1,20,60,0,0
128342,-142.857142857143,4,1,1,60,0,0
133453,-99.9999999999999,4,1,1,75,0,0
133786,-83.3333333333333,4,1,1,75,0,0
134786,-83.3333333333333,4,1,30,75,0,0
134953,-83.3333333333333,4,1,30,5,0,0
135008,-71.4285714285714,4,1,30,75,0,0
135175,-71.4285714285714,4,2,1,5,0,0
135231,-125,4,3,10,70,0,0
135564,-125,4,1,2,5,0,0
135675,-125,4,3,11,70,0,0
136008,-111.111111111111,4,1,2,5,0,0
136119,-111.111111111111,4,3,9,70,0,0
136286,-111.111111111111,4,3,9,5,0,0
136342,-90.9090909090908,4,3,9,70,0,0
136453,-90.9090909090908,4,3,9,5,0,0
136564,-90.9090909090908,4,3,9,70,0,0
136786,-111.111111111111,4,1,2,70,0,0
136842,-111.111111111111,4,2,2,5,0,0
136897,-111.111111111111,4,1,2,70,0,0
136953,-111.111111111111,4,2,2,5,0,0
137008,-200,4,3,9,70,0,0
137175,-111.111111111111,4,1,2,5,0,0
137231,-83.3333333333333,4,3,12,70,0,0
137453,-90.9090909090908,4,1,2,70,0,0
137619,-111.111111111111,4,2,2,5,0,0
137675,-76.9230769230769,4,3,12,70,0,0
137731,-76.9230769230769,4,2,2,5,0,0
137786,-76.9230769230769,4,3,12,70,0,0
137842,-76.9230769230769,4,2,2,5,0,0
137897,-99.9999999999999,4,3,15,70,0,0
138008,-99.9999999999999,4,3,15,5,0,0
138119,-99.9999999999999,4,3,9,70,0,0
138231,-99.9999999999999,4,2,2,5,0,0
138342,-90.9090909090908,4,3,14,90,0,0
138508,-90.9090909090908,4,2,2,5,0,0
138564,-90.9090909090908,4,1,2,70,0,0
138731,-90.9090909090908,4,1,2,5,0,0
138786,-111.111111111111,4,3,10,70,0,0
139119,-111.111111111111,4,2,2,5,0,0
139231,-83.3333333333333,4,3,16,70,0,0
139453,-111.111111111111,4,1,2,70,0,0
139675,-111.111111111111,4,3,12,70,0,0
139842,-111.111111111111,4,2,2,5,0,0
139897,-58.8235294117647,4,1,2,70,0,0
140008,-58.8235294117647,4,2,2,5,0,0
140119,-90.9090909090908,4,3,9,70,0,0
140286,-90.9090909090908,4,2,2,5,0,0
140342,-66.6666666666666,4,3,17,70,0,0
140453,-66.6666666666666,4,2,2,5,0,0
140564,-111.111111111111,4,3,1,70,0,0
140675,-111.111111111111,4,2,2,5,0,0
140786,-111.111111111111,4,3,22,100,0,0
140897,-111.111111111111,4,2,2,5,0,0
141008,-90.9090909090908,4,3,1,100,0,0
141119,-90.9090909090908,4,2,2,5,0,0
141231,-76.9230769230769,4,3,3,100,0,0
141342,-76.9230769230769,4,2,2,5,0,0
141453,-99.9999999999999,4,3,1,100,0,0
141786,-99.9999999999999,4,2,2,5,0,0
141897,-90.9090909090908,4,3,22,100,0,0
142231,-90.9090909090908,4,2,2,5,0,0
142342,-111.111111111111,4,3,10,70,0,0
142675,-111.111111111111,4,2,2,5,0,0
142786,-111.111111111111,4,3,11,70,0,0
143119,-111.111111111111,4,2,2,5,0,0
143231,-111.111111111111,4,3,9,70,0,0
143397,-111.111111111111,4,2,2,5,0,0
143453,-90.9090909090908,4,1,2,70,0,0
143564,-90.9090909090908,4,2,2,5,0,0
143675,-90.9090909090908,4,1,2,70,0,0
143897,-111.111111111111,4,1,2,70,0,0
143953,-111.111111111111,4,2,2,5,0,0
144008,-111.111111111111,4,1,2,70,0,0
144064,-111.111111111111,4,2,2,5,0,0
144119,-200,4,1,2,70,0,0
144286,-111.111111111111,4,2,2,5,0,0
144342,-83.3333333333333,4,3,12,70,0,0
144564,-90.9090909090908,4,1,2,70,0,0
144731,-90.9090909090908,4,2,2,5,0,0
144786,-76.9230769230769,4,3,12,70,0,0
144842,-76.9230769230769,4,2,2,5,0,0
144897,-76.9230769230769,4,3,12,70,0,0
144953,-76.9230769230769,4,2,2,5,0,0
145008,-99.9999999999999,4,3,9,70,0,0
145119,-99.9999999999999,4,2,2,5,0,0
145231,-99.9999999999999,4,3,15,70,0,0
145342,-99.9999999999999,4,2,2,5,0,0
145453,-83.3333333333333,4,3,14,70,0,0
145619,-83.3333333333333,4,2,2,5,0,0
145675,-83.3333333333333,4,1,2,70,0,0
145842,-83.3333333333333,4,2,2,5,0,0
145897,-99.9999999999999,4,3,10,70,0,0
146231,-99.9999999999999,4,1,2,5,0,0
146342,-83.3333333333333,4,3,16,70,0,0
146564,-111.111111111111,4,1,2,70,0,0
146786,-111.111111111111,4,3,12,70,0,0
146953,-111.111111111111,4,2,2,5,0,0
147008,-58.8235294117647,4,3,9,70,0,0
147119,-58.8235294117647,4,2,2,5,0,0
147231,-83.3333333333333,4,1,2,70,0,0
147397,-83.3333333333333,4,2,2,5,0,0
147453,-66.6666666666666,4,3,17,70,0,0
147564,-66.6666666666667,4,2,2,5,0,0
147675,-83.3333333333333,4,3,3,70,0,0
147786,-83.3333333333333,4,2,2,5,0,0
147897,-83.3333333333333,4,3,1,70,0,0
147971,-83.3333333333333,4,3,0,70,0,0
148119,-83.3333333333333,4,3,22,70,0,0
148231,-83.3333333333333,4,2,2,5,0,0
148342,-83.3333333333333,4,3,4,70,0,0
148453,-83.3333333333333,4,2,2,5,0,0
148564,-52.6315789473684,4,3,5,70,0,0
148675,-52.6315789473684,4,2,2,5,0,0
148786,-52.6315789473684,4,3,4,70,0,0
148897,-111.111111111111,4,2,2,5,0,0
149008,-158.102766798419,4,3,6,70,0,0
149342,-158.102766798419,4,2,2,5,0,0
149453,-90.9090909090908,4,3,18,70,0,0
149675,-90.9090909090908,4,1,1,70,0,0
150175,-90.9090909090908,4,1,1,5,0,0
150231,-90.9090909090908,4,1,1,70,0,0
150286,-90.9090909090908,4,1,1,5,0,0
150342,-90.9090909090908,4,1,1,70,0,0
151008,-76.9230769230769,4,1,1,70,0,0
151231,-90.9090909090909,4,1,1,70,0,0
152786,-76.9230769230769,4,1,1,70,0,0
153008,-90.9090909090909,4,1,1,70,0,0
153342,-111.111111111111,4,1,1,70,0,0
153675,-90.9090909090908,4,1,1,70,0,0
153953,-111.111111111111,4,2,1,5,0,0
154008,-83.3333333333333,4,1,1,70,0,0
154342,-90.9090909090908,4,1,1,70,0,0
155508,-90.9090909090908,4,1,1,5,0,0
155564,-90.9090909090908,4,1,1,70,0,0
155619,-90.9090909090908,4,1,1,5,0,0
155675,-90.9090909090908,4,1,1,70,0,0
156564,-90.9090909090908,4,1,20,70,0,0
156675,-90.9090909090908,4,1,1,70,0,0
157286,-90.9090909090908,4,1,1,5,0,0
157342,-90.9090909090908,4,1,1,70,0,0
157397,-90.9090909090908,4,1,1,5,0,0
157453,-90.9090909090908,4,1,1,70,0,0
158119,-76.9230769230769,4,1,1,70,0,0
158342,-90.9090909090909,4,1,1,70,0,0
159897,-76.9230769230769,4,1,1,70,0,0
160119,-90.9090909090909,4,1,1,70,0,0
161286,-90.9090909090909,4,1,1,5,0,0
161342,-90.9090909090909,4,1,1,70,0,0
161397,-90.9090909090909,4,1,1,5,0,0
161453,-90.9090909090909,4,1,1,70,0,0
163231,-90.9090909090908,4,2,1,70,0,0
163286,-90.9090909090908,4,2,1,5,0,0
163342,-90.9090909090908,4,2,1,70,0,0
163397,-90.9090909090908,4,2,1,5,0,0
163453,-76.9230769230769,4,2,1,70,0,0
163508,-76.9230769230769,4,2,1,5,0,0
163564,-76.9230769230769,4,2,1,70,0,0
163619,-76.9230769230769,4,2,1,5,0,0
163675,-90.9090909090908,4,1,20,70,0,1
164119,-90.9090909090908,4,1,1,70,0,1
164675,-111.111111111111,4,2,1,70,0,1
165119,-83.3333333333333,4,2,1,70,0,1
165175,-83.3333333333333,4,2,1,5,0,1
165231,-83.3333333333333,4,2,1,70,0,1
165286,-83.3333333333333,4,2,1,5,0,1
165342,-83.3333333333333,4,2,1,70,0,1
165397,-83.3333333333333,4,2,1,5,0,1
165453,-90.9090909090908,4,1,1,70,0,1
165897,-90.9090909090908,4,1,1,70,0,1
166453,-90.9090909090908,4,2,1,70,0,1
167008,-76.9230769230769,4,2,1,70,0,1
167231,-99.9999999999999,4,1,1,70,0,1
168231,-99.9999999999999,4,2,1,60,0,1
169897,-99.9999999999999,4,2,1,70,0,1
170786,-90.9090909090908,4,1,1,70,0,1
171231,-90.9090909090908,4,1,1,70,0,1
171786,-111.111111111111,4,2,1,70,0,1
172231,-83.3333333333333,4,2,1,70,0,1
172286,-83.3333333333333,4,2,1,5,0,1
172342,-83.3333333333333,4,2,1,70,0,1
172397,-83.3333333333333,4,2,1,5,0,1
172453,-83.3333333333333,4,2,1,70,0,1
172508,-83.3333333333333,4,2,1,5,0,1
172564,-90.9090909090908,4,1,1,70,0,1
173008,-90.9090909090908,4,1,1,70,0,1
173564,-90.9090909090908,4,2,1,70,0,1
174119,-76.9230769230769,4,2,1,70,0,1
174342,-100,4,1,1,70,0,1
175342,-100,4,2,1,60,0,1
176119,-111.111111111111,4,2,1,60,0,1
177008,-99.9999999999999,4,2,1,60,0,1
177897,-185.185185185185,4,2,2,60,0,0
178008,-185.185185185185,4,2,1,5,0,0
180564,-185.185185185185,4,2,1,60,0,0
185897,-100,4,2,1,30,0,0
187453,-100,4,2,1,50,0,0
187675,-100,4,1,1,60,0,0
193008,-66.6666666666667,4,1,1,60,0,0
194786,-250,4,3,2,100,0,0
194897,-250,4,2,1,5,0,0
196119,-100,4,1,30,60,0,0
196231,-100,4,2,1,5,0,0
196564,-83.3333333333333,4,1,20,80,0,1
196675,-83.3333333333333,4,1,1,80,0,1
200342,-66.6666666666667,4,1,12,80,0,1
200397,-66.6666666666667,4,2,12,5,0,1
200453,-76.9230769230769,4,1,12,80,0,1
201231,-83.3333333333333,4,1,1,80,0,1
203230,-142.857142857143,4,1,30,80,0,1
203675,-83.3333333333333,4,1,20,80,0,1
203786,-83.3333333333333,4,1,1,80,0,1
204452,-83.3333333333333,4,1,1,80,0,1
205452,-83.3333333333333,4,1,1,80,0,1
206564,-76.9230769230769,4,1,1,80,0,1
206731,-76.9230769230769,4,1,1,5,0,1
206786,-76.9230769230769,4,1,1,80,0,1
206953,-76.9230769230769,4,1,1,5,0,1
207008,-76.9230769230769,4,1,1,80,0,1
207175,-76.9230769230769,4,1,1,5,0,1
207231,-76.9230769230769,4,1,1,80,0,1
207453,-111.111111111111,4,1,1,80,0,1
208119,-83.3333333333333,4,1,1,80,0,1
210341,-83.3333333333333,4,1,30,80,0,1
210563,-83.3333333333333,4,1,1,60,0,1
210786,-142.857142857143,4,1,20,60,0,0
211008,-142.857142857143,4,1,1,60,0,0
212563,-125,4,1,1,60,0,0
213008,-111.111111111111,4,1,1,60,0,0
214342,-142.857142857143,4,1,1,60,0,0
216119,-100,4,1,1,75,0,0
216453,-83.3333333333333,4,1,1,75,0,0
217452,-83.3333333333333,4,1,30,75,0,0
217619,-83.3333333333333,4,1,30,5,0,0
217675,-71.4285714285714,4,1,30,75,0,0
217786,-83.3333333333333,4,1,1,50,0,0
217842,-83.3333333333333,4,1,1,5,0,0
217897,-90.9090909090909,4,1,20,60,0,0
218008,-90.9090909090909,4,1,1,60,0,0
224564,-76.9230769230769,4,1,30,60,0,0
224675,-76.9230769230769,4,1,1,60,0,0
225008,-90.9090909090909,4,1,20,60,0,0
225119,-90.9090909090909,4,1,1,60,0,0
228564,-83.3333333333333,4,1,1,60,0,0
232119,-200,4,3,2,90,0,0
232230,-200,4,2,1,50,0,0
232563,-200,4,2,1,40,0,0
233008,-200,4,2,1,30,0,0
233452,-200,4,2,1,20,0,0
233897,-200,4,2,1,5,0,0

[Colours]
Combo1 : 128,128,255
Combo2 : 255,0,0
Combo3 : 255,128,255

[HitObjects]
392,192,120,6,0,B|428:176|436:112|400:88|400:88|379:118,1,150,4|6,0:1|0:0,0:0:0:0:
316,228,453,1,6,0:0:0:0:
394,203,564,6,0,L|468:196,1,75,6|0,0:0|0:0,0:0:0:0:
471,277,786,2,0,B|438:292|438:292|401:284,1,75,6|6,0:0|0:0,0:0:0:0:
238,194,1008,6,0,B|230:264|230:264|237:274|237:274|228:340,1,150,6|4,0:0|0:0,0:0:0:0:
227,352,1286,1,0,0:0:0:0:
238,337,1342,1,4,0:0:0:0:
255,330,1397,1,0,0:0:0:0:
273,335,1453,2,0,B|306:319|306:319|343:327,1,75,2|4,0:0|0:0,0:0:0:0:
316,162,1675,5,4,0:0:0:0:
238,194,1786,1,0,0:0:0:0:
316,228,1897,6,0,P|344:161|304:101,1,150,6|4,0:0|0:0,0:0:0:0:
322,23,2231,1,4,0:0:0:0:
249,56,2342,6,0,P|270:86|304:101,1,75,4|4,0:0|0:0,0:0:0:0:
428,145,2564,1,6,0:0:0:0:
491,24,2675,1,6,0:0:0:0:
436,157,2786,6,0,L|362:161,1,75,6|0,0:0|0:0,0:0:0:0:
234,166,3008,2,0,L|159:169,1,75,6|0,0:0|0:0,0:0:0:0:
22,96,3231,5,6,0:0:0:0:
31,67,3305,1,0,0:0:0:0:
54,48,3379,1,0,0:0:0:0:
82,39,3453,1,0,0:0:0:0:
111,39,3527,2,0,P|134:45|153:61,1,50,0|0,0:0|0:0,0:0:0:0:
261,99,3675,6,0,P|240:129|234:166,1,75,6|0,0:0|0:0,0:0:0:0:
256,284,3897,5,6,0:0:0:0:
259,306,4008,1,6,0:0:0:0:
276,330,4119,1,6,0:0:0:0:
309,347,4231,1,4,0:0:0:0:
353,347,4342,1,6,0:0:0:0:
391,311,4453,1,4,0:0:0:0:
401,230,4564,5,6,0:0:0:0:
418,236,4619,1,2,0:0:0:0:
435,243,4675,2,0,L|509:233,1,75,2|0,0:0|0:0,0:0:0:0:
504,158,4860,5,0,0:0:0:0:
489,126,4934,1,0,0:0:0:0:
454,120,5008,2,0,L|354:133,1,100,2|0,0:0|0:0,0:0:0:0:
256,88,5231,1,4,0:0:0:0:
259,68,5305,1,4,0:0:0:0:
262,48,5379,1,4,0:0:0:0:
266,28,5453,6,0,P|303:28|334:48,1,75,6|0,0:0|0:0,0:0:0:0:
360,127,5675,2,0,P|359:164|340:195,1,75,6|0,0:0|0:0,0:0:0:0:
256,284,5897,5,6,0:0:0:0:
206,266,6008,1,6,0:0:0:0:
163,296,6119,1,6,0:0:0:0:
113,278,6230,1,6,0:0:0:0:
39,310,6342,5,6,0:0:0:0:
41,328,6397,1,0,0:0:0:0:
43,346,6453,2,0,P|60:312|52:276,1,75,0|6,0:0|0:0,0:0:0:0:
87,111,6675,5,0,0:0:0:0:
8,96,6786,2,0,P|26:166|94:193,1,150,12|0,0:0|0:0,0:0:0:0:
204,192,7119,6,0,L|240:184,1,37.5,0|0,0:0|0:0,0:0:0:0:
288,119,7231,6,0,B|339:129|339:129|357:166|357:166|412:177,1,150,4|0,0:0|0:0,0:0:0:0:
358,0,7564,1,2,0:0:0:0:
290,42,7675,6,0,L|278:116,1,75,10|0,0:0|0:0,0:0:0:0:
424,182,7897,2,0,L|435:107,1,75,2|2,0:0|0:0,0:0:0:0:
240,183,8119,6,0,B|189:193|189:193|171:230|171:230|116:241,1,150,6|0,0:0|0:0,0:0:0:0:
98,231,8397,1,0,0:0:0:0:
87,215,8453,1,0,0:0:0:0:
84,196,8508,1,0,0:0:0:0:
87,176,8564,2,0,B|103:143|103:143|139:135,1,75,10|0,0:0|0:0,0:0:0:0:
319,213,8786,5,0,0:0:0:0:
240,183,8897,1,0,0:0:0:0:
315,150,9008,6,0,P|347:213|306:272,1,150,6|0,0:0|0:0,0:0:0:0:
233,302,9342,1,0,0:0:0:0:
358,321,9453,6,0,P|339:290|306:272,1,75,8|0,0:0|0:0,0:0:0:0:
175,357,9675,2,0,L|100:363,1,75,2|2,0:0|0:0,0:0:0:0:
120,198,9897,6,0,B|139:230|139:230|172:248,1,75,6|0,0:0|0:0,0:0:0:0:
316,184,10119,2,0,L|309:109,1,75,2|0,0:0|0:0,0:0:0:0:
184,64,10342,5,8,0:0:0:0:
175,35,10416,1,0,0:0:0:0:
152,16,10490,1,0,0:0:0:0:
124,7,10564,1,0,0:0:0:0:
95,7,10638,2,0,P|72:13|53:29,1,50,0|0,0:0|0:0,0:0:0:0:
14,126,10786,6,0,P|17:163|40:192,1,75,6|0,0:0|0:0,0:0:0:0:
170,205,11008,5,2,0:0:0:0:
192,208,11119,1,2,0:0:0:0:
216,225,11230,1,10,0:0:0:0:
233,258,11342,1,2,0:0:0:0:
233,302,11453,1,2,0:0:0:0:
197,340,11564,1,2,0:0:0:0:
120,360,11675,5,6,0:0:0:0:
101,354,11731,1,2,0:0:0:0:
86,342,11786,2,0,L|75:267,1,75,2|2,0:0|0:0,0:0:0:0:
170,205,12008,5,2,0:0:0:0:
233,258,12119,5,10,0:0:0:0:
200,129,12231,1,2,0:0:0:0:
261,182,12342,5,2,0:0:0:0:
280,185,12416,1,0,0:0:0:0:
299,188,12490,1,0,0:0:0:0:
318,191,12564,6,0,L|328:116,1,75,6|2,0:0|0:0,0:0:0:0:
464,192,12786,2,0,L|453:266,1,75,2|2,0:0|0:0,0:0:0:0:
332,104,13008,5,10,0:0:0:0:
322,59,13119,1,2,0:0:0:0:
283,34,13231,1,2,0:0:0:0:
238,34,13342,1,2,0:0:0:0:
200,129,13453,6,0,P|181:132|163:127,1,37.5,6|0,0:0|0:0,0:0:0:0:
146,119,13564,1,0,0:0:0:0:
123,89,13675,1,0,0:0:0:0:
119,51,13786,1,0,0:0:0:0:
238,34,13897,6,0,P|248:70|238:106,1,75,10|0,0:0|0:0,0:0:0:0:
141,199,14119,2,0,P|107:215|70:212,1,75,6|6,0:0|0:0,0:0:0:0:
97,11,14342,6,0,B|129:17|129:17|146:119,1,134.999995880127,4|2,0:0|0:0,0:0:0:0:
22,277,14675,1,0,0:0:0:0:
99,291,14786,2,0,P|168:272|216:223,1,134.999995880127,10|2,0:0|0:0,0:0:0:0:
114,185,15119,1,0,0:0:0:0:
180,301,15231,6,0,L|312:325,1,134.999995880127,6|2,0:0|0:0,0:0:0:0:
369,384,15564,2,0,P|346:359|314:350,1,67.4999979400635,2|8,0:0|0:0,0:0:0:0:
295,245,15786,2,0,L|361:256,1,67.4999979400635,2|0,0:0|0:0,0:0:0:0:
440,99,16008,5,2,0:0:0:0:
477,170,16119,2,0,P|455:195|423:204,1,67.4999979400635,4|0,0:0|0:0,0:0:0:0:
312,125,16342,6,0,L|264:117,1,48.7499977684022,2|0,0:3|0:0,0:0:0:0:
233,108,16453,6,0,B|217:63|217:63|243:22,1,97.4999955368044,2|8,0:3|0:0,0:0:0:0:
343,131,16675,2,0,B|359:176|359:176|333:217,1,97.4999955368044,2|0,0:3|0:0,0:0:0:0:
279,279,16897,6,0,L|144:291,1,134.999995880127,2|0,0:3|0:0,0:0:0:0:
65,271,17231,2,0,P|97:267|120:243,1,67.4999979400635,2|0,0:0|0:0,0:0:0:0:
159,114,17453,5,10,0:0:0:0:
109,51,17564,1,0,0:0:0:0:
30,68,17675,2,0,L|21:134,1,67.4999979400635,2|0,0:0|0:0,0:0:0:0:
65,271,17897,5,6,0:0:0:0:
71,292,18008,1,0,0:0:0:0:
95,370,18119,5,0,0:0:0:0:
133,345,18230,1,2,0:0:0:0:
151,305,18341,1,8,0:0:0:0:
146,261,18452,1,0,0:0:0:0:
191,327,18564,2,0,L|257:317,1,67.4999979400635,2|0,0:0|0:0,0:0:0:0:
468,252,18786,6,0,L|402:262,1,67.4999979400635,6|0,0:0|0:0,0:0:0:0:
384,264,19008,1,0,0:0:0:0:
304,249,19119,5,2,0:0:0:0:
294,205,19230,1,8,0:0:0:0:
311,164,19341,1,0,0:0:0:0:
348,140,19453,2,0,P|357:108|345:77,1,67.4999979400635,2|0,0:0|0:0,0:0:0:0:
275,0,19675,5,6,0:0:0:0:
345,77,19786,5,0,0:0:0:0:
420,105,19897,1,0,0:0:0:0:
481,53,20008,1,2,0:0:0:0:
405,25,20119,2,0,P|399:57|409:90,1,67.4999979400635,8|0,0:0|0:0,0:0:0:0:
424,221,20342,5,6,0:0:0:0:
427,207,20416,1,4,0:0:0:0:
430,193,20490,1,4,0:0:0:0:
511,226,20564,6,0,B|444:238|444:238|424:282|424:282|361:296,1,179.999994506836,6|0,0:0|0:0,0:0:0:0:
345,300,20897,1,2,0:0:0:0:
200,265,21008,6,0,B|235:226|291:239|291:239|276:207,1,134.999995880127,14|0,0:0|0:0,0:0:0:0:
127,232,21342,6,0,P|119:251|120:271,1,41.2500012588501,0|0,0:0|0:0,0:0:0:0:
263,318,21453,6,0,L|252:183,1,134.999995880127,4|2,0:0|0:0,0:0:0:0:
278,42,21786,1,0,0:0:0:0:
302,119,21897,2,0,B|401:132|401:132|429:111,1,134.999995880127,10|2,0:0|0:0,0:0:0:0:
501,41,22231,1,0,0:0:0:0:
451,190,22342,6,0,B|420:209|420:209|350:201|350:201|325:217,1,134.999995880127,6|2,0:0|0:0,0:0:0:0:
416,290,22675,2,0,L|482:298,1,67.4999979400635,2|8,0:0|0:0,0:0:0:0:
320,223,22897,2,0,L|253:214,1,67.4999979400635,2|0,0:0|0:0,0:0:0:0:
182,325,23119,5,2,0:0:0:0:
255,360,23231,2,0,P|264:328|257:296,1,67.4999979400635,4|0,0:0|0:0,0:0:0:0:
177,187,23453,6,0,L|128:180,1,48.7499977684022,2|0,0:0|0:0,0:0:0:0:
97,195,23564,6,0,P|95:146|87:98,1,97.4999955368044,2|8,0:0|0:0,0:0:0:0:
244,34,23786,2,0,P|235:82|235:131,1,97.4999955368044,2|0,0:0|0:0,0:0:0:0:
256,272,24008,6,0,B|352:256|304:312|416:292,1,150,2|0,0:0|0:0,0:0:0:0:
489,335,24342,2,0,P|501:300|490:264,1,75,2|0,0:0|0:0,0:0:0:0:
462,132,24564,5,10,0:0:0:0:
383,117,24675,1,0,0:0:0:0:
329,177,24786,2,0,P|317:212|328:248,1,75,2|0,0:0|0:0,0:0:0:0:
284,348,25008,5,6,0:0:0:0:
358,374,25119,5,0,0:0:0:0:
374,348,25231,1,0,0:0:0:0:
369,318,25342,1,2,0:0:0:0:
237,282,25453,5,8,0:0:0:0:
159,306,25564,5,0,0:0:0:0:
141,264,25675,1,2,0:0:0:0:
161,224,25786,1,0,0:0:0:0:
268,177,25897,5,6,0:0:0:0:
342,210,26008,5,0,0:0:0:0:
364,162,26119,1,0,0:0:0:0:
338,116,26231,1,2,0:0:0:0:
208,24,26342,5,8,0:0:0:0:
128,17,26453,1,0,0:0:0:0:
48,8,26564,2,0,B|35:42|35:42|55:74,1,75,2|0,0:0|0:0,0:0:0:0:
148,192,26786,6,0,B|184:248|144:320|80:324|80:324|60:310,1,202.499993820191,6|2,0:0|0:0,0:0:0:0:
48,300,27231,6,0,B|4:272|4:272|35:348,1,134.999995880127,8|6,0:0|0:0,0:0:0:0:
112,344,27527,5,4,0:0:0:0:
130,324,27601,1,4,0:0:0:0:
156,318,27675,1,6,0:0:0:0:
227,356,27786,6,0,L|236:289,1,67.4999979400635,0|0,0:0|0:0,0:0:0:0:
283,200,28008,5,0,0:0:0:0:
270,125,28119,2,0,L|280:192,1,67.4999979400635,8|0,0:0|0:0,0:0:0:0:
468,320,28342,5,6,0:0:0:0:
380,338,28453,1,6,0:0:0:0:
314,274,28564,6,0,P|320:228|370:195,1,104.999996795654,4|2,0:0|0:0,0:0:0:0:
431,143,29008,2,0,B|493:152|493:152|464:120,1,104.999996795654,10|0,0:0|0:0,0:0:0:0:
367,202,29453,2,0,L|261:187,1,104.999996795654,6|0,0:0|0:0,0:0:0:0:
185,200,29786,1,2,0:0:0:0:
170,206,29897,2,0,B|108:197|108:197|136:228,1,104.999996795654,8|0,0:0|0:0,0:0:0:0:
74,342,30342,6,0,B|68:273|68:273|31:231|31:231|24:154,1,202.499993820191,6|0,0:0|0:0,0:0:0:0:
95,62,30786,2,0,L|108:197,1,134.999995880127,8|2,0:0|0:0,0:0:0:0:
79,351,31231,6,0,P|101:305|148:286,1,104.999996795654,6|0,0:0|0:0,0:0:0:0:
213,238,31564,2,0,P|263:245|296:285,1,104.999996795654,2|0,0:0|0:0,0:0:0:0:
360,192,31897,5,2,0:0:0:0:
352,184,31971,1,2,0:0:0:0:
344,176,32045,1,2,0:0:0:0:
336,168,32119,6,0,L|322:63,1,104.999996795654,4|2,0:0|0:0,0:0:0:0:
502,145,32564,2,0,P|463:112|413:117,1,104.999996795654,10|0,0:0|0:0,0:0:0:0:
352,184,32897,1,2,0:0:0:0:
346,198,33008,2,0,L|359:302,1,104.999996795654,4|0,0:0|0:0,0:0:0:0:
288,340,33342,1,0,0:0:0:0:
278,328,33453,2,0,P|239:361|188:356,1,104.999996795654,10|2,0:0|0:0,0:0:0:0:
109,251,33897,5,6,0:0:0:0:
58,314,34119,2,0,L|51:366,2,52.4999983978272,2|0|10,0:0|0:0|0:0,0:0:0:0:
115,198,34564,2,0,L|109:251,1,52.4999983978272,0|0,0:0|0:0,0:0:0:0:
165,134,34786,5,6,0:0:0:0:
168,108,34897,1,2,0:0:0:0:
172,82,35008,1,2,0:0:0:0:
109,251,35231,5,10,0:0:0:0:
112,224,35342,1,2,0:0:0:0:
115,198,35453,2,0,L|62:192,1,52.4999983978272,6|4,0:0|0:0,0:0:0:0:
70,41,35675,6,0,P|113:81|172:82,1,120,4|2,0:0|0:0,0:0:0:0:
232,4,36008,1,2,0:0:0:0:
256,16,36119,2,0,L|246:135,1,120,10|0,0:0|0:0,0:0:0:0:
252,264,36564,6,0,P|294:223|353:223,1,120,6|0,0:0|0:0,0:0:0:0:
420,268,36897,1,2,0:0:0:0:
428,280,37008,6,0,P|472:253|432:220,1,120,8|2,0:0|0:0,0:0:0:0:
325,300,37342,1,2,0:0:0:0:
252,264,37453,6,0,P|294:223|353:223,1,120,6|0,0:0|0:0,0:0:0:0:
353,223,37786,1,2,0:0:0:0:
398,336,37897,2,0,P|355:376|296:376,1,120,8|2,0:0|0:0,0:0:0:0:
226,340,38231,1,2,0:0:0:0:
252,264,38342,6,0,P|224:253|207:229,1,60,6|0,0:0|0:0,0:0:0:0:
101,313,38564,2,0,P|128:323|146:348,1,60,2|0,0:0|0:0,0:0:0:0:
260,204,38786,6,0,L|252:264,1,60,10|0,0:0|0:0,0:0:0:0:
92,372,39008,2,0,L|101:313,1,60,2|2,0:0|0:0,0:0:0:0:
20,204,39231,6,0,L|140:192,1,120,6|0,0:0|0:0,0:0:0:0:
195,134,39564,1,2,0:0:0:0:
203,118,39675,2,0,P|211:61|170:20,1,120,8|0,0:0|0:0,0:0:0:0:
139,192,40008,1,2,0:0:0:0:
195,134,40119,6,0,L|315:122,1,120,6|0,0:0|0:0,0:0:0:0:
359,189,40453,2,0,P|318:230|326:287,1,120,2|0,0:0|0:0,0:0:0:0:
378,348,40786,2,0,P|408:357|444:348,1,60,2|0,0:0|0:0,0:0:0:0:
481,221,41008,6,0,B|465:198|465:198|359:189,1,134.999995880127,6|0,0:0|0:0,0:0:0:0:
288,223,41342,1,2,0:0:0:0:
346,171,41453,2,0,B|327:83|327:83|366:105,1,134.999995880127,8|2,0:0|0:0,0:0:0:0:
288,223,41786,1,2,0:0:0:0:
251,296,41897,6,0,B|235:319|235:319|128:328,1,134.999995880127,6|2,0:0|0:0,0:0:0:0:
79,245,42231,1,0,0:0:0:0:
65,370,42342,2,0,P|110:322|96:258,1,134.999995880127,10|0,0:0|0:0,0:0:0:0:
233,325,42786,6,0,B|316:336|316:336|303:318,1,104.999996795654,6|0,0:0|2:0,0:0:0:0:
288,223,43119,6,0,B|332:219|332:219|356:232|356:232|404:228,1,120,6|0,0:0|2:0,0:0:0:0:
475,151,43453,6,0,B|506:124|507:72|461:50|461:50|453:60,1,134.999995880127,6|0,0:0|2:0,0:0:0:0:
404,228,43786,6,0,B|383:257|383:301|433:322|433:322|447:300|440:289,1,150,6|0,0:0|2:0,0:0:0:0:
487,172,44119,6,0,B|432:163|432:163|392:190|392:190|331:180,1,165.000005035401,10|10,0:0|0:0,0:0:0:0:
25,284,44675,5,2,0:0:0:0:
106,287,44787,1,2,0:0:0:0:
118,278,44898,1,2,0:0:0:0:
163,210,45009,5,2,0:0:0:0:
118,278,45119,1,2,0:0:0:0:
120,292,45230,1,2,0:0:0:0:
157,364,45341,5,2,0:0:0:0:
120,292,45453,1,2,0:0:0:0:
106,287,45563,1,2,0:0:0:0:
25,284,45675,5,2,0:0:0:0:
163,210,45786,5,2,0:0:0:0:
236,348,45897,5,14,2:1:0:0:
247,327,45971,1,2,2:0:0:0:
267,314,46045,1,2,2:0:0:0:
289,306,46119,1,2,2:0:0:0:
313,306,46194,1,2,2:0:0:0:
335,312,46268,1,2,2:0:0:0:
387,366,46342,6,0,B|480:343|480:343|493:306,1,134.999995880127,6|0,0:0|2:0,0:0:0:0:
495,298,46564,1,2,0:0:0:0:
493,196,46675,6,0,P|457:221|413:223,1,89.9999972534181,2|8,0:0|0:0,0:0:0:0:
336,195,46897,2,0,P|296:174|274:135,1,89.9999972534181,2|0,0:0|0:0,0:0:0:0:
304,56,47119,5,2,0:0:0:0:
136,94,47231,2,0,B|244:109|192:43|303:55,1,179.999994506836,0|2,0:0|0:0,0:0:0:0:
351,118,47527,5,0,0:0:0:0:
374,91,47601,1,0,0:0:0:0:
398,64,47675,2,0,B|424:101|424:101|408:143,1,89.9999972534181,10|0,0:0|0:0,0:0:0:0:
146,173,47897,2,0,B|120:136|120:136|136:94,1,89.9999972534181,2|2,0:0|0:0,0:0:0:0:
391,239,48119,6,0,L|257:224,1,134.999995880127,6|0,0:0|2:0,0:0:0:0:
257,224,48342,1,2,0:0:0:0:
190,366,48453,2,0,P|211:327|204:284,1,89.9999972534181,2|8,0:0|0:0,0:0:0:0:
139,177,48675,2,0,L|49:166,1,89.9999972534181,2|0,0:0|0:0,0:0:0:0:
12,239,48897,6,0,P|25:302|83:332,1,134.999995880127,2|0,0:0|2:0,0:0:0:0:
96,330,49119,1,2,0:0:0:0:
204,284,49231,2,0,L|212:195,1,89.9999972534181,2|0,0:0|0:0,0:0:0:0:
168,20,49453,5,10,0:0:0:0:
17,82,49564,1,0,0:0:0:0:
57,158,49675,2,0,P|95:181|139:177,1,89.9999972534181,2|2,0:0|0:0,0:0:0:0:
168,20,49897,2,0,P|130:-3|86:1,1,89.9999972534181,6|0,0:0|0:0,0:0:0:0:
212,193,50119,6,0,P|232:176|259:180,1,56.2500021457673,2|0,0:3|0:0,0:0:0:0:
325,226,50231,6,0,B|321:266|321:266|325:278|325:278|319:322,1,97.4999955368044,2|8,0:3|0:0,0:0:0:0:
464,148,50453,2,0,B|469:103|469:103|465:91|465:91|469:51,1,97.4999955368044,2|0,0:3|0:0,0:0:0:0:
317,234,50675,5,2,0:3:0:0:
480,376,50786,2,0,P|412:310|319:322,1,194.999991073609,0|2,0:0|0:0,0:0:0:0:
228,360,51082,5,0,0:0:0:0:
205,335,51157,1,0,0:0:0:0:
182,310,51231,2,0,B|144:341|144:341|97:332,1,97.4999955368044,8|0,0:0|0:0,0:0:0:0:
4,230,51453,1,2,0:0:0:0:
84,138,51564,1,2,0:0:0:0:
123,254,51675,6,0,B|110:198|110:198|118:180|118:180|105:112,1,146.249993305207,6|0,0:0|2:0,0:0:0:0:
103,98,51897,1,2,0:0:0:0:
196,219,52008,2,0,P|203:266|182:310,1,97.4999955368044,2|8,0:0|0:0,0:0:0:0:
123,254,52231,5,2,0:0:0:0:
255,275,52342,1,0,0:0:0:0:
207,138,52453,2,0,L|217:40,1,97.4999955368044,0|4,0:0|0:0,0:0:0:0:
248,356,52675,5,0,0:0:0:0:
271,195,52786,1,2,0:0:0:0:
260,361,52897,1,2,0:0:0:0:
283,200,53008,6,0,B|346:189|346:189|379:233|436:218,1,157.499995193482,14|0,0:0|0:0,0:0:0:0:
456,26,53453,6,0,B|425:37|425:37|408:137,1,134.999995880127,6|0,0:0|2:0,0:0:0:0:
408,137,53675,1,2,0:0:0:0:
490,274,53786,6,0,P|468:235|428:219,1,89.9999972534181,2|8,0:0|0:0,0:0:0:0:
344,206,54008,2,0,P|299:208|267:238,1,89.9999972534181,2|0,0:0|0:0,0:0:0:0:
209,383,54231,5,2,0:0:0:0:
265,273,54342,2,0,B|203:279|203:279|174:320|174:320|107:328,1,179.999994506836,0|2,0:0|0:0,0:0:0:0:
64,262,54638,5,0,0:0:0:0:
41,281,54712,1,0,0:0:0:0:
18,301,54786,2,0,L|11:211,1,89.9999972534181,10|0,0:0|0:0,0:0:0:0:
215,293,55008,2,0,L|209:383,1,89.9999972534181,2|2,0:0|0:0,0:0:0:0:
256,172,55231,6,0,B|340:156|308:204|400:184,1,134.999995880127,6|0,0:0|2:0,0:0:0:0:
400,180,55453,1,2,0:0:0:0:
240,90,55564,2,0,P|233:134|248:176,1,89.9999972534181,2|8,0:0|0:0,0:0:0:0:
469,137,55786,2,0,P|434:108|390:100,1,89.9999972534181,2|0,0:0|0:0,0:0:0:0:
248,176,56008,5,2,0:0:0:0:
315,311,56119,2,0,P|356:295|385:261,1,89.9999972534181,0|0,0:0|0:0,0:0:0:0:
469,137,56342,6,0,P|442:72|391:101,1,146.249993305207,2|0,0:0|0:0,0:0:0:0:
315,311,56564,2,0,P|384:320|385:261,1,146.249993305207,10|0,0:0|0:0,0:0:0:0:
240,90,56786,2,0,P|197:145|247:175,1,146.249993305207,2|0,0:0|0:0,0:0:0:0:
339,178,57008,5,6,0:0:0:0:
240,90,57231,5,2,0:0:0:0:
274,17,57342,1,2,0:0:0:0:
231,95,57453,2,0,L|130:103,1,101.249996910095,8|0,0:0|0:0,0:0:0:0:
114,104,57675,2,0,P|100:73|107:41,1,67.4999979400635,2|0,0:0|0:0,0:0:0:0:
31,227,57897,6,0,B|145:206|87:273|201:252,1,179.999994506836,6|2,0:0|0:0,0:0:0:0:
256,193,58231,1,0,0:0:0:0:
452,213,58342,2,0,P|403:141|317:141,1,179.999994506836,10|6,0:0|0:0,0:0:0:0:
256,193,58638,5,4,0:0:0:0:
274,216,58712,1,4,0:0:0:0:
291,239,58786,2,0,P|296:283|273:320,1,89.9999972534181,6|0,0:0|0:0,0:0:0:0:
117,240,59008,2,0,P|112:196|134:158,1,89.9999972534181,2|2,0:0|0:0,0:0:0:0:
256,40,59231,5,10,0:0:0:0:
282,116,59342,1,0,0:0:0:0:
351,156,59453,1,2,0:0:0:0:
430,142,59564,1,2,0:0:0:0:
485,83,59675,5,6,0:0:0:0:
481,65,59786,1,0,0:0:0:0:
477,47,59897,1,0,0:0:0:0:
473,29,60008,1,2,0:0:0:0:
379,8,60119,5,14,0:0:0:0:
351,156,60231,1,0,0:0:0:0:
368,15,60342,1,4,0:0:0:0:
340,168,60454,1,4,0:0:0:0:
256,40,60564,6,0,L|151:33,1,104.999996795654,4|0,0:0|0:0,0:0:0:0:
83,97,61008,2,0,P|103:144|84:192,1,104.999996795654,8|0,0:0|0:0,0:0:0:0:
172,264,61453,5,4,0:0:0:0:
16,244,61675,1,0,0:0:0:0:
172,276,61897,1,8,0:0:0:0:
16,256,62119,1,0,0:0:0:0:
91,382,62342,6,0,P|72:335|92:288,2,104.999996795654,4|0|8,0:0|0:0|0:0,0:0:0:0:
166,264,63008,5,0,0:0:0:0:
166,264,63119,1,0,0:0:0:0:
154,159,63231,2,0,L|166:264,1,104.999996795654,4|0,0:0|0:0,0:0:0:0:
197,342,63675,6,0,P|220:329|235:308,1,52.4999983978272,8|0,0:0|0:0,0:0:0:0:
252,212,63897,2,0,P|250:185|238:163,1,52.4999983978272,0|0,0:0|0:0,0:0:0:0:
261,13,64119,6,0,P|217:35|230:82,1,104.999996795654,4|0,0:0|0:0,0:0:0:0:
303,116,64453,1,0,0:0:0:0:
333,93,64564,2,0,L|229:81,1,104.999996795654,8|0,0:0|0:0,0:0:0:0:
422,184,65008,2,0,B|408:119|408:119|439:140,2,104.999996795654,4|0|8,0:0|0:0|0:0,0:0:0:0:
392,351,65675,5,4,0:0:0:0:
405,347,65749,1,4,0:0:0:0:
418,343,65823,1,4,0:0:0:0:
492,352,65897,6,0,P|466:284|395:270,1,150,14|0,0:0|0:0,0:0:0:0:
303,116,66231,6,0,P|279:199|198:229,1,179.999994506836,14|0,0:0|0:0,0:0:0:0:
40,192,66564,6,0,B|28:128|28:128|45:145,1,89.9999972534181,14|0,0:0|0:0,0:0:0:0:
198,229,66786,5,4,0:0:0:0:
164,308,66897,1,4,0:0:0:0:
114,238,67008,5,4,0:0:0:0:
248,298,67119,1,4,0:0:0:0:
339,183,67231,2,0,P|336:118|389:80,1,134.999995880127,14|0,0:0|0:0,0:0:0:0:
384,76,67453,6,0,P|458:90|487:160,1,157.499995193482,0|0,0:0|0:0,0:0:0:0:
476,259,67675,6,0,B|423:248|423:248|382:274|382:274|321:262,1,165.000005035401,6|2,0:0|0:0,0:0:0:0:
248,298,68008,1,2,0:0:0:0:
390,356,68119,6,0,L|382:274,1,82.5000025177003,10|0,0:0|0:0,0:0:0:0:
248,219,68342,2,0,B|236:258|236:258|248:298,1,82.5000025177003,2|2,0:0|0:0,0:0:0:0:
366,194,68564,6,0,B|392:175|392:175|410:43,1,165.000005035401,6|2,0:0|0:0,0:0:0:0:
328,36,68897,2,0,P|334:76|362:107,1,82.5000025177003,2|8,0:0|0:0,0:0:0:0:
382,274,69119,5,0,0:0:0:0:
477,278,69231,2,0,L|395:270,1,82.5000025177003,0|0,0:0|0:0,0:0:0:0:
241,322,69453,6,0,P|213:247|136:230,1,165.000005035401,6|0,0:0|0:0,0:0:0:0:
2,257,69786,1,0,0:0:0:0:
113,304,69897,2,0,P|136:270|135:229,1,82.5000025177003,10|0,0:0|0:0,0:0:0:0:
117,61,70119,1,2,0:0:0:0:
65,187,70231,1,2,0:0:0:0:
115,79,70342,6,0,L|197:70,1,82.5000025177003,6|0,0:0|0:0,0:0:0:0:
312,60,70564,2,0,L|394:51,1,82.5000025177003,2|0,0:0|0:0,0:0:0:0:
488,216,70786,5,10,0:0:0:0:
487,182,70860,1,0,0:0:0:0:
467,154,70934,1,0,0:0:0:0:
439,137,71008,1,0,0:0:0:0:
406,134,71082,1,0,0:0:0:0:
375,149,71157,1,0,0:0:0:0:
347,225,71231,6,0,P|363:261|399:281,1,82.5000025177003,6|0,0:0|0:0,0:0:0:0:
256,352,71453,5,2,0:0:0:0:
261,330,71564,1,2,0:0:0:0:
255,301,71675,1,10,0:0:0:0:
231,273,71787,1,2,0:0:0:0:
191,256,71898,1,2,0:0:0:0:
142,274,72009,1,2,0:0:0:0:
112,348,72119,5,6,0:0:0:0:
98,338,72175,1,2,0:0:0:0:
83,329,72231,2,0,L|1:317,1,82.5000025177003,2|0,0:0|0:0,0:0:0:0:
16,243,72416,5,0,0:0:0:0:
5,206,72490,1,0,0:0:0:0:
28,175,72564,2,0,L|135:195,1,110.000003356934,10|0,0:0|0:0,0:0:0:0:
198,136,72786,5,6,0:0:0:0:
193,108,72860,1,4,0:0:0:0:
188,80,72934,1,4,0:0:0:0:
225,9,73008,6,0,L|211:90,1,82.5000025177003,6|2,0:0|0:0,0:0:0:0:
28,175,73231,2,0,L|14:93,1,82.5000025177003,2|2,0:0|0:0,0:0:0:0:
211,90,73453,5,10,0:0:0:0:
267,79,73564,1,2,0:0:0:0:
317,107,73675,1,2,0:0:0:0:
373,96,73786,1,2,0:0:0:0:
436,45,73897,5,6,0:0:0:0:
450,65,73953,1,0,0:0:0:0:
463,85,74008,2,0,L|449:167,1,82.5000025177003,0|2,0:0|0:0,0:0:0:0:
343,271,74231,5,0,0:0:0:0:
414,381,74342,2,0,B|442:376|442:376|482:344|473:257|416:239,1,194.999991073609,14|0,0:0|0:0,0:0:0:0:
343,271,74675,5,0,0:0:0:0:
313,285,74731,1,0,0:0:0:0:
283,299,74786,2,0,B|253:187|253:187|298:205,1,165.000005035401,6|2,0:0|0:0,0:0:0:0:
373,96,75119,1,2,0:0:0:0:
343,271,75231,6,0,P|369:241|375:200,1,82.5000025177003,10|0,0:0|0:0,0:0:0:0:
306,50,75453,2,0,L|224:40,1,82.5000025177003,2|2,0:0|0:0,0:0:0:0:
57,193,75675,6,0,B|71:137|71:137|102:120|102:120|118:49,1,165.000005035401,6|2,0:0|0:0,0:0:0:0:
4,0,76008,2,0,B|4:41|4:41|34:69,1,82.5000025177003,2|8,0:0|0:0,0:0:0:0:
156,176,76231,5,0,0:0:0:0:
57,193,76342,2,0,L|138:183,1,82.5000025177003,0|0,0:0|0:0,0:0:0:0:
256,88,76564,6,0,B|356:72|312:136|428:112,1,165.000005035401,6|0,0:0|0:0,0:0:0:0:
472,24,76897,1,0,0:0:0:0:
413,114,77008,6,0,P|396:151|410:189,1,82.5000025177003,10|0,0:0|0:0,0:0:0:0:
493,292,77231,1,2,0:0:0:0:
410,189,77342,1,2,0:0:0:0:
478,314,77453,6,0,L|396:303,1,82.5000025177003,6|0,0:0|0:0,0:0:0:0:
288,241,77675,2,0,P|274:202|286:163,1,82.5000025177003,2|0,0:0|0:0,0:0:0:0:
472,24,77897,5,10,0:0:0:0:
468,51,77971,1,0,0:0:0:0:
453,74,78045,1,0,0:0:0:0:
432,91,78119,1,0,0:0:0:0:
404,96,78194,1,0,0:0:0:0:
377,90,78268,1,0,0:0:0:0:
319,33,78342,6,0,L|237:45,1,82.5000025177003,6|0,0:0|0:0,0:0:0:0:
40,72,78564,5,2,0:0:0:0:
35,94,78675,1,2,0:0:0:0:
41,123,78786,1,10,0:0:0:0:
65,151,78898,1,2,0:0:0:0:
105,168,79009,1,2,0:0:0:0:
154,150,79120,1,2,0:0:0:0:
232,128,79231,5,6,0:0:0:0:
240,146,79286,1,2,0:0:0:0:
246,165,79342,2,0,L|233:246,1,82.5000025177003,2|2,0:0|0:0,0:0:0:0:
387,297,79564,5,2,0:0:0:0:
335,361,79675,5,10,0:0:0:0:
362,219,79786,1,0,0:0:0:0:
312,283,79897,5,6,0:0:0:0:
290,286,79971,1,4,0:0:0:0:
268,290,80045,1,4,0:0:0:0:
245,292,80119,6,0,P|205:284|164:282,2,82.5000025177003,6|0|2,0:0|0:0|0:0,0:0:0:0:
362,219,80453,5,2,0:0:0:0:
387,297,80564,2,0,P|428:295|468:286,1,82.5000025177003,10|2,0:0|0:0,0:0:0:0:
443,126,80786,2,0,P|402:128|362:137,1,82.5000025177003,2|2,0:0|0:0,0:0:0:0:
136,132,81008,5,6,0:0:0:0:
123,121,81064,1,0,0:0:0:0:
110,108,81119,2,0,B|110:68|110:68|136:37,2,82.5000025177003,0|2|0,0:0|0:0|0:0,0:0:0:0:
216,114,81453,5,10,0:0:0:0:
216,146,81564,1,0,0:0:0:0:
198,183,81675,1,0,0:0:0:0:
157,211,81786,1,0,0:0:0:0:
99,205,81897,5,4,3:1:0:0:
23,260,82008,2,0,P|19:293|32:323,1,67.4999979400635,0|2,0:0|0:0,0:0:0:0:
116,371,82231,5,0,0:0:0:0:
191,315,82342,2,0,P|195:281|182:251,1,67.4999979400635,2|0,0:0|0:0,0:0:0:0:
68,124,82564,2,0,L|136:132,1,67.4999979400635,2|0,0:0|0:0,0:0:0:0:
233,26,82786,6,0,P|252:89|313:111,1,134.999995880127,2|2,0:0|0:0,0:0:0:0:
393,1,83119,2,0,P|380:31|385:65,1,67.4999979400635,2|0,0:0|0:0,0:0:0:0:
484,160,83342,2,0,L|416:152,1,67.4999979400635,2|0,0:0|0:0,0:0:0:0:
288,312,83564,5,2,0:0:0:0:
360,275,83675,2,0,P|365:242|352:212,1,67.4999979400635,0|0,0:0|0:0,0:0:0:0:
313,111,83897,6,0,L|264:105,1,48.7499977684022,2|0,0:3|0:0,0:0:0:0:
232,108,84008,6,0,B|216:32|216:32|232:44,1,97.4999955368044,2|0,0:3|0:0,0:0:0:0:
392,112,84231,2,0,B|408:188|408:188|392:176,1,97.4999955368044,2|0,0:3|0:0,0:0:0:0:
232,108,84453,6,0,L|97:93,1,134.999995880127,2|0,0:3|0:0,0:0:0:0:
27,52,84786,2,0,P|60:55|89:39,1,67.4999979400635,2|0,0:0|0:0,0:0:0:0:
232,108,85008,5,2,0:0:0:0:
250,186,85119,1,0,0:0:0:0:
201,249,85231,2,0,L|133:241,1,67.4999979400635,2|0,0:0|0:0,0:0:0:0:
73,300,85453,5,4,0:0:0:0:
49,296,85564,1,0,0:0:0:0:
103,382,85675,5,0,0:0:0:0:
145,345,85786,1,0,0:0:0:0:
157,291,85897,1,8,0:0:0:0:
133,241,86008,1,0,0:0:0:0:
50,238,86119,2,0,P|54:271|73:300,1,67.4999979400635,0|0,0:0|0:0,0:0:0:0:
257,383,86342,6,0,L|261:315,1,67.4999979400635,4|0,0:0|0:0,0:0:0:0:
262,300,86564,1,0,0:0:0:0:
311,229,86675,5,0,0:0:0:0:
338,267,86786,1,8,0:0:0:0:
382,281,86897,1,0,0:0:0:0:
428,272,87008,2,0,P|458:259|477:232,1,67.4999979400635,0|0,0:0|0:0,0:0:0:0:
327,83,87231,5,4,0:0:0:0:
386,201,87342,5,0,0:0:0:0:
311,229,87453,1,0,0:0:0:0:
248,179,87564,1,0,0:0:0:0:
323,151,87675,2,0,L|327:83,1,67.4999979400635,8|0,0:0|0:0,0:0:0:0:
236,260,87897,5,4,0:0:0:0:
233,273,87971,1,4,0:0:0:0:
230,286,88045,1,4,0:0:0:0:
172,345,88119,6,0,P|91:316|78:232,1,180,4|4,0:0|0:0,0:0:0:0:
6,78,88564,6,0,B|7:24|71:25|71:25|103:58|98:131|47:154,1,247.500007553101,12|0,0:0|0:0,0:0:0:0:
86,244,89008,5,4,0:0:0:0:
117,212,89119,1,0,0:0:0:0:
162,207,89231,1,2,0:0:0:0:
201,227,89342,1,0,0:0:0:0:
228,302,89453,2,0,L|302:292,1,75,10|0,0:0|0:0,0:0:0:0:
438,359,89675,5,2,0:0:0:0:
488,259,89786,1,0,0:0:0:0:
428,361,89897,2,0,L|354:352,1,75,6|0,0:0|0:0,0:0:0:0:
228,302,90119,5,2,0:0:0:0:
308,283,90231,2,0,P|319:247|310:211,1,75,2|8,0:0|0:0,0:0:0:0:
119,140,90453,2,0,P|108:175|117:212,1,75,2|0,0:0|0:0,0:0:0:0:
163,358,90675,5,2,0:0:0:0:
228,302,90786,2,0,L|231:227,1,75,4|0,0:0|0:0,0:0:0:0:
313,131,91008,6,0,L|310:179,1,48.7499977684022,2|0,0:3|0:0,0:0:0:0:
310,211,91119,6,0,B|356:198|356:198|401:218,1,97.4999955368044,2|8,0:3|0:0,0:0:0:0:
411,55,91342,2,0,B|364:67|364:67|319:47,1,97.4999955368044,2|0,0:3|0:0,0:0:0:0:
158,19,91564,6,0,B|165:74|165:74|192:95|192:95|199:154,1,150,2|0,0:3|0:0,0:0:0:0:
81,66,91897,2,0,B|46:50|46:50|10:60,1,75,2|0,0:0|0:0,0:0:0:0:
4,192,92119,5,10,0:0:0:0:
66,244,92231,1,0,0:0:0:0:
144,224,92342,2,0,P|162:192|161:155,1,75,2|0,0:0|0:0,0:0:0:0:
272,40,92564,5,6,0:0:0:0:
198,14,92675,5,0,0:0:0:0:
182,40,92787,1,0,0:0:0:0:
187,70,92898,1,2,0:0:0:0:
240,168,93008,5,8,0:0:0:0:
320,144,93119,5,0,0:0:0:0:
340,184,93230,1,2,0:0:0:0:
322,226,93341,1,0,0:0:0:0:
264,300,93453,5,6,0:0:0:0:
190,267,93564,5,0,0:0:0:0:
168,315,93675,1,0,0:0:0:0:
194,361,93787,1,2,0:0:0:0:
337,314,93897,6,0,L|264:300,1,75,8|0,0:0|0:0,0:0:0:0:
94,270,94119,2,0,L|81:211,1,60,2|0,0:0|0:0,0:0:0:0:
187,70,94342,6,0,L|201:143,1,75,6|0,0:0|0:0,0:0:0:0:
322,226,94564,1,2,0:0:0:0:
326,67,94675,6,0,B|318:125|318:125|335:157|335:157|327:212,1,150,2|0,0:0|0:0,0:0:0:0:
310,321,95008,1,4,0:0:0:0:
333,347,95082,1,4,0:0:0:0:
367,354,95157,1,4,0:0:0:0:
441,327,95231,6,0,P|450:291|441:254,1,75,6|0,0:0|0:0,0:0:0:0:
374,162,95453,5,2,0:0:0:0:
296,174,95564,1,6,0:0:0:0:
218,186,95675,2,0,P|209:149|218:113,1,75,10|2,0:0|0:0,0:0:0:0:
334,58,95897,2,0,L|408:65,1,75,6|6,0:0|0:0,0:0:0:0:
293,148,96119,6,0,B|178:135|178:135|218:186,1,179.999994506836,12|0,0:0|0:0,0:0:0:0:
217,185,96786,1,4,0:0:0:0:
133,73,97008,2,0,P|106:108|103:152,1,89.9999972534181,8|2,0:0|0:0,0:0:0:0:
263,250,97342,2,0,P|289:214|293:171,1,89.9999972534181,2|0,0:0|0:0,0:0:0:0:
306,44,97675,5,2,0:0:0:0:
323,39,97749,1,2,0:0:0:0:
340,34,97823,1,2,0:0:0:0:
357,29,97897,6,0,P|388:37|408:64,1,67.4999979400635,6|0,0:0|0:0,0:0:0:0:
412,86,98119,1,2,0:0:0:0:
316,196,98231,6,0,P|307:165|320:134,1,67.4999979400635,4|0,0:0|0:0,0:0:0:0:
337,119,98453,1,2,0:0:0:0:
403,168,98564,5,6,0:0:0:0:
405,181,98619,1,2,0:0:0:0:
407,194,98675,1,2,0:0:0:0:
409,207,98731,1,2,0:0:0:0:
410,220,98786,6,0,L|419:309,1,89.9999972534181,8|2,0:0|0:0,0:0:0:0:
466,375,99119,1,2,0:0:0:0:
497,301,99231,1,0,0:0:0:0:
316,196,99453,5,2,0:0:0:0:
286,191,99527,1,2,0:0:0:0:
256,187,99601,1,2,0:0:0:0:
226,183,99675,1,6,0:0:0:0:
112,224,99897,5,2,0:0:0:0:
96,127,100119,2,0,L|105:216,1,89.9999972534181,2|4,0:0|0:0,0:0:0:0:
112,224,100453,1,2,0:0:0:0:
49,275,100564,6,0,B|144:260|99:320|212:299,1,150,8|2,0:0|0:0,0:0:0:0:
242,239,100897,1,0,0:0:0:0:
191,302,101008,2,0,P|197:331|218:355,1,60,2|0,0:0|0:0,0:0:0:0:
315,276,101231,5,2,0:0:0:0:
323,258,101305,1,2,0:0:0:0:
326,238,101379,1,2,0:0:0:0:
321,219,101453,6,0,P|309:191|277:165,1,67.4999979400635,6|0,0:0|0:0,0:0:0:0:
259,160,101675,1,2,0:0:0:0:
160,264,101786,6,0,P|190:267|228:252,1,67.4999979400635,4|0,0:0|0:0,0:0:0:0:
242,239,102008,1,2,0:0:0:0:
200,102,102119,5,6,0:0:0:0:
189,114,102175,1,2,0:0:0:0:
182,129,102230,1,2,0:0:0:0:
177,145,102286,1,2,0:0:0:0:
176,161,102342,6,0,P|166:130|140:109,2,67.4999979400635,10|2|2,0:0|0:0|0:0,0:0:0:0:
38,208,102786,6,0,L|49:275,1,67.4999979400635,2|2,0:0|0:0,0:0:0:0:
148,359,103008,5,2,0:0:0:0:
52,291,103119,1,2,0:0:0:0:
142,356,103231,6,0,P|206:351|239:295,1,134.999995880127,6|2,0:0|0:0,0:0:0:0:
208,221,103564,1,2,0:0:0:0:
247,309,103675,2,0,P|276:268|325:262,1,101.249996910095,10|0,0:0|0:0,0:0:0:0:
341,269,103897,2,0,P|366:294|370:330,1,67.4999979400635,2|0,0:0|0:0,0:0:0:0:
503,196,104119,6,0,B|405:210|405:210|376:190,1,134.999995880127,6|2,0:0|0:0,0:0:0:0:
318,134,104453,1,2,0:0:0:0:
309,127,104564,6,0,B|258:79|258:79|322:88,1,134.999995880127,8|2,0:0|0:0,0:0:0:0:
454,67,104897,1,2,0:0:0:0:
503,196,105008,6,0,B|405:210|405:210|376:190,1,134.999995880127,6|2,0:0|0:0,0:0:0:0:
375,189,105342,1,2,0:0:0:0:
259,79,105453,2,0,B|161:65|161:65|132:85,1,134.999995880127,10|2,0:0|0:0,0:0:0:0:
65,129,105786,1,2,0:0:0:0:
18,64,105897,6,0,P|19:30|37:2,1,67.4999979400635,6|0,0:0|0:0,0:0:0:0:
112,194,106119,2,0,P|110:227|92:255,1,67.4999979400635,2|0,0:0|0:0,0:0:0:0:
84,51,106342,6,0,L|18:64,1,67.4999979400635,10|0,0:0|0:0,0:0:0:0:
45,206,106564,2,0,L|112:194,1,67.4999979400635,2|2,0:0|0:0,0:0:0:0:
39,364,106786,6,0,P|82:314|148:311,1,134.999995880127,4|2,0:0|0:0,0:0:0:0:
205,365,107119,1,2,0:0:0:0:
137,296,107231,2,0,B|194:288|194:288|202:292|202:292|206:287|206:287|267:278,1,134.999995880127,10|0,0:0|0:0,0:0:0:0:
330,228,107564,1,0,0:0:0:0:
425,338,107675,6,0,P|360:307|340:237,1,150,6|0,0:0|0:0,0:0:0:0:
433,177,108008,2,0,L|285:159,1,150,2|0,0:0|0:0,0:0:0:0:
216,118,108342,2,0,P|233:151|267:166,1,75,2|0,0:0|0:0,0:0:0:0:
412,76,108564,6,0,B|443:35|443:35|347:57,1,150,6|2,0:0|0:0,0:0:0:0:
283,10,108897,1,2,0:0:0:0:
348,68,109008,2,0,P|333:138|267:166,1,150,10|2,0:0|0:0,0:0:0:0:
202,119,109342,1,2,0:0:0:0:
264,249,109453,6,0,B|312:240|312:240|352:260|352:260|407:250,1,150,6|2,0:0|0:0,0:0:0:0:
453,185,109786,1,2,0:0:0:0:
482,357,109897,2,0,P|416:328|403:258,1,150,10|0,0:0|0:0,0:0:0:0:
264,249,110342,6,0,P|298:280|265:313,1,104.999996795654,6|0,0:0|2:0,0:0:0:0:
181,283,110675,6,0,B|98:273|145:317|68:306,1,120,6|0,0:0|2:0,0:0:0:0:
16,156,111008,6,0,P|58:206|124:204,1,134.999995880127,6|0,0:0|2:0,0:0:0:0:
203,13,111342,6,0,B|199:53|199:53|195:57|195:57|199:61|199:61|192:160,1,150,6|0,0:0|2:0,0:0:0:0:
279,319,111675,6,0,B|313:303|325:259|297:223|297:223|269:247|276:267,1,165.000005035401,10|10,0:0|0:0,0:0:0:0:
272,89,112231,5,2,0:0:0:0:
353,85,112343,1,2,0:0:0:0:
364,76,112454,1,2,0:0:0:0:
402,4,112565,5,2,0:0:0:0:
364,76,112675,1,2,0:0:0:0:
367,90,112786,1,2,0:0:0:0:
410,158,112897,5,2,0:0:0:0:
367,90,113008,1,2,0:0:0:0:
354,86,113119,1,2,0:0:0:0:
272,89,113231,5,2,0:0:0:0:
402,4,113342,5,2,0:0:0:0:
493,128,113453,5,14,2:1:0:0:
490,151,113527,1,2,2:0:0:0:
488,174,113601,1,2,2:0:0:0:
484,197,113675,1,2,2:0:0:0:
481,220,113749,1,2,2:0:0:0:
478,243,113823,1,2,2:0:0:0:
480,324,113897,6,0,P|436:269|365:265,1,134.999995880127,6|0,0:0|2:0,0:0:0:0:
364,270,114119,1,2,0:0:0:0:
235,368,114231,6,0,P|252:328|289:302,1,89.9999972534181,2|8,0:0|0:0,0:0:0:0:
376,262,114453,2,0,P|420:263|458:287,1,89.9999972534181,2|0,0:0|0:0,0:0:0:0:
315,380,114675,5,2,0:0:0:0:
210,289,114786,2,0,B|156:279|156:279|107:313|107:313|42:299,1,179.999994506836,0|2,0:0|0:0,0:0:0:0:
62,226,115082,5,0,0:0:0:0:
86,208,115157,1,0,0:0:0:0:
110,190,115231,2,0,L|119:100,1,89.9999972534181,10|2,0:0|0:0,0:0:0:0:
289,303,115453,2,0,P|272:344|235:368,1,89.9999972534181,2|2,0:0|0:0,0:0:0:0:
236,95,115675,6,0,P|301:105|341:158,1,134.999995880127,6|0,0:0|2:0,0:0:0:0:
343,175,115897,1,2,0:0:0:0:
426,25,116008,2,0,B|401:63|401:63|410:107,1,89.9999972534181,2|8,0:0|0:0,0:0:0:0:
497,252,116231,2,0,B|476:212|476:212|434:197,1,89.9999972534181,2|0,0:0|0:0,0:0:0:0:
343,175,116453,6,0,L|210:203,1,134.999995880127,2|0,0:0|2:0,0:0:0:0:
194,195,116675,1,2,0:0:0:0:
42,116,116786,2,0,P|39:72|68:39,1,89.9999972534181,2|0,0:0|0:0,0:0:0:0:
255,60,117008,5,10,0:0:0:0:
194,195,117119,1,0,0:0:0:0:
130,131,117231,2,0,L|42:116,1,89.9999972534181,2|2,0:0|0:0,0:0:0:0:
84,292,117453,2,0,P|113:259|111:216,1,89.9999972534181,6|0,0:0|0:0,0:0:0:0:
255,60,117675,6,0,L|310:48,1,56.2500021457673,2|0,0:3|0:0,0:0:0:0:
405,37,117786,6,0,B|383:21|383:21|396:56|376:88,1,97.4999955368044,2|8,0:3|0:0,0:0:0:0:
450,242,118008,2,0,B|473:259|473:259|460:224|480:192,1,97.4999955368044,2|0,0:3|0:0,0:0:0:0:
372,96,118231,5,2,0:3:0:0:
249,248,118342,2,0,P|160:219|130:131,1,194.999991073609,0|2,0:0|0:0,0:0:0:0:
156,56,118638,5,0,0:0:0:0:
181,49,118712,1,0,0:0:0:0:
206,43,118786,2,0,B|232:83|232:83|222:131,1,97.4999955368044,10|2,0:0|0:0,0:0:0:0:
164,342,119008,1,2,0:0:0:0:
75,237,119119,1,2,0:0:0:0:
210,212,119231,6,0,L|353:242,1,146.249993305207,6|0,0:0|2:0,0:0:0:0:
358,250,119453,1,2,0:0:0:0:
282,360,119564,2,0,B|256:319|256:319|266:272,1,97.4999955368044,2|8,0:0|0:0,0:0:0:0:
388,112,119786,5,2,0:0:0:0:
493,207,119897,1,0,0:0:0:0:
358,250,120008,2,0,L|262:229,1,97.4999955368044,2|6,0:0|0:0,0:0:0:0:
51,180,120231,5,0,0:0:0:0:
78,328,120342,1,2,0:0:0:0:
67,190,120453,1,2,0:0:0:0:
94,338,120564,6,0,B|127:311|168:330|168:330|203:364|253:344,1,157.499995193482,14|0,0:0|0:0,0:0:0:0:
256,232,121008,6,0,P|280:170|341:147,1,134.999995880127,6|0,0:0|2:0,0:0:0:0:
352,148,121231,1,2,0:0:0:0:
486,242,121342,6,0,P|469:201|432:176,1,89.9999972534181,2|8,0:0|0:0,0:0:0:0:
341,147,121564,2,0,P|298:157|266:189,1,89.9999972534181,2|0,0:0|0:0,0:0:0:0:
408,253,121786,5,2,0:0:0:0:
397,83,121897,2,0,P|308:76|227:114,1,179.999994506836,0|2,0:0|0:0,0:0:0:0:
160,156,122194,5,0,0:0:0:0:
136,151,122268,1,0,0:0:0:0:
112,146,122342,2,0,L|99:56,1,89.9999972534181,10|2,0:0|0:0,0:0:0:0:
341,147,122564,2,0,L|353:236,1,89.9999972534181,2|2,0:0|0:0,0:0:0:0:
188,268,122786,6,0,B|132:260|132:260|116:268|116:268|56:259,1,134.999995880127,6|0,0:0|2:0,0:0:0:0:
44,256,123008,1,2,0:0:0:0:
198,355,123119,2,0,B|216:314|216:314|203:270,1,89.9999972534181,2|8,0:0|0:0,0:0:0:0:
90,109,123342,2,0,B|116:145|116:145|160:156,1,89.9999972534181,2|0,0:0|0:0,0:0:0:0:
203,270,123564,5,2,0:0:0:0:
356,137,123675,2,0,B|311:142|311:142|280:174,1,89.9999972534181,0|0,0:0|0:0,0:0:0:0:
90,109,123897,6,0,P|99:173|161:155,1,146.249993305207,2|0,0:0|0:0,0:0:0:0:
356,137,124119,2,0,P|296:112|280:174,1,146.249993305207,10|0,0:0|0:0,0:0:0:0:
198,355,124342,2,0,P|249:315|203:270,1,146.249993305207,2|0,0:0|0:0,0:0:0:0:
214,199,124564,5,6,0:0:0:0:
356,137,124786,5,2,0:0:0:0:
385,60,124897,1,2,0:0:0:0:
351,144,125008,2,0,L|364:244,1,101.249996910095,8|0,0:0|2:0,0:0:0:0:
367,256,125231,2,0,P|401:254|426:232,1,67.4999979400635,2|0,0:0|0:0,0:0:0:0:
320,370,125453,6,0,P|272:297|186:289,1,179.999994506836,6|2,0:0|0:0,0:0:0:0:
118,331,125786,1,0,0:0:0:0:
29,184,125897,2,0,B|18:210|-6:218|-6:218|117:251,1,179.999994506836,10|6,0:0|0:0,0:0:0:0:
185,211,126194,5,4,0:0:0:0:
203,187,126268,1,4,0:0:0:0:
200,157,126342,2,0,P|198:112|171:77,1,89.9999972534181,6|0,0:0|0:0,0:0:0:0:
29,184,126564,2,0,P|31:228|58:263,1,89.9999972534181,2|2,0:0|0:0,0:0:0:0:
248,320,126786,5,10,0:0:0:0:
274,244,126897,1,0,0:0:0:0:
343,204,127008,1,2,0:0:0:0:
422,218,127119,1,2,0:0:0:0:
477,277,127230,5,6,0:0:0:0:
473,295,127341,1,0,0:0:0:0:
469,313,127452,1,0,0:0:0:0:
465,331,127563,1,2,0:0:0:0:
371,352,127674,5,14,0:0:0:0:
343,204,127786,1,0,0:0:0:0:
360,345,127897,1,4,0:0:0:0:
332,192,128009,1,6,0:0:0:0:
248,320,128119,6,0,L|256:215,1,104.999996795654,4|0,0:0|0:0,0:0:0:0:
425,179,128564,2,0,P|381:205|331:191,1,104.999996795654,8|0,0:0|0:0,0:0:0:0:
280,67,129008,5,4,0:0:0:0:
256,215,129231,1,0,0:0:0:0:
108,191,129453,1,8,0:0:0:0:
132,43,129675,1,0,0:0:0:0:
22,198,129897,6,0,B|6:131|6:131|35:151,2,104.999996795654,4|0|8,0:0|0:0|0:0,0:0:0:0:
152,264,130564,5,0,0:0:0:0:
152,264,130675,1,0,0:0:0:0:
48,280,130786,2,0,L|152:264,1,104.999996795654,4|0,0:0|0:0,0:0:0:0:
137,136,131231,6,0,P|147:159|168:174,1,52.4999983978272,8|0,0:0|0:0,0:0:0:0:
258,193,131453,2,0,P|282:185|299:165,1,52.4999983978272,0|0,0:0|0:0,0:0:0:0:
377,225,131675,6,0,L|273:208,1,104.999996795654,4|0,0:0|0:0,0:0:0:0:
194,346,132008,1,0,0:0:0:0:
212,365,132119,2,0,P|244:326|233:276,1,104.999996795654,8|0,0:0|0:0,0:0:0:0:
377,225,132564,2,0,P|387:271|435:266,2,104.999996795654,4|0|8,0:0|0:0|0:0,0:0:0:0:
256,100,133231,5,4,0:0:0:0:
235,96,133305,1,4,0:0:0:0:
214,92,133379,1,4,0:0:0:0:
129,100,133453,6,0,B|108:6|108:6|155:33,1,150,14|0,0:0|0:0,0:0:0:0:
256,216,133786,6,0,B|193:207|193:207|142:233|142:233|83:223,1,179.999994506836,14|0,0:0|0:0,0:0:0:0:
113,308,134119,6,0,B|157:313|157:313|199:293,1,89.9999972534181,14|0,0:0|0:0,0:0:0:0:
350,201,134342,5,4,0:0:0:0:
392,271,134453,1,4,0:0:0:0:
333,328,134564,5,4,0:0:0:0:
451,214,134675,1,4,0:0:0:0:
370,69,134786,2,0,P|310:41|248:63,1,134.999995880127,14|0,0:0|0:0,0:0:0:0:
245,57,135008,6,0,P|208:124|231:197,1,157.499995193482,0|0,0:0|0:0,0:0:0:0:
256,280,135231,6,0,B|180:288|180:288|156:312|156:312|84:320,1,180,6|0,0:0|0:0,0:0:0:0:
92,328,135675,2,0,B|161:320|161:320|185:296|185:296|261:288,1,180,10|0,0:0|0:0,0:0:0:0:
230,196,136119,6,0,P|201:159|210:101,1,101.249996910095,6|0,0:0|0:0,0:0:0:0:
208,99,136342,6,0,P|239:74|283:73,1,82.5000025177003,2|0,0:0|0:0,0:0:0:0:
312,176,136564,2,0,P|280:201|240:203,1,82.5000025177003,8|0,0:0|0:0,0:0:0:0:
81,115,136786,6,0,L|109:98,1,33.7499989700318,2|0,0:0|0:0,0:0:0:0:
208,99,136897,2,0,L|236:82,1,33.7499989700318,2|0,0:0|0:0,0:0:0:0:
336,84,137008,6,0,L|384:55,1,56.25,6|0,0:0|0:0,0:0:0:0:
402,47,137231,6,0,L|390:136,1,89.9999972534181,2|0,0:0|0:0,0:0:0:0:
452,301,137453,2,0,P|417:252|358:245,1,123.75000377655,10|0,0:0|0:0,0:0:0:0:
335,256,137675,6,0,P|335:280|347:300,1,48.7499977684022,2|0,0:0|0:0,0:0:0:0:
238,314,137786,2,0,P|217:326|205:347,1,48.7499977684022,2|0,0:0|0:0,0:0:0:0:
139,258,137897,6,0,P|105:242|68:244,1,75,6|0,0:0|0:0,0:0:0:0:
54,327,138119,2,0,P|87:342|124:340,1,75,2|0,0:0|0:0,0:0:0:0:
217,235,138342,6,0,P|223:171|182:120,1,123.75000377655,10|0,0:0|0:0,0:0:0:0:
113,147,138564,2,0,P|105:207|139:258,1,123.75000377655,2|0,0:0|0:0,0:0:0:0:
238,314,138786,6,0,B|289:308|289:308|294:304|294:304|300:307|300:307|446:288,1,202.499993820191,6|0,0:0|0:0,0:0:0:0:
451,258,139231,6,0,P|481:286|457:320,1,89.9999972534181,10|0,0:0|0:0,0:0:0:0:
294,304,139453,1,2,0:0:0:0:
298,279,139564,1,2,0:0:0:0:
432,344,139675,6,0,L|418:243,1,101.249996910095,6|0,0:0|0:0,0:0:0:0:
382,177,139897,6,0,B|296:163|296:163|316:197,1,127.50000243187,2|0,0:0|0:0,0:0:0:0:
290,332,140119,6,0,P|252:285|192:283,1,123.75000377655,10|0,0:0|0:0,0:0:0:0:
148,348,140342,6,0,P|99:338|114:290,1,112.500004291535,2|0,0:0|0:0,0:0:0:0:
179,216,140564,6,0,L|192:282,1,67.4999979400635,6|0,0:0|0:0,0:0:0:0:
28,360,140786,2,0,P|20:327|24:291,1,67.4999979400635,2|0,0:0|0:0,0:0:0:0:
90,203,141008,6,0,L|173:209,1,82.5000025177003,12|0,0:0|0:0,0:0:0:0:
24,3,141231,2,0,B|7:48|7:48|34:88,1,97.4999955368044,4|0,0:0|0:0,0:0:0:0:
179,216,141453,6,0,B|217:227|245:202|245:202|277:255|346:264|385:221,1,225,6|0,0:0|0:0,0:0:0:0:
390,238,141897,6,0,B|321:229|321:229|300:187|250:180|250:180|224:215|172:208,1,247.500007553101,14|0,0:0|0:0,0:0:0:0:
0,202,142342,6,0,B|14:144|76:118|128:145|128:145|109:157|102:179,1,202.499993820191,6|0,0:0|0:0,0:0:0:0:
196,101,142786,2,0,P|105:62|6:79,1,202.499993820191,10|0,0:0|0:0,0:0:0:0:
179,203,143231,6,0,L|279:189,1,101.249996910095,6|0,0:0|0:0,0:0:0:0:
293,194,143453,6,0,B|314:228|314:228|304:268,1,82.5000025177003,2|0,0:0|0:0,0:0:0:0:
183,283,143675,2,0,B|161:248|161:248|171:208,1,82.5000025177003,8|0,0:0|0:0,0:0:0:0:
277,67,143897,6,0,L|294:95,1,33.7499989700318,0|0,0:0|0:0,0:0:0:0:
293,194,144008,2,0,L|310:222,1,33.7499989700318,0|0,0:0|0:0,0:0:0:0:
308,322,144119,6,0,L|337:370,1,56.25,4|0,0:0|0:0,0:0:0:0:
397,329,144342,6,0,L|308:322,1,89.9999972534181,2|0,0:0|0:0,0:0:0:0:
80,331,144564,2,0,B|96:298|96:298|183:283,1,123.75000377655,8|0,0:0|0:0,0:0:0:0:
204,275,144786,6,0,P|185:262|174:240,1,48.7499977684022,2|0,0:0|0:0,0:0:0:0:
256,144,144897,2,0,P|257:119|271:100,1,48.7499977684022,2|0,0:0|0:0,0:0:0:0:
395,121,145008,6,0,P|428:105|465:107,1,75,6|0,0:0|0:0,0:0:0:0:
480,192,145231,2,0,P|446:208|409:206,1,75,2|0,0:0|0:0,0:0:0:0:
256,144,145453,6,0,B|240:120|240:120|250:14,1,134.999995880127,10|0,0:0|0:0,0:0:0:0:
409,206,145675,2,0,B|425:230|425:230|414:335,1,134.999995880127,0|0,0:0|0:0,0:0:0:0:
308,322,145897,6,0,B|284:346|248:340|248:340|201:312|217:262|217:262|238:233|277:234,1,225,6|0,0:0|0:0,0:0:0:0:
282,239,146342,6,0,P|313:269|313:313,1,89.9999972534181,10|0,0:0|0:0,0:0:0:0:
135,213,146564,1,2,0:0:0:0:
143,189,146675,1,2,0:0:0:0:
36,212,146786,6,0,L|48:312,1,101.249996910095,6|0,0:0|0:0,0:0:0:0:
127,379,147008,6,0,B|167:369|167:369|183:328|183:328|161:293,1,127.50000243187,2|0,0:0|0:0,0:0:0:0:
122,110,147231,6,0,B|227:97|227:97|216:110|216:123,1,134.999995880127,8|0,0:0|0:0,0:0:0:0:
282,239,147453,6,0,B|365:248|365:248|347:225,1,112.500004291535,2|0,0:0|0:0,0:0:0:0:
458,69,147675,6,0,P|416:82|395:121,1,89.9999972534181,6|0,0:0|0:0,0:0:0:0:
457,342,147897,5,4,0:0:0:0:
442,314,147971,1,4,0:0:0:0:
415,296,148045,1,4,0:0:0:0:
383,291,148119,6,0,L|293:301,1,89.9999972534181,12|0,0:0|0:0,0:0:0:0:
202,346,148342,2,0,B|184:304|184:304|205:264,1,89.9999972534181,4|0,0:0|0:0,0:0:0:0:
51,124,148564,6,0,B|10:120|-3:164|-3:164|29:193|57:174,1,142.49999619484,14|0,0:0|0:0,0:0:0:0:
195,100,148786,6,0,B|218:66|187:32|187:32|145:46|147:80,1,142.49999619484,4|0,0:0|0:0,0:0:0:0:
143,238,149008,6,0,B|159:274|205:264|205:264|214:221|183:206,1,142.49999619484,14|0,0:0|0:0,0:0:0:0:
129,154,149453,6,0,L|296:140,1,165.000005035401,6|2,0:0|0:0,0:0:0:0:
351,86,149749,1,0,0:0:0:0:
375,97,149823,1,0,0:0:0:0:
399,109,149897,2,0,L|407:26,1,82.5000025177003,10|0,0:0|0:0,0:0:0:0:
485,225,150119,6,0,P|467:213|447:210,1,41.2500012588501,2|0,0:0|0:0,0:0:0:0:
371,181,150231,2,0,P|352:190|339:205,1,41.2500012588501,0|0,0:0|0:0,0:0:0:0:
274,257,150342,2,0,P|269:297|289:332,1,82.5000025177003,6|0,0:0|0:0,0:0:0:0:
312,348,150564,5,2,0:0:0:0:
495,355,150675,2,0,P|445:293|364:286,1,165.000005035401,2|2,0:0|0:0,0:0:0:0:
181,270,151008,6,0,B|158:231|158:231|256:253,1,146.249993305207,2|0,0:0|2:0,0:0:0:0:
274,257,151231,6,0,L|257:89,1,165.000005035401,4|2,0:0|0:0,0:0:0:0:
297,22,151564,1,0,0:0:0:0:
169,135,151675,1,10,0:0:0:0:
336,202,151786,2,0,P|302:178|262:175,1,82.5000025177003,0|2,0:0|0:0,0:0:0:0:
241,182,152008,5,0,0:0:0:0:
378,18,152119,2,0,P|343:89|265:98,1,165.000005035401,6|2,0:0|0:0,0:0:0:0:
161,35,152453,5,2,0:0:0:0:
169,135,152564,2,0,L|175:52,1,82.5000025177003,8|2,0:0|0:0,0:0:0:0:
14,235,152786,6,0,B|58:228|58:228|61:225|61:225|64:227|64:227|157:215,1,146.249993305207,2|0,0:0|2:0,0:0:0:0:
180,234,153008,6,0,L|174:317,1,82.5000025177003,6|0,0:0|0:0,0:0:0:0:
173,340,153231,1,2,0:0:0:0:
256,272,153342,2,0,L|391:252,1,134.999995880127,2|0,0:0|0:0,0:0:0:0:
461,297,153675,6,0,P|428:271|388:267,1,82.5000025177003,2|0,0:0|0:0,0:0:0:0:
303,340,153897,2,0,P|317:325|323:306,1,41.2500012588501,6|0,0:0|0:0,0:0:0:0:
280,162,154008,5,2,0:0:0:0:
256,272,154119,2,0,L|263:182,1,89.9999972534181,0|0,0:0|0:0,0:0:0:0:
435,136,154342,6,0,B|325:117|389:180|280:162,1,165.000005035401,10|6,0:0|0:0,0:0:0:0:
229,101,154638,1,4,0:0:0:0:
199,116,154712,1,4,0:0:0:0:
169,130,154786,6,0,P|145:98|143:58,1,82.5000025177003,6|0,0:0|0:0,0:0:0:0:
155,34,155008,1,0,0:0:0:0:
313,93,155119,2,0,L|305:175,1,82.5000025177003,2|8,0:0|0:0,0:0:0:0:
303,195,155342,1,0,0:0:0:0:
256,284,155453,6,0,L|214:281,1,41.2500012588501,2|0,0:0|0:0,0:0:0:0:
140,274,155564,2,0,L|98:271,1,41.2500012588501,0|0,0:0|0:0,0:0:0:0:
24,267,155675,6,0,L|31:349,1,82.5000025177003,6|0,0:0|0:0,0:0:0:0:
122,182,155897,1,2,0:0:0:0:
19,259,156008,1,2,0:0:0:0:
131,355,156119,6,0,P|176:289|256:284,1,165.000005035401,8|4,0:0|0:0,0:0:0:0:
129,150,156453,5,4,0:0:0:0:
126,166,156508,1,4,0:0:0:0:
121,182,156564,2,0,P|46:160|26:84,1,165.000005035401,4|2,0:0|0:0,0:0:0:0:
88,29,156860,1,0,0:0:0:0:
95,55,156934,1,0,0:0:0:0:
102,81,157008,2,0,L|116:0,1,82.5000025177003,10|0,0:0|0:0,0:0:0:0:
201,175,157231,6,0,L|241:168,1,41.2500012588501,2|0,0:0|0:0,0:0:0:0:
216,276,157342,2,0,L|256:269,1,41.2500012588501,0|0,0:0|0:0,0:0:0:0:
231,377,157453,2,0,L|314:363,1,82.5000025177003,6|0,0:0|0:0,0:0:0:0:
334,359,157675,5,2,0:0:0:0:
510,285,157786,2,0,P|434:306|414:382,1,165.000005035401,2|2,0:0|0:0,0:0:0:0:
367,147,158119,6,0,B|315:124|315:124|333:211,1,146.249993305207,2|0,0:0|2:0,0:0:0:0:
323,227,158342,6,0,B|260:212|260:212|237:177|237:177|180:162,1,165.000005035401,4|2,0:0|0:0,0:0:0:0:
102,81,158675,1,0,0:0:0:0:
152,239,158786,1,10,0:0:0:0:
242,94,158897,2,0,L|323:81,1,82.5000025177003,0|2,0:0|0:0,0:0:0:0:
344,78,159119,5,0,0:0:0:0:
478,120,159231,2,0,B|427:128|427:128|378:186|432:249,1,165.000005035401,6|2,0:0|0:0,0:0:0:0:
418,313,159564,6,0,L|499:300,1,82.5000025177003,2|8,0:0|0:0,0:0:0:0:
509,315,159786,1,2,0:0:0:0:
357,364,159897,6,0,P|310:311|239:316,1,146.249993305207,2|0,0:0|2:0,0:0:0:0:
212,333,160119,6,0,B|118:346|118:346|160:290,1,165.000005035401,6|0,0:0|0:0,0:0:0:0:
173,267,160453,1,2,0:0:0:0:
82,251,160564,2,0,L|0:239,1,82.5000025177003,10|0,0:0|0:0,0:0:0:0:
102,81,160786,2,0,P|127:112|128:152,1,82.5000025177003,2|0,0:0|0:0,0:0:0:0:
212,333,161008,6,0,P|213:292|238:261,1,82.5000025177003,6|0,0:0|0:0,0:0:0:0:
256,128,161231,6,0,L|297:132,1,41.2500012588501,0|0,0:0|0:0,0:0:0:0:
371,142,161342,2,0,L|412:146,1,41.2500012588501,2|0,0:0|0:0,0:0:0:0:
486,159,161453,6,0,L|498:77,1,82.5000025177003,10|0,0:0|0:0,0:0:0:0:
323,205,161675,5,4,0:0:0:0:
326,232,161749,1,4,0:0:0:0:
329,259,161823,1,4,0:0:0:0:
332,285,161897,6,0,L|343:367,1,82.5000025177003,6|0,0:0|0:0,0:0:0:0:
493,279,162119,5,2,2:0:0:0:
483,250,162194,1,2,2:0:0:0:
450,229,162268,1,2,2:0:0:0:
405,234,162342,5,10,2:0:0:0:
374,272,162416,1,2,2:0:0:0:
333,286,162490,1,2,2:0:0:0:
296,278,162564,5,2,2:0:0:0:
276,251,162638,1,2,2:0:0:0:
271,223,162712,1,2,2:0:0:0:
279,202,162786,5,6,0:0:0:0:
338,157,162897,1,2,0:0:0:0:
349,82,163008,1,2,0:0:0:0:
300,22,163119,1,2,0:0:0:0:
225,33,163231,6,0,L|183:37,1,41.2500012588501,8|0,0:0|0:0,0:0:0:0:
202,163,163342,2,0,L|161:167,1,41.2500012588501,8|0,0:0|0:0,0:0:0:0:
145,20,163453,6,0,L|96:24,1,48.7499977684022,8|0,0:0|0:0,0:0:0:0:
118,177,163564,2,0,L|70:181,1,48.7499977684022,8|0,0:0|0:0,0:0:0:0:
7,11,163675,6,0,B|-7:33|-7:33|4:130,1,123.75000377655,4|0,0:0|2:0,0:0:0:0:
58,184,163897,6,0,L|139:194,1,82.5000025177003
142,309,164119,5,8,0:0:0:0:
30,347,164231,2,0,B|9:312|9:312|18:273,1,82.5000025177003,0|0,0:0|0:0,0:0:0:0:
148,213,164453,2,0,L|229:223,1,82.5000025177003,0|4,0:0|0:0,0:0:0:0:
378,239,164675,5,2,0:0:0:0:
299,182,164786,1,2,0:0:0:0:
379,225,164897,2,0,B|396:253|396:253|389:285,1,67.4999979400635,2|8,0:0|1:1,0:0:0:0:
240,371,165119,6,0,L|285:376,1,44.999998626709,2|0,0:0|0:0,0:0:0:0:
247,274,165230,2,0,L|292:279,1,44.999998626709,2|0,0:0|0:0,0:0:0:0:
254,177,165342,2,0,L|299:182,1,44.999998626709,2|0,0:0|0:0,0:0:0:0:
261,79,165453,6,0,L|383:64,1,123.75000377655,4|0,0:0|2:0,0:0:0:0:
404,75,165675,6,0,P|422:39|412:0,1,82.5000025177003,0|0,0:0|0:0,0:0:0:0:
368,149,165897,5,8,0:0:0:0:
461,167,166008,2,0,L|379:156,1,82.5000025177003,0|0,0:0|0:0,0:0:0:0:
254,177,166231,2,0,P|236:213|246:252,1,82.5000025177003,0|4,0:0|0:0,0:0:0:0:
293,346,166453,5,2,0:0:0:0:
379,271,166564,1,2,0:0:0:0:
283,340,166675,2,0,L|201:351,1,82.5000025177003,2|8,0:0|1:1,0:0:0:0:
159,259,166897,5,2,0:0:0:0:
13,268,167008,2,0,B|42:243|42:243|149:253,1,146.249993305207,2|0,0:0|0:0,0:0:0:0:
159,259,167231,6,0,L|148:184,1,75,4|0,1:1|0:0,0:0:0:0:
69,73,167453,5,0,0:0:0:0:
42,155,167564,1,0,0:0:0:0:
53,74,167675,2,0,L|63:0,1,75,8|0,0:0|0:0,0:0:0:0:
159,259,167897,5,0,0:0:0:0:
174,154,168008,1,0,0:0:0:0:
177,270,168119,2,0,L|187:344,1,75,4|0,0:0|0:0,0:0:0:0:
304,364,168342,5,2,0:0:0:0:
278,228,168453,1,2,0:0:0:0:
300,341,168564,5,8,1:1:0:0:
319,308,168675,1,2,0:0:0:0:
346,296,168786,1,2,0:0:0:0:
368,299,168897,1,2,0:0:0:0:
425,357,169008,6,0,L|499:346,1,75,4|2,1:1|0:0,0:0:0:0:
453,201,169231,5,2,0:0:0:0:
381,225,169342,1,2,0:0:0:0:
321,179,169453,2,0,P|309:143|318:107,1,75,8|2,1:1|0:0,0:0:0:0:
229,29,169675,5,0,1:1:0:0:
109,49,169786,1,2,0:0:0:0:
213,53,169897,5,6,0:0:0:0:
231,93,169971,1,2,0:0:0:0:
224,132,170045,1,2,0:0:0:0:
199,157,170119,1,2,0:0:0:0:
170,166,170194,1,2,0:0:0:0:
145,161,170268,1,2,0:0:0:0:
70,217,170342,5,10,0:1:0:0:
26,240,170416,1,2,0:0:0:0:
11,282,170490,1,2,0:0:0:0:
19,321,170564,1,2,0:0:0:0:
42,346,170638,1,2,0:0:0:0:
70,356,170712,1,2,0:0:0:0:
142,341,170786,6,0,L|114:208,1,123.75000377655,4|0,0:0|2:0,0:0:0:0:
170,166,171008,6,0,P|195:197|197:238,1,82.5000025177003,0|0,0:0|0:0,0:0:0:0:
26,142,171231,5,8,0:0:0:0:
102,95,171342,2,0,L|110:12,1,82.5000025177003,0|0,0:0|0:0,0:0:0:0:
210,228,171564,2,0,L|292:236,1,82.5000025177003,0|4,0:0|0:0,0:0:0:0:
425,148,171786,5,2,0:0:0:0:
459,242,171897,1,2,0:0:0:0:
435,152,172008,2,0,L|367:145,1,67.4999979400635,2|8,0:0|1:1,0:0:0:0:
231,34,172231,6,0,L|276:29,1,44.999998626709,2|0,0:0|0:0,0:0:0:0:
238,131,172342,2,0,L|283:126,1,44.999998626709,2|0,0:0|0:0,0:0:0:0:
245,228,172454,2,0,L|290:223,1,44.999998626709,2|0,0:0|0:0,0:0:0:0:
297,320,172564,6,0,L|174:307,1,123.75000377655,4|0,0:0|2:0,0:0:0:0:
98,328,172786,6,0,B|91:287|91:287|114:253,1,82.5000025177003,0|0,0:0|0:0,0:0:0:0:
39,42,173008,5,8,0:0:0:0:
56,152,173119,2,0,B|62:192|62:192|39:226,1,82.5000025177003,0|0,0:0|0:0,0:0:0:0:
148,42,173342,2,0,L|231:34,1,82.5000025177003,0|4,0:0|0:0,0:0:0:0:
368,158,173564,5,2,0:0:0:0:
439,64,173675,1,2,0:0:0:0:
359,147,173786,2,0,L|276:155,1,82.5000025177003,2|8,0:0|1:1,0:0:0:0:
429,263,174008,5,2,0:0:0:0:
277,254,174119,2,0,B|332:260|332:260|336:256|336:256|340:261|340:261|418:270,1,146.249993305207,2|0,0:0|0:0,0:0:0:0:
429,263,174342,6,0,P|444:298|433:333,1,75,4|0,0:0|0:0,0:0:0:0:
277,254,174564,5,0,0:0:0:0:
348,348,174675,1,0,0:0:0:0:
268,265,174786,2,0,L|193:256,1,75,8|0,0:0|0:0,0:0:0:0:
110,132,175008,5,0,0:0:0:0:
39,226,175119,1,0,0:0:0:0:
119,143,175230,2,0,L|193:134,1,75,4|0,0:0|0:0,0:0:0:0:
275,161,175453,5,2,0:0:0:0:
250,34,175564,1,2,0:0:0:0:
286,150,175675,5,8,1:1:0:0:
305,183,175786,1,2,0:0:0:0:
332,195,175897,1,2,0:0:0:0:
354,192,176008,1,2,0:0:0:0:
366,184,176119,6,0,L|433:175,1,67.4999979400635,4|2,1:1|0:0,0:0:0:0:
497,303,176342,5,2,0:0:0:0:
476,295,176453,1,2,0:0:0:0:
415,339,176564,2,0,L|348:348,1,67.4999979400635,8|2,0:1|0:0,0:0:0:0:
275,161,176786,2,0,L|208:152,1,67.4999979400635,2|2,0:0|0:0,0:0:0:0:
57,322,177008,5,6,0:0:0:0:
106,312,177082,1,2,0:0:0:0:
137,279,177157,1,2,0:0:0:0:
138,240,177231,1,2,0:0:0:0:
119,210,177305,1,2,0:0:0:0:
96,192,177379,1,2,0:0:0:0:
48,119,177453,5,10,0:1:0:0:
43,69,177527,1,2,0:0:0:0:
66,30,177601,1,2,0:0:0:0:
104,18,177675,1,2,0:0:0:0:
138,20,177749,1,2,0:0:0:0:
162,37,177823,1,2,0:0:0:0:
173,60,177897,6,0,B|198:24|252:17|301:46|301:46|326:105|267:168|205:146|205:146|179:93|107:83|69:113|69:113|64:192|130:224|181:211|181:211|217:262|186:355|99:345|99:345|66:303|77:243|111:228|111:228,1,972.000023730469,6|4,0:0|0:0,0:0:0:0:
256,192,185897,12,8,187230,0:0:0:0:
364,312,187453,5,2,0:0:0:0:
148,312,187675,6,0,P|122:339|83:346,1,75,8|0,0:0|0:0,0:0:0:0:
22,227,187897,1,8,0:0:0:0:
83,264,188008,6,0,P|46:254|21:224,1,75,0|8,0:0|0:0,0:0:0:0:
92,183,188231,2,0,P|81:146|95:109,1,75,0|8,0:0|0:0,0:0:0:0:
233,42,188453,6,0,P|228:114|165:149,1,150
155,229,188786,6,0,P|180:201|219:192,1,75,8|0,0:0|0:0,0:0:0:0:
301,204,189008,2,0,P|337:210|366:237,1,75,8|0,0:0|0:0,0:0:0:0:
405,383,189231,6,0,P|412:347|399:313,1,75,8|0,0:0|0:0,0:0:0:0:
485,146,189453,6,0,P|457:171|421:178,1,75,8|0,0:0|0:0,0:0:0:0:
304,195,189675,1,8,0:0:0:0:
363,234,189786,6,0,P|328:223|304:195,1,75,0|8,0:0|0:0,0:0:0:0:
225,172,190008,2,0,P|217:135|229:100,1,75,0|8,0:0|0:0,0:0:0:0:
282,26,190231,6,0,B|374:11|374:11|331:48,1,150,0|0,0:0|0:0,0:0:0:0:
227,103,190564,6,0,P|263:107|294:128,1,75,8|0,0:0|0:0,0:0:0:0:
102,98,190786,2,0,P|125:68|158:52,1,75,8|0,0:0|0:0,0:0:0:0:
36,207,191008,2,0,P|22:172|25:135,1,75,8|0,0:0|0:0,0:0:0:0:
29,292,191231,5,8,0:0:0:0:
48,308,191342,1,8,0:0:0:0:
72,316,191453,1,8,0:0:0:0:
97,318,191564,1,8,0:0:0:0:
167,367,191675,5,8,0:0:0:0:
190,358,191786,1,8,0:0:0:0:
209,342,191897,1,8,0:0:0:0:
223,321,192008,1,8,0:0:0:0:
300,285,192119,5,8,0:0:0:0:
304,260,192230,1,8,0:0:0:0:
299,236,192341,1,8,0:0:0:0:
288,213,192452,1,8,0:0:0:0:
295,128,192564,5,8,0:0:0:0:
275,112,192675,1,8,0:0:0:0:
252,105,192786,1,8,0:0:0:0:
227,103,192897,1,8,0:0:0:0:
102,97,193008,6,0,P|118:74|141:58,7,56.2500021457673,8|0|8|0|8|0|8|0,0:0|0:0|0:0|0:0|0:0|0:0|0:0|0:0,0:0:0:0:
244,23,193453,2,0,P|271:18|299:24,7,56.2500021457673,8|0|8|0|8|0|8|0,0:0|0:0|0:0|0:0|0:0|0:0|0:0|0:0,0:0:0:0:
395,69,193897,2,0,P|417:84|433:108,7,56.2500021457673,8|0|8|0|8|0|8|0,0:0|0:0|0:0|0:0|0:0|0:0|0:0|0:0,0:0:0:0:
453,196,194342,5,8,0:0:0:0:
452,213,194397,1,0,0:0:0:0:
447,230,194453,1,8,0:0:0:0:
440,246,194508,1,0,0:0:0:0:
431,261,194564,1,8,0:0:0:0:
420,275,194619,1,0,0:0:0:0:
407,287,194675,1,8,0:0:0:0:
393,297,194731,1,0,0:0:0:0:
380,306,194786,6,0,B|304:298|304:298|277:260|277:260|235:330|235:330|200:289|200:289|129:280,1,330,8|0,0:0|0:0,0:0:0:0:
52,223,196119,6,0,P|42:316|129:280,1,225,12|0,0:0|0:0,0:0:0:0:
32,137,196564,6,0,P|72:188|137:189,1,134.999995880127,6|0,0:0|2:0,0:0:0:0:
149,182,196786,1,2,0:0:0:0:
224,34,196897,6,0,P|227:78|205:117,1,89.9999972534181,2|8,0:0|0:0,0:0:0:0:
137,188,197119,2,0,P|93:194|54:174,1,89.9999972534181,2|0,0:0|0:0,0:0:0:0:
142,59,197342,5,2,0:0:0:0:
229,199,197453,2,0,P|288:132|305:44,1,179.999994506836,0|2,0:0|0:0,0:0:0:0:
224,34,197749,5,0,0:0:0:0:
196,45,197823,1,0,0:0:0:0:
168,57,197897,2,0,L|156:146,1,89.9999972534181,10|2,0:0|0:0,0:0:0:0:
357,239,198119,2,0,L|368:149,1,89.9999972534181,2|2,0:0|0:0,0:0:0:0:
74,130,198342,6,0,P|90:194|147:229,1,134.999995880127,6|0,0:0|2:0,0:0:0:0:
169,228,198564,1,2,0:0:0:0:
27,345,198675,2,0,P|51:308|94:297,1,89.9999972534181,2|8,0:0|0:0,0:0:0:0:
281,266,198897,2,0,L|269:355,1,89.9999972534181,2|0,0:0|0:0,0:0:0:0:
159,152,199119,6,0,L|292:134,1,134.999995880127,2|0,0:0|2:0,0:0:0:0:
314,141,199342,1,2,0:0:0:0:
242,12,199453,2,0,B|217:49|217:49|225:93,1,89.9999972534181,2|0,0:0|0:0,0:0:0:0:
322,228,199675,5,8,0:0:0:0:
487,133,199786,1,0,0:0:0:0:
434,61,199897,2,0,P|391:50|350:67,1,89.9999972534181,2|2,0:0|0:0,0:0:0:0:
472,295,200119,2,0,P|503:263|509:220,1,89.9999972534181,6|0,0:0|0:0,0:0:0:0:
314,141,200342,6,0,L|319:196,1,56.2500021457673,2|0,0:3|0:0,0:0:0:0:
283,274,200453,6,0,B|217:255|217:255|244:245,1,97.4999955368044,2|8,0:3|0:0,0:0:0:0:
395,174,200675,2,0,B|461:193|461:193|434:203,1,97.4999955368044,2|0,0:3|0:0,0:0:0:0:
277,283,200897,5,2,0:3:0:0:
428,370,201008,2,0,P|473:288|434:203,1,194.999991073609,0|2,0:0|0:0,0:0:0:0:
365,156,201305,5,0,0:0:0:0:
342,176,201379,1,0,0:0:0:0:
319,196,201453,2,0,L|229:203,1,89.9999972534181,10|0,0:0|0:0,0:0:0:0:
85,129,201675,1,2,0:0:0:0:
232,196,201786,1,2,0:0:0:0:
100,289,201897,6,0,B|93:228|93:228|100:212|100:212|93:156,1,134.999995880127,6|0,0:0|2:0,0:0:0:0:
85,129,202119,1,2,0:0:0:0:
195,38,202231,2,0,L|188:128,1,89.9999972534181,2|8,0:0|0:0,0:0:0:0:
149,366,202453,5,2,0:0:0:0:
7,291,202564,1,0,0:0:0:0:
142,205,202675,2,0,L|152:297,1,89.9999972534181,2|6,0:0|0:0,0:0:0:0:
363,218,202897,5,0,0:0:0:0:
232,196,203008,1,2,0:0:0:0:
378,211,203119,1,2,0:0:0:0:
247,189,203231,6,0,B|253:133|253:133|284:109|284:109|290:47,1,157.499995193482,14|0,0:0|0:0,0:0:0:0:
507,206,203675,6,0,B|491:194|491:194|378:211,1,134.999995880127,6|0,0:0|2:0,0:0:0:0:
363,218,203897,1,2,0:0:0:0:
482,344,204008,2,0,P|457:307|415:292,1,89.9999972534181,2|8,0:0|0:0,0:0:0:0:
487,119,204231,2,0,L|398:133,1,89.9999972534181,2|0,0:0|0:0,0:0:0:0:
247,189,204453,5,0,0:0:0:0:
215,20,204564,2,0,B|196:137|267:69|247:189,1,179.999994506836,0|2,0:0|0:0,0:0:0:0:
185,239,204860,5,0,0:0:0:0:
165,215,204934,1,0,0:0:0:0:
144,192,205008,2,0,P|114:225|113:269,1,89.9999972534181,10|2,0:0|0:0,0:0:0:0:
272,365,205231,2,0,P|301:332|302:288,1,89.9999972534181,2|0,0:0|0:0,0:0:0:0:
79,150,205453,6,0,P|43:206|39:273,1,134.999995880127,6|0,0:0|2:0,0:0:0:0:
43,295,205675,1,2,0:0:0:0:
172,127,205786,2,0,P|128:118|87:134,1,89.9999972534181,2|8,0:0|0:0,0:0:0:0:
253,323,206008,2,0,P|282:290|290:247,1,89.9999972534181,2|0,0:0|0:0,0:0:0:0:
87,134,206231,5,2,0:0:0:0:
43,295,206342,2,0,P|58:338|93:365,1,89.9999972534181,0|0,0:0|0:0,0:0:0:0:
253,323,206564,6,0,B|290:353|331:327|331:327|319:294|286:292,1,146.249993305207,2|0,0:0|0:0,0:0:0:0:
43,295,206786,2,0,B|-2:312|0:360|0:360|35:366|52:339,1,146.249993305207,10|0,0:0|0:0,0:0:0:0:
172,127,207008,2,0,B|179:78|136:56|136:56|113:84|128:113,1,146.249993305207,2|0,0:0|0:0,0:0:0:0:
155,249,207231,5,6,0:0:0:0:
252,84,207453,5,2,0:0:0:0:
172,127,207564,1,2,0:0:0:0:
249,77,207675,2,0,L|349:87,1,101.249996910095,8|0,0:0|0:0,0:0:0:0:
362,89,207897,2,0,P|375:58|368:25,1,67.4999979400635,2|0,0:0|0:0,0:0:0:0:
501,249,208119,6,0,B|502:197|456:152|408:165|408:165|384:192,1,179.999994506836,6|2,0:0|0:0,0:0:0:0:
320,272,208453,1,0,0:0:0:0:
349,87,208564,2,0,P|288:150|201:145,1,179.999994506836,10|6,0:0|0:0,0:0:0:0:
99,63,208860,5,4,0:0:0:0:
112,36,208934,1,4,0:0:0:0:
127,10,209008,2,0,L|136:100,1,89.9999972534181,6|0,0:0|0:0,0:0:0:0:
268,243,209231,2,0,L|277:154,1,89.9999972534181,2|0,0:0|0:0,0:0:0:0:
40,192,209453,5,10,0:0:0:0:
8,260,209564,1,0,0:0:0:0:
21,333,209675,1,2,0:0:0:0:
86,369,209786,1,2,0:0:0:0:
159,356,209897,5,6,0:0:0:0:
174,226,210008,1,0,0:0:0:0:
172,368,210119,1,0,0:0:0:0:
187,238,210230,1,2,0:0:0:0:
274,332,210342,5,14,0:0:0:0:
294,159,210453,1,0,0:0:0:0:
287,343,210564,1,4,0:0:0:0:
307,170,210675,1,4,0:0:0:0:
355,291,210786,6,0,L|459:301,1,104.999996795654,4|0,0:0|0:0,0:0:0:0:
398,138,211231,2,0,P|358:170|307:170,1,104.999996795654,8|0,0:0|0:0,0:0:0:0:
299,24,211675,5,4,0:0:0:0:
469,99,211897,1,0,0:0:0:0:
307,170,212119,1,8,0:0:0:0:
214,10,212342,1,0,0:0:0:0:
9,79,212564,6,0,B|126:48|126:48|96:67|93:97,1,180,4|0,0:0|0:0,0:0:0:0:
109,173,213008,2,0,P|161:214|227:208,1,134.999995880127,8|0,0:0|0:0,0:0:0:0:
307,170,213342,1,0,0:0:0:0:
230,199,213453,6,0,L|239:265,1,67.4999979400635,4|0,0:0|0:0,0:0:0:0:
123,317,213675,2,0,L|133:251,1,67.4999979400635,0|0,0:0|0:0,0:0:0:0:
237,190,213897,6,0,L|248:266,1,67.4999979400635,8|0,0:0|0:0,0:0:0:0:
115,326,214119,2,0,L|126:249,1,67.4999979400635,0|0,0:0|0:0,0:0:0:0:
247,257,214342,6,0,L|351:267,1,104.999996795654,4|0,0:0|0:0,0:0:0:0:
422,229,214675,1,0,0:0:0:0:
411,353,214786,2,0,P|368:325|352:277,1,104.999996795654,8|0,0:0|0:0,0:0:0:0:
430,138,215231,2,0,B|451:185|451:185|422:228,2,104.999996795654,4|0|8,0:0|0:0|0:0,0:0:0:0:
289,8,215897,5,4,0:0:0:0:
282,35,215971,1,4,0:0:0:0:
278,62,216045,1,4,0:0:0:0:
347,104,216119,6,0,B|247:83|296:142|179:117,1,150,14|0,0:0|0:0,0:0:0:0:
39,122,216453,6,0,B|23:88|51:71|51:71|100:75|116:128|88:162,1,179.999994506836,14|0,0:0|0:0,0:0:0:0:
78,295,216786,6,0,P|76:334|115:326,1,89.9999972534181,14|0,0:0|0:0,0:0:0:0:
194,296,217008,5,4,0:0:0:0:
304,270,217119,1,4,0:0:0:0:
150,220,217231,5,4,0:0:0:0:
263,346,217342,1,4,0:0:0:0:
421,303,217453,2,0,P|429:237|391:182,1,134.999995880127,14|0,0:0|0:0,0:0:0:0:
394,175,217675,6,0,P|321:149|245:181,1,157.499995193482,0|0,0:0|0:0,0:0:0:0:
150,220,217897,6,0,B|160:159|160:159|187:135|187:135|194:68,1,165.000005035401,6|2,0:0|0:0,0:0:0:0:
143,6,218231,1,2,0:0:0:0:
67,110,218342,2,0,P|99:135|140:137,1,82.5000025177003,10|0,0:0|0:0,0:0:0:0:
274,105,218564,2,0,L|282:22,1,82.5000025177003,2|2,0:0|0:0,0:0:0:0:
230,256,218786,6,0,P|283:197|363:197,1,165.000005035401,6|2,0:0|0:0,0:0:0:0:
426,255,219119,5,2,0:0:0:0:
445,247,219175,1,0,0:0:0:0:
465,241,219231,2,0,L|473:158,1,82.5000025177003,10|0,0:0|0:0,0:0:0:0:
398,21,219453,6,0,L|275:30,1,123.75000377655,0|0,0:0|0:0,0:0:0:0:
253,15,219675,6,0,L|245:98,1,82.5000025177003,6|0,0:0|0:0,0:0:0:0:
238,177,219897,1,2,0:0:0:0:
95,200,220008,6,0,P|73:165|76:124,1,82.5000025177003,2|10,0:0|0:0,0:0:0:0:
92,104,220231,1,0,0:0:0:0:
245,183,220342,5,2,0:0:0:0:
92,207,220453,1,2,0:0:0:0:
176,319,220564,6,0,L|184:236,1,82.5000025177003,6|0,0:0|0:0,0:0:0:0:
323,162,220786,2,0,P|325:202|304:237,1,82.5000025177003,2|0,0:0|0:0,0:0:0:0:
253,372,221008,5,10,0:0:0:0:
237,342,221082,1,0,0:0:0:0:
209,323,221157,1,0,0:0:0:0:
176,319,221231,1,0,0:0:0:0:
144,330,221305,1,0,0:0:0:0:
118,351,221379,1,0,0:0:0:0:
45,316,221453,6,0,L|35:234,1,82.5000025177003,6|0,0:0|0:0,0:0:0:0:
125,26,221675,5,2,0:0:0:0:
120,48,221786,1,2,0:0:0:0:
126,77,221897,1,10,0:0:0:0:
150,105,222009,1,0,0:0:0:0:
190,122,222120,1,2,0:0:0:0:
239,104,222231,1,0,0:0:0:0:
269,30,222341,5,6,0:0:0:0:
283,40,222397,1,2,0:0:0:0:
298,49,222453,2,0,L|380:61,1,82.5000025177003,2|0,0:0|0:0,0:0:0:0:
365,135,222638,5,0,0:0:0:0:
376,172,222712,1,0,0:0:0:0:
353,203,222786,2,0,L|246:183,1,110.000003356934,10|0,0:0|0:0,0:0:0:0:
184,239,223008,5,2,0:0:0:0:
189,271,223082,1,0,0:0:0:0:
194,304,223157,1,0,0:0:0:0:
260,353,223231,6,0,P|274:315|269:275,1,82.5000025177003,6|0,0:0|0:0,0:0:0:0:
269,275,223453,1,2,0:0:0:0:
104,206,223564,2,0,P|98:246|113:284,1,82.5000025177003,2|10,0:0|0:0,0:0:0:0:
260,353,223786,5,2,0:0:0:0:
339,362,223897,1,2,0:0:0:0:
418,371,224008,1,2,0:0:0:0:
475,314,224119,5,6,0:0:0:0:
461,293,224175,1,0,0:0:0:0:
444,272,224231,2,0,B|427:235|427:235|442:197,1,82.5000025177003,0|0,0:0|0:0,0:0:0:0:
499,18,224453,5,0,0:0:0:0:
451,174,224564,6,0,B|416:133|356:155|356:155|331:201|281:195,1,194.999991073609,14|0,0:0|0:0,0:0:0:0:
211,158,224897,1,0,0:0:0:0:
185,173,224953,1,0,0:0:0:0:
164,185,225008,6,0,P|85:192|40:128,1,165.000005035401,6|2,0:0|0:0,0:0:0:0:
80,58,225342,1,2,0:0:0:0:
23,260,225453,6,0,P|48:227|86:213,1,82.5000025177003,10|0,0:0|0:0,0:0:0:0:
219,250,225675,2,0,L|208:331,1,82.5000025177003,2|2,0:0|0:0,0:0:0:0:
40,372,225897,6,0,B|105:363|105:363|126:331|126:331|187:324,1,165.000005035401,6|2,0:0|0:0,0:0:0:0:
294,311,226231,1,2,0:0:0:0:
313,325,226286,1,0,0:0:0:0:
332,339,226342,2,0,L|342:257,1,82.5000025177003,10|0,0:0|0:0,0:0:0:0:
368,48,226564,6,0,B|328:31|328:31|354:106,1,123.75000377655,0|0,0:0|0:0,0:0:0:0:
371,120,226786,5,6,0:0:0:0:
441,77,226897,1,0,0:0:0:0:
470,197,227008,5,2,0:0:0:0:
314,177,227119,2,0,L|232:166,1,82.5000025177003,2|10,0:0|0:0,0:0:0:0:
209,163,227342,1,0,0:0:0:0:
108,48,227453,5,2,0:0:0:0:
44,192,227564,1,2,0:0:0:0:
197,239,227675,6,0,P|215:203|209:163,1,82.5000025177003,6|0,0:0|0:0,0:0:0:0:
55,115,227897,2,0,P|37:151|44:192,1,82.5000025177003,2|0,0:0|0:0,0:0:0:0:
30,344,228119,5,10,0:0:0:0:
43,313,228194,1,0,0:0:0:0:
70,295,228268,1,0,0:0:0:0:
102,290,228342,1,0,0:0:0:0:
134,295,228416,1,0,0:0:0:0:
158,316,228490,1,0,0:0:0:0:
225,366,228564,6,0,P|240:324|232:280,1,89.9999972534181,8|0,0:0|0:0,0:0:0:0:
179,216,228786,2,0,P|140:193|96:194,1,89.9999972534181,8|0,0:0|0:0,0:0:0:0:
31,140,229008,5,8,0:0:0:0:
39,104,229119,1,0,0:0:0:0:
96,194,229231,5,8,0:0:0:0:
114,64,229342,1,0,0:0:0:0:
173,171,229453,5,8,0:0:0:0:
199,167,229508,1,0,0:0:0:0:
226,164,229564,2,0,L|315:154,1,89.9999972534181,0|8,0:0|0:0,0:0:0:0:
370,94,229786,5,0,0:0:0:0:
388,224,229897,1,8,0:0:0:0:
450,110,230008,5,0,0:0:0:0:
462,199,230119,2,0,L|450:110,1,89.9999972534181,8|0,0:0|0:0,0:0:0:0:
256,60,230342,5,8,0:0:0:0:
229,55,230453,1,8,0:0:0:0:
202,51,230564,1,8,0:0:0:0:
175,46,230675,1,8,0:0:0:0:
148,41,230786,5,8,0:0:0:0:
148,244,230897,1,8,0:0:0:0:
29,79,231008,1,8,0:0:0:0:
223,143,231119,1,8,0:0:0:0:
29,205,231231,5,8,0:0:0:0:
31,218,231286,1,0,0:0:0:0:
33,231,231342,1,8,0:0:0:0:
35,244,231397,1,0,0:0:0:0:
38,257,231453,1,8,0:0:0:0:
40,270,231508,1,0,0:0:0:0:
43,283,231564,1,8,0:0:0:0:
45,296,231619,1,0,0:0:0:0:
47,309,231675,6,0,L|43:331,12,22.4999993133545,8|0|0|0|8|0|0|0|8|0|0|0|8,0:0|0:0|0:0|0:0|0:0|0:0|0:0|0:0|0:0|0:0|0:0|0:0|0:0,0:0:0:0:
148,244,232119,6,0,B|132:239|132:239|126:234|126:234|113:238|113:238|122:249|122:249|130:247|130:247|175:259|175:259|162:334|162:334|155:345|155:345|159:361|159:361|170:348|170:348|170:336|170:336|193:264|193:264|237:275|237:275|244:281|244:281|257:277|257:277|248:266|248:266|236:267|236:267|195:256|195:256|205:219|205:219|212:206|212:206|205:188|205:188|190:200|190:200|190:215|190:215|180:252,1,600,12|0,0:0|0:0,0:0:0:0:
