osu file format v14

[General]
AudioFilename: TRICK or TREAT - - Copy.mp3
AudioLeadIn: 0
PreviewTime: 18260
Countdown: 0
SampleSet: Soft
StackLeniency: 0.7
Mode: 0
LetterboxInBreaks: 0
WidescreenStoryboard: 0

[Editor]
DistanceSpacing: 1.8
BeatDivisor: 4
GridSize: 4
TimelineZoom: 1

[Metadata]
Title:TRICK or TREAT
TitleUnicode:TRICK or TREAT
Artist:Hatsuki Yura
ArtistUnicode:葉月ゆら
Creator:ByBy13
Version:Insane
Source:
Tags:wicked drop m3
BeatmapID:803767
BeatmapSetID:364741

[Difficulty]
HPDrainRate:7
CircleSize:4.2
OverallDifficulty:7
ApproachRate:8
SliderMultiplier:1.7
SliderTickRate:1

[Events]
//Background and Video events
0,0,"4dc3f9ab-bb10-4054-c03b-1cb05a12b769.jpg",0,0
//Break Periods
//Storyboard Layer 0 (Background)
//Storyboard Layer 1 (Fail)
//Storyboard Layer 2 (Pass)
//Storyboard Layer 3 (Foreground)
//Storyboard Sound Samples

[TimingPoints]
147,566.037735849057,4,2,1,70,1,0
9203,-100,4,2,2,70,0,0
18260,-100,4,2,1,70,0,0
27316,-100,4,2,2,70,0,0
32411,-100,4,2,2,20,0,0
32977,-100,4,2,2,15,0,0
33543,-100,4,2,2,10,0,0
34109,-100,4,2,2,5,0,0

[Colours]
Combo1 : 0,102,0
Combo2 : 234,77,0
Combo3 : 196,0,98

[HitObjects]
46,174,147,6,0,L|92:153,1,42.5,4|0,0:0|0:0,0:0:0:0:
151,128,430,1,0,0:0:0:0:
151,128,713,1,2,0:0:0:0:
159,203,854,1,0,0:0:0:0:
222,159,996,1,0,0:0:0:0:
332,288,1279,6,0,L|309:334,1,42.5,8|0,0:0|0:0,0:0:0:0:
246,363,1562,1,0,0:0:0:0:
276,212,1845,1,2,0:0:0:0:
282,132,1986,1,0,0:0:0:0:
351,167,2128,1,0,0:0:0:0:
452,304,2411,6,0,L|405:317,1,42.5,8|0,0:0|0:0,0:0:0:0:
336,308,2694,1,0,0:0:0:0:
336,308,2977,2,0,L|296:226,1,85,2|0,0:0|0:0,0:0:0:0:
228,96,3543,2,0,L|219:73,7,21.25,8|0|0|0|0|0|0|0,0:0|0:0|0:0|0:0|0:0|0:0|0:0|0:0,0:0:0:0:
198,27,4109,1,2,0:0:0:0:
75,322,4675,6,0,L|126:333,1,42.5,4|0,0:0|0:0,0:0:0:0:
190,350,4958,1,0,0:0:0:0:
190,350,5241,1,2,0:0:0:0:
228,283,5382,1,0,0:0:0:0:
281,338,5524,1,0,0:0:0:0:
351,193,5807,6,0,L|371:138,1,42.5,8|0,0:0|0:0,0:0:0:0:
388,80,6090,1,0,0:0:0:0:
452,220,6373,1,2,0:0:0:0:
511,275,6514,1,0,0:0:0:0:
441,299,6656,1,0,0:0:0:0:
272,276,6939,6,0,L|236:239,1,42.5,8|0,0:0|0:0,0:0:0:0:
192,188,7222,1,0,0:0:0:0:
192,188,7505,2,0,L|267:130,1,85,2|0,0:0|0:0,0:0:0:0:
384,48,8071,1,8,0:0:0:0:
470,152,8354,2,0,L|497:177,4,21.25,0|0|0|0|2,0:0|0:0|0:0|0:0|0:0,0:0:0:0:
184,260,9203,6,0,L|104:289,1,85,4|0,0:3|0:0,0:0:0:0:
29,308,9628,1,0,0:0:0:0:
0,237,9769,2,0,P|35:215|77:214,1,85
154,213,10194,1,0,0:0:0:0:
111,149,10335,5,8,0:3:0:0:
173,9,10618,1,8,0:3:0:0:
173,9,10901,1,8,0:3:0:0:
303,122,11184,1,0,0:0:0:0:
373,162,11326,1,0,0:0:0:0:
312,214,11467,6,0,L|236:256,1,85,4|0,0:3|0:0,0:0:0:0:
169,291,11892,1,0,0:0:0:0:
144,218,12033,2,0,P|103:246|91:290,1,85
84,354,12458,1,0,0:0:0:0:
24,299,12599,5,8,0:3:0:0:
81,147,12882,1,8,0:3:0:0:
81,147,13165,1,8,0:3:0:0:
221,63,13448,1,0,0:0:0:0:
297,40,13590,1,0,0:0:0:0:
280,118,13731,6,0,L|221:193,1,85,8|0,0:3|0:0,0:0:0:0:
149,296,14297,1,8,0:3:0:0:
149,296,14580,1,0,0:0:0:0:
269,235,14863,1,8,0:3:0:0:
269,235,15005,1,0,0:0:0:0:
269,235,15147,1,0,0:0:0:0:
316,98,15430,1,8,0:3:0:0:
174,126,15713,1,0,0:0:0:0:
66,272,15996,6,0,L|52:306,7,21.25,4|0|0|0|0|0|0|0,0:3|0:0|0:0|0:0|0:0|0:0|0:0|0:0,0:0:0:0:
112,208,16562,2,0,L|96:195,6,21.25,8|0|0|0|0|0|0,0:3|0:0|0:0|0:0|0:0|0:0|0:0,0:0:0:0:
178,252,17128,1,2,0:3:0:0:
178,252,17411,1,0,0:0:0:0:
248,126,17694,1,2,0:3:0:0:
248,126,17977,1,0,0:0:0:0:
379,34,18260,6,0,L|405:77,1,42.5,4|0,0:0|0:0,0:0:0:0:
443,133,18543,1,0,0:0:0:0:
443,133,18826,1,2,0:0:0:0:
399,195,18967,1,0,0:0:0:0:
351,134,19109,1,0,0:0:0:0:
327,294,19392,6,0,L|296:342,1,42.5,8|0,0:0|0:0,0:0:0:0:
232,360,19675,1,0,0:0:0:0:
240,208,19958,1,2,0:0:0:0:
303,173,20099,1,0,0:0:0:0:
236,132,20241,1,0,0:0:0:0:
72,176,20524,6,0,L|42:209,1,42.5,8|0,0:0|0:0,0:0:0:0:
28,284,20807,1,0,0:0:0:0:
28,284,21090,2,0,B|44:315|44:315|67:334|67:334|78:350,1,85,2|0,0:0|0:0,0:0:0:0:
232,348,21656,2,0,L|259:324,7,21.25,8|0|0|0|0|0|0|0,0:0|0:0|0:0|0:0|0:0|0:0|0:0|0:0,0:0:0:0:
280,304,22222,1,2,0:0:0:0:
104,36,22788,6,0,L|63:69,1,42.5,4|0,0:0|0:0,0:0:0:0:
18,108,23071,1,0,0:0:0:0:
18,108,23354,1,2,0:0:0:0:
84,144,23496,1,0,0:0:0:0:
20,183,23637,1,0,0:0:0:0:
109,315,23920,6,0,L|149:357,1,42.5,8|0,0:0|0:0,0:0:0:0:
216,348,24203,1,0,0:0:0:0:
220,196,24486,1,2,0:0:0:0:
157,163,24628,1,0,0:0:0:0:
217,124,24769,1,0,0:0:0:0:
376,68,25052,6,0,L|421:54,1,42.5,8|0,0:0|0:0,0:0:0:0:
485,45,25335,1,0,0:0:0:0:
485,45,25618,2,0,L|493:129,1,85,2|0,0:0|0:0,0:0:0:0:
428,268,26184,1,8,0:0:0:0:
308,333,26467,2,0,L|285:354,4,21.25,0|0|0|0|2,0:0|0:0|0:0|0:0|0:0,0:0:0:0:
113,96,27316,6,0,L|90:141,1,42.5,4|0,0:3|0:0,0:0:0:0:
13,130,27599,2,0,L|36:85,1,42.5,0|0,0:0|0:0,0:0:0:0:
60,28,27882,1,0,0:0:0:0:
195,43,28165,1,0,0:0:0:0:
324,124,28448,5,8,0:3:0:0:
324,124,28731,1,0,0:0:0:0:
279,252,29014,1,8,0:3:0:0:
279,252,29580,6,0,P|225:228|194:219,1,85,4|0,0:3|0:0,0:0:0:0:
66,192,30147,1,8,0:3:0:0:
23,321,30430,1,0,0:0:0:0:
173,346,30713,5,8,0:3:0:0:
173,346,31279,1,8,0:3:0:0:
408,309,31845,6,0,B|450:279|504:300|504:300|487:254|463:160|527:113|527:113|512:48|461:14|421:11|382:0|305:62|303:148|385:204,1,680,4|0,0:3|0:0,0:0:0:0:
