osu file format v14

[General]
AudioFilename: TRICK or TREAT - - Copy.mp3
AudioLeadIn: 0
PreviewTime: 18260
Countdown: 0
SampleSet: Soft
StackLeniency: 0.7
Mode: 0
LetterboxInBreaks: 0
WidescreenStoryboard: 0

[Editor]
DistanceSpacing: 1.3
BeatDivisor: 4
GridSize: 4
TimelineZoom: 1

[Metadata]
Title:TRICK or TREAT
TitleUnicode:TRICK or TREAT
Artist:Hatsuki Yura
ArtistUnicode:葉月ゆら
Creator:ByBy13
Version:Hard
Source:
Tags:wicked drop m3
BeatmapID:803138
BeatmapSetID:364741

[Difficulty]
HPDrainRate:6
CircleSize:4
OverallDifficulty:6
ApproachRate:7
SliderMultiplier:1.6
SliderTickRate:1

[Events]
//Background and Video events
0,0,"4dc3f9ab-bb10-4054-c03b-1cb05a12b769.jpg",0,0
//Break Periods
//Storyboard Layer 0 (Background)
//Storyboard Layer 1 (Fail)
//Storyboard Layer 2 (Pass)
//Storyboard Layer 3 (Foreground)
//Storyboard Sound Samples

[TimingPoints]
147,566.037735849057,4,2,1,70,1,0
9203,-100,4,2,2,70,0,0
18260,-100,4,2,1,70,0,0
27316,-100,4,2,2,70,0,0
32411,-100,4,2,2,20,0,0
32977,-100,4,2,2,15,0,0
33543,-100,4,2,2,10,0,0
34109,-100,4,2,2,5,0,0

[Colours]
Combo1 : 0,102,0
Combo2 : 234,77,0
Combo3 : 196,0,98

[HitObjects]
339,300,147,6,0,P|295:283|236:281,1,80,4|0,0:0|0:0,0:0:0:0:
160,258,713,2,0,L|127:215,2,40,2|0|0,0:0|0:0|0:0,0:0:0:0:
247,176,1279,2,0,P|232:121|208:89,1,80,8|0,0:0|0:0,0:0:0:0:
124,64,1845,2,0,L|77:37,2,40,2|0|0,0:0|0:0|0:0,0:0:0:0:
104,184,2411,6,0,L|132:156,2,40,8|0|0,0:0|0:0|0:0,0:0:0:0:
36,260,2977,1,2,0:0:0:0:
140,272,3260,1,0,0:0:0:0:
224,208,3543,2,0,L|238:194,8,20,8|0|0|0|0|0|0|0|2,0:0|0:0|0:0|0:0|0:0|0:0|0:0|0:0|0:0,0:0:0:0:
82,355,4675,6,0,B|47:355|47:355|24:346|24:346|3:346,1,80,4|0,0:0|0:0,0:0:0:0:
8,242,5241,2,0,L|27:207,2,40,2|0|0,0:0|0:0|0:0,0:0:0:0:
108,176,5807,2,0,P|86:140|53:110,1,80,8|0,0:0|0:0,0:0:0:0:
1,31,6373,2,0,L|46:22,2,40,2|0|0,0:0|0:0|0:0,0:0:0:0:
0,156,6939,6,0,L|17:197,2,40,8|0|0,0:0|0:0|0:0,0:0:0:0:
37,58,7505,1,2,0:0:0:0:
135,92,7788,1,0,0:0:0:0:
220,33,8071,1,8,0:0:0:0:
220,33,8354,2,0,B|230:68|230:68|232:95|232:95|242:125,1,80,0|2,0:0|0:0,0:0:0:0:
330,331,9203,6,0,P|363:306|380:258,1,80,4|0,0:3|0:0,0:0:0:0:
381,199,9628,1,0,0:0:0:0:
352,133,9769,2,0,B|308:121|308:121|244:125,1,80,0|0,0:0|0:0,0:0:0:0:
154,136,10335,1,8,0:3:0:0:
154,136,10618,1,8,0:3:0:0:
169,238,10901,1,8,0:3:0:0:
228,322,11184,1,0,0:0:0:0:
323,249,11467,6,0,P|363:217|415:209,1,80,4|0,0:3|0:0,0:0:0:0:
462,202,11892,1,0,0:0:0:0:
428,138,12033,2,0,B|400:102|400:102|352:78,1,80
261,34,12599,1,8,0:3:0:0:
261,34,12882,1,8,0:3:0:0:
186,106,13165,1,8,0:3:0:0:
182,209,13448,2,0,P|222:233|246:245,1,40
263,252,13731,6,0,P|251:304|243:340,1,80,8|0,0:3|0:0,0:0:0:0:
348,336,14297,2,0,P|356:296|365:258,1,80,8|0,0:3|0:0,0:0:0:0:
356,154,14863,1,8,0:3:0:0:
356,154,15005,1,0,0:0:0:0:
356,154,15147,2,0,P|296:118|264:110,1,80,0|8,0:0|0:3,0:0:0:0:
197,62,15713,1,0,0:0:0:0:
152,173,15996,6,0,L|136:269,1,80,4|0,0:3|0:0,0:0:0:0:
132,355,16562,2,0,P|193:348|254:327,1,120
295,306,17128,2,0,P|335:294|391:298,1,80,2|0,0:3|0:0,0:0:0:0:
443,217,17694,2,0,P|421:172|419:137,1,80,2|0,0:3|0:0,0:0:0:0:
364,35,18260,6,0,B|335:57|335:57|308:63|308:63|281:83,1,80,4|0,0:0|0:0,0:0:0:0:
230,153,18826,2,0,L|206:203,2,40,2|0|0,0:0|0:0|0:0,0:0:0:0:
176,49,19392,2,0,P|126:88|89:101,1,80,8|0,0:0|0:0,0:0:0:0:
28,157,19958,2,0,L|44:207,2,40,2|0|0,0:0|0:0|0:0,0:0:0:0:
147,152,20524,6,0,L|161:212,2,40,8|0|0,0:0|0:0|0:0,0:0:0:0:
227,85,21090,1,2,0:0:0:0:
285,170,21373,1,0,0:0:0:0:
388,166,21656,2,0,L|405:141,8,20,8|0|0|0|0|0|0|0|2,0:0|0:0|0:0|0:0|0:0|0:0|0:0|0:0|0:0,0:0:0:0:
232,328,22788,6,0,P|190:319|152:292,1,80,4|0,0:0|0:0,0:0:0:0:
88,223,23354,2,0,L|59:184,2,40,2|0|0,0:0|0:0|0:0,0:0:0:0:
182,179,23920,2,0,B|219:170|219:170|237:154|237:154|264:145,1,80,8|0,0:0|0:0,0:0:0:0:
357,120,24486,2,0,L|383:154,2,40,2|0|0,0:0|0:0|0:0,0:0:0:0:
287,218,25052,6,0,L|301:282,2,40,8|0|0,0:0|0:0|0:0,0:0:0:0:
205,153,25618,1,2,0:0:0:0:
155,244,25901,1,0,0:0:0:0:
64,192,26184,1,8,0:0:0:0:
64,192,26467,2,0,P|84:156|93:110,1,80,0|2,0:0|0:0,0:0:0:0:
314,28,27316,6,0,P|347:59|390:72,1,80,4|0,0:3|0:0,0:0:0:0:
450,82,27741,1,0,0:0:0:0:
473,149,27882,2,0,L|462:241,1,80,0|0,0:0|0:0,0:0:0:0:
389,301,28448,1,8,0:3:0:0:
289,331,28731,1,0,0:0:0:0:
220,252,29014,1,8,0:3:0:0:
278,19,29580,6,0,P|319:33|358:65,1,80,4|0,0:3|0:0,0:0:0:0:
398,145,30147,1,8,0:3:0:0:
319,212,30430,1,0,0:0:0:0:
215,213,30713,1,8,0:3:0:0:
215,213,31279,1,8,0:3:0:0:
397,312,31845,6,0,B|439:282|493:303|493:303|476:257|452:163|516:116|516:116|501:51|450:15|377:6|286:50|302:115|315:163,1,640,4|0,0:3|0:0,0:0:0:0:
