osu file format v14

[General]
AudioFilename: audio.mp3
AudioLeadIn: 0
PreviewTime: 86402
Countdown: 1
SampleSet: Soft
StackLeniency: 0.4
Mode: 0
LetterboxInBreaks: 0
WidescreenStoryboard: 0

[Editor]
DistanceSpacing: 0.9
BeatDivisor: 4
GridSize: 4
TimelineZoom: 1.6

[Metadata]
Title:Souen no Himegimi
TitleUnicode:双剣の姫君
Artist:Hatsuki Yura
ArtistUnicode:葉月ゆら / 海紅
Creator:Lavi
Version:Yes.
Source:葉月ゆら×Seraph『蒼炎の姫君』
Tags:
BeatmapID:2085956
BeatmapSetID:997208

[Difficulty]
HPDrainRate:4.5
CircleSize:4
OverallDifficulty:8.6
ApproachRate:9.3
SliderMultiplier:2
SliderTickRate:1

[Events]
//Background and Video events
0,0,"e0b62df7ee4be5453a0a2a7e8c0049f3.png",0,0
//Break Periods
2,10953,13199
2,231413,232478
//Storyboard Layer 0 (Background)
//Storyboard Layer 1 (Fail)
//Storyboard Layer 2 (Pass)
//Storyboard Layer 3 (Foreground)
//Storyboard Layer 4 (Overlay)
//Storyboard Sound Samples

[TimingPoints]
281,363.636363636364,4,2,1,22,1,0
281,-166.666666666667,4,2,1,22,0,0
5735,392.156862745098,4,2,1,22,1,0
5735,-166.666666666667,4,2,1,22,0,0
6127,425.531914893617,4,2,1,22,1,0
6552,468.75,4,2,1,22,1,0
6552,-166.666666666667,4,2,1,22,0,0
7489,576.923076923077,4,2,1,22,1,0
7489,-166.666666666667,4,2,1,22,0,0
8065,705.882352941176,4,2,1,22,1,0
8065,-166.666666666667,4,2,1,20,0,0
8770,983.606557377049,4,2,1,17,1,0
9753,1000,4,2,1,20,1,0
13753,375,4,2,1,22,1,0
13753,-125,4,2,1,17,0,0
13940,-125,4,2,1,22,0,0
14128,363.636363636364,6,2,1,30,1,0
14128,-100,6,2,1,30,0,0
22855,-100,6,2,1,50,0,0
27400,-200,6,2,1,50,0,0
27764,-100,6,2,1,50,0,0
28491,-200,6,2,1,50,0,0
28855,-100,6,2,1,50,0,0
29400,363.636363636364,5,2,1,40,1,0
32854,-142.857142857143,5,2,1,30,0,0
33036,363.636363636364,6,2,1,30,1,0
33036,-142.857142857143,6,2,1,30,0,0
36581,-142.857142857143,6,2,1,5,0,0
36672,-142.857142857143,6,2,1,30,0,0
59217,-125,6,2,1,55,0,0
67945,-125,6,2,1,50,0,0
74581,-125,6,2,1,5,0,0
74672,-125,6,2,1,55,0,0
74763,-125,6,2,1,5,0,0
74854,-125,6,2,1,60,0,0
74945,-125,6,2,1,5,0,0
75036,-125,6,2,1,60,0,0
75126,-125,6,2,1,5,0,0
75217,-125,6,2,1,60,0,0
75308,-125,6,2,1,5,0,0
75399,-125,6,2,1,60,0,0
75490,-125,6,2,1,5,0,0
75581,-125,6,2,1,60,0,0
76672,-83.3333333333333,6,2,1,30,0,0
76854,-250,6,2,1,30,0,0
77217,-83.3333333333333,6,2,1,30,0,0
79036,-250,6,2,1,30,0,0
79399,-83.3333333333333,6,2,1,30,0,0
81217,-250,6,2,1,30,0,0
81581,-83.3333333333333,6,2,1,30,0,0
83399,-250,6,2,1,30,0,0
83763,-83.3333333333333,6,2,1,30,0,0
83945,-83.3333333333333,6,2,1,30,0,0
85399,363.636363636364,3,2,1,30,1,0
85399,-71.4285714285714,3,2,1,30,0,0
86489,363.636363636364,6,2,1,45,1,0
86489,-76.9230769230769,6,2,1,45,0,1
94125,-111.111111111111,6,2,1,45,0,1
94852,-76.9230769230769,6,2,1,45,0,1
104489,-90.9090909090909,6,2,1,45,0,1
107943,-250,6,2,1,45,0,0
117034,-142.857142857143,6,2,1,45,0,0
127943,-111.111111111111,6,2,1,45,0,0
145398,-142.857142857143,6,2,1,45,0,0
154125,-125,6,2,1,45,0,0
171579,-83.3333333333333,6,2,1,45,0,0
171761,-250,6,2,1,45,0,0
172125,-83.3333333333333,6,2,1,45,0,0
173943,-250,6,2,1,45,0,0
174307,-83.3333333333333,6,2,1,45,0,0
176125,-250,6,2,1,45,0,0
176489,-83.3333333333333,6,2,1,45,0,0
178307,-250,6,2,1,45,0,0
178670,-83.3333333333333,6,2,1,45,0,0
180307,363.636363636364,3,2,1,45,1,0
180307,-71.4285714285714,3,2,1,45,0,0
181397,363.636363636364,6,2,1,45,1,0
181397,-76.9230769230769,6,2,1,45,0,1
189033,-111.111111111111,6,2,1,45,0,1
190124,-76.9230769230769,6,2,1,45,0,1
198487,-111.111111111111,6,2,1,45,0,1
198851,-76.9230769230769,6,2,1,45,0,1
199397,-111.111111111111,6,2,1,45,0,1
203215,-83.3333333333333,6,2,1,45,0,1
210487,363.636363636364,3,2,1,45,1,0
210487,-500,3,2,1,45,0,0
211578,363.636363636364,6,2,1,45,1,0
211578,-90.9090909090909,6,2,1,45,0,0
229032,-125,6,2,1,45,0,0
233032,-500,6,2,1,5,0,0
233396,-250,6,2,1,45,0,0
250850,-76.9230769230769,6,2,1,45,0,1
258487,-111.111111111111,6,2,1,45,0,1
259214,-76.9230769230769,6,2,1,45,0,1
268850,-90.9090909090909,6,2,1,45,0,1
272305,-250,6,2,1,45,0,1
272668,-200,6,2,1,45,0,0
276668,-125,6,2,1,45,0,0
277032,-83.3333333333333,6,2,1,45,0,0
295941,-66.6666666666667,6,2,1,45,0,0

[Colours]
Combo1 : 220,141,149
Combo2 : 139,188,228
Combo3 : 215,123,121
Combo4 : 207,217,140

[HitObjects]
266,246,281,6,0,P|232:275|158:309,2,119.999996337891,2|0|2,0:0|0:0|0:0,0:0:0:0:
419,89,1371,2,0,P|413:149|425:206,1,119.999996337891,2|0,0:0|0:0,0:0:0:0:
506,242,1917,1,0,0:0:0:0:
487,161,2099,2,0,P|458:152|428:151,1,59.9999981689454,2|0,0:0|0:0,0:0:0:0:
405,4,2462,2,0,P|350:44|315:88,1,119.999996337891,2|0,0:0|0:0,0:0:0:0:
442,224,3008,1,0,0:0:0:0:
480,145,3190,2,0,P|462:126|428:103,1,59.9999981689454,2|0,0:0|0:0,0:0:0:0:
277,157,3553,6,0,P|307:208|357:255,2,119.999996337891,0|2|2,0:0|0:0|0:0,0:0:0:0:
119,91,4644,6,0,P|69:107|7:146,1,119.999996337891,2|0,0:0|0:0,0:0:0:0:
189,274,5371,2,0,P|180:246|164:221,1,59.9999981689454,2|0,0:0|0:0,0:0:0:0:
105,325,5735,6,0,P|150:318|233:323,1,119.999996337891,2|0,0:0|0:0,0:0:0:0:
405,384,6552,2,0,P|412:349|422:321,1,59.9999981689454
335,218,7020,5,2,0:0:0:0:
335,218,7489,2,0,P|350:246|358:278,1,59.9999981689454,0|2,0:0|0:0,0:0:0:0:
226,217,8065,2,0,P|241:182|257:156,1,59.9999981689454,2|0,0:0|0:0,0:0:0:0:
309,66,8770,5,2,0:0:0:0:
262,163,9753,5,0,0:0:0:0:
313,237,10753,5,2,0:0:0:0:
341,252,13753,6,0,P|336:280|320:312,1,53.3333333333333,0|0,3:0|3:0,3:0:0:0:
257,255,14003,2,0,P|250:236|250:223,1,26.6666666666667,0|0,3:0|3:0,3:0:0:0:
304,176,14128,6,0,P|357:168|410:147,1,100,2|0,0:0|0:0,0:0:0:0:
203,162,14491,2,0,P|209:112|226:66,1,100
238,251,14855,1,0,0:0:0:0:
136,231,15037,2,0,P|115:217|97:200,1,50,2|0,0:0|0:0,0:0:0:0:
23,109,15218,6,0,P|73:107|123:113,1,100,8|0,0:1|0:0,0:0:0:0:
290,116,15582,2,0,P|273:75|270:12,1,100,8|0,0:1|0:0,0:0:0:0:
363,203,15946,2,0,P|392:170|417:112,1,100,8|0,0:1|0:0,0:0:0:0:
245,231,16309,6,0,P|270:276|311:312,1,100,2|0,0:0|0:0,0:0:0:0:
492,194,16673,2,0,P|453:191|378:211,1,100,8|0,0:1|0:0,0:0:0:0:
289,241,17037,1,2,0:0:0:0:
396,295,17218,2,0,P|351:317|302:326,1,100,8|0,0:1|0:0,0:0:0:0:
245,231,17582,1,2,0:0:0:0:
135,108,17764,2,0,P|153:154|184:193,1,100,8|0,0:1|0:0,0:0:0:0:
37,24,18128,2,0,P|35:73|20:121,1,100,8|0,0:1|0:0,0:0:0:0:
214,4,18491,6,0,P|262:16|305:41,1,100,2|0,0:0|0:0,0:0:0:0:
274,215,18855,2,0,P|255:174|249:107,1,100,8|0,0:1|0:0,0:0:0:0:
376,170,19218,1,0,0:0:0:0:
387,274,19400,2,0,P|364:299|338:317,1,50,8|0,0:1|0:0,0:0:0:0:
243,345,19582,6,0,P|316:344|358:353,1,100,2|0,0:0|0:0,0:0:0:0:
216,186,19946,2,0,P|173:214|133:267,1,100,8|0,0:1|0:0,0:0:0:0:
39,384,20309,2,0,P|30:343|-3:291,1,100,0|2,0:0|0:0,0:0:0:0:
257,108,20673,6,0,P|288:176|340:231,1,150,2|0,0:0|0:0,0:0:0:0:
412,231,21037,2,0,P|364:246|324:276,1,100,8|0,0:1|0:0,0:0:0:0:
378,111,21400,2,0,P|361:92|340:77,1,50,2|0,0:0|0:0,0:0:0:0:
268,43,21582,6,0,P|317:36|367:43,2,100,8|0|2,0:1|0:0|0:0,0:0:0:0:
112,207,22128,1,8,0:3:0:0:
401,183,22309,1,8,0:1:0:0:
153,303,22491,5,8,1:3:0:0:
199,236,22582,1,8,1:3:0:0:
205,154,22673,1,8,1:3:0:0:
161,91,22764,1,8,1:3:0:0:
97,135,22855,6,0,L|70:189,1,50,8|0,0:3|0:3,0:3:0:0:
37,81,23037,2,0,L|25:27,1,50,8|0,0:3|0:3,0:3:0:0:
213,65,23218,2,0,L|104:49,1,100,12|0,0:3|0:3,0:3:0:0:
282,7,23491,1,0,0:3:0:0:
313,90,23582,2,0,L|306:157,1,50,8|0,0:3|0:3,0:3:0:0:
376,251,23764,2,0,L|369:190,1,50,12|0,0:3|0:3,0:3:0:0:
197,202,23946,6,0,P|245:217|295:220,1,100,8|0,0:3|0:3,0:3:0:0:
411,30,24309,1,12,0:3:0:0:
449,170,24491,2,0,P|474:213|519:247,2,100,8|10|8,0:3|0:3|0:3,0:3:0:0:
267,255,25037,6,0,L|235:307,1,50,8|0,0:3|0:3,0:3:0:0:
355,265,25218,2,0,L|336:214,1,50,8|0,0:3|0:3,0:3:0:0:
168,185,25400,2,0,L|276:177,1,100,12|0,0:3|0:3,0:3:0:0:
90,140,25673,1,0,0:3:0:0:
86,227,25764,2,0,L|74:288,1,50,8|0,0:3|0:3,0:3:0:0:
6,100,25946,2,0,L|12:154,1,50,12|0,0:3|0:3,0:3:0:0:
203,54,26128,6,0,P|153:52|104:58,1,100,8|0,0:3|0:3,0:3:0:0:
231,263,26491,1,12,0:3:0:0:
331,57,26673,1,8,0:3:0:0:
332,80,26764,1,8,0:3:0:0:
333,106,26855,2,0,L|347:40,1,50,8|0,0:3|0:3,0:3:0:0:
438,49,27037,2,0,L|431:0,1,50,12|0,0:3|0:3,0:3:0:0:
429,183,27218,5,12,0:3:0:0:
429,183,27400,2,0,P|416:208|406:232,1,50,12|0,0:3|3:3,0:3:0:0:
438,299,27764,2,0,L|483:333,1,50,2|0,0:2|0:2,0:2:0:0:
354,312,27946,2,0,L|316:344,1,50,2|0,0:2|0:2,0:2:0:0:
242,258,28128,2,0,L|292:266,1,50,0|0,0:3|0:3,0:3:0:0:
148,330,28309,5,12,0:3:0:0:
148,330,28491,2,0,L|136:278,1,50,12|0,0:3|3:3,0:3:0:0:
165,187,28855,2,0,L|186:135,1,50,2|0,0:2|0:2,0:2:0:0:
276,142,29037,2,0,L|254:89,1,50,2|0,0:2|0:2,0:2:0:0:
150,65,29218,1,0,0:3:0:0:
254,20,29400,5,12,0:3:0:0:
72,97,29581,1,0,3:0:0:0:
1,67,29763,1,2,0:0:0:0:
184,141,29945,1,12,3:0:0:0:
261,170,30127,1,0,3:0:0:0:
77,241,30309,1,12,3:0:0:0:
248,93,30490,1,2,3:1:0:0:
248,93,30854,1,2,0:1:0:0:
298,279,31218,5,12,0:3:0:0:
232,230,31400,1,0,0:3:0:0:
409,132,31581,1,2,0:0:0:0:
397,209,31763,1,12,0:3:0:0:
248,93,31945,1,0,0:3:0:0:
296,32,32127,1,12,0:3:0:0:
506,161,32309,1,10,0:2:0:0:
506,161,32672,1,10,0:2:0:0:
431,224,32854,2,0,P|443:241|463:260,1,34.9999989318848
512,273,33036,6,0,P|467:266|397:282,1,104.999996795654,2|0,0:0|0:0,0:0:0:0:
341,211,33399,2,0,P|322:241|310:274,2,69.9999978637696,2|0|2,0:0|0:0|0:0,0:0:0:0:
230,353,34126,2,0,P|198:332|123:307,1,104.999996795654
256,241,34490,2,0,P|282:241|325:222,1,69.9999978637696,2|0,0:0|0:0,0:0:0:0:
101,157,34854,2,0,P|101:182|119:223,1,69.9999978637696,2|0,0:0|0:0,0:0:0:0:
192,102,35217,6,0,P|147:70|60:56,2,139.999995727539,0|2|2,0:0|0:0|0:0,0:0:0:0:
325,241,36126,1,0,0:0:0:0:
273,130,36308,2,0,P|318:102|369:89,1,104.999996795654
461,107,36672,1,2,0:0:0:0:
491,179,36854,1,0,0:0:0:0:
389,69,37036,1,2,0:0:0:0:
389,69,37399,6,0,P|362:98|338:171,1,104.999996795654
244,179,37763,2,0,P|258:218|282:241,2,69.9999978637696,2|0|2,0:0|0:0|0:0,0:0:0:0:
467,293,38490,2,0,P|413:281|352:293,1,104.999996795654
212,333,38854,2,0,P|229:347|283:365,1,69.9999978637696,2|0,0:0|0:0,0:0:0:0:
314,195,39217,2,0,P|287:222|269:257,1,69.9999978637696,2|0,0:0|0:0,0:0:0:0:
137,217,39581,6,0,P|69:200|0:211,2,139.999995727539,0|2|2,0:0|0:0|0:0,0:0:0:0:
288,305,40490,1,0,0:0:0:0:
238,216,40672,2,0,P|237:157|271:59,1,139.999995727539,0|2,0:0|0:0,0:0:0:0:
89,89,41217,1,0,0:0:0:0:
115,223,41399,2,0,P|138:196|151:164,1,69.9999978637696,2|0,0:0|0:0,0:0:0:0:
266,122,41763,6,0,P|305:137|337:165,1,69.9999978637696,4|0,0:0|0:0,0:0:0:0:
394,206,42126,2,0,P|365:227|333:239,1,69.9999978637696,2|0,0:0|0:0,0:0:0:0:
199,243,42490,2,0,P|217:224|261:203,1,69.9999978637696,2|0,0:0|0:0,0:0:0:0:
412,237,42854,2,0,P|445:263|464:292,2,69.9999978637696,0|0|2,0:0|0:0|0:0,0:0:0:0:
315,291,43399,1,0,0:0:0:0:
386,384,43581,2,0,P|389:349|386:314,1,69.9999978637696,2|0,0:0|0:0,0:0:0:0:
253,187,43945,6,0,P|218:183|183:188,1,69.9999978637696,2|0,0:0|0:0,0:0:0:0:
100,205,44308,2,0,P|115:237|139:262,1,69.9999978637696,2|0,0:0|0:0,0:0:0:0:
238,372,44672,2,0,P|228:332|211:299,1,69.9999978637696,2|0,0:0|0:0,0:0:0:0:
75,228,45036,2,0,P|43:243|19:267,2,69.9999978637696,0|0|2,0:0|0:0|0:0,0:0:0:0:
226,127,45581,1,0,0:0:0:0:
222,226,45763,2,0,P|256:223|290:214,1,69.9999978637696,2|0,0:0|0:0,0:0:0:0:
432,192,46126,6,0,P|414:223|407:257,1,69.9999978637696,4|0,0:0|0:0,0:0:0:0:
392,342,46490,2,0,P|427:337|459:323,1,69.9999978637696,2|0,0:0|0:0,0:0:0:0:
375,146,46854,2,0,P|383:180|403:209,1,69.9999978637696,2|0,0:0|0:0,0:0:0:0:
488,31,47217,2,0,P|444:15|371:13,1,104.999996795654
315,70,47581,2,0,P|282:59|247:28,1,69.9999978637696,2|0,0:0|0:0,0:0:0:0:
117,156,47945,1,2,0:0:0:0:
180,85,48126,1,0,0:0:0:0:
204,253,48308,6,0,P|199:303|153:388,1,139.999995727539,4|2,0:0|0:0,0:0:0:0:
11,272,48854,1,0,0:0:0:0:
175,322,49036,2,0,P|162:289|139:262,1,69.9999978637696,2|0,0:0|0:0,0:0:0:0:
296,179,49399,2,0,P|346:166|397:178,1,104.999996795654,4|0,0:0|0:0,0:0:0:0:
201,293,49763,1,12,1:3:0:0:
287,62,49945,1,8,1:3:0:0:
134,148,50126,1,8,1:3:0:0:
240,210,50308,1,8,1:3:0:0:
174,68,50490,6,0,P|120:53|100:54,2,69.9999978637696,6|0|0,0:0|0:0|0:0,0:0:0:0:
86,147,51036,1,0,0:0:0:0:
29,85,51217,2,0,P|19:42|21:5,1,69.9999978637696,2|8,0:0|3:0,0:0:0:0:
201,68,51581,6,0,P|216:103|222:142,2,69.9999978637696,6|0|0,0:0|0:0|0:0,0:0:0:0:
113,135,52126,1,0,0:0:0:0:
162,217,52308,2,0,P|185:243|215:261,1,69.9999978637696,2|8,0:0|3:0,0:0:0:0:
449,241,52672,6,0,P|405:237|320:197,1,139.999995727539,6|0,0:0|0:0,0:0:0:0:
440,60,53217,1,0,0:0:0:0:
441,215,53399,2,0,P|418:179|412:149,1,69.9999978637696,0|8,0:0|3:0,0:0:0:0:
266,68,53763,6,0,P|239:108|232:172,1,104.999996795654,6|0,0:0|0:0,0:0:0:0:
282,265,54126,1,0,0:0:0:0:
108,205,54308,2,0,L|125:130,1,69.9999978637696,0|2,3:0|0:0,0:0:0:0:
294,162,54672,1,8,3:0:0:0:
183,331,54854,6,0,P|124:324|108:317,2,69.9999978637696,6|0|0,0:0|0:0|0:0,0:0:0:0:
255,224,55399,1,0,0:0:0:0:
192,164,55581,2,0,P|146:186|123:205,1,69.9999978637696,2|8,0:0|3:0,0:0:0:0:
296,326,55945,2,0,P|330:346|369:348,2,69.9999978637696,6|0|0,0:0|0:0|0:0,0:0:0:0:
340,200,56490,1,0,0:0:0:0:
422,218,56672,2,0,P|412:253|393:285,1,69.9999978637696,2|8,0:0|3:0,0:0:0:0:
315,91,57036,6,0,P|378:76|461:77,1,139.999995727539,6|0,0:0|0:0,0:0:0:0:
200,67,57581,1,0,0:0:0:0:
162,138,57763,2,0,P|192:156|226:165,1,69.9999978637696,2|8,0:0|3:0,0:0:0:0:
103,39,58126,1,4,0:0:0:0:
103,39,58490,1,8,1:0:0:0:
34,209,58672,1,8,1:0:0:0:
262,237,58854,1,8,3:3:0:0:
249,226,58914,1,8,3:3:0:0:
233,219,58975,1,8,3:3:0:0:
217,215,59036,2,8,L|187:216,1,23.3333326212565,8|8,3:3|3:3,3:3:0:0:
257,342,59217,6,0,P|316:342|373:324,1,120,2|0,3:0|0:0,0:0:0:0:
352,178,59581,2,0,P|397:199|434:228,1,80,6|0,3:0|0:0,0:0:0:0:
448,57,59945,2,0,P|426:66|406:78,1,40,8|0,3:0|0:0,0:0:0:0:
300,52,60126,2,0,P|289:38|275:12,1,40,6|0,3:0|0:0,0:0:0:0:
351,153,60308,2,0,P|269:160|222:153,1,120,2|0,3:0|0:0,0:0:0:0:
141,88,60672,2,0,P|160:67|175:55,1,40,6|0,3:0|0:0,0:0:0:0:
124,194,60854,2,0,P|104:203|80:208,1,40,8|0,3:0|0:0,0:0:0:0:
27,103,61036,2,0,L|16:11,1,80,8|10,3:0|3:0,0:0:0:0:
209,245,61399,6,0,P|197:286|180:323,2,80,2|0|6,3:0|0:0|3:0,0:0:0:0:
28,319,61945,1,8,3:0:0:0:
115,187,62126,2,0,P|122:220|122:233,1,40,8|0,3:0|0:0,0:0:0:0:
259,148,62308,2,0,P|231:142|206:143,1,40,6|0,3:0|0:0,0:0:0:0:
297,267,62490,2,0,P|356:262|422:230,1,120,8|0,3:0|0:0,0:0:0:0:
198,259,62854,1,6,0:0:0:0:
411,366,63036,1,8,0:3:0:0:
410,347,63126,1,8,0:3:0:0:
407,329,63217,2,0,L|403:278,1,40,8|0,3:3|0:0,3:0:0:0:
500,171,63399,2,0,L|496:210,1,40,6|0,3:0|0:0,3:0:0:0:
381,147,63581,6,0,P|327:128|258:126,1,120,10|0,3:0|0:0,0:0:0:0:
133,226,63945,2,0,P|161:205|174:190,1,40,6|0,3:0|0:0,0:0:0:0:
79,57,64126,2,0,P|80:81|85:100,1,40,8|0,3:0|0:0,0:0:0:0:
259,45,64308,1,8,3:0:0:0:
243,34,64399,1,0,0:0:0:0:
228,23,64490,2,0,L|176:22,1,40,6|0,3:0|0:0,0:0:0:0:
300,181,64672,2,0,P|329:151|363:69,1,120,2|0,3:0|0:0,0:0:0:0:
486,157,65036,2,0,P|475:132|470:105,1,40,6|0,3:0|0:0,0:0:0:0:
372,243,65217,2,0,P|361:276|352:294,1,40,8|0,3:0|0:0,0:0:0:0:
499,335,65399,1,8,3:0:0:0:
300,335,65581,1,10,3:0:0:0:
255,172,65763,6,0,P|305:204|342:250,1,120,0|0,3:0|0:0,0:0:0:0:
186,280,66126,2,0,P|147:274|130:274,1,40,6|0,3:0|0:0,0:0:0:0:
111,114,66308,2,0,P|133:135|141:150,1,40,8|0,3:0|0:0,0:0:0:0:
6,252,66490,2,0,L|15:213,1,40,10|0,3:0|0:0,0:0:0:0:
92,97,66672,2,0,L|79:57,1,40,6|0,3:0|0:0,0:0:0:0:
127,295,66854,1,8,3:0:0:0:
172,201,67036,1,0,0:0:0:0:
337,358,67217,2,0,L|293:342,1,40,6|0,3:0|0:0,0:0:0:0:
404,198,67399,2,0,L|448:182,1,40,8|0,3:0|0:0,0:0:0:0:
414,321,67581,5,12,0:3:0:0:
352,275,67672,1,8,0:3:0:0:
324,204,67763,1,8,0:3:0:0:
331,125,67854,1,8,0:3:0:0:
393,80,67945,6,0,P|425:78|477:100,1,80,2|0,0:0|0:0,0:0:0:0:
268,80,68308,2,0,P|252:43|255:-3,1,80,2|0,0:0|0:0,0:0:0:0:
348,150,68672,2,0,P|326:175|283:197,1,80,2|0,0:0|0:0,0:0:0:0:
126,139,69036,5,0,3:0:0:0:
181,205,69217,1,0,3:0:0:0:
246,86,69399,1,12,3:0:0:0:
167,65,69581,1,8,3:0:0:0:
298,146,69763,1,6,3:0:0:0:
224,8,69945,1,0,3:0:0:0:
62,72,70126,6,0,P|45:98|36:159,1,80,2|0,0:0|0:0,0:0:0:0:
190,241,70490,2,0,P|158:204|125:187,1,80,2|0,0:0|0:0,0:0:0:0:
25,296,70854,2,0,P|76:305|115:293,1,80,2|0,0:0|0:0,0:0:0:0:
301,270,71217,5,0,3:0:0:0:
233,317,71399,1,0,3:0:0:0:
251,170,71581,1,12,3:0:0:0:
326,197,71763,1,8,3:0:0:0:
306,353,71945,1,6,3:0:0:0:
177,205,72126,1,0,3:0:0:0:
297,34,72308,6,0,P|315:69|322:118,1,80,2|0,0:0|0:0,0:0:0:0:
238,273,72672,2,0,P|255:241|298:206,1,80,6|0,0:0|0:0,0:0:0:0:
446,272,73036,2,0,P|413:277|365:273,1,80,6|0,0:0|0:0,0:0:0:0:
414,186,73308,1,0,0:0:0:0:
425,179,73399,2,0,P|448:172|470:169,1,40,8|0,3:0|0:0,0:0:0:0:
430,74,73581,2,0,P|401:52|342:38,2,80,8|12|0,3:0|0:0|0:0,0:0:0:0:
248,122,74126,2,0,P|204:126|120:98,1,120,6|0,3:0|0:0,0:0:0:0:
134,51,74490,6,0,P|141:83|137:101,1,40,0|0,3:0|3:0,3:0:0:0:
40,147,74672,2,0,P|52:129|69:114,1,40,12|0,3:0|3:0,3:0:0:0:
163,187,74854,2,0,P|137:197|116:196,1,40,0|0,3:0|3:0,3:0:0:0:
15,263,75036,2,0,P|39:269|62:283,1,40,12|0,3:0|3:0,3:0:0:0:
158,384,75217,2,0,P|147:363|145:338,1,40,0|0,3:0|3:0,3:0:0:0:
286,183,75399,2,0,P|286:208|278:234,1,40,12|0,3:0|3:0,3:0:0:0:
135,271,75581,5,6,0:0:0:0:
459,331,75763,1,0,0:0:0:0:
43,359,75945,1,6,0:0:0:0:
43,359,76308,1,6,0:0:0:0:
375,231,76672,6,0,L|303:243,1,59.9999981689454
248,301,76854,2,0,L|210:291,1,40
213,210,77217,2,0,L|146:226,1,59.9999981689454
82,178,77399,2,0,L|19:165,1,59.9999981689454
0,61,77581,2,0,L|64:51,1,59.9999981689454
269,107,77763,5,0,0:0:0:0:
207,46,77945,1,0,0:0:0:0:
389,67,78126,1,0,0:0:0:0:
442,0,78308,1,0,0:0:0:0:
280,136,78490,1,0,0:0:0:0:
221,77,78672,1,0,0:0:0:0:
349,214,78854,6,0,L|361:150,1,59.9999981689454
430,102,79036,2,0,L|420:63,1,40
472,186,79399,2,0,L|453:250,1,59.9999981689454
377,299,79581,2,0,L|388:368,1,59.9999981689454
294,239,79763,2,0,L|348:214,1,59.9999981689454
240,323,79945,1,0,0:0:0:0:
100,285,80126,1,0,0:0:0:0:
138,146,80308,1,0,0:0:0:0:
276,184,80490,1,0,0:0:0:0:
100,285,80672,2,0,L|94:200,1,59.9999981689454
236,103,80854,1,0,0:0:0:0:
268,82,80945,1,0,0:0:0:0:
295,65,81036,6,0,L|360:46,1,59.9999981689454
397,116,81217,2,0,L|451:127,1,40
499,213,81581,2,0,L|420:227,1,59.9999981689454
371,278,81763,2,0,L|306:271,1,59.9999981689454
456,384,81945,2,0,L|512:365,1,59.9999981689454
477,218,82126,5,0,0:0:0:0:
431,138,82308,1,0,0:0:0:0:
269,202,82490,1,0,0:0:0:0:
362,202,82672,1,0,0:0:0:0:
404,36,82854,1,0,0:0:0:0:
378,21,82945,1,0,0:0:0:0:
348,21,83036,1,0,0:0:0:0:
325,36,83126,1,0,0:0:0:0:
318,58,83217,6,0,L|315:125,1,59.9999981689454
223,134,83399,2,0,L|238:181,1,40
145,215,83763,2,0,L|132:283,1,59.9999981689454
191,357,83945,2,0,L|257:376,1,59.9999981689454
329,293,84126,2,0,L|310:237,1,59.9999981689454
108,302,84308,6,0,P|87:281|70:257,1,59.9999981689454
150,160,84490,2,0,P|172:138|196:121,1,59.9999981689454
286,196,84672,2,0,P|307:217|324:241,1,59.9999981689454
256,337,84854,2,0,P|234:359|210:376,1,59.9999981689454
117,311,85036,1,0,0:0:0:0:
92,284,85126,1,0,0:0:0:0:
75,251,85217,1,0,0:0:0:0:
69,217,85308,1,0,0:0:0:0:
70,182,85399,6,0,P|79:134|98:102,1,69.9999978637696
292,0,85580,2,0,P|327:9|358:26,1,69.9999978637696
479,215,85762,2,0,P|469:262|450:294,1,69.9999978637696
241,383,85944,2,0,P|206:374|175:357,1,69.9999978637696
100,118,86126,5,0,0:0:0:0:
166,63,86217,1,0,0:0:0:0:
255,59,86308,1,0,0:0:0:0:
324,101,86399,1,0,0:0:0:0:
365,160,86489,6,0,P|381:80|409:9,1,129.999994049073
492,213,86852,2,0,P|449:242|371:275,1,129.999994049073
213,313,87125,1,0,0:0:0:0:
213,280,87216,2,0,P|225:250|242:222,1,64.9999970245363
58,130,87398,2,0,P|69:160|87:187,1,43.3333313496908
289,101,87579,2,0,P|233:69|171:52,2,129.999994049073
445,285,88125,2,0,P|364:312|311:344,1,129.999994049073
125,306,88398,1,0,0:0:0:0:
133,281,88489,2,0,P|145:240|150:200,1,64.9999970245363
391,213,88670,6,0,P|291:227|241:218,1,129.999994049073
170,51,89034,2,0,P|226:84|272:130,1,129.999994049073
388,119,89307,1,0,0:0:0:0:
409,108,89398,2,0,P|425:77|434:33,1,64.9999970245363
262,223,89579,2,0,P|294:230|336:231,1,64.9999970245363
176,69,89761,2,0,P|102:58|74:61,1,64.9999970245363
19,209,89943,2,0,P|54:206|88:196,1,64.9999970245363
299,28,90125,2,0,P|323:77|348:172,1,129.999994049073
173,19,90398,1,0,0:0:0:0:
150,44,90489,2,0,P|131:74|119:119,1,64.9999970245363,0|0,2:0|2:0,2:0:0:0:
294,256,90670,2,0,P|284:222|266:192,1,64.9999970245363,0|0,2:0|2:0,2:0:0:0:
55,336,90852,6,0,P|152:352|214:342,1,129.999994049073
257,167,91216,2,0,P|192:228|159:283,1,129.999994049073
40,128,91489,1,0,0:0:0:0:
70,124,91579,2,0,P|111:134|153:157,1,64.9999970245363
299,28,91761,2,0,P|259:47|219:74,1,64.9999970245363
347,217,91943,2,0,P|424:274|478:293,2,129.999994049073
451,0,92489,2,0,P|476:74|486:146,1,129.999994049073
252,127,92761,1,0,0:0:0:0:
274,106,92852,2,0,P|303:92|341:85,1,64.9999970245363
246,283,93034,6,0,P|136:252|78:222,1,129.999994049073
331,212,93398,2,0,P|380:273|420:347,1,129.999994049073
193,363,93670,1,0,0:0:0:0:
201,338,93761,2,0,P|233:313|285:286,1,64.9999970245363
171,108,93943,1,0,0:0:0:0:
211,178,94034,1,0,0:0:0:0:
237,192,94125,6,0,P|261:198|295:193,1,44.999998626709
263,119,94307,2,0,P|285:108|308:80,1,44.999998626709
123,188,94489,2,0,P|126:215|145:250,1,44.999998626709
180,77,94670,2,0,P|160:58|123:43,1,44.999998626709
209,272,94852,5,0,0:0:0:0:
289,312,94943,1,0,0:0:0:0:
376,307,95034,1,0,0:0:0:0:
448,264,95125,1,0,0:0:0:0:
474,181,95216,6,0,P|460:148|436:115,1,64.9999970245363
275,187,95398,2,0,P|304:200|336:206,1,64.9999970245363
389,31,95579,2,0,P|360:58|339:90,1,64.9999970245363
261,211,95761,2,0,P|249:177|235:149,1,64.9999970245363
149,9,95943,2,0,P|180:25|289:37,1,129.999994049073
136,154,96216,1,0,0:0:0:0:
112,167,96307,2,0,L|107:337,2,129.999994049073
384,345,96852,2,0,B|405:346|428:358|428:358|401:300|298:307,1,194.999991073609,0|0,2:0|2:0,2:0:0:0:
63,368,97216,2,0,P|94:376|126:376,1,64.9999970245363
229,212,97398,6,0,P|191:159|137:124,1,129.999994049073
379,110,97670,1,0,0:0:0:0:
376,144,97761,2,0,P|356:169|332:191,1,64.9999970245363
209,2,97943,2,0,P|241:-1|273:4,1,64.9999970245363
512,0,98125,2,0,P|487:66|488:140,1,129.999994049073
495,339,98398,1,0,0:0:0:0:
483,305,98489,2,0,P|452:280|404:255,1,64.9999970245363
253,331,98670,1,0,0:0:0:0:
284,316,98761,1,0,0:0:0:0:
299,289,98852,2,0,P|284:260|264:234,1,64.9999970245363
61,251,99034,2,0,P|121:228|145:212,1,64.9999970245363
43,31,99216,2,0,P|5:102|-18:169,1,129.999994049073
165,10,99489,1,0,0:0:0:0:
197,16,99579,6,0,L|333:53,2,129.999994049073
434,140,100125,2,0,L|369:144,1,64.9999970245363
342,265,100307,1,0,0:0:0:0:
496,286,100489,1,0,0:0:0:0:
486,262,100579,1,0,0:0:0:0:
477,240,100670,6,0,L|344:216,2,129.999994049073
257,175,101216,2,0,L|183:190,1,64.9999970245363
199,339,101398,2,0,L|132:322,1,64.9999970245363
0,238,101579,2,0,L|64:228,1,64.9999970245363
168,69,101761,6,0,P|141:93|124:129,1,64.9999970245363
246,102,101943,2,0,P|252:70|247:39,1,64.9999970245363
95,92,102125,2,0,P|105:129|131:166,1,64.9999970245363
278,194,102307,2,0,P|315:197|379:179,1,64.9999970245363
132,39,102489,2,0,P|104:73|92:100,1,64.9999970245363
177,331,102670,1,0,0:0:0:0:
210,338,102761,1,0,0:0:0:0:
241,342,102852,6,0,L|376:355,1,129.999994049073
214,206,103125,1,0,0:0:0:0:
252,229,103216,2,0,P|256:197|252:165,1,64.9999970245363
39,254,103398,2,0,P|55:284|76:309,1,64.9999970245363
368,57,103579,2,0,L|202:42,1,129.999994049073
354,253,103852,1,0,0:0:0:0:
377,285,103943,6,0,P|433:331|497:355,2,129.999994049073
103,65,104489,2,0,P|174:134|217:219,1,165.000005035401
282,49,104852,2,0,P|295:21|321:-14,1,55.0000016784668
458,195,105034,2,0,P|406:202|360:191,1,55.0000016784668
386,16,105216,5,0,0:0:0:0:
414,22,105307,1,0,0:0:0:0:
441,30,105398,1,0,0:0:0:0:
217,73,105579,1,0,0:0:0:0:
315,259,105761,1,0,0:0:0:0:
282,243,105852,1,0,0:0:0:0:
238,234,105943,1,0,0:0:0:0:
199,246,106034,1,0,0:0:0:0:
169,271,106125,6,0,L|174:336,1,55.0000016784668
82,197,106307,1,0,0:0:0:0:
78,212,106398,1,0,0:0:0:0:
74,228,106489,2,0,L|62:284,1,55.0000016784668
298,87,106670,2,0,L|291:31,1,55.0000016784668
386,154,106852,1,0,0:0:0:0:
390,139,106943,1,0,0:0:0:0:
395,121,107034,2,0,L|412:60,1,55.0000016784668
231,303,107216,6,0,L|238:373,1,55.0000016784668
68,362,107398,1,0,0:0:0:0:
89,353,107489,1,0,0:0:0:0:
106,342,107579,2,0,P|119:314|130:267,1,55.0000016784668
21,67,107761,2,0,P|28:94|40:119,1,55.0000016784668
290,217,107943,6,0,L|374:222,2,80
412,125,109034,2,0,L|393:47,1,80
389,31,109943,5,0,0:0:0:0:
414,113,110125,1,0,0:0:0:0:
441,193,110307,1,0,0:0:0:0:
418,280,110489,5,0,0:0:0:0:
441,193,110670,1,0,0:0:0:0:
418,280,110852,1,0,0:0:0:0:
441,193,111033,1,0,0:0:0:0:
418,280,111216,1,0,0:0:0:0:
441,193,111397,1,0,0:0:0:0:
418,280,111579,5,0,0:0:0:0:
381,197,111760,1,0,0:0:0:0:
325,264,111943,1,0,0:0:0:0:
381,197,112124,1,0,0:0:0:0:
325,264,112307,1,0,0:0:0:0:
291,179,112488,1,0,0:0:0:0:
227,245,112670,6,0,L|214:338,2,80
25,307,113761,2,0,L|110:278,1,80
110,259,114307,1,0,0:0:0:0:
28,280,114489,1,0,0:0:0:0:
9,357,114670,1,0,0:0:0:0:
131,281,114852,5,0,0:0:0:0:
77,182,115034,1,0,0:0:0:0:
131,281,115216,1,0,0:0:0:0:
187,179,115398,1,0,0:0:0:0:
131,281,115579,1,0,0:0:0:0:
77,182,115761,1,0,0:0:0:0:
131,281,115943,5,0,0:0:0:0:
244,277,116125,1,0,0:0:0:0:
187,179,116307,1,0,0:0:0:0:
244,277,116489,1,0,0:0:0:0:
343,305,116670,1,0,0:0:0:0:
431,252,116852,1,0,0:0:0:0:
175,234,117034,6,0,P|137:293|108:357,2,139.999995727539
282,163,117943,1,0,0:0:0:0:
361,320,118125,2,0,P|292:340|211:339,1,139.999995727539
282,163,118670,2,0,P|301:203|304:235,2,69.9999978637696
107,39,119216,5,0,0:0:0:0:
202,176,119398,1,0,0:0:0:0:
269,73,119579,2,0,P|318:52|425:33,1,139.999995727539
459,266,120307,2,0,P|396:234|340:194,1,139.999995727539
425,100,120852,1,0,0:0:0:0:
311,198,121034,2,0,P|345:209|380:209,1,69.9999978637696
231,67,121398,6,0,P|179:59|81:64,2,139.999995727539
281,166,122307,1,0,0:0:0:0:
130,242,122489,2,0,P|89:190|16:131,1,139.999995727539
38,318,123034,2,0,P|103:334|133:333,2,69.9999978637696
277,319,123579,5,0,0:0:0:0:
105,334,123761,1,0,0:0:0:0:
277,319,123943,2,0,P|320:284|376:206,1,139.999995727539
234,157,124489,1,0,0:0:0:0:
352,27,124670,2,0,P|366:59|368:94,1,69.9999978637696
249,90,125034,2,0,P|235:122|234:157,1,69.9999978637696
352,27,125398,1,0,0:0:0:0:
352,27,125761,6,0,L|340:110,3,69.9999978637696
251,115,126489,2,0,P|261:133|262:148,1,34.9999989318848
228,135,126670,2,0,P|226:156|217:169,1,34.9999989318848
175,157,126852,2,0,P|165:171|147:178,1,34.9999989318848
189,241,127034,2,0,P|205:247|222:247,1,34.9999989318848
250,324,127216,2,0,P|267:321|282:312,1,34.9999989318848
370,379,127398,2,0,P|383:368|392:353,1,34.9999989318848
374,206,127579,2,0,P|379:225|387:238,1,34.9999989318848
512,329,127761,2,0,P|508:310|498:296,1,34.9999989318848
259,112,127943,6,0,P|309:143|395:167,1,134.999995880127
405,158,128307,1,0,0:0:0:0:
259,112,128489,2,0,P|278:126|313:144,1,44.999998626709
429,59,128670,2,0,P|472:70|512:89,1,89.9999972534181
289,319,129034,6,0,P|241:273|207:215,1,134.999995880127
281,328,129398,2,0,P|300:340|322:348,1,44.999998626709,0|0,2:0|2:0,0:0:0:0:
178,264,129579,2,0,P|172:285|171:307,1,44.999998626709
348,259,129761,2,0,P|364:244|394:178,1,89.9999972534181
239,153,130125,6,0,P|170:138|55:148,1,179.999994506836
320,98,130670,2,0,P|291:72|260:63,1,44.999998626709
318,212,130852,2,0,P|370:193|425:194,1,89.9999972534181
199,146,131216,2,0,P|153:197|120:275,1,134.999995880127
122,286,131579,1,0,0:0:0:0:
199,146,131761,2,0,P|181:163|162:185,1,44.999998626709
230,295,131943,2,0,P|234:339|230:384,1,89.9999972534181
282,201,132307,6,0,P|346:220|402:258,1,134.999995880127
421,273,132670,1,0,0:0:0:0:
282,201,132852,2,0,P|305:205|330:214,1,44.999998626709
421,273,133034,2,0,P|452:240|471:200,1,89.9999972534181
178,373,133398,6,0,P|122:362|46:316,1,134.999995880127
31,300,133761,1,0,0:0:0:0:
202,370,133943,2,0,P|223:362|247:340,1,44.999998626709
267,195,134125,1,0,0:0:0:0:
127,120,134307,1,0,0:0:0:0:
8,200,134489,6,0,P|95:219|185:216,1,179.999994506836
84,55,135034,2,0,P|65:68|45:77,1,44.999998626709
182,17,135216,2,0,P|234:40|271:69,1,89.9999972534181
417,73,135579,2,0,P|350:79|284:69,1,134.999995880127
260,59,135943,1,0,0:0:0:0:
417,73,136125,2,0,P|392:77|372:78,1,44.999998626709
260,59,136307,2,0,P|217:73|179:96,1,89.9999972534181
361,288,136670,6,0,P|349:259|331:234,1,44.999998626709
388,301,136852,2,0,P|397:271|399:240,1,44.999998626709
387,324,137034,2,0,P|413:307|434:285,1,44.999998626709
221,305,137216,2,0,P|240:315|262:321,1,44.999998626709
309,210,137398,2,0,P|342:179|383:161,1,89.9999972534181
116,108,137761,6,0,P|137:124|161:159,1,44.999998626709
155,108,137943,2,0,P|160:133|156:175,1,44.999998626709
67,48,138125,2,0,P|52:65|41:85,1,44.999998626709
78,241,138307,2,0,P|63:222|51:196,1,44.999998626709
207,280,138489,2,0,P|190:304|125:359,1,89.9999972534181
318,273,138852,6,0,P|342:272|368:279,1,44.999998626709
337,287,139034,2,0,P|356:301|371:323,1,44.999998626709
343,316,139216,2,0,P|348:339|345:366,1,44.999998626709
303,162,139398,2,0,P|317:187|326:212,1,44.999998626709
174,275,139579,2,0,P|129:276|85:266,1,89.9999972534181
351,179,139943,6,0,P|375:189|409:215,1,44.999998626709
188,194,140125,2,0,P|208:182|229:174,1,44.999998626709
391,199,140307,2,0,P|371:187|351:179,1,44.999998626709
328,324,140489,2,0,P|352:321|395:308,1,44.999998626709
188,194,140670,2,0,P|124:180|109:182,1,44.999998626709
55,317,140852,2,0,P|83:315|104:305,1,44.999998626709
54,177,141034,6,0,P|31:198|14:224,1,44.999998626709
56,147,141216,2,0,P|24:148|-4:157,1,44.999998626709
78,139,141398,2,0,P|52:120|24:108,1,44.999998626709
120,301,141580,2,0,P|122:278|120:256,1,44.999998626709
164,105,141762,2,0,P|188:67|234:28,1,89.9999972534181
398,135,142125,6,0,P|373:144|343:145,1,44.999998626709
378,116,142307,2,0,P|353:106|329:88,1,44.999998626709
467,79,142489,2,0,P|479:99|486:120,1,44.999998626709
356,0,142670,2,0,P|389:12|417:31,1,44.999998626709
486,120,142852,2,0,P|480:172|458:220,1,89.9999972534181
165,167,143216,6,0,P|237:183|314:235,1,134.999995880127
311,232,143579,1,0,0:0:0:0:
165,167,143761,2,0,P|195:171|226:182,1,44.999998626709
311,232,143943,2,0,P|336:249|376:263,1,44.999998626709
479,221,144125,2,0,P|493:201|503:176,1,44.999998626709
349,255,144307,2,0,P|309:294|270:364,1,134.999995880127
265,384,144670,1,0,0:0:0:0:
213,261,144852,2,0,P|201:238|196:212,1,44.999998626709
68,268,145034,2,0,P|52:339|50:378,1,89.9999972534181
114,171,145398,6,0,P|71:143|26:134,2,69.9999978637696
153,293,145943,1,0,0:0:0:0:
89,345,146125,2,0,P|55:375|21:388,1,69.9999978637696
194,214,146489,6,0,P|228:246|247:286,2,69.9999978637696
244,357,147034,1,0,0:0:0:0:
313,314,147216,2,0,P|337:286|356:247,1,69.9999978637696
288,70,147579,6,0,P|298:110|317:141,2,69.9999978637696
410,2,148125,1,0,0:0:0:0:
447,76,148307,2,0,P|412:83|378:79,1,69.9999978637696
253,62,148670,2,0,P|205:58|123:74,1,104.999996795654
326,18,149034,1,0,0:0:0:0:
161,146,149216,2,0,P|185:171|205:201,1,69.9999978637696
27,144,149579,1,0,0:0:0:0:
109,250,149761,6,0,P|79:267|52:290,2,69.9999978637696
231,297,150307,1,0,0:0:0:0:
297,353,150489,2,0,P|329:369|376:376,1,69.9999978637696
408,182,150852,6,0,P|384:219|377:259,2,69.9999978637696
439,317,151398,1,0,0:0:0:0:
366,354,151579,2,0,P|313:356|288:350,1,69.9999978637696
243,187,151943,6,0,P|273:233|281:265,2,69.9999978637696
114,244,152489,1,0,0:0:0:0:
129,320,152670,2,0,P|180:325|209:318,1,69.9999978637696
16,212,153034,1,0,0:0:0:0:
16,212,153398,5,0,0:0:0:0:
241,276,153579,1,0,0:0:0:0:
148,107,153761,1,0,0:0:0:0:
137,101,153822,1,0,0:0:0:0:
126,97,153882,1,0,0:0:0:0:
114,96,153943,2,0,L|75:98,1,23.3333326212565
254,172,154125,6,0,P|312:212|369:237,1,120
350,378,154489,2,0,P|403:357|446:351,1,80
503,185,154852,2,0,P|494:200|488:222,1,40
353,269,155034,2,0,P|347:249|346:229,1,40
238,126,155216,2,0,P|307:126|364:149,1,120
186,243,155579,2,0,P|206:239|224:231,1,40
129,130,155761,2,0,P|111:120|92:114,1,40
217,49,155943,2,0,P|231:86|237:125,1,80
11,55,156307,6,0,P|47:38|105:32,2,80
181,75,156852,1,0,0:0:0:0:
74,167,157034,2,0,P|67:148|68:128,1,40
206,214,157216,2,0,P|200:232|182:257,1,40
9,295,157398,2,0,P|70:296|141:316,1,120
210,188,157761,2,0,P|189:174|165:168,1,40
335,95,157943,2,0,P|316:114|304:135,1,40
378,250,158125,1,0,0:0:0:0:
392,235,158216,1,0,0:0:0:0:
400,219,158307,2,0,P|400:192|397:174,1,40
264,318,158489,6,0,P|330:350|377:363,1,120
267,209,158852,2,0,P|247:214|230:224,1,40
125,354,159034,2,0,P|144:342|158:329,1,40
147,124,159216,2,0,P|137:189|139:238,1,80
419,93,159579,6,0,P|366:67|331:61,1,80
367,199,159852,1,0,0:0:0:0:
386,213,159943,2,0,P|415:227|446:235,1,40
276,137,160125,2,0,P|257:144|240:154,1,40
323,7,160307,2,0,P|333:46|336:62,1,40
155,59,160489,2,0,P|169:43|189:30,1,40
147,188,160670,6,0,P|72:185|-7:167,1,120
67,57,161034,2,0,P|57:38|41:20,1,40
171,184,161216,2,0,P|191:198|226:208,1,40
43,262,161398,2,0,P|5:305|-10:340,1,80
373,247,161761,1,0,0:0:0:0:
373,247,162125,6,0,L|382:208,1,40
252,37,162307,2,0,L|257:76,1,40
475,116,162489,1,0,0:0:0:0:
402,96,162579,1,0,0:0:0:0:
329,111,162670,1,0,0:0:0:0:
271,159,162761,1,0,0:0:0:0:
239,228,162852,6,0,P|200:217|165:198,1,80
186,30,163216,2,0,P|199:74|197:118,1,80
96,264,163579,2,0,P|58:287|10:297,1,80
88,116,163943,5,0,0:0:0:0:
183,111,164125,1,0,0:0:0:0:
267,157,164307,1,0,0:0:0:0:
294,249,164489,1,0,0:0:0:0:
203,279,164670,1,0,0:0:0:0:
176,186,164852,1,0,0:0:0:0:
267,157,165034,6,0,P|328:146|362:154,1,80
398,298,165398,2,0,P|365:262|349:228,1,80
353,66,165761,2,0,P|371:30|399:2,1,80
466,172,166125,5,0,0:0:0:0:
378,211,166307,1,0,0:0:0:0:
300,154,166489,1,0,0:0:0:0:
378,211,166670,1,0,0:0:0:0:
211,281,166852,1,0,0:0:0:0:
294,249,167034,1,0,0:0:0:0:
165,170,167216,6,0,P|114:152|67:150,1,80
5,294,167579,2,0,P|46:262|68:232,1,80
75,69,167943,2,0,P|49:39|16:16,1,80
156,61,168216,1,0,0:0:0:0:
182,75,168307,2,0,P|246:84|275:82,2,80
365,8,168852,1,0,0:0:0:0:
369,28,168943,1,0,0:0:0:0:
374,46,169034,2,0,L|379:94,1,40
462,174,169216,2,0,L|474:121,1,40
341,207,169398,5,0,0:0:0:0:
470,327,169579,2,0,L|465:287,1,40
301,214,169761,5,0,0:0:0:0:
445,336,169943,2,0,L|440:296,1,40
210,228,170125,5,0,0:0:0:0:
415,342,170307,2,0,L|408:285,1,40
144,357,170489,5,0,0:0:0:0:
470,193,170670,1,0,0:0:0:0:
40,114,170852,1,0,0:0:0:0:
40,114,171216,1,0,0:0:0:0:
171,281,171579,6,0,L|184:200,1,59.9999981689454
235,160,171761,2,0,L|228:104,1,40
375,42,172125,2,0,L|357:114,1,59.9999981689454
417,191,172307,2,0,L|426:251,1,59.9999981689454
280,250,172489,2,0,L|269:309,1,59.9999981689454
417,350,172670,5,0,0:0:0:0:
327,369,172852,1,0,0:0:0:0:
433,220,173034,1,0,0:0:0:0:
511,250,173216,1,0,0:0:0:0:
388,327,173398,1,0,0:0:0:0:
298,346,173580,1,0,0:0:0:0:
271,352,173670,1,0,0:0:0:0:
242,358,173761,6,0,L|174:377,1,59.9999981689454
99,314,173943,2,0,L|41:304,1,40
201,270,174307,2,0,L|278:253,1,59.9999981689454
350,203,174489,2,0,L|413:203,1,59.9999981689454
465,288,174670,2,0,L|520:318,1,59.9999981689454
256,351,174852,5,0,0:0:0:0:
374,280,175034,1,0,0:0:0:0:
202,175,175216,1,0,0:0:0:0:
283,252,175398,1,0,0:0:0:0:
362,90,175579,1,0,0:0:0:0:
355,73,175670,1,0,0:0:0:0:
341,60,175761,1,0,0:0:0:0:
326,48,175852,1,0,0:0:0:0:
308,44,175943,6,0,L|231:55,1,59.9999981689454
161,119,176125,2,0,L|109:113,1,40
23,197,176489,2,0,L|107:187,1,59.9999981689454
156,272,176670,2,0,L|227:286,1,59.9999981689454
307,359,176852,2,0,L|378:354,1,59.9999981689454
348,204,177034,5,0,0:0:0:0:
425,276,177216,1,0,0:0:0:0:
380,108,177398,1,0,0:0:0:0:
348,204,177579,1,0,0:0:0:0:
395,372,177761,1,0,0:0:0:0:
425,276,177943,1,0,0:0:0:0:
426,255,178034,1,0,0:0:0:0:
427,231,178125,6,0,L|433:154,1,59.9999981689454
365,90,178307,2,0,L|361:42,1,40
247,62,178670,2,0,L|237:144,1,59.9999981689454
309,208,178852,2,0,L|320:266,1,59.9999981689454
213,317,179034,2,0,L|201:375,1,59.9999981689454
49,245,179216,5,0,0:0:0:0:
66,239,179307,1,0,0:0:0:0:
80,229,179398,1,0,0:0:0:0:
90,214,179489,1,0,0:0:0:0:
90,142,179579,5,0,0:0:0:0:
80,127,179670,1,0,0:0:0:0:
66,117,179761,1,0,0:0:0:0:
49,111,179852,1,0,0:0:0:0:
18,177,179943,6,0,L|101:179,1,59.9999981689454
261,235,180125,2,0,L|186:235,1,59.9999981689454
160,17,180307,6,0,P|194:27|225:43,1,69.9999978637696
287,316,180489,2,0,P|318:332|352:342,1,69.9999978637696
426,110,180670,2,0,P|391:125|367:146,1,69.9999978637696
138,230,180852,2,0,P|112:253|80:267,1,69.9999978637696
81,6,181034,5,0,0:0:0:0:
164,41,181125,1,0,0:0:0:0:
219,111,181216,1,0,0:0:0:0:
234,204,181307,1,0,0:0:0:0:
188,279,181397,6,0,P|246:231|328:205,1,129.999994049073
466,98,181669,1,0,0:0:0:0:
448,118,181760,2,0,P|383:119|321:102,1,129.999994049073
155,165,182033,1,0,0:0:0:0:
170,192,182124,2,0,P|200:201|233:203,1,64.9999970245363
387,287,182306,2,0,P|381:322|364:360,1,64.9999970245363
302,125,182487,2,0,P|279:64|246:8,2,129.999994049073
129,70,183033,2,0,P|85:119|53:175,1,129.999994049073
204,345,183306,1,0,0:0:0:0:
193,313,183397,2,0,P|176:287|149:258,1,64.9999970245363
379,154,183578,6,0,P|342:217|279:274,1,129.999994049073
294,44,183942,2,0,P|374:41|441:63,1,129.999994049073
502,179,184215,1,0,0:0:0:0:
478,205,184306,2,0,P|457:248|448:292,1,64.9999970245363
273,344,184487,2,0,P|305:345|351:333,1,64.9999970245363
224,173,184669,6,0,P|200:193|175:226,1,64.9999970245363
49,305,184851,2,0,P|81:328|116:344,1,64.9999970245363
120,76,185033,2,0,P|47:90|-16:130,1,129.999994049073
227,222,185306,1,0,0:0:0:0:
197,232,185397,2,0,P|159:223|120:207,1,64.9999970245363
252,22,185578,2,0,P|276:50|294:91,1,64.9999970245363
358,251,185760,6,0,P|412:294|490:331,1,129.999994049073
376,103,186124,2,0,P|308:110|234:140,1,129.999994049073
468,171,186397,1,0,0:0:0:0:
488,149,186487,2,0,P|505:117|512:83,1,64.9999970245363
332,2,186669,2,0,P|376:1|417:10,1,64.9999970245363
250,131,186851,2,0,P|163:115|89:80,1,129.999994049073
14,238,187124,1,0,0:0:0:0:
44,224,187215,2,0,P|81:212|123:207,1,64.9999970245363
183,384,187397,2,0,P|163:358|144:321,1,64.9999970245363
261,148,187578,1,0,0:0:0:0:
270,175,187669,1,0,0:0:0:0:
270,203,187760,2,0,P|259:233|243:262,1,64.9999970245363
504,351,187942,6,0,P|470:295|425:248,1,129.999994049073
236,378,188306,2,0,P|325:373|409:344,1,129.999994049073
213,209,188578,1,0,0:0:0:0:
191,222,188669,2,0,P|173:243|148:292,1,64.9999970245363
338,173,188851,2,0,P|316:137|276:98,1,64.9999970245363
80,78,189033,6,0,P|103:92|141:99,1,44.999998626709
280,90,189215,2,0,P|259:98|236:101,1,44.999998626709
156,30,189397,2,0,P|177:21|200:19,1,44.999998626709
359,35,189578,2,0,P|339:23|318:19,1,44.999998626709
257,193,189760,1,0,0:0:0:0:
338,173,189851,1,0,0:0:0:0:
404,126,189942,1,0,0:0:0:0:
443,52,190033,1,0,0:0:0:0:
482,132,190124,6,0,P|493:174|498:234,1,64.9999970245363
367,285,190306,2,0,P|387:258|410:236,1,64.9999970245363
511,376,190487,2,0,P|480:368|451:354,1,64.9999970245363
263,334,190669,2,0,P|294:342|323:359,1,64.9999970245363
257,193,190851,6,0,P|192:218|123:264,1,129.999994049073
331,99,191124,1,0,0:0:0:0:
358,103,191215,2,0,L|371:246,2,129.999994049073
139,38,191760,2,0,B|94:46|80:17|80:17|155:18|191:71,1,194.999991073609
331,99,192124,2,0,P|363:104|395:103,1,64.9999970245363
407,272,192306,6,0,P|356:323|317:400,1,129.999994049073
143,384,192578,1,0,0:0:0:0:
137,347,192669,2,0,P|119:320|96:297,1,64.9999970245363
242,184,192851,2,0,P|272:195|305:198,1,64.9999970245363
173,32,193033,2,0,P|128:79|99:137,1,129.999994049073
303,87,193305,1,0,0:0:0:0:
329,76,193397,2,0,P|364:70|407:75,1,64.9999970245363
407,272,193578,2,0,P|360:220|337:176,1,64.9999970245363
222,84,193760,2,0,P|131:70|62:79,1,129.999994049073
160,261,194033,1,0,0:0:0:0:
191,261,194124,2,0,L|245:207,1,64.9999970245363
24,273,194306,1,0,0:0:0:0:
37,304,194397,1,0,0:0:0:0:
51,335,194487,6,0,L|204:362,2,129.999994049073
254,233,195033,1,0,0:0:0:0:
271,245,195124,1,0,0:0:0:0:
285,256,195215,2,0,L|271:323,1,64.9999970245363
427,221,195397,2,0,L|406:151,1,64.9999970245363
223,142,195578,6,0,L|95:114,2,129.999994049073
14,24,196124,1,0,0:0:0:0:
6,50,196215,1,0,0:0:0:0:
0,77,196306,2,0,L|12:153,1,64.9999970245363
187,54,196487,2,0,L|207:-23,1,64.9999970245363
413,117,196669,6,0,P|382:132|337:139,1,64.9999970245363
305,0,196851,2,0,P|338:18|376:52,1,64.9999970245363
237,166,197033,2,0,P|252:136|272:111,1,64.9999970245363
476,246,197215,2,0,P|437:232|400:203,1,64.9999970245363
215,135,197397,2,0,P|179:120|142:119,1,64.9999970245363
41,375,197578,2,0,P|73:369|120:349,1,64.9999970245363
51,122,197760,6,0,L|38:216,1,64.9999970245363
181,18,197942,1,0,0:0:0:0:
191,45,198033,1,0,0:0:0:0:
198,72,198124,2,0,L|218:147,1,64.9999970245363
367,26,198306,1,0,0:0:0:0:
364,55,198397,1,0,0:0:0:0:
361,88,198487,2,0,L|348:177,1,89.9999972534181
507,239,198760,1,0,0:0:0:0:
487,266,198851,6,0,P|431:295|356:308,2,129.999994049073
231,93,199397,2,0,P|152:81|79:97,1,134.999995880127
327,179,199760,2,0,P|351:155|386:140,1,44.999998626709
147,340,199942,5,0,0:0:0:0:
237,177,200124,1,0,0:0:0:0:
239,199,200215,1,0,0:0:0:0:
243,222,200306,1,0,0:0:0:0:
318,67,200487,1,0,0:0:0:0:
97,106,200669,1,0,0:0:0:0:
85,135,200760,1,0,0:0:0:0:
78,162,200851,1,0,0:0:0:0:
72,191,200942,1,0,0:0:0:0:
71,226,201033,6,0,P|78:258|94:291,1,44.999998626709
100,247,201215,2,0,P|117:274|143:300,1,44.999998626709
161,264,201397,2,0,P|186:284|220:299,1,44.999998626709
236,223,201578,2,0,P|265:218|304:223,1,44.999998626709
300,147,201760,2,0,P|327:157|359:182,1,44.999998626709
410,119,201942,2,0,P|428:141|443:179,1,44.999998626709
353,299,202124,6,0,P|359:273|376:238,3,44.999998626709
480,343,202487,2,0,P|460:361|432:375,1,44.999998626709
316,281,202669,6,0,P|296:270|276:262,1,44.999998626709
0,379,202851,1,0,0:0:0:0:
84,364,202942,1,0,0:0:0:0:
153,316,203033,1,0,0:0:0:0:
191,241,203124,1,0,0:0:0:0:
167,160,203215,6,0,P|117:115|2:87,1,179.999994506836
197,39,203578,2,0,P|277:51|353:43,1,119.999996337891,0|0,0:0|0:0,2:0:0:0:
420,152,203851,1,0,0:0:0:0:
401,173,203942,2,0,P|383:205|370:245,1,59.9999981689454
479,332,204124,2,0,P|468:298|446:264,1,59.9999981689454
239,316,204306,2,0,P|335:335|399:336,2,119.999996337891
281,55,204851,1,0,0:0:0:0:
276,77,204942,1,0,0:0:0:0:
271,100,205033,2,0,P|242:114|203:122,1,59.9999981689454
34,32,205215,2,0,P|63:39|90:54,1,59.9999981689454
136,234,205397,6,0,P|156:290|190:339,2,119.999996337891
377,193,205942,1,0,0:0:0:0:
373,214,206033,1,0,0:0:0:0:
371,237,206124,2,0,P|374:288|388:330,1,59.9999981689454
495,143,206306,2,0,P|477:114|452:88,1,59.9999981689454
480,275,206487,1,0,0:0:0:0:
289,120,206669,1,0,0:0:0:0:
501,16,206851,2,0,P|429:32|368:27,1,119.999996337891
288,119,207215,2,0,P|253:70|208:32,1,119.999996337891
117,189,207487,1,0,0:0:0:0:
106,225,207578,6,0,P|66:278|4:336,2,119.999996337891
377,231,208124,1,0,0:0:0:0:
361,244,208215,1,0,0:0:0:0:
341,254,208306,2,0,P|305:255|260:242,1,59.9999981689454
331,143,208487,2,0,P|313:119|289:102,1,59.9999981689454
117,189,208669,2,0,P|214:176|262:158,2,119.999996337891
69,29,209215,1,0,0:0:0:0:
61,50,209306,1,0,0:0:0:0:
55,70,209397,2,0,P|49:103|49:146,1,59.9999981689454
123,219,209578,1,0,0:0:0:0:
106,238,209669,1,0,0:0:0:0:
89,258,209760,5,0,0:0:0:0:
89,258,210487,6,0,L|84:303,2,40
200,279,211578,6,0,B|199:301|218:306|218:306|220:247|290:209,1,110.000003356934
391,277,211850,1,0,0:0:0:0:
365,297,211941,2,0,P|333:304|286:304,1,55.0000016784668
311,166,212123,2,0,P|326:190|335:216,1,55.0000016784668
304,78,212305,2,0,P|342:82|386:98,1,55.0000016784668
223,37,212487,2,0,P|242:14|276:-8,1,55.0000016784668
84,79,212668,6,0,B|72:62|84:55|84:55|135:54|155:123,1,110.000003356934
47,195,212941,1,0,0:0:0:0:
32,216,213032,2,0,P|16:243|1:277,1,55.0000016784668
145,298,213214,2,0,P|154:324|159:352,1,55.0000016784668
16,271,213396,2,0,P|27:246|42:222,1,55.0000016784668
172,175,213578,2,0,P|167:147|158:121,1,55.0000016784668
80,26,213759,6,0,B|111:45|161:21|161:21|204:51|204:51|231:51|231:51|273:37|273:37|238:3|194:25|194:25,1,275.000008392334
142,136,214305,2,0,P|127:167|119:222,1,55.0000016784668
238,196,214487,2,0,P|321:178|379:172,1,110.000003356934
508,65,214759,1,0,0:0:0:0:
480,58,214850,2,0,P|463:79|450:104,1,55.0000016784668
452,328,215032,1,0,0:0:0:0:
469,306,215123,1,0,0:0:0:0:
485,275,215214,2,0,P|487:247|483:220,1,55.0000016784668
344,276,215396,2,0,P|368:264|390:247,1,55.0000016784668
178,248,215578,2,0,P|201:264|227:275,1,55.0000016784668
387,322,215759,2,0,P|364:306|339:296,1,55.0000016784668
139,361,215941,6,0,B|129:374|129:374|177:377|207:319,1,110.000003356934
17,188,216214,1,0,0:0:0:0:
29,209,216305,2,0,P|38:239|41:277,1,55.0000016784668
173,171,216487,1,0,0:0:0:0:
192,157,216578,1,0,0:0:0:0:
217,152,216668,2,0,P|248:155|276:168,1,55.0000016784668
40,43,216850,2,0,P|9:33|-21:16,1,55.0000016784668
233,16,217032,6,0,B|248:7|248:7|241:56|178:73,1,110.000003356934
415,83,217305,1,0,0:0:0:0:
406,107,217396,2,0,P|374:118|341:121,1,55.0000016784668
320,246,217578,2,0,P|280:234|245:207,1,55.0000016784668
469,197,217759,2,0,P|489:223|500:270,1,55.0000016784668
395,368,217941,2,0,P|403:342|407:314,1,55.0000016784668
215,369,218123,5,0,0:0:0:0:
175,146,218305,2,0,B|180:119|196:121|196:121|197:133|181:137,1,55.0000016784668
248,248,218487,2,0,B|273:257|268:273|268:273|256:272|255:256,1,55.0000016784668
25,237,218668,5,0,0:0:0:0:
187,135,218850,2,0,B|212:126|219:141|219:141|209:148|197:136,1,55.0000016784668
134,249,219032,2,0,B|138:275|122:279|122:279|117:268|130:259,1,55.0000016784668
63,52,219214,5,0,0:0:0:0:
202,140,219396,2,0,B|222:158|212:171|212:171|201:166|205:150,1,55.0000016784668
77,152,219578,2,0,B|55:168|44:157|44:157|51:147|66:154,1,55.0000016784668
231,47,219759,5,0,0:0:0:0:
204,155,219941,2,0,B|198:181|182:179|182:179|181:167|197:163,1,55.0000016784668
131,53,220123,2,0,B|105:43|110:27|110:27|122:28|123:44,1,55.0000016784668
363,117,220305,5,0,0:0:0:0:
378,123,220396,1,0,0:0:0:0:
390,133,220487,1,0,0:0:0:0:
399,146,220578,1,0,0:0:0:0:
360,216,220668,2,0,P|351:242|345:273,1,55.0000016784668
486,153,220850,2,0,P|480:126|471:100,1,55.0000016784668
348,215,221032,2,0,P|339:241|333:272,1,55.0000016784668
222,324,221214,2,0,P|240:344|263:365,1,55.0000016784668
236,205,221396,5,0,0:0:0:0:
224,182,221487,1,0,0:0:0:0:
206,164,221578,1,0,0:0:0:0:
181,153,221668,1,0,0:0:0:0:
187,229,221759,2,0,P|221:216|247:197,1,55.0000016784668
52,101,221941,2,0,P|26:91|0:85,1,55.0000016784668
86,221,222123,1,0,0:0:0:0:
245,41,222305,1,0,0:0:0:0:
398,149,222487,5,0,0:0:0:0:
402,177,222578,1,0,0:0:0:0:
401,205,222668,1,0,0:0:0:0:
397,226,222759,1,0,0:0:0:0:
311,228,222850,2,0,P|293:209|256:187,1,55.0000016784668
136,376,223032,2,0,P|168:369|198:356,1,55.0000016784668
322,214,223214,2,0,P|304:195|267:172,1,55.5000013549805
308,26,223396,2,0,P|272:29|218:50,1,55.0000016784668
489,120,223578,5,0,0:0:0:0:
468,135,223669,1,0,0:0:0:0:
443,143,223760,1,0,0:0:0:0:
416,141,223850,1,0,0:0:0:0:
456,76,223941,2,0,P|475:96|490:120,1,55.0000016784668
274,160,224123,2,0,P|290:137|321:112,1,55.0000016784668
439,57,224305,1,0,0:0:0:0:
181,156,224487,1,0,0:0:0:0:
366,251,224668,6,0,B|324:274|324:274|316:294|317:325|317:325|253:301|243:367|243:367|259:370|261:350|261:350|206:345|159:357|159:357|201:301|181:264|181:264|113:323|77:275|95:236|95:236|125:218|124:258,1,605.000018463135,0|0,2:2|2:2,2:0:0:0:
181,156,225759,2,0,B|199:135|187:104|146:78|146:78|109:92|107:114|107:114|118:121|137:115|118:93,1,165.000005035401
279,193,226123,2,0,P|306:202|341:199,1,55.0000016784668
77,221,226305,2,0,P|49:223|24:233,1,55.0000016784668
185,313,226487,2,0,B|173:278|173:278|189:242|189:242|178:211|178:211|181:132,1,165.000005035401
20,3,226850,6,0,B|4:-2|4:-2|5:31|35:82|111:53,1,110.000003356934
254,72,227123,1,0,0:0:0:0:
248,49,227214,2,0,P|218:62|180:93,1,55.0000016784668
278,155,227396,2,0,P|272:190|275:236,1,55.0000016784668
388,181,227578,2,0,P|397:204|418:233,1,55.0000016784668
238,31,227759,2,0,P|213:10|168:-8,1,55.0000016784668
93,242,227941,6,0,B|90:259|90:259|123:252|168:215|129:144,1,110.000003356934
91,32,228214,1,0,0:0:0:0:
68,41,228305,2,0,P|55:69|50:118,1,55.0000016784668
162,94,228487,2,0,P|183:122|217:153,1,55.0000016784668
259,35,228669,2,0,P|281:45|317:51,1,55.0000016784668
52,48,228850,2,0,P|14:37|-29:54,1,55.0000016784668
86,303,229032,6,0,B|123:301|170:259|189:204|130:164|130:164|99:153|111:225|203:192|264:157|261:118|239:110|239:110|217:121|267:220|320:284|345:252|345:252|314:234|290:272|271:314|335:371|397:340|448:312|428:238|439:186|332:171,1,960
83,64,233032,6,0,B|89:73|89:73|85:63,1,20
55,151,233396,5,2,0:0:0:0:
116,202,233578,1,0,0:0:0:0:
190,173,233759,1,0,0:0:0:0:
242,233,233941,1,2,0:0:0:0:
237,248,234305,5,0,0:0:0:0:
185,188,234487,1,2,0:0:0:0:
111,217,234668,1,0,0:0:0:0:
50,166,234850,1,0,0:0:0:0:
78,91,235032,1,2,0:0:0:0:
156,77,235397,5,0,0:0:0:0:
77,77,235578,1,2,0:0:0:0:
49,152,235760,1,0,0:0:0:0:
110,203,235942,1,2,0:0:0:0:
183,172,236123,1,0,0:0:0:0:
262,180,236305,1,2,0:0:0:0:
322,232,236487,1,0,0:0:0:0:
302,309,236668,1,2,0:0:0:0:
244,253,236850,1,0,0:0:0:0:
322,232,237032,1,0,0:0:0:0:
381,285,237214,1,2,0:0:0:0:
234,260,237578,5,0,0:0:0:0:
391,289,237759,1,2,0:0:0:0:
337,229,237941,1,0,0:0:0:0:
350,150,238123,1,0,0:0:0:0:
318,76,238305,1,2,0:0:0:0:
331,154,238487,1,0,0:0:0:0:
397,198,238668,1,0,0:0:0:0:
476,189,238850,1,2,0:0:0:0:
429,123,239032,1,0,0:0:0:0:
397,198,239214,1,0,0:0:0:0:
440,265,239396,1,2,0:0:0:0:
452,264,239759,5,0,0:0:0:0:
409,197,239941,1,2,0:0:0:0:
330,210,240123,1,0,0:0:0:0:
315,288,240305,1,0,0:0:0:0:
315,207,240487,1,2,0:0:0:0:
286,132,240668,1,0,0:0:0:0:
219,87,240850,1,0,0:0:0:0:
273,145,241032,5,2,0:0:0:0:
286,132,241396,5,0,0:0:0:0:
211,102,241578,1,2,0:0:0:0:
194,108,241941,5,0,0:0:0:0:
267,76,242123,1,2,0:0:0:0:
346,80,242305,1,0,0:0:0:0:
395,142,242487,1,0,0:0:0:0:
347,205,242668,1,2,0:0:0:0:
355,215,243032,5,0,0:0:0:0:
403,152,243213,1,2,0:0:0:0:
354,90,243395,1,0,0:0:0:0:
277,116,243578,1,0,0:0:0:0:
277,195,243759,1,2,0:0:0:0:
271,209,244123,5,0,0:0:0:0:
203,166,244305,1,2,0:0:0:0:
123,155,244487,1,0,0:0:0:0:
51,190,244668,1,2,0:0:0:0:
117,235,244850,1,0,0:0:0:0:
123,155,245032,1,2,0:0:0:0:
56,110,245214,1,0,0:0:0:0:
51,190,245396,1,2,0:0:0:0:
117,235,245578,1,0,0:0:0:0:
142,310,245759,1,0,0:0:0:0:
102,379,245941,1,2,0:0:0:0:
91,379,246305,5,0,0:0:0:0:
146,320,246487,1,2,0:0:0:0:
225,310,246668,1,0,0:0:0:0:
299,339,246850,1,0,0:0:0:0:
379,341,247032,1,2,0:0:0:0:
300,322,247214,1,0,0:0:0:0:
276,245,247396,1,2,0:0:0:0:
326,182,247578,5,2,0:0:0:0:
405,186,247759,1,0,0:0:0:0:
325,174,247941,1,0,0:0:0:0:
245,182,248123,1,2,0:0:0:0:
173,218,248305,1,0,0:0:0:0:
137,289,248487,1,2,0:0:0:0:
148,367,248668,5,2,0:0:0:0:
122,290,248850,1,0,0:0:0:0:
28,222,249032,1,2,0:0:0:0:
2,299,249214,1,0,0:0:0:0:
148,231,249396,1,2,0:0:0:0:
210,177,249578,1,0,0:0:0:0:
256,192,249668,12,0,250759,0:0:0:0:
334,245,250850,6,0,P|285:287|229:320,1,129.999994049073
61,165,251214,2,0,P|147:183|208:212,1,129.999994049073
308,105,251487,1,0,0:0:0:0:
337,95,251578,2,0,P|346:57|343:20,1,64.9999970245363
131,114,251759,2,0,P|150:152|189:191,1,64.9999970245363
384,196,251941,6,0,P|447:183|512:189,2,129.999994049073
96,243,252487,2,0,P|162:265|220:309,1,129.999994049073
234,116,252759,1,0,0:0:0:0:
207,113,252850,2,0,P|232:93|262:79,1,64.9999970245363
59,0,253032,6,0,P|45:63|55:137,1,129.999994049073
222,274,253396,2,0,P|185:218|128:172,1,129.999994049073
0,327,253668,1,0,0:0:0:0:
21,350,253759,2,0,P|68:344|106:326,1,64.9999970245363
231,250,253941,2,0,P|243:208|237:150,1,64.9999970245363
153,51,254123,6,0,P|123:38|92:32,1,64.9999970245363
236,160,254305,2,0,P|275:149|307:131,1,64.9999970245363
123,73,254487,1,0,0:0:0:0:
327,115,254668,1,0,0:0:0:0:
322,86,254759,1,0,0:0:0:0:
312,58,254850,2,0,P|293:25|265:3,1,64.9999970245363
324,234,255032,2,0,P|358:251|399:255,1,64.9999970245363
512,67,255214,6,0,P|458:103|402:177,1,129.999994049073
466,349,255578,2,0,P|477:262|460:192,1,129.999994049073
287,267,255850,1,0,0:0:0:0:
296,292,255941,2,0,P|329:312|365:323,1,64.9999970245363
147,352,256123,2,0,P|117:363|75:369,1,64.9999970245363
117,143,256305,2,0,P|170:207|196:263,2,129.999994049073
469,220,256850,2,0,P|404:221|340:210,1,129.999994049073
265,66,257123,1,0,0:0:0:0:
283,38,257214,2,0,P|254:14|222:-2,1,64.9999970245363
86,155,257396,6,0,P|57:222|49:304,1,129.999994049073
239,358,257759,2,0,P|192:290|144:253,1,129.999994049073
256,154,258032,1,0,0:0:0:0:
283,150,258123,2,0,P|313:134|337:103,1,64.9999970245363
456,7,258305,1,0,0:0:0:0:
426,80,258396,1,0,0:0:0:0:
422,116,258487,6,0,P|438:137|463:154,1,44.999998626709
493,32,258668,2,0,P|471:39|452:51,1,44.999998626709
463,184,258850,2,0,P|480:169|493:151,1,44.999998626709
332,110,259032,2,0,P|339:138|357:164,1,44.999998626709
384,2,259214,5,0,0:0:0:0:
286,5,259305,1,0,0:0:0:0:
205,52,259396,1,0,0:0:0:0:
167,139,259487,1,0,0:0:0:0:
180,233,259578,6,0,L|196:309,1,64.9999970245363
76,127,259759,2,0,L|90:57,1,64.9999970245363
296,132,259941,2,0,L|157:139,1,129.999994049073
277,272,260214,1,0,0:0:0:0:
295,252,260305,2,0,P|334:253|370:268,1,64.9999970245363
430,380,260487,2,0,P|401:366|370:328,1,64.9999970245363
478,203,260668,6,0,L|439:63,2,129.999994049073
296,77,261123,1,0,0:0:0:0:
293,113,261214,2,0,L|380:125,1,64.9999970245363
163,11,261396,2,0,L|95:28,1,64.9999970245363
296,77,261578,1,0,0:0:0:0:
141,136,261759,6,0,B|138:247|168:264|168:264|174:225|114:218,1,194.999991073609
60,91,262123,2,0,P|29:102|2:120,1,64.9999970245363
234,180,262305,2,0,P|279:172|329:148,1,64.9999970245363
47,207,262487,1,0,0:0:0:0:
196,321,262668,1,0,0:0:0:0:
208,294,262759,1,0,0:0:0:0:
220,263,262850,6,0,L|253:335,1,64.9999970245363
363,243,263032,2,0,L|379:170,1,64.9999970245363
122,370,263214,1,0,0:0:0:0:
208,294,263396,1,0,0:0:0:0:
24,142,263578,1,0,0:0:0:0:
106,218,263759,1,0,0:0:0:0:
143,214,263850,1,0,0:0:0:0:
172,212,263941,6,0,L|176:68,2,129.999994049073
312,35,264487,2,0,L|327:132,1,64.9999970245363
336,207,264668,1,0,0:0:0:0:
442,65,264850,1,0,0:0:0:0:
440,37,264941,1,0,0:0:0:0:
437,8,265032,6,0,L|457:145,2,129.999994049073
332,250,265578,2,0,L|342:161,1,64.9999970245363
350,74,265759,1,0,0:0:0:0:
433,243,265941,2,0,L|444:321,1,64.9999970245363
361,360,266123,6,0,P|331:341|269:329,1,64.9999970245363
198,361,266305,2,0,P|169:375|138:384,1,64.9999970245363
0,313,266487,2,0,P|30:294|92:282,1,64.9999970245363
162,314,266669,2,0,P|191:328|222:336,1,64.9999970245363
335,255,266850,2,0,P|348:234|356:190,1,64.9999970245363
151,87,267032,2,0,P|160:135|189:177,1,64.9999970245363
416,33,267214,6,0,P|338:11|242:24,1,129.999994049073
410,73,267487,1,0,0:0:0:0:
468,146,267578,2,0,P|501:164|537:177,1,64.9999970245363
316,107,267759,2,0,P|279:110|234:135,1,64.9999970245363
321,348,267941,2,0,P|357:270|347:195,1,129.999994049073
191,264,268214,1,0,0:0:0:0:
111,273,268305,6,0,P|61:263|-12:230,2,129.999994049073
12,26,268850,2,0,P|44:90|131:161,1,165.000005035401
184,40,269214,2,0,P|158:51|137:68,1,55.0000016784668
231,154,269396,2,0,P|259:175|298:181,1,55.0000016784668
376,137,269578,1,0,0:0:0:0:
380,108,269668,1,0,0:0:0:0:
374,78,269759,1,0,0:0:0:0:
159,235,269941,5,0,0:0:0:0:
166,250,270032,1,0,0:0:0:0:
182,269,270123,1,0,0:0:0:0:
223,286,270214,1,0,0:0:0:0:
301,263,270305,1,0,0:0:0:0:
381,303,270396,1,0,0:0:0:0:
480,277,270487,6,0,P|499:245|507:212,1,55.0000016784668
396,121,270668,1,0,0:0:0:0:
396,121,270759,1,0,0:0:0:0:
396,121,270850,2,0,P|401:154|418:190,1,55.0000016784668
259,75,271032,2,0,P|277:54|299:38,1,55.0000016784668
260,217,271214,1,0,0:0:0:0:
260,217,271305,1,0,0:0:0:0:
260,217,271396,2,0,P|226:231|177:237,1,55.0000016784668
68,102,271578,6,0,P|89:123|106:155,1,55.0000016784668
48,328,271759,1,0,0:0:0:0:
52,305,271850,1,0,0:0:0:0:
57,284,271941,2,0,P|51:258|39:233,1,55.0000016784668
157,320,272123,2,0,P|169:296|175:269,1,55.0000016784668
277,382,272305,2,0,P|301:371|330:353,1,60
266,294,272668,6,0,P|246:278|230:258,2,50
342,252,273214,2,0,P|365:228|389:217,1,50
358,340,273578,1,0,0:0:0:0:
270,200,273759,2,0,P|256:142|257:87,1,100
386,83,274305,2,0,P|362:102|337:114,2,50
426,5,274850,1,0,0:0:0:0:
256,192,274941,12,0,276578,0:0:0:0:
332,211,276668,6,0,P|327:239|311:271,1,53.3333333333333
238,327,276911,2,0,P|231:308|228:294,1,26.6666666666667
261,207,277032,6,0,P|332:194|422:223,1,119.999996337891
449,312,277305,1,0,0:0:0:0:
438,322,277396,2,0,P|409:328|371:320,1,59.9999981689454
483,210,277578,2,0,P|480:188|468:150,1,59.9999981689454
267,111,277759,2,0,P|295:130|332:138,1,59.9999981689454
446,12,277941,2,0,P|415:37|396:63,1,59.9999981689454
293,230,278123,6,0,B|311:246|314:260|314:260|273:258|273:258|216:235|153:262,1,179.999994506836
102,214,278487,1,0,0:0:0:0:
284,356,278668,2,0,P|321:373|365:373,1,59.9999981689454
120,323,278850,1,0,0:0:0:0:
239,155,279032,2,0,P|221:123|184:92,1,59.9999981689454
5,175,279214,6,0,P|66:182|165:155,1,119.999996337891
85,53,279487,1,0,0:0:0:0:
58,54,279578,2,0,P|33:54|-11:70,1,59.9999981689454
221,7,279759,2,0,P|226:36|223:66,1,59.9999981689454
276,278,279941,2,0,P|287:244|305:219,1,59.9999981689454
426,68,280123,2,0,P|421:38|409:11,1,59.9999981689454
410,223,280305,6,0,P|431:247|462:271,1,59.9999981689454
301,141,280487,2,0,P|260:151|225:174,1,59.9999981689454
512,100,280668,1,0,0:0:0:0:
365,335,280850,1,0,0:0:0:0:
375,311,280941,1,0,0:0:0:0:
386,278,281032,2,0,L|409:222,1,59.9999981689454
231,100,281214,2,0,L|243:158,1,59.9999981689454
239,342,281396,6,0,P|136:304|88:306,1,119.999996337891
10,213,281668,1,0,0:0:0:0:
23,228,281759,2,0,P|51:237|87:234,1,59.9999981689454
236,245,281941,1,0,0:0:0:0:
231,222,282032,1,0,0:0:0:0:
214,201,282123,2,0,P|191:180|162:164,1,59.9999981689454
52,332,282305,1,0,0:0:0:0:
50,132,282487,6,0,P|81:105|121:89,1,59.9999981689454
243,32,282668,2,0,P|259:65|265:104,1,59.9999981689454
264,270,282850,2,0,P|233:269|189:245,1,59.9999981689454
368,85,283032,2,0,P|398:64|430:56,1,59.9999981689454
492,335,283214,2,0,P|469:324|433:283,1,59.9999981689454
236,115,283396,2,0,P|211:97|153:85,1,59.9999981689454
1,322,283578,6,0,B|48:315|72:345|94:366|94:366|117:351|140:329|161:324|180:319|180:319|213:326|234:341,2,239.999992675781
237,225,284487,1,0,0:0:0:0:
264,254,284578,1,0,0:0:0:0:
284,281,284668,2,0,P|307:312|324:344,1,59.9999981689454
387,142,284850,1,0,0:0:0:0:
360,143,284941,2,0,P|340:166|325:192,1,59.9999981689454
491,300,285123,1,0,0:0:0:0:
498,269,285214,2,0,P|491:235|481:198,1,59.9999981689454
450,81,285396,1,0,0:0:0:0:
395,266,285578,1,0,0:0:0:0:
293,46,285759,6,0,P|211:26|129:32,1,119.999996337891
123,113,286032,1,0,0:0:0:0:
144,134,286123,1,0,0:0:0:0:
57,27,286305,2,0,P|28:10|-15:6,1,59.9999981689454
105,218,286487,2,0,P|138:225|169:223,1,59.9999981689454
323,123,286668,2,0,P|348:138|371:159,1,59.9999981689454
465,344,286850,6,0,B|492:356|492:356|439:375|430:343|430:343|473:301|472:237|452:196,1,239.999992675781
255,202,287396,1,0,0:0:0:0:
271,216,287487,1,0,0:0:0:0:
286,227,287578,2,0,P|322:248|355:254,1,59.9999981689454
201,114,287759,1,0,0:0:0:0:
431,76,287941,6,0,P|373:91|322:122,1,119.999996337891
194,136,288214,1,0,0:0:0:0:
176,147,288305,2,0,P|146:150|111:140,1,59.9999981689454
271,36,288487,2,0,P|282:8|313:-22,1,59.9999981689454
487,91,288668,2,0,P|457:89|424:69,1,59.9999981689454
421,263,288850,2,0,P|393:232|380:177,1,59.9999981689454
164,161,289032,5,0,0:0:0:0:
171,186,289123,1,0,0:0:0:0:
179,208,289214,1,0,0:0:0:0:
279,111,289396,2,0,P|259:92|226:74,1,59.9999981689454
143,50,289578,1,0,0:0:0:0:
99,241,289759,1,0,0:0:0:0:
311,13,289941,1,0,0:0:0:0:
416,217,290123,5,0,0:0:0:0:
416,217,290214,1,0,0:0:0:0:
416,217,290305,1,0,0:0:0:0:
226,180,290487,2,0,P|196:193|166:219,1,59.9999981689454
249,258,290669,2,0,P|243:293|247:344,1,59.9999981689454
324,297,290851,2,0,P|333:320|360:353,1,59.9999981689454
226,180,291032,2,0,P|201:159|154:140,1,59.9999981689454
4,16,291214,5,0,0:0:0:0:
4,16,291305,1,0,0:0:0:0:
4,16,291396,1,0,0:0:0:0:
128,119,291578,2,0,P|152:117|192:102,1,59.9999981689454
338,0,291760,2,0,P|312:15|291:36,1,59.9999981689454
300,187,291941,2,0,P|326:201|354:211,1,59.9999981689454
501,116,292123,2,0,P|473:104|443:100,1,59.9999981689454
380,326,292305,5,0,0:0:0:0:
462,202,292487,1,0,0:0:0:0:
265,242,292668,1,0,0:0:0:0:
348,307,292850,1,0,0:0:0:0:
332,177,293032,1,0,0:0:0:0:
260,133,293214,1,0,0:0:0:0:
226,324,293396,5,0,0:0:0:0:
226,324,293759,1,0,0:0:0:0:
260,133,294123,5,0,0:0:0:0:
332,177,294305,1,0,0:0:0:0:
170,236,294487,1,0,0:0:0:0:
216,130,294669,1,0,0:0:0:0:
354,307,294850,1,0,0:0:0:0:
188,271,295032,1,0,0:0:0:0:
448,224,295214,5,0,0:0:0:0:
448,224,295578,1,0,0:0:0:0:
372,88,295759,1,0,0:0:0:0:
374,103,295850,1,0,0:0:0:0:
374,116,295941,6,0,B|295:82|295:82|261:133|261:133|219:106|219:106|191:107|176:116|176:116|171:101|141:47|68:32|29:89|10:188|99:152|120:158|120:158|102:110|121:106,1,525.000020027161
