osu file format v14

[General]
AudioFilename: audio.ogg
AudioLeadIn: 0
PreviewTime: 186257
Countdown: 0
SampleSet: Soft
StackLeniency: 0.7
Mode: 3
LetterboxInBreaks: 0
SpecialStyle: 0
WidescreenStoryboard: 0

[Editor]
DistanceSpacing: 0.8
BeatDivisor: 4
GridSize: 32
TimelineZoom: 1.500004

[Metadata]
Title:Snow Veil -Shoujo to Kemono no Mori-
TitleUnicode:Snow Veil -少女と獣の森-
Artist:Hatsuki Yura
ArtistUnicode:葉月ゆら
Creator:Virtue-
Version:Light Abyss
Source:
Tags:Drop C95 Comiket 95 Comic Market コミックマーケット スタジオグレース Studio Grace Shōjo japanese jpop j-pop pop instrumental gothic HATU-038
BeatmapID:3496337
BeatmapSetID:1711125

[Difficulty]
HPDrainRate:8
CircleSize:4
OverallDifficulty:8
ApproachRate:5
SliderMultiplier:1.4
SliderTickRate:1

[Events]
//Background and Video events
0,0,"snowveil.jpg",0,0
//Break Periods
//Storyboard Layer 0 (Background)
//Storyboard Layer 1 (Fail)
//Storyboard Layer 2 (Pass)
//Storyboard Layer 3 (Foreground)
//Storyboard Layer 4 (Overlay)
//Storyboard Sound Samples

[TimingPoints]
257,375,4,2,1,60,1,0
49757,-20,4,2,1,60,0,0
49780,-1000,4,2,1,60,0,0
49944,-100,4,2,1,60,0,0
50038,-20,4,2,1,60,0,0
50061,-1000,4,2,1,60,0,0
50225,-100,4,2,1,60,0,0
50319,-20,4,2,1,60,0,0
50342,-1000,4,2,1,60,0,0
50436,-100,4,2,1,60,0,0
50507,-10,4,2,1,60,0,0
50530,-100,4,2,1,60,0,0
50882,-10,4,2,1,60,0,0
50905,-1000,4,2,1,60,0,0
51069,-500,4,2,1,60,0,0
51085.4,-263.157894736842,4,2,1,60,0,0
51101.8,-178.571428571429,4,2,1,60,0,0
51118.2,-135.135135135135,4,2,1,60,0,0
51134.6,-108.695652173913,4,2,1,60,0,0
51151,-90.9090909090909,4,2,1,60,0,0
51167.4,-78.125,4,2,1,60,0,0
51183.8,-68.4931506849315,4,2,1,60,0,0
51200.2,-60.9756097560976,4,2,1,60,0,0
51216.6,-54.9450549450549,4,2,1,60,0,0
51233,-50,4,2,1,60,0,0
51257,-100,4,2,1,60,0,1
62507,-26.0416666666667,4,2,1,60,0,1
62553,-333.333333333333,4,2,1,60,0,1
62741,-100,4,2,1,60,0,1
62788,-58.8235294117647,4,2,1,60,0,1
62835,-333.333333333333,4,2,1,60,0,1
62882,-21.9298245614035,4,2,1,60,0,1
62905,-333.333333333333,4,2,1,60,0,1
63022,-100,4,2,1,60,0,1
63069,-58.82352941,4,2,1,60,0,1
63116,-333.3333333,4,2,1,60,0,1
63163,-58.82352941,4,2,1,60,0,1
63210,-333.3333333,4,2,1,60,0,1
63257,-100,4,2,1,60,0,1
73757,-20,4,2,1,60,0,1
73780,-1000,4,2,1,60,0,1
73944,-100,4,2,1,60,0,1
74038,-20,4,2,1,60,0,1
74061,-1000,4,2,1,60,0,1
74225,-100,4,2,1,60,0,1
74319,-20,4,2,1,60,0,1
74342,-1000,4,2,1,60,0,1
74436,-100,4,2,1,60,0,1
74507,-20,4,2,1,60,0,1
74530,-1000,4,2,1,60,0,1
74694,-100,4,2,1,60,0,1
74788,-20,4,2,1,60,0,1
74811,-1000,4,2,1,60,0,1
74975,-100,4,2,1,60,0,1
75069,-20,4,2,1,60,0,1
75092,-1000,4,2,1,60,0,1
75186,-100,4,2,1,60,0,1
75257,-100,4,2,1,60,0,0
121757,-20,4,2,1,60,0,0
121780,-1000,4,2,1,60,0,0
121944,-100,4,2,1,60,0,0
122038,-20,4,2,1,60,0,0
122061,-1000,4,2,1,60,0,0
122225,-100,4,2,1,60,0,0
122319,-20,4,2,1,60,0,0
122342,-1000,4,2,1,60,0,0
122436,-100,4,2,1,60,0,0
122507,-10,4,2,1,60,0,0
122530,-100,4,2,1,60,0,0
122882,-10,4,2,1,60,0,0
122905,-1000,4,2,1,60,0,0
123069,-500,4,2,1,60,0,0
123085.4,-263.157894736842,4,2,1,60,0,0
123101.8,-178.571428571429,4,2,1,60,0,0
123118.2,-135.135135135135,4,2,1,60,0,0
123134.6,-108.695652173913,4,2,1,60,0,0
123151,-90.9090909090909,4,2,1,60,0,0
123167.4,-78.125,4,2,1,60,0,0
123183.8,-68.4931506849315,4,2,1,60,0,0
123200.2,-60.9756097560976,4,2,1,60,0,0
123216.6,-54.9450549450549,4,2,1,60,0,0
123233,-50,4,2,1,60,0,0
123257,-100,4,2,1,60,0,1
134507,-26.0416666666667,4,2,1,60,0,1
134553,-333.333333333333,4,2,1,60,0,1
134741,-100,4,2,1,60,0,1
134788,-58.8235294117647,4,2,1,60,0,1
134835,-333.333333333333,4,2,1,60,0,1
134882,-21.9298245614035,4,2,1,60,0,1
134905,-333.333333333333,4,2,1,60,0,1
135022,-100,4,2,1,60,0,1
135069,-58.82352941,4,2,1,60,0,1
135116,-333.3333333,4,2,1,60,0,1
135163,-58.82352941,4,2,1,60,0,1
135210,-333.3333333,4,2,1,60,0,1
135257,-100,4,2,1,60,0,1
145757,-20,4,2,1,60,0,1
145780,-1000,4,2,1,60,0,1
145944,-100,4,2,1,60,0,1
146038,-20,4,2,1,60,0,1
146061,-1000,4,2,1,60,0,1
146225,-100,4,2,1,60,0,1
146319,-20,4,2,1,60,0,1
146342,-1000,4,2,1,60,0,1
146436,-100,4,2,1,60,0,1
146507,-20,4,2,1,60,0,1
146530,-1000,4,2,1,60,0,1
146694,-100,4,2,1,60,0,1
146788,-20,4,2,1,60,0,1
146811,-1000,4,2,1,60,0,1
146975,-100,4,2,1,60,0,1
147069,-20,4,2,1,60,0,1
147092,-1000,4,2,1,60,0,1
147186,-100,4,2,1,60,0,1
147257,-101.010101010101,4,2,1,60,0,0
147360.448275862,-102.040816326531,4,2,1,60,0,0
147463.896551724,-103.092783505155,4,2,1,60,0,0
147567.344827586,-104.166666666667,4,2,1,60,0,0
147670.793103448,-105.263157894737,4,2,1,60,0,0
147774.24137931,-106.382978723404,4,2,1,60,0,0
147877.689655172,-107.52688172043,4,2,1,60,0,0
147981.137931034,-108.695652173913,4,2,1,60,0,0
148084.586206897,-109.89010989011,4,2,1,60,0,0
148188.034482759,-111.111111111111,4,2,1,60,0,0
148291.482758621,-112.359550561798,4,2,1,60,0,0
148394.931034483,-113.636363636364,4,2,1,60,0,0
148498.379310345,-114.942528735632,4,2,1,60,0,0
148601.827586207,-116.279069767442,4,2,1,60,0,0
148705.275862069,-117.647058823529,4,2,1,60,0,0
148808.724137931,-119.047619047619,4,2,1,60,0,0
148912.172413793,-120.481927710843,4,2,1,60,0,0
149015.620689655,-121.951219512195,4,2,1,60,0,0
149119.068965517,-123.456790123457,4,2,1,60,0,0
149222.517241379,-125,4,2,1,60,0,0
149325.965517241,-126.582278481013,4,2,1,60,0,0
149429.413793103,-128.205128205128,4,2,1,60,0,0
149532.862068966,-129.87012987013,4,2,1,60,0,0
149636.310344828,-131.578947368421,4,2,1,60,0,0
149739.75862069,-133.333333333333,4,2,1,60,0,0
149843.206896552,-135.135135135135,4,2,1,60,0,0
149946.655172414,-136.986301369863,4,2,1,60,0,0
150050.103448276,-138.888888888889,4,2,1,60,0,0
150153.551724138,-140.845070422535,4,2,1,60,0,0
150257,-142.857142857143,4,2,1,60,0,0
158507,-140.845070422535,4,2,1,60,0,0
158532.862068966,-138.888888888889,4,2,1,60,0,0
158558.724137931,-136.986301369863,4,2,1,60,0,0
158584.586206897,-135.135135135135,4,2,1,60,0,0
158610.448275862,-133.333333333333,4,2,1,60,0,0
158636.310344828,-131.578947368421,4,2,1,60,0,0
158662.172413793,-129.87012987013,4,2,1,60,0,0
158688.034482759,-128.205128205128,4,2,1,60,0,0
158713.896551724,-126.582278481013,4,2,1,60,0,0
158739.75862069,-125,4,2,1,60,0,0
158765.620689655,-123.456790123457,4,2,1,60,0,0
158791.482758621,-121.951219512195,4,2,1,60,0,0
158817.344827586,-120.481927710843,4,2,1,60,0,0
158843.206896552,-119.047619047619,4,2,1,60,0,0
158869.068965517,-117.647058823529,4,2,1,60,0,0
158894.931034483,-116.279069767442,4,2,1,60,0,0
158920.793103448,-114.942528735632,4,2,1,60,0,0
158946.655172414,-113.636363636364,4,2,1,60,0,0
158972.517241379,-112.359550561798,4,2,1,60,0,0
158998.379310345,-111.111111111111,4,2,1,60,0,0
159024.24137931,-109.89010989011,4,2,1,60,0,0
159050.103448276,-108.695652173913,4,2,1,60,0,0
159075.965517241,-107.52688172043,4,2,1,60,0,0
159101.827586207,-106.382978723404,4,2,1,60,0,0
159127.689655172,-105.263157894737,4,2,1,60,0,0
159153.551724138,-104.166666666667,4,2,1,60,0,0
159179.413793103,-103.092783505155,4,2,1,60,0,0
159205.275862069,-102.040816326531,4,2,1,60,0,0
159231.137931034,-101.010101010101,4,2,1,60,0,0
159257,-100,4,2,1,60,0,0
170882,-10,4,2,1,60,0,0
170905,-1000,4,2,1,60,0,0
171069,-500,4,2,1,60,0,0
171085.4,-263.157894736842,4,2,1,60,0,0
171101.8,-178.571428571429,4,2,1,60,0,0
171118.2,-135.135135135135,4,2,1,60,0,0
171134.6,-108.695652173913,4,2,1,60,0,0
171151,-90.9090909090909,4,2,1,60,0,0
171167.4,-78.125,4,2,1,60,0,0
171183.8,-68.4931506849315,4,2,1,60,0,0
171200.2,-60.9756097560976,4,2,1,60,0,0
171216.6,-54.9450549450549,4,2,1,60,0,0
171233,-50,4,2,1,60,0,0
171257,-100,4,2,1,60,0,0
183257,-20,4,2,1,60,0,0
183280,-1000,4,2,1,60,0,0
183444,-100,4,2,1,60,0,0
183538,-20,4,2,1,60,0,0
183561,-1000,4,2,1,60,0,0
183725,-100,4,2,1,60,0,0
183819,-20,4,2,1,60,0,0
183842,-1000,4,2,1,60,0,0
183936,-100,4,2,1,60,0,0
184007,-20,4,2,1,60,0,0
184030,-1000,4,2,1,60,0,0
184194,-100,4,2,1,60,0,0
184288,-20,4,2,1,60,0,0
184311,-1000,4,2,1,60,0,0
184475,-100,4,2,1,60,0,0
184569,-20,4,2,1,60,0,0
184592,-1000,4,2,1,60,0,0
184686,-100,4,2,1,60,0,0
184757,-101.010101010101,4,2,1,60,0,0
184828.428571429,-102.040816326531,4,2,1,60,0,0
184899.857142857,-104.166666666667,4,2,1,60,0,0
184971.285714286,-105.263157894737,4,2,1,60,0,0
185042.714285714,-107.52688172043,4,2,1,60,0,0
185114.142857143,-108.695652173913,4,2,1,60,0,0
185185.571428571,-109.89010989011,4,2,1,60,0,0
185257,-112.359550561798,4,2,1,60,0,0
185328.428571429,-113.636363636364,4,2,1,60,0,0
185399.857142857,-114.942528735632,4,2,1,60,0,0
185471.285714286,-117.647058823529,4,2,1,60,0,0
185542.714285714,-119.047619047619,4,2,1,60,0,0
185614.142857143,-121.951219512195,4,2,1,60,0,0
185685.571428571,-123.456790123457,4,2,1,60,0,0
185757,-125,4,2,1,60,0,0
185828.428571429,-128.205128205128,4,2,1,60,0,0
185899.857142857,-129.87012987013,4,2,1,60,0,0
185971.285714286,-131.578947368421,4,2,1,60,0,0
186042.714285714,-135.135135135135,4,2,1,60,0,0
186114.142857143,-136.986301369863,4,2,1,60,0,0
186185.571428571,-140.845070422535,4,2,1,60,0,0
186257,-142.857142857143,4,2,1,60,0,0
186557,-140.845070422535,4,2,1,60,0,0
186857,-138.888888888889,4,2,1,60,0,0
187157,-136.986301369863,4,2,1,60,0,0
187457,-135.135135135135,4,2,1,60,0,0
187757,-133.333333333333,4,2,1,60,0,0
188057,-131.578947368421,4,2,1,60,0,0
188357,-129.87012987013,4,2,1,60,0,0
188657,-128.205128205128,4,2,1,60,0,0
188957,-126.582278481013,4,2,1,60,0,0
189257,-125,4,2,1,60,0,0
189557,-123.456790123457,4,2,1,60,0,0
189857,-121.951219512195,4,2,1,60,0,0
190157,-120.481927710843,4,2,1,60,0,0
190457,-119.047619047619,4,2,1,60,0,0
190757,-117.647058823529,4,2,1,60,0,0
191057,-116.279069767442,4,2,1,60,0,0
191357,-114.942528735632,4,2,1,60,0,0
191657,-113.636363636364,4,2,1,60,0,0
191957,-112.359550561798,4,2,1,60,0,0
192257,-111.111111111111,4,2,1,60,0,0
192557,-109.89010989011,4,2,1,60,0,0
192857,-108.695652173913,4,2,1,60,0,0
193157,-107.52688172043,4,2,1,60,0,0
193457,-106.382978723404,4,2,1,60,0,0
193757,-105.263157894737,4,2,1,60,0,0
194057,-104.166666666667,4,2,1,60,0,0
194357,-103.092783505155,4,2,1,60,0,0
194657,-102.040816326531,4,2,1,60,0,0
194957,-101.010101010101,4,2,1,60,0,0
195257,-100,4,2,1,60,0,0
197507,-26.0416666666667,4,2,1,60,0,0
197553,-333.333333333333,4,2,1,60,0,0
197741,-100,4,2,1,60,0,0
197788,-26.0416666666667,4,2,1,60,0,0
197835,-333.333333333333,4,2,1,60,0,0
198022,-100,4,2,1,60,0,0
198069,-58.82352941,4,2,1,60,0,0
198116,-333.3333333,4,2,1,60,0,0
198163,-58.82352941,4,2,1,60,0,0
198210,-333.3333333,4,2,1,60,0,0
198257,-100,4,2,1,60,0,1
208757,-20,4,2,1,60,0,1
208780,-1000,4,2,1,60,0,1
208944,-100,4,2,1,60,0,1
209038,-20,4,2,1,60,0,1
209061,-1000,4,2,1,60,0,1
209225,-100,4,2,1,60,0,1
209319,-20,4,2,1,60,0,1
209342,-1000,4,2,1,60,0,1
209436,-100,4,2,1,60,0,1
209507,-20,4,2,1,60,0,1
209530,-1000,4,2,1,60,0,1
209694,-100,4,2,1,60,0,1
209788,-20,4,2,1,60,0,1
209811,-1000,4,2,1,60,0,1
209975,-100,4,2,1,60,0,1
210069,-20,4,2,1,60,0,1
210092,-1000,4,2,1,60,0,1
210186,-100,4,2,1,60,0,1
210257,-100,4,2,1,60,0,0
223757,369.139904023625,4,2,1,60,1,0
223757,-102.040816326531,4,2,1,60,0,0
225233,386.718787765507,4,2,1,60,1,0
225233,-97.0873786407767,4,2,1,60,0,0
226779,416.0157753182,4,2,1,60,1,0
226779,-90.0900900900901,4,2,1,60,0,0
228443,498.046826362615,4,2,1,60,1,0
228443,-75.187969924812,4,2,1,60,0,0
230435,375,4,2,1,60,1,0

[HitObjects]
64,192,257,128,0,538:0:0:0:0:
192,192,257,128,0,350:0:0:0:0:
320,192,444,128,0,538:0:0:0:0:
192,192,632,128,0,913:0:0:0:0:
448,192,632,128,0,725:0:0:0:0:
64,192,819,128,0,913:0:0:0:0:
320,192,1007,128,0,1382:0:0:0:0:
448,192,1007,128,0,1100:0:0:0:0:
64,192,1194,128,0,1257:0:0:0:0:
192,192,1257,128,0,1319:0:0:0:0:
448,192,1319,128,0,1382:0:0:0:0:
192,192,1382,128,0,1663:0:0:0:0:
64,192,1382,128,0,1475:0:0:0:0:
320,192,1569,128,0,1663:0:0:0:0:
64,192,1757,128,0,2038:0:0:0:0:
448,192,1757,128,0,1850:0:0:0:0:
320,192,1944,128,0,2038:0:0:0:0:
448,192,2132,128,0,2413:0:0:0:0:
192,192,2132,128,0,2225:0:0:0:0:
320,192,2319,128,0,2413:0:0:0:0:
448,192,2507,128,0,2600:0:0:0:0:
64,192,2507,128,0,3163:0:0:0:0:
192,192,2694,128,0,2788:0:0:0:0:
320,192,2882,128,0,2975:0:0:0:0:
448,192,3069,128,0,3163:0:0:0:0:
192,192,3257,128,0,3538:0:0:0:0:
64,192,3257,128,0,3350:0:0:0:0:
448,192,3444,128,0,3538:0:0:0:0:
320,192,3632,128,0,3913:0:0:0:0:
192,192,3632,128,0,3725:0:0:0:0:
64,192,3819,128,0,3913:0:0:0:0:
448,192,4007,128,0,4288:0:0:0:0:
320,192,4007,128,0,4100:0:0:0:0:
192,192,4194,128,0,4288:0:0:0:0:
320,192,4382,128,0,4663:0:0:0:0:
64,192,4382,128,0,4444:0:0:0:0:
192,192,4444,128,0,4507:0:0:0:0:
448,192,4507,128,0,4569:0:0:0:0:
64,192,4569,128,0,4663:0:0:0:0:
448,192,4757,128,0,5225:0:0:0:0:
64,192,4757,128,0,5038:0:0:0:0:
192,192,4757,128,0,4850:0:0:0:0:
320,192,4944,128,0,5038:0:0:0:0:
192,192,5132,128,0,5413:0:0:0:0:
64,192,5132,128,0,5225:0:0:0:0:
320,192,5319,128,0,5413:0:0:0:0:
448,192,5319,128,0,5413:0:0:0:0:
320,192,5507,128,0,5788:0:0:0:0:
64,192,5507,128,0,5600:0:0:0:0:
192,192,5694,128,0,5788:0:0:0:0:
64,192,5882,128,0,6163:0:0:0:0:
320,192,5882,128,0,5975:0:0:0:0:
448,192,6069,128,0,6163:0:0:0:0:
448,192,6257,128,0,6538:0:0:0:0:
320,192,6257,128,0,6350:0:0:0:0:
192,192,6444,128,0,6538:0:0:0:0:
320,192,6632,128,0,6913:0:0:0:0:
64,192,6632,128,0,6725:0:0:0:0:
448,192,6819,128,0,6913:0:0:0:0:
192,192,7007,128,0,7382:0:0:0:0:
64,192,7007,128,0,7100:0:0:0:0:
448,192,7194,128,0,7257:0:0:0:0:
320,192,7257,128,0,7319:0:0:0:0:
64,192,7319,128,0,7382:0:0:0:0:
320,192,7382,128,0,7663:0:0:0:0:
448,192,7382,128,0,7475:0:0:0:0:
192,192,7569,128,0,7663:0:0:0:0:
448,192,7757,128,0,8038:0:0:0:0:
64,192,7757,128,0,7850:0:0:0:0:
192,192,7944,128,0,8038:0:0:0:0:
64,192,8132,128,0,8413:0:0:0:0:
320,192,8132,128,0,8225:0:0:0:0:
448,192,8319,128,0,8413:0:0:0:0:
192,192,8507,128,0,8600:0:0:0:0:
64,192,8507,128,0,8600:0:0:0:0:
320,192,8694,128,0,8788:0:0:0:0:
192,192,8694,128,0,8788:0:0:0:0:
448,192,8882,128,0,8944:0:0:0:0:
320,192,8882,128,0,8944:0:0:0:0:
192,192,8944,128,0,9007:0:0:0:0:
320,192,9007,128,0,9069:0:0:0:0:
448,192,9069,128,0,9163:0:0:0:0:
64,192,9069,128,0,9163:0:0:0:0:
320,192,9257,128,0,9538:0:0:0:0:
192,192,9257,128,0,9350:0:0:0:0:
64,192,9444,128,0,9538:0:0:0:0:
192,192,9632,128,0,9913:0:0:0:0:
448,192,9632,128,0,9725:0:0:0:0:
320,192,9819,128,0,9913:0:0:0:0:
64,192,10007,128,0,10288:0:0:0:0:
192,192,10007,128,0,10100:0:0:0:0:
448,192,10194,128,0,10288:0:0:0:0:
192,192,10382,128,0,10663:0:0:0:0:
320,192,10382,128,0,10475:0:0:0:0:
64,192,10569,128,0,10663:0:0:0:0:
320,192,10757,128,0,11225:0:0:0:0:
448,192,10757,128,0,11225:0:0:0:0:
192,192,11319,128,0,11413:0:0:0:0:
64,192,11319,128,0,11413:0:0:0:0:
64,192,11507,128,0,12163:0:0:0:0:
192,192,11507,128,0,12163:0:0:0:0:
64,192,12257,128,0,12507:0:0:0:0:
448,192,12257,128,0,12382:0:0:0:0:
320,192,12382,128,0,12507:0:0:0:0:
192,192,12507,128,0,12632:0:0:0:0:
448,192,12632,128,0,12882:0:0:0:0:
64,192,12632,128,0,12757:0:0:0:0:
320,192,12757,128,0,12882:0:0:0:0:
192,192,12882,128,0,13007:0:0:0:0:
320,192,13007,128,0,13257:0:0:0:0:
448,192,13007,128,0,13132:0:0:0:0:
192,192,13132,128,0,13257:0:0:0:0:
64,192,13257,128,0,13382:0:0:0:0:
192,192,13382,128,0,13632:0:0:0:0:
448,192,13382,128,0,13507:0:0:0:0:
320,192,13507,128,0,13632:0:0:0:0:
64,192,13632,128,0,13757:0:0:0:0:
448,192,13757,128,0,15163:0:0:0:0:
320,192,13757,128,0,15163:0:0:0:0:
64,192,15257,1,0,0:0:0:0:
192,192,15257,1,0,0:0:0:0:
320,192,15257,1,0,0:0:0:0:
448,192,15257,1,0,0:0:0:0:
192,192,15444,1,0,0:0:0:0:
448,192,15632,1,0,0:0:0:0:
64,192,15632,128,0,15725:0:0:0:0:
192,192,15819,128,0,15913:0:0:0:0:
320,192,16007,128,0,16288:0:0:0:0:
448,192,16007,1,0,0:0:0:0:
192,192,16194,1,0,0:0:0:0:
448,192,16382,128,0,16475:0:0:0:0:
64,192,16382,1,0,0:0:0:0:
320,192,16569,128,0,16663:0:0:0:0:
192,192,16757,128,0,17038:0:0:0:0:
64,192,16757,1,0,0:0:0:0:
448,192,16944,1,0,0:0:0:0:
64,192,17132,128,0,17413:0:0:0:0:
320,192,17132,1,0,0:0:0:0:
192,192,17319,1,0,0:0:0:0:
448,192,17507,128,0,18163:0:0:0:0:
64,192,17507,1,0,0:0:0:0:
320,192,17694,1,0,0:0:0:0:
64,192,17882,1,0,0:0:0:0:
192,192,17882,1,0,0:0:0:0:
320,192,18069,1,0,0:0:0:0:
448,192,18257,1,0,0:0:0:0:
64,192,18257,1,0,0:0:0:0:
192,192,18444,1,0,0:0:0:0:
320,192,18632,128,0,18725:0:0:0:0:
448,192,18632,1,0,0:0:0:0:
192,192,18819,128,0,18913:0:0:0:0:
64,192,19007,128,0,19288:0:0:0:0:
448,192,19007,1,0,0:0:0:0:
320,192,19194,1,0,0:0:0:0:
192,192,19382,128,0,19475:0:0:0:0:
64,192,19382,1,0,0:0:0:0:
320,192,19569,128,0,19663:0:0:0:0:
448,192,19757,128,0,20225:0:0:0:0:
64,192,19757,1,0,0:0:0:0:
320,192,19944,1,0,0:0:0:0:
192,192,20132,1,0,0:0:0:0:
64,192,20132,1,0,0:0:0:0:
320,192,20319,128,0,20413:0:0:0:0:
192,192,20507,128,0,21163:0:0:0:0:
448,192,20507,1,0,0:0:0:0:
320,192,20694,1,0,0:0:0:0:
64,192,20788,1,0,0:0:0:0:
320,192,20882,1,0,0:0:0:0:
448,192,20882,1,0,0:0:0:0:
448,192,21069,1,0,0:0:0:0:
448,192,21163,1,0,0:0:0:0:
64,192,21257,1,0,0:0:0:0:
320,192,21257,128,0,21538:0:0:0:0:
448,192,21444,1,0,0:0:0:0:
192,192,21632,128,0,21913:0:0:0:0:
64,192,21632,1,0,0:0:0:0:
320,192,21819,1,0,0:0:0:0:
64,192,22007,128,0,22288:0:0:0:0:
448,192,22007,1,0,0:0:0:0:
320,192,22194,1,0,0:0:0:0:
192,192,22382,128,0,22663:0:0:0:0:
64,192,22382,1,0,0:0:0:0:
448,192,22569,1,0,0:0:0:0:
320,192,22757,128,0,23038:0:0:0:0:
192,192,22757,1,0,0:0:0:0:
64,192,22944,1,0,0:0:0:0:
448,192,23132,128,0,23413:0:0:0:0:
320,192,23132,1,0,0:0:0:0:
192,192,23319,1,0,0:0:0:0:
320,192,23507,128,0,23788:0:0:0:0:
64,192,23507,1,0,0:0:0:0:
448,192,23694,1,0,0:0:0:0:
192,192,23882,128,0,24163:0:0:0:0:
64,192,23882,1,0,0:0:0:0:
320,192,24069,1,0,0:0:0:0:
64,192,24257,128,0,24725:0:0:0:0:
448,192,24257,1,0,0:0:0:0:
192,192,24444,1,0,0:0:0:0:
320,192,24632,1,0,0:0:0:0:
448,192,24632,1,0,0:0:0:0:
192,192,24819,128,0,24913:0:0:0:0:
320,192,25007,128,0,25475:0:0:0:0:
64,192,25007,1,0,0:0:0:0:
448,192,25194,1,0,0:0:0:0:
192,192,25382,1,0,0:0:0:0:
64,192,25382,1,0,0:0:0:0:
448,192,25569,128,0,25663:0:0:0:0:
320,192,25663,128,0,25757:0:0:0:0:
192,192,25757,128,0,26225:0:0:0:0:
64,192,25757,1,0,0:0:0:0:
448,192,25944,1,0,0:0:0:0:
320,192,26132,1,0,0:0:0:0:
64,192,26132,1,0,0:0:0:0:
64,192,26319,128,0,26413:0:0:0:0:
448,192,26507,128,0,27163:0:0:0:0:
320,192,26507,128,0,26600:0:0:0:0:
64,192,26600,128,0,26694:0:0:0:0:
192,192,26694,128,0,26788:0:0:0:0:
320,192,26788,128,0,26882:0:0:0:0:
64,192,26882,128,0,26975:0:0:0:0:
192,192,26882,128,0,26975:0:0:0:0:
320,192,26975,128,0,27069:0:0:0:0:
64,192,27069,128,0,27163:0:0:0:0:
192,192,27163,128,0,27257:0:0:0:0:
448,192,27257,1,0,0:0:0:0:
64,192,27257,1,0,0:0:0:0:
320,192,27257,128,0,27350:0:0:0:0:
192,192,27444,128,0,27538:0:0:0:0:
320,192,27632,128,0,27725:0:0:0:0:
64,192,27632,128,0,27725:0:0:0:0:
448,192,27819,128,0,27913:0:0:0:0:
320,192,27819,128,0,27913:0:0:0:0:
192,192,28007,128,0,28288:0:0:0:0:
64,192,28007,128,0,28100:0:0:0:0:
320,192,28194,128,0,28288:0:0:0:0:
64,192,28382,128,0,28475:0:0:0:0:
448,192,28382,128,0,28475:0:0:0:0:
192,192,28569,128,0,28663:0:0:0:0:
64,192,28569,128,0,28663:0:0:0:0:
320,192,28757,128,0,29038:0:0:0:0:
448,192,28757,128,0,28850:0:0:0:0:
64,192,28944,128,0,29038:0:0:0:0:
448,192,29132,128,0,29413:0:0:0:0:
192,192,29132,128,0,29225:0:0:0:0:
320,192,29319,128,0,29413:0:0:0:0:
64,192,29507,128,0,30163:0:0:0:0:
448,192,29507,128,0,29600:0:0:0:0:
320,192,29694,128,0,29788:0:0:0:0:
448,192,29882,1,0,0:0:0:0:
192,192,29882,128,0,29975:0:0:0:0:
320,192,30069,128,0,30163:0:0:0:0:
64,192,30257,1,0,0:0:0:0:
448,192,30257,128,0,30350:0:0:0:0:
192,192,30444,128,0,30538:0:0:0:0:
448,192,30632,128,0,30725:0:0:0:0:
320,192,30632,128,0,30725:0:0:0:0:
64,192,30819,128,0,30913:0:0:0:0:
192,192,30819,128,0,30913:0:0:0:0:
448,192,31007,128,0,31288:0:0:0:0:
64,192,31007,128,0,31100:0:0:0:0:
192,192,31194,128,0,31288:0:0:0:0:
320,192,31382,128,0,31475:0:0:0:0:
64,192,31382,128,0,31475:0:0:0:0:
192,192,31569,128,0,31663:0:0:0:0:
448,192,31569,128,0,31663:0:0:0:0:
64,192,31757,128,0,32225:0:0:0:0:
320,192,31757,128,0,31850:0:0:0:0:
192,192,31944,128,0,32038:0:0:0:0:
448,192,32132,1,0,0:0:0:0:
320,192,32132,128,0,32225:0:0:0:0:
192,192,32319,128,0,32413:0:0:0:0:
448,192,32319,128,0,32413:0:0:0:0:
320,192,32507,128,0,33163:0:0:0:0:
64,192,32507,128,0,32600:0:0:0:0:
448,192,32694,128,0,32788:0:0:0:0:
64,192,32882,1,0,0:0:0:0:
192,192,32882,128,0,32975:0:0:0:0:
448,192,33069,128,0,33163:0:0:0:0:
192,192,33257,128,0,33538:0:0:0:0:
64,192,33257,128,0,33350:0:0:0:0:
448,192,33444,128,0,33538:0:0:0:0:
320,192,33632,128,0,33913:0:0:0:0:
192,192,33632,128,0,33725:0:0:0:0:
64,192,33819,128,0,33913:0:0:0:0:
448,192,34007,128,0,34288:0:0:0:0:
320,192,34007,128,0,34100:0:0:0:0:
192,192,34194,128,0,34288:0:0:0:0:
320,192,34382,128,0,34663:0:0:0:0:
64,192,34382,128,0,34475:0:0:0:0:
448,192,34569,128,0,34663:0:0:0:0:
192,192,34757,128,0,35038:0:0:0:0:
320,192,34757,128,0,34850:0:0:0:0:
64,192,34944,128,0,35038:0:0:0:0:
64,192,35132,128,0,35413:0:0:0:0:
448,192,35132,128,0,35225:0:0:0:0:
320,192,35319,128,0,35413:0:0:0:0:
192,192,35507,128,0,35788:0:0:0:0:
64,192,35507,128,0,35600:0:0:0:0:
448,192,35694,128,0,35788:0:0:0:0:
320,192,35882,128,0,36163:0:0:0:0:
192,192,35882,128,0,35975:0:0:0:0:
64,192,36069,128,0,36163:0:0:0:0:
448,192,36257,128,0,36725:0:0:0:0:
320,192,36257,128,0,36350:0:0:0:0:
192,192,36444,128,0,36538:0:0:0:0:
64,192,36632,128,0,36725:0:0:0:0:
320,192,36632,1,0,0:0:0:0:
320,192,36819,128,0,36913:0:0:0:0:
448,192,36819,128,0,36913:0:0:0:0:
192,192,37007,128,0,37288:0:0:0:0:
448,192,37007,128,0,37100:0:0:0:0:
64,192,37194,128,0,37288:0:0:0:0:
320,192,37382,128,0,37663:0:0:0:0:
448,192,37382,128,0,37475:0:0:0:0:
192,192,37569,128,0,37663:0:0:0:0:
448,192,37757,128,0,38225:0:0:0:0:
320,192,37757,128,0,37850:0:0:0:0:
192,192,37850,128,0,37944:0:0:0:0:
64,192,37944,128,0,38038:0:0:0:0:
320,192,38038,128,0,38132:0:0:0:0:
64,192,38132,128,0,38225:0:0:0:0:
192,192,38132,128,0,38225:0:0:0:0:
320,192,38225,128,0,38319:0:0:0:0:
64,192,38319,128,0,38413:0:0:0:0:
448,192,38319,128,0,38413:0:0:0:0:
192,192,38413,128,0,38507:0:0:0:0:
64,192,38507,128,0,39163:0:0:0:0:
320,192,38507,128,0,38600:0:0:0:0:
448,192,38600,128,0,38694:0:0:0:0:
320,192,38694,128,0,38788:0:0:0:0:
192,192,38788,128,0,38882:0:0:0:0:
448,192,38882,128,0,38975:0:0:0:0:
320,192,38882,128,0,38975:0:0:0:0:
192,192,38975,128,0,39069:0:0:0:0:
448,192,39069,128,0,39163:0:0:0:0:
320,192,39163,128,0,39257:0:0:0:0:
64,192,39257,1,0,0:0:0:0:
192,192,39257,128,0,39538:0:0:0:0:
448,192,39257,128,0,39725:0:0:0:0:
320,192,39444,1,0,0:0:0:0:
64,192,39632,128,0,39913:0:0:0:0:
320,192,39819,128,0,39913:0:0:0:0:
448,192,39819,1,0,0:0:0:0:
192,192,40007,128,0,40475:0:0:0:0:
448,192,40007,128,0,40288:0:0:0:0:
64,192,40194,1,0,0:0:0:0:
320,192,40382,128,0,40663:0:0:0:0:
64,192,40569,128,0,40663:0:0:0:0:
192,192,40569,1,0,0:0:0:0:
448,192,40757,128,0,40850:0:0:0:0:
192,192,40757,128,0,41038:0:0:0:0:
320,192,40944,128,0,41038:0:0:0:0:
64,192,41132,128,0,41413:0:0:0:0:
192,192,41132,128,0,41225:0:0:0:0:
320,192,41319,128,0,41413:0:0:0:0:
192,192,41507,128,0,41788:0:0:0:0:
448,192,41507,128,0,41600:0:0:0:0:
64,192,41694,128,0,41788:0:0:0:0:
448,192,41694,1,0,0:0:0:0:
320,192,41882,128,0,42163:0:0:0:0:
192,192,41882,128,0,41975:0:0:0:0:
448,192,42069,128,0,42163:0:0:0:0:
448,192,42257,1,0,0:0:0:0:
64,192,42257,128,0,43288:0:0:0:0:
192,192,42444,128,0,42538:0:0:0:0:
192,192,42632,128,0,42725:0:0:0:0:
192,192,42819,128,0,42913:0:0:0:0:
320,192,42819,1,0,0:0:0:0:
192,192,43007,1,0,0:0:0:0:
448,192,43007,1,0,0:0:0:0:
320,192,43194,128,0,43288:0:0:0:0:
192,192,43382,1,0,0:0:0:0:
64,192,43569,128,0,43663:0:0:0:0:
448,192,43569,128,0,43663:0:0:0:0:
192,192,43663,128,0,43757:0:0:0:0:
320,192,43757,128,0,43944:0:0:0:0:
448,192,43757,1,0,0:0:0:0:
64,192,43944,128,0,44038:0:0:0:0:
448,192,44038,128,0,44225:0:0:0:0:
320,192,44132,1,0,0:0:0:0:
64,192,44132,128,0,44225:0:0:0:0:
64,192,44319,128,0,44413:0:0:0:0:
192,192,44319,128,0,44413:0:0:0:0:
448,192,44507,128,0,45163:0:0:0:0:
320,192,44507,1,0,0:0:0:0:
192,192,44694,1,0,0:0:0:0:
64,192,44694,128,0,44788:0:0:0:0:
320,192,44882,1,0,0:0:0:0:
192,192,45069,128,0,45163:0:0:0:0:
320,192,45257,128,0,45538:0:0:0:0:
64,192,45257,128,0,45725:0:0:0:0:
448,192,45257,1,0,0:0:0:0:
192,192,45444,1,0,0:0:0:0:
448,192,45632,128,0,45913:0:0:0:0:
192,192,45819,128,0,45913:0:0:0:0:
64,192,45819,1,0,0:0:0:0:
64,192,46007,128,0,46288:0:0:0:0:
320,192,46007,128,0,46475:0:0:0:0:
448,192,46194,1,0,0:0:0:0:
192,192,46382,128,0,46663:0:0:0:0:
448,192,46569,128,0,46663:0:0:0:0:
320,192,46569,1,0,0:0:0:0:
64,192,46757,128,0,46850:0:0:0:0:
320,192,46757,128,0,47038:0:0:0:0:
192,192,46944,128,0,47038:0:0:0:0:
448,192,47132,128,0,47413:0:0:0:0:
320,192,47132,128,0,47225:0:0:0:0:
192,192,47319,128,0,47413:0:0:0:0:
64,192,47507,128,0,47600:0:0:0:0:
320,192,47507,128,0,47788:0:0:0:0:
448,192,47694,128,0,47788:0:0:0:0:
64,192,47694,1,0,0:0:0:0:
320,192,47882,128,0,47975:0:0:0:0:
192,192,47882,128,0,48163:0:0:0:0:
64,192,48069,128,0,48163:0:0:0:0:
64,192,48257,1,0,0:0:0:0:
448,192,48257,128,0,48725:0:0:0:0:
320,192,48444,1,0,0:0:0:0:
192,192,48632,1,0,0:0:0:0:
64,192,48632,1,0,0:0:0:0:
320,192,48819,128,0,48913:0:0:0:0:
192,192,48913,128,0,49007:0:0:0:0:
64,192,49007,128,0,49663:0:0:0:0:
448,192,49007,1,0,0:0:0:0:
192,192,49100,1,0,0:0:0:0:
320,192,49194,1,0,0:0:0:0:
448,192,49194,1,0,0:0:0:0:
192,192,49288,1,0,0:0:0:0:
320,192,49382,1,0,0:0:0:0:
448,192,49382,1,0,0:0:0:0:
192,192,49475,1,0,0:0:0:0:
320,192,49569,1,0,0:0:0:0:
448,192,49569,1,0,0:0:0:0:
192,192,49663,1,0,0:0:0:0:
64,192,49757,1,0,0:0:0:0:
320,192,49757,1,0,0:0:0:0:
448,192,49757,1,0,0:0:0:0:
192,192,50038,1,0,0:0:0:0:
64,192,50038,1,0,0:0:0:0:
320,192,50038,1,0,0:0:0:0:
192,192,50319,1,0,0:0:0:0:
320,192,50319,1,0,0:0:0:0:
448,192,50319,1,0,0:0:0:0:
64,192,50507,1,0,0:0:0:0:
448,192,50507,1,0,0:0:0:0:
192,192,50507,1,0,0:0:0:0:
64,192,50882,1,0,0:0:0:0:
192,192,50882,1,0,0:0:0:0:
320,192,50882,1,0,0:0:0:0:
448,192,50882,1,0,0:0:0:0:
320,192,51257,1,0,0:0:0:0:
448,192,51257,1,0,0:0:0:0:
64,192,51257,128,0,51444:0:0:0:0:
192,192,51350,1,0,0:0:0:0:
320,192,51444,1,0,0:0:0:0:
448,192,51538,128,0,51725:0:0:0:0:
64,192,51538,1,0,0:0:0:0:
192,192,51632,1,0,0:0:0:0:
320,192,51632,1,0,0:0:0:0:
64,192,51725,1,0,0:0:0:0:
320,192,51819,128,0,52007:0:0:0:0:
448,192,51819,1,0,0:0:0:0:
192,192,51913,1,0,0:0:0:0:
64,192,52007,128,0,52194:0:0:0:0:
448,192,52007,128,0,52288:0:0:0:0:
192,192,52100,128,0,52194:0:0:0:0:
320,192,52194,128,0,52288:0:0:0:0:
192,192,52288,128,0,52569:0:0:0:0:
64,192,52288,128,0,52382:0:0:0:0:
320,192,52382,128,0,52475:0:0:0:0:
448,192,52382,128,0,52475:0:0:0:0:
64,192,52475,128,0,52663:0:0:0:0:
320,192,52569,128,0,52757:0:0:0:0:
448,192,52569,128,0,52663:0:0:0:0:
192,192,52663,128,0,52757:0:0:0:0:
64,192,52757,128,0,53038:0:0:0:0:
448,192,52757,128,0,52850:0:0:0:0:
320,192,52850,128,0,52944:0:0:0:0:
192,192,52944,128,0,53038:0:0:0:0:
320,192,53038,1,0,0:0:0:0:
192,192,53132,128,0,53413:0:0:0:0:
64,192,53132,128,0,53225:0:0:0:0:
448,192,53132,1,0,0:0:0:0:
320,192,53225,128,0,53319:0:0:0:0:
448,192,53319,128,0,53413:0:0:0:0:
64,192,53413,1,0,0:0:0:0:
320,192,53507,128,0,53788:0:0:0:0:
448,192,53507,128,0,53600:0:0:0:0:
192,192,53600,128,0,53694:0:0:0:0:
64,192,53694,128,0,53788:0:0:0:0:
192,192,53788,1,0,0:0:0:0:
448,192,53882,128,0,54163:0:0:0:0:
320,192,53882,128,0,53975:0:0:0:0:
64,192,53882,1,0,0:0:0:0:
192,192,53975,128,0,54069:0:0:0:0:
64,192,54069,128,0,54163:0:0:0:0:
320,192,54163,1,0,0:0:0:0:
448,192,54257,1,0,0:0:0:0:
64,192,54257,1,0,0:0:0:0:
192,192,54257,128,0,54444:0:0:0:0:
320,192,54350,1,0,0:0:0:0:
64,192,54444,1,0,0:0:0:0:
320,192,54538,128,0,54725:0:0:0:0:
192,192,54538,1,0,0:0:0:0:
448,192,54632,1,0,0:0:0:0:
64,192,54632,1,0,0:0:0:0:
192,192,54725,1,0,0:0:0:0:
448,192,54819,128,0,55007:0:0:0:0:
320,192,54819,1,0,0:0:0:0:
192,192,54913,1,0,0:0:0:0:
64,192,55007,128,0,55288:0:0:0:0:
320,192,55007,128,0,55194:0:0:0:0:
448,192,55100,128,0,55194:0:0:0:0:
192,192,55194,128,0,55288:0:0:0:0:
320,192,55288,128,0,55569:0:0:0:0:
448,192,55288,128,0,55382:0:0:0:0:
64,192,55382,128,0,55475:0:0:0:0:
192,192,55382,128,0,55475:0:0:0:0:
448,192,55475,128,0,55663:0:0:0:0:
192,192,55569,128,0,55757:0:0:0:0:
64,192,55569,128,0,55663:0:0:0:0:
320,192,55663,128,0,55757:0:0:0:0:
64,192,55757,1,0,0:0:0:0:
448,192,55757,128,0,56225:0:0:0:0:
192,192,55850,1,0,0:0:0:0:
320,192,55944,1,0,0:0:0:0:
64,192,56038,1,0,0:0:0:0:
320,192,56132,1,0,0:0:0:0:
192,192,56132,1,0,0:0:0:0:
64,192,56225,1,0,0:0:0:0:
192,192,56319,128,0,56413:0:0:0:0:
448,192,56319,1,0,0:0:0:0:
320,192,56413,1,0,0:0:0:0:
448,192,56507,128,0,56600:0:0:0:0:
64,192,56507,128,0,56788:0:0:0:0:
192,192,56600,1,0,0:0:0:0:
320,192,56694,128,0,56788:0:0:0:0:
448,192,56788,1,0,0:0:0:0:
192,192,56882,128,0,56975:0:0:0:0:
320,192,56882,1,0,0:0:0:0:
64,192,56882,1,0,0:0:0:0:
320,192,57069,128,0,57163:0:0:0:0:
448,192,57069,1,0,0:0:0:0:
192,192,57163,1,0,0:0:0:0:
448,192,57257,128,0,57538:0:0:0:0:
320,192,57257,1,0,0:0:0:0:
64,192,57257,1,0,0:0:0:0:
192,192,57350,1,0,0:0:0:0:
64,192,57444,1,0,0:0:0:0:
320,192,57538,1,0,0:0:0:0:
448,192,57632,1,0,0:0:0:0:
192,192,57632,1,0,0:0:0:0:
64,192,57632,128,0,57913:0:0:0:0:
320,192,57725,1,0,0:0:0:0:
192,192,57819,1,0,0:0:0:0:
448,192,57913,1,0,0:0:0:0:
320,192,58007,1,0,0:0:0:0:
192,192,58007,128,0,58288:0:0:0:0:
64,192,58100,1,0,0:0:0:0:
320,192,58194,1,0,0:0:0:0:
448,192,58288,1,0,0:0:0:0:
64,192,58382,1,0,0:0:0:0:
192,192,58382,1,0,0:0:0:0:
320,192,58382,128,0,58663:0:0:0:0:
448,192,58475,1,0,0:0:0:0:
64,192,58569,1,0,0:0:0:0:
192,192,58663,1,0,0:0:0:0:
448,192,58757,128,0,58944:0:0:0:0:
320,192,58757,1,0,0:0:0:0:
192,192,58850,1,0,0:0:0:0:
64,192,58944,1,0,0:0:0:0:
320,192,59038,128,0,59225:0:0:0:0:
448,192,59038,1,0,0:0:0:0:
192,192,59132,1,0,0:0:0:0:
64,192,59132,1,0,0:0:0:0:
448,192,59225,1,0,0:0:0:0:
192,192,59319,128,0,59507:0:0:0:0:
64,192,59319,1,0,0:0:0:0:
320,192,59413,1,0,0:0:0:0:
448,192,59507,128,0,59788:0:0:0:0:
64,192,59507,1,0,0:0:0:0:
192,192,59600,1,0,0:0:0:0:
320,192,59694,1,0,0:0:0:0:
192,192,59788,1,0,0:0:0:0:
64,192,59882,128,0,60163:0:0:0:0:
448,192,59882,1,0,0:0:0:0:
320,192,59882,1,0,0:0:0:0:
192,192,59975,1,0,0:0:0:0:
448,192,60069,1,0,0:0:0:0:
320,192,60163,1,0,0:0:0:0:
448,192,60257,128,0,60538:0:0:0:0:
192,192,60257,1,0,0:0:0:0:
64,192,60257,1,0,0:0:0:0:
192,192,60444,1,0,0:0:0:0:
64,192,60444,1,0,0:0:0:0:
192,192,60632,1,0,0:0:0:0:
64,192,60632,1,0,0:0:0:0:
320,192,60632,128,0,60913:0:0:0:0:
192,192,60819,1,0,0:0:0:0:
64,192,60819,1,0,0:0:0:0:
192,192,61007,128,0,61288:0:0:0:0:
320,192,61007,1,0,0:0:0:0:
448,192,61007,1,0,0:0:0:0:
320,192,61194,1,0,0:0:0:0:
448,192,61194,1,0,0:0:0:0:
320,192,61382,1,0,0:0:0:0:
448,192,61382,1,0,0:0:0:0:
64,192,61382,128,0,61663:0:0:0:0:
320,192,61569,1,0,0:0:0:0:
448,192,61569,1,0,0:0:0:0:
192,192,61757,1,0,0:0:0:0:
64,192,61757,128,0,61850:0:0:0:0:
448,192,61803,1,0,0:0:0:0:
320,192,61850,128,0,62038:0:0:0:0:
192,192,61897,1,0,0:0:0:0:
64,192,61944,128,0,62132:0:0:0:0:
448,192,61944,128,0,62038:0:0:0:0:
192,192,62038,128,0,62225:0:0:0:0:
320,192,62132,128,0,62225:0:0:0:0:
448,192,62132,128,0,62319:0:0:0:0:
64,192,62225,128,0,62413:0:0:0:0:
192,192,62319,128,0,62413:0:0:0:0:
320,192,62319,128,0,62507:0:0:0:0:
448,192,62413,128,0,62507:0:0:0:0:
64,192,62507,1,0,0:0:0:0:
192,192,62507,1,0,0:0:0:0:
192,192,62788,1,0,0:0:0:0:
64,192,62788,1,0,0:0:0:0:
320,192,62882,1,0,0:0:0:0:
448,192,62882,1,0,0:0:0:0:
192,192,63069,1,0,0:0:0:0:
64,192,63069,1,0,0:0:0:0:
320,192,63163,1,0,0:0:0:0:
64,192,63257,1,0,0:0:0:0:
448,192,63257,1,0,0:0:0:0:
192,192,63257,128,0,63444:0:0:0:0:
320,192,63350,1,0,0:0:0:0:
64,192,63444,1,0,0:0:0:0:
320,192,63538,128,0,63725:0:0:0:0:
448,192,63538,1,0,0:0:0:0:
192,192,63632,1,0,0:0:0:0:
64,192,63632,1,0,0:0:0:0:
448,192,63725,1,0,0:0:0:0:
64,192,63819,128,0,64007:0:0:0:0:
320,192,63819,1,0,0:0:0:0:
192,192,63913,1,0,0:0:0:0:
448,192,64007,128,0,64194:0:0:0:0:
320,192,64007,128,0,64194:0:0:0:0:
64,192,64100,128,0,64288:0:0:0:0:
192,192,64194,128,0,64288:0:0:0:0:
320,192,64288,128,0,64569:0:0:0:0:
448,192,64288,128,0,64382:0:0:0:0:
192,192,64382,128,0,64475:0:0:0:0:
64,192,64382,128,0,64475:0:0:0:0:
448,192,64475,128,0,64663:0:0:0:0:
192,192,64569,128,0,64757:0:0:0:0:
64,192,64569,128,0,64663:0:0:0:0:
320,192,64663,128,0,64757:0:0:0:0:
448,192,64757,128,0,65038:0:0:0:0:
64,192,64757,128,0,64850:0:0:0:0:
192,192,64850,128,0,64944:0:0:0:0:
320,192,64944,128,0,65038:0:0:0:0:
192,192,65038,1,0,0:0:0:0:
320,192,65132,128,0,65413:0:0:0:0:
448,192,65132,128,0,65225:0:0:0:0:
64,192,65132,1,0,0:0:0:0:
192,192,65225,128,0,65319:0:0:0:0:
64,192,65319,128,0,65413:0:0:0:0:
448,192,65413,1,0,0:0:0:0:
64,192,65507,128,0,65600:0:0:0:0:
192,192,65507,128,0,65788:0:0:0:0:
320,192,65600,128,0,65694:0:0:0:0:
448,192,65694,128,0,65788:0:0:0:0:
320,192,65788,1,0,0:0:0:0:
64,192,65882,128,0,66163:0:0:0:0:
192,192,65882,128,0,65975:0:0:0:0:
448,192,65882,1,0,0:0:0:0:
320,192,65975,128,0,66069:0:0:0:0:
448,192,66069,128,0,66163:0:0:0:0:
192,192,66163,1,0,0:0:0:0:
64,192,66257,1,0,0:0:0:0:
320,192,66257,1,0,0:0:0:0:
448,192,66257,128,0,66444:0:0:0:0:
192,192,66350,1,0,0:0:0:0:
64,192,66444,1,0,0:0:0:0:
320,192,66538,128,0,66725:0:0:0:0:
448,192,66538,1,0,0:0:0:0:
64,192,66632,1,0,0:0:0:0:
192,192,66632,1,0,0:0:0:0:
448,192,66725,1,0,0:0:0:0:
192,192,66819,128,0,67007:0:0:0:0:
320,192,66819,1,0,0:0:0:0:
64,192,66913,1,0,0:0:0:0:
448,192,67007,128,0,67288:0:0:0:0:
320,192,67007,128,0,67194:0:0:0:0:
64,192,67100,128,0,67194:0:0:0:0:
192,192,67194,128,0,67288:0:0:0:0:
64,192,67288,128,0,67475:0:0:0:0:
320,192,67288,128,0,67382:0:0:0:0:
192,192,67382,128,0,67663:0:0:0:0:
448,192,67382,128,0,67475:0:0:0:0:
320,192,67475,128,0,67569:0:0:0:0:
448,192,67569,128,0,67757:0:0:0:0:
64,192,67569,128,0,67663:0:0:0:0:
320,192,67663,128,0,67757:0:0:0:0:
64,192,67757,1,0,0:0:0:0:
192,192,67757,128,0,67944:0:0:0:0:
320,192,67850,1,0,0:0:0:0:
448,192,67944,1,0,0:0:0:0:
192,192,68038,1,0,0:0:0:0:
320,192,68038,128,0,68225:0:0:0:0:
64,192,68132,1,0,0:0:0:0:
448,192,68132,1,0,0:0:0:0:
192,192,68225,1,0,0:0:0:0:
64,192,68319,1,0,0:0:0:0:
448,192,68319,128,0,68507:0:0:0:0:
320,192,68413,1,0,0:0:0:0:
192,192,68507,128,0,68600:0:0:0:0:
64,192,68507,128,0,68975:0:0:0:0:
320,192,68600,1,0,0:0:0:0:
448,192,68694,128,0,68788:0:0:0:0:
192,192,68788,1,0,0:0:0:0:
448,192,68882,1,0,0:0:0:0:
320,192,68882,128,0,68975:0:0:0:0:
448,192,69069,1,0,0:0:0:0:
192,192,69069,128,0,69163:0:0:0:0:
320,192,69163,1,0,0:0:0:0:
64,192,69257,128,0,69538:0:0:0:0:
448,192,69257,1,0,0:0:0:0:
192,192,69257,1,0,0:0:0:0:
320,192,69350,1,0,0:0:0:0:
192,192,69444,1,0,0:0:0:0:
448,192,69538,1,0,0:0:0:0:
64,192,69632,1,0,0:0:0:0:
320,192,69632,1,0,0:0:0:0:
192,192,69632,128,0,69913:0:0:0:0:
448,192,69725,1,0,0:0:0:0:
64,192,69819,128,0,69913:0:0:0:0:
448,192,69913,128,0,70007:0:0:0:0:
64,192,70007,1,0,0:0:0:0:
192,192,70007,1,0,0:0:0:0:
320,192,70007,128,0,70194:0:0:0:0:
448,192,70100,1,0,0:0:0:0:
192,192,70194,1,0,0:0:0:0:
64,192,70288,128,0,70475:0:0:0:0:
320,192,70288,1,0,0:0:0:0:
192,192,70382,1,0,0:0:0:0:
448,192,70382,1,0,0:0:0:0:
320,192,70475,1,0,0:0:0:0:
448,192,70569,128,0,70757:0:0:0:0:
64,192,70569,1,0,0:0:0:0:
320,192,70663,1,0,0:0:0:0:
192,192,70757,128,0,70944:0:0:0:0:
64,192,70757,1,0,0:0:0:0:
320,192,70850,1,0,0:0:0:0:
448,192,70944,1,0,0:0:0:0:
320,192,71038,128,0,71225:0:0:0:0:
64,192,71038,1,0,0:0:0:0:
192,192,71132,1,0,0:0:0:0:
448,192,71132,1,0,0:0:0:0:
64,192,71225,1,0,0:0:0:0:
448,192,71319,128,0,71507:0:0:0:0:
320,192,71319,1,0,0:0:0:0:
192,192,71413,1,0,0:0:0:0:
64,192,71507,128,0,71788:0:0:0:0:
320,192,71507,128,0,71600:0:0:0:0:
448,192,71600,128,0,71694:0:0:0:0:
192,192,71694,128,0,71788:0:0:0:0:
320,192,71788,1,0,0:0:0:0:
64,192,71882,1,0,0:0:0:0:
192,192,71882,1,0,0:0:0:0:
448,192,71882,128,0,71975:0:0:0:0:
320,192,71975,128,0,72069:0:0:0:0:
192,192,72069,128,0,72163:0:0:0:0:
64,192,72069,128,0,72163:0:0:0:0:
320,192,72163,128,0,72257:0:0:0:0:
448,192,72257,128,0,72913:0:0:0:0:
192,192,72257,1,0,0:0:0:0:
64,192,72257,1,0,0:0:0:0:
192,192,72444,1,0,0:0:0:0:
64,192,72444,1,0,0:0:0:0:
192,192,72632,1,0,0:0:0:0:
64,192,72632,1,0,0:0:0:0:
192,192,72819,1,0,0:0:0:0:
64,192,72819,1,0,0:0:0:0:
64,192,73007,1,0,0:0:0:0:
448,192,73007,1,0,0:0:0:0:
320,192,73053,1,0,0:0:0:0:
192,192,73100,1,0,0:0:0:0:
64,192,73147,1,0,0:0:0:0:
448,192,73194,1,0,0:0:0:0:
320,192,73194,1,0,0:0:0:0:
192,192,73288,1,0,0:0:0:0:
64,192,73288,1,0,0:0:0:0:
320,192,73382,1,0,0:0:0:0:
448,192,73382,1,0,0:0:0:0:
192,192,73475,1,0,0:0:0:0:
64,192,73475,1,0,0:0:0:0:
320,192,73569,1,0,0:0:0:0:
448,192,73569,1,0,0:0:0:0:
192,192,73663,1,0,0:0:0:0:
64,192,73757,1,0,0:0:0:0:
320,192,73757,1,0,0:0:0:0:
448,192,73757,1,0,0:0:0:0:
192,192,74038,1,0,0:0:0:0:
64,192,74038,1,0,0:0:0:0:
448,192,74038,1,0,0:0:0:0:
320,192,74319,1,0,0:0:0:0:
192,192,74319,1,0,0:0:0:0:
64,192,74319,1,0,0:0:0:0:
192,192,74507,1,0,0:0:0:0:
320,192,74507,1,0,0:0:0:0:
448,192,74507,1,0,0:0:0:0:
64,192,74507,1,0,0:0:0:0:
64,192,74788,1,0,0:0:0:0:
320,192,74788,1,0,0:0:0:0:
448,192,74788,1,0,0:0:0:0:
192,192,75069,1,0,0:0:0:0:
320,192,75069,1,0,0:0:0:0:
448,192,75069,1,0,0:0:0:0:
64,192,75257,1,0,0:0:0:0:
320,192,75257,1,0,0:0:0:0:
448,192,75257,1,0,0:0:0:0:
192,192,75257,128,0,75538:0:0:0:0:
448,192,75444,1,0,0:0:0:0:
320,192,75632,128,0,75913:0:0:0:0:
192,192,75632,1,0,0:0:0:0:
64,192,75632,1,0,0:0:0:0:
192,192,75819,1,0,0:0:0:0:
448,192,76007,128,0,76288:0:0:0:0:
64,192,76007,1,0,0:0:0:0:
192,192,76100,1,0,0:0:0:0:
320,192,76194,1,0,0:0:0:0:
64,192,76382,128,0,76663:0:0:0:0:
192,192,76382,1,0,0:0:0:0:
448,192,76382,1,0,0:0:0:0:
320,192,76569,1,0,0:0:0:0:
192,192,76757,128,0,76944:0:0:0:0:
64,192,76757,1,0,0:0:0:0:
448,192,76944,1,0,0:0:0:0:
320,192,77038,128,0,77225:0:0:0:0:
192,192,77132,1,0,0:0:0:0:
64,192,77132,1,0,0:0:0:0:
448,192,77132,1,0,0:0:0:0:
448,192,77319,128,0,77507:0:0:0:0:
64,192,77507,128,0,77788:0:0:0:0:
320,192,77507,1,0,0:0:0:0:
448,192,77600,1,0,0:0:0:0:
192,192,77694,1,0,0:0:0:0:
448,192,77882,128,0,78163:0:0:0:0:
64,192,77882,1,0,0:0:0:0:
320,192,77882,1,0,0:0:0:0:
192,192,78069,1,0,0:0:0:0:
320,192,78257,128,0,78444:0:0:0:0:
448,192,78257,1,0,0:0:0:0:
64,192,78444,1,0,0:0:0:0:
192,192,78538,128,0,78725:0:0:0:0:
64,192,78632,1,0,0:0:0:0:
320,192,78632,1,0,0:0:0:0:
448,192,78632,1,0,0:0:0:0:
64,192,78819,128,0,79007:0:0:0:0:
320,192,78913,1,0,0:0:0:0:
448,192,79007,128,0,79194:0:0:0:0:
192,192,79007,1,0,0:0:0:0:
64,192,79100,1,0,0:0:0:0:
320,192,79194,1,0,0:0:0:0:
192,192,79288,128,0,79475:0:0:0:0:
320,192,79382,1,0,0:0:0:0:
448,192,79382,1,0,0:0:0:0:
64,192,79382,1,0,0:0:0:0:
320,192,79569,128,0,79757:0:0:0:0:
64,192,79757,128,0,80225:0:0:0:0:
448,192,79757,1,0,0:0:0:0:
320,192,79944,1,0,0:0:0:0:
192,192,80132,1,0,0:0:0:0:
320,192,80132,1,0,0:0:0:0:
448,192,80132,1,0,0:0:0:0:
192,192,80319,128,0,80413:0:0:0:0:
320,192,80413,128,0,80507:0:0:0:0:
448,192,80507,128,0,81163:0:0:0:0:
64,192,80507,1,0,0:0:0:0:
320,192,80600,1,0,0:0:0:0:
192,192,80694,1,0,0:0:0:0:
192,192,80882,1,0,0:0:0:0:
64,192,80882,1,0,0:0:0:0:
320,192,80882,1,0,0:0:0:0:
320,192,81069,1,0,0:0:0:0:
64,192,81069,1,0,0:0:0:0:
192,192,81163,1,0,0:0:0:0:
320,192,81257,1,0,0:0:0:0:
448,192,81257,1,0,0:0:0:0:
64,192,81257,128,0,81538:0:0:0:0:
448,192,81444,1,0,0:0:0:0:
192,192,81632,128,0,81913:0:0:0:0:
64,192,81632,1,0,0:0:0:0:
320,192,81632,1,0,0:0:0:0:
448,192,81819,1,0,0:0:0:0:
64,192,81913,1,0,0:0:0:0:
320,192,82007,128,0,82288:0:0:0:0:
448,192,82007,1,0,0:0:0:0:
64,192,82100,1,0,0:0:0:0:
192,192,82194,1,0,0:0:0:0:
448,192,82382,128,0,82663:0:0:0:0:
64,192,82382,1,0,0:0:0:0:
320,192,82382,1,0,0:0:0:0:
192,192,82569,1,0,0:0:0:0:
192,192,82757,128,0,82944:0:0:0:0:
64,192,82757,1,0,0:0:0:0:
448,192,82944,1,0,0:0:0:0:
320,192,83038,128,0,83225:0:0:0:0:
192,192,83132,1,0,0:0:0:0:
64,192,83132,1,0,0:0:0:0:
448,192,83132,1,0,0:0:0:0:
448,192,83319,128,0,83507:0:0:0:0:
192,192,83413,1,0,0:0:0:0:
64,192,83507,128,0,83788:0:0:0:0:
320,192,83507,1,0,0:0:0:0:
448,192,83600,1,0,0:0:0:0:
192,192,83694,1,0,0:0:0:0:
448,192,83882,128,0,84163:0:0:0:0:
64,192,83882,1,0,0:0:0:0:
320,192,83882,1,0,0:0:0:0:
192,192,84069,1,0,0:0:0:0:
64,192,84257,128,0,84444:0:0:0:0:
448,192,84257,1,0,0:0:0:0:
192,192,84444,1,0,0:0:0:0:
320,192,84444,1,0,0:0:0:0:
448,192,84538,128,0,84725:0:0:0:0:
192,192,84632,1,0,0:0:0:0:
64,192,84632,1,0,0:0:0:0:
320,192,84819,128,0,85007:0:0:0:0:
448,192,84819,1,0,0:0:0:0:
64,192,85007,128,0,85194:0:0:0:0:
192,192,85007,1,0,0:0:0:0:
320,192,85194,1,0,0:0:0:0:
448,192,85194,1,0,0:0:0:0:
192,192,85288,128,0,85475:0:0:0:0:
64,192,85382,1,0,0:0:0:0:
448,192,85382,1,0,0:0:0:0:
320,192,85569,128,0,85757:0:0:0:0:
192,192,85569,1,0,0:0:0:0:
64,192,85757,1,0,0:0:0:0:
448,192,85757,1,0,0:0:0:0:
192,192,85803,1,0,0:0:0:0:
320,192,85850,1,0,0:0:0:0:
448,192,85897,1,0,0:0:0:0:
64,192,85944,1,0,0:0:0:0:
192,192,85944,1,0,0:0:0:0:
320,192,86038,1,0,0:0:0:0:
448,192,86038,1,0,0:0:0:0:
192,192,86132,1,0,0:0:0:0:
64,192,86132,1,0,0:0:0:0:
320,192,86225,1,0,0:0:0:0:
448,192,86225,1,0,0:0:0:0:
192,192,86319,1,0,0:0:0:0:
64,192,86319,1,0,0:0:0:0:
320,192,86413,1,0,0:0:0:0:
448,192,86413,1,0,0:0:0:0:
192,192,86507,1,0,0:0:0:0:
64,192,86507,1,0,0:0:0:0:
320,192,86600,1,0,0:0:0:0:
448,192,86694,1,0,0:0:0:0:
64,192,86694,1,0,0:0:0:0:
192,192,86788,1,0,0:0:0:0:
320,192,86882,1,0,0:0:0:0:
448,192,86882,1,0,0:0:0:0:
192,192,86975,1,0,0:0:0:0:
64,192,87069,1,0,0:0:0:0:
448,192,87069,1,0,0:0:0:0:
320,192,87163,1,0,0:0:0:0:
192,192,87257,1,0,0:0:0:0:
64,192,87257,1,0,0:0:0:0:
448,192,87257,1,0,0:0:0:0:
320,192,87444,1,0,0:0:0:0:
192,192,87632,128,0,87725:0:0:0:0:
320,192,87819,128,0,87913:0:0:0:0:
448,192,88007,128,0,88288:0:0:0:0:
64,192,88194,1,0,0:0:0:0:
320,192,88382,128,0,88475:0:0:0:0:
192,192,88569,128,0,88663:0:0:0:0:
64,192,88757,128,0,89038:0:0:0:0:
448,192,88757,1,0,0:0:0:0:
320,192,88944,1,0,0:0:0:0:
192,192,89132,128,0,89413:0:0:0:0:
448,192,89319,1,0,0:0:0:0:
320,192,89507,128,0,90163:0:0:0:0:
64,192,89694,1,0,0:0:0:0:
448,192,89882,1,0,0:0:0:0:
192,192,90069,1,0,0:0:0:0:
320,192,90257,1,0,0:0:0:0:
448,192,90257,1,0,0:0:0:0:
192,192,90444,1,0,0:0:0:0:
64,192,90632,128,0,90725:0:0:0:0:
192,192,90819,128,0,90913:0:0:0:0:
320,192,91007,128,0,91288:0:0:0:0:
64,192,91194,1,0,0:0:0:0:
448,192,91382,128,0,91475:0:0:0:0:
320,192,91569,128,0,91663:0:0:0:0:
320,192,91757,128,0,92225:0:0:0:0:
64,192,91757,1,0,0:0:0:0:
192,192,91944,1,0,0:0:0:0:
448,192,92132,1,0,0:0:0:0:
192,192,92319,128,0,92413:0:0:0:0:
64,192,92507,128,0,92788:0:0:0:0:
192,192,92694,1,0,0:0:0:0:
320,192,92788,1,0,0:0:0:0:
448,192,92882,1,0,0:0:0:0:
192,192,93069,1,0,0:0:0:0:
192,192,93163,1,0,0:0:0:0:
448,192,93257,128,0,93538:0:0:0:0:
64,192,93257,1,0,0:0:0:0:
192,192,93444,1,0,0:0:0:0:
320,192,93632,128,0,93913:0:0:0:0:
64,192,93819,1,0,0:0:0:0:
192,192,94007,128,0,94288:0:0:0:0:
448,192,94194,1,0,0:0:0:0:
64,192,94382,128,0,94663:0:0:0:0:
320,192,94569,1,0,0:0:0:0:
192,192,94757,128,0,95038:0:0:0:0:
64,192,94757,1,0,0:0:0:0:
448,192,94944,1,0,0:0:0:0:
320,192,95132,128,0,95413:0:0:0:0:
64,192,95319,1,0,0:0:0:0:
448,192,95507,128,0,95788:0:0:0:0:
192,192,95694,1,0,0:0:0:0:
64,192,95882,128,0,96163:0:0:0:0:
320,192,96069,1,0,0:0:0:0:
192,192,96257,128,0,96725:0:0:0:0:
64,192,96257,1,0,0:0:0:0:
448,192,96444,1,0,0:0:0:0:
64,192,96632,1,0,0:0:0:0:
320,192,96819,128,0,96913:0:0:0:0:
448,192,97007,128,0,97288:0:0:0:0:
64,192,97194,1,0,0:0:0:0:
448,192,97382,1,0,0:0:0:0:
320,192,97569,128,0,97663:0:0:0:0:
192,192,97663,128,0,97757:0:0:0:0:
64,192,97757,128,0,98225:0:0:0:0:
448,192,97757,1,0,0:0:0:0:
192,192,97944,1,0,0:0:0:0:
320,192,98132,1,0,0:0:0:0:
192,192,98319,128,0,98413:0:0:0:0:
320,192,98507,128,0,99163:0:0:0:0:
448,192,98507,128,0,98600:0:0:0:0:
192,192,98600,128,0,98694:0:0:0:0:
64,192,98694,128,0,98788:0:0:0:0:
448,192,98788,128,0,98882:0:0:0:0:
192,192,98882,128,0,98975:0:0:0:0:
448,192,98975,128,0,99069:0:0:0:0:
64,192,99069,128,0,99163:0:0:0:0:
192,192,99163,128,0,99257:0:0:0:0:
64,192,99257,5,0,0:0:0:0:
448,192,99257,1,0,0:0:0:0:
320,192,99257,128,0,99350:0:0:0:0:
192,192,99444,128,0,99538:0:0:0:0:
64,192,99632,128,0,99725:0:0:0:0:
320,192,99632,128,0,99725:0:0:0:0:
192,192,99819,128,0,99913:0:0:0:0:
448,192,99819,128,0,99913:0:0:0:0:
320,192,100007,128,0,100288:0:0:0:0:
448,192,100007,128,0,100100:0:0:0:0:
192,192,100194,128,0,100288:0:0:0:0:
448,192,100382,128,0,100475:0:0:0:0:
64,192,100382,128,0,100475:0:0:0:0:
320,192,100569,128,0,100663:0:0:0:0:
448,192,100569,128,0,100663:0:0:0:0:
192,192,100757,128,0,101038:0:0:0:0:
64,192,100757,128,0,100850:0:0:0:0:
448,192,100944,128,0,101038:0:0:0:0:
64,192,101132,128,0,101413:0:0:0:0:
320,192,101132,128,0,101225:0:0:0:0:
192,192,101319,128,0,101413:0:0:0:0:
448,192,101507,128,0,102163:0:0:0:0:
64,192,101507,128,0,101600:0:0:0:0:
192,192,101694,128,0,101788:0:0:0:0:
64,192,101882,1,0,0:0:0:0:
320,192,101882,128,0,101975:0:0:0:0:
192,192,102069,128,0,102163:0:0:0:0:
448,192,102257,1,0,0:0:0:0:
64,192,102257,128,0,102350:0:0:0:0:
320,192,102444,128,0,102538:0:0:0:0:
64,192,102632,128,0,102725:0:0:0:0:
192,192,102632,128,0,102725:0:0:0:0:
448,192,102819,128,0,102913:0:0:0:0:
320,192,102819,128,0,102913:0:0:0:0:
64,192,103007,128,0,103288:0:0:0:0:
448,192,103007,128,0,103100:0:0:0:0:
320,192,103194,128,0,103288:0:0:0:0:
192,192,103382,128,0,103475:0:0:0:0:
448,192,103382,128,0,103475:0:0:0:0:
320,192,103569,128,0,103663:0:0:0:0:
64,192,103569,128,0,103663:0:0:0:0:
448,192,103757,128,0,104225:0:0:0:0:
192,192,103757,128,0,103850:0:0:0:0:
320,192,103944,128,0,104038:0:0:0:0:
64,192,104132,1,0,0:0:0:0:
192,192,104132,128,0,104225:0:0:0:0:
448,192,104319,128,0,104413:0:0:0:0:
64,192,104319,128,0,104413:0:0:0:0:
192,192,104507,128,0,105163:0:0:0:0:
320,192,104507,128,0,104600:0:0:0:0:
448,192,104694,128,0,104788:0:0:0:0:
320,192,104882,1,0,0:0:0:0:
64,192,104882,128,0,104975:0:0:0:0:
448,192,105069,128,0,105163:0:0:0:0:
320,192,105257,128,0,105538:0:0:0:0:
192,192,105257,128,0,105350:0:0:0:0:
64,192,105444,128,0,105538:0:0:0:0:
192,192,105632,128,0,105913:0:0:0:0:
448,192,105632,128,0,105725:0:0:0:0:
320,192,105819,128,0,105913:0:0:0:0:
64,192,106007,128,0,106288:0:0:0:0:
192,192,106007,128,0,106100:0:0:0:0:
320,192,106194,128,0,106288:0:0:0:0:
192,192,106382,128,0,106663:0:0:0:0:
448,192,106382,128,0,106475:0:0:0:0:
64,192,106569,128,0,106663:0:0:0:0:
320,192,106757,128,0,107038:0:0:0:0:
192,192,106757,128,0,106850:0:0:0:0:
448,192,106944,128,0,107038:0:0:0:0:
448,192,107132,128,0,107413:0:0:0:0:
64,192,107132,128,0,107225:0:0:0:0:
192,192,107319,128,0,107413:0:0:0:0:
320,192,107507,128,0,107788:0:0:0:0:
448,192,107507,128,0,107600:0:0:0:0:
64,192,107694,128,0,107788:0:0:0:0:
192,192,107882,128,0,108163:0:0:0:0:
320,192,107882,128,0,107975:0:0:0:0:
448,192,108069,128,0,108163:0:0:0:0:
64,192,108257,128,0,108725:0:0:0:0:
192,192,108257,128,0,108350:0:0:0:0:
320,192,108444,128,0,108538:0:0:0:0:
448,192,108632,128,0,108725:0:0:0:0:
192,192,108632,1,0,0:0:0:0:
192,192,108819,128,0,108913:0:0:0:0:
64,192,108819,128,0,108913:0:0:0:0:
320,192,109007,128,0,109288:0:0:0:0:
64,192,109007,128,0,109100:0:0:0:0:
448,192,109194,128,0,109288:0:0:0:0:
192,192,109382,128,0,109663:0:0:0:0:
64,192,109382,128,0,109475:0:0:0:0:
320,192,109569,128,0,109663:0:0:0:0:
64,192,109757,128,0,110225:0:0:0:0:
192,192,109757,128,0,109850:0:0:0:0:
320,192,109850,128,0,109944:0:0:0:0:
448,192,109944,128,0,110038:0:0:0:0:
192,192,110038,128,0,110132:0:0:0:0:
448,192,110132,128,0,110225:0:0:0:0:
320,192,110132,128,0,110225:0:0:0:0:
192,192,110225,128,0,110319:0:0:0:0:
448,192,110319,128,0,110413:0:0:0:0:
64,192,110319,128,0,110413:0:0:0:0:
320,192,110413,128,0,110507:0:0:0:0:
448,192,110507,128,0,111163:0:0:0:0:
192,192,110507,128,0,110600:0:0:0:0:
64,192,110600,128,0,110694:0:0:0:0:
192,192,110694,128,0,110788:0:0:0:0:
320,192,110788,128,0,110882:0:0:0:0:
64,192,110882,128,0,110975:0:0:0:0:
192,192,110882,128,0,110975:0:0:0:0:
320,192,110975,128,0,111069:0:0:0:0:
64,192,111069,128,0,111163:0:0:0:0:
192,192,111163,128,0,111257:0:0:0:0:
448,192,111257,1,0,0:0:0:0:
320,192,111257,128,0,111538:0:0:0:0:
64,192,111257,128,0,111725:0:0:0:0:
192,192,111444,1,0,0:0:0:0:
448,192,111632,128,0,111913:0:0:0:0:
192,192,111819,128,0,111913:0:0:0:0:
64,192,111819,1,0,0:0:0:0:
320,192,112007,128,0,112475:0:0:0:0:
64,192,112007,128,0,112288:0:0:0:0:
448,192,112194,1,0,0:0:0:0:
192,192,112382,128,0,112663:0:0:0:0:
448,192,112569,128,0,112663:0:0:0:0:
320,192,112569,1,0,0:0:0:0:
64,192,112757,128,0,112850:0:0:0:0:
320,192,112757,128,0,113038:0:0:0:0:
192,192,112944,128,0,113038:0:0:0:0:
448,192,113132,128,0,113413:0:0:0:0:
320,192,113132,128,0,113225:0:0:0:0:
192,192,113319,128,0,113413:0:0:0:0:
320,192,113507,128,0,113788:0:0:0:0:
64,192,113507,128,0,113600:0:0:0:0:
448,192,113694,128,0,113788:0:0:0:0:
64,192,113694,1,0,0:0:0:0:
192,192,113882,128,0,114163:0:0:0:0:
320,192,113882,128,0,113975:0:0:0:0:
64,192,114069,128,0,114163:0:0:0:0:
64,192,114257,1,0,0:0:0:0:
448,192,114257,128,0,115288:0:0:0:0:
320,192,114444,128,0,114538:0:0:0:0:
320,192,114632,128,0,114725:0:0:0:0:
320,192,114819,128,0,114913:0:0:0:0:
192,192,114819,1,0,0:0:0:0:
320,192,115007,1,0,0:0:0:0:
64,192,115007,1,0,0:0:0:0:
192,192,115194,128,0,115288:0:0:0:0:
320,192,115382,1,0,0:0:0:0:
448,192,115569,128,0,115663:0:0:0:0:
64,192,115569,128,0,115663:0:0:0:0:
320,192,115663,128,0,115757:0:0:0:0:
192,192,115757,128,0,115944:0:0:0:0:
64,192,115757,1,0,0:0:0:0:
448,192,115944,128,0,116038:0:0:0:0:
64,192,116038,128,0,116225:0:0:0:0:
192,192,116132,1,0,0:0:0:0:
448,192,116132,128,0,116225:0:0:0:0:
448,192,116319,128,0,116413:0:0:0:0:
320,192,116319,128,0,116413:0:0:0:0:
64,192,116507,128,0,117163:0:0:0:0:
192,192,116507,1,0,0:0:0:0:
320,192,116694,1,0,0:0:0:0:
448,192,116694,128,0,116788:0:0:0:0:
192,192,116882,1,0,0:0:0:0:
320,192,117069,128,0,117163:0:0:0:0:
192,192,117257,128,0,117538:0:0:0:0:
448,192,117257,128,0,117725:0:0:0:0:
64,192,117257,1,0,0:0:0:0:
320,192,117444,1,0,0:0:0:0:
64,192,117632,128,0,117913:0:0:0:0:
320,192,117819,128,0,117913:0:0:0:0:
448,192,117819,1,0,0:0:0:0:
448,192,118007,128,0,118288:0:0:0:0:
192,192,118007,128,0,118475:0:0:0:0:
64,192,118194,1,0,0:0:0:0:
320,192,118382,128,0,118663:0:0:0:0:
64,192,118569,128,0,118663:0:0:0:0:
192,192,118569,1,0,0:0:0:0:
448,192,118757,128,0,118850:0:0:0:0:
192,192,118757,128,0,119038:0:0:0:0:
320,192,118944,128,0,119038:0:0:0:0:
64,192,119132,128,0,119413:0:0:0:0:
192,192,119132,128,0,119225:0:0:0:0:
320,192,119319,128,0,119413:0:0:0:0:
448,192,119507,128,0,119600:0:0:0:0:
192,192,119507,128,0,119788:0:0:0:0:
64,192,119694,128,0,119788:0:0:0:0:
448,192,119694,1,0,0:0:0:0:
192,192,119882,128,0,119975:0:0:0:0:
320,192,119882,128,0,120163:0:0:0:0:
448,192,120069,128,0,120163:0:0:0:0:
448,192,120257,1,0,0:0:0:0:
64,192,120257,128,0,120725:0:0:0:0:
192,192,120444,1,0,0:0:0:0:
320,192,120632,1,0,0:0:0:0:
448,192,120632,1,0,0:0:0:0:
192,192,120819,128,0,120913:0:0:0:0:
320,192,120913,128,0,121007:0:0:0:0:
448,192,121007,128,0,121663:0:0:0:0:
64,192,121007,1,0,0:0:0:0:
320,192,121100,1,0,0:0:0:0:
192,192,121194,1,0,0:0:0:0:
64,192,121194,1,0,0:0:0:0:
320,192,121288,1,0,0:0:0:0:
192,192,121382,1,0,0:0:0:0:
64,192,121382,1,0,0:0:0:0:
320,192,121475,1,0,0:0:0:0:
192,192,121569,1,0,0:0:0:0:
64,192,121569,1,0,0:0:0:0:
320,192,121663,1,0,0:0:0:0:
448,192,121757,1,0,0:0:0:0:
192,192,121757,1,0,0:0:0:0:
64,192,121757,1,0,0:0:0:0:
320,192,122038,1,0,0:0:0:0:
448,192,122038,1,0,0:0:0:0:
192,192,122038,1,0,0:0:0:0:
320,192,122319,1,0,0:0:0:0:
192,192,122319,1,0,0:0:0:0:
64,192,122319,1,0,0:0:0:0:
448,192,122507,1,0,0:0:0:0:
64,192,122507,1,0,0:0:0:0:
320,192,122507,1,0,0:0:0:0:
448,192,122882,1,0,0:0:0:0:
320,192,122882,1,0,0:0:0:0:
192,192,122882,1,0,0:0:0:0:
64,192,122882,1,0,0:0:0:0:
192,192,123257,1,0,0:0:0:0:
64,192,123257,1,0,0:0:0:0:
448,192,123257,128,0,123444:0:0:0:0:
320,192,123350,1,0,0:0:0:0:
192,192,123444,1,0,0:0:0:0:
64,192,123538,128,0,123725:0:0:0:0:
448,192,123538,1,0,0:0:0:0:
320,192,123632,1,0,0:0:0:0:
192,192,123632,1,0,0:0:0:0:
448,192,123725,1,0,0:0:0:0:
192,192,123819,128,0,124007:0:0:0:0:
64,192,123819,1,0,0:0:0:0:
320,192,123913,1,0,0:0:0:0:
448,192,124007,128,0,124194:0:0:0:0:
64,192,124007,128,0,124288:0:0:0:0:
320,192,124100,128,0,124194:0:0:0:0:
192,192,124194,128,0,124288:0:0:0:0:
320,192,124288,128,0,124569:0:0:0:0:
448,192,124288,128,0,124382:0:0:0:0:
192,192,124382,128,0,124475:0:0:0:0:
64,192,124382,128,0,124475:0:0:0:0:
448,192,124475,128,0,124663:0:0:0:0:
192,192,124569,128,0,124757:0:0:0:0:
64,192,124569,128,0,124663:0:0:0:0:
320,192,124663,128,0,124757:0:0:0:0:
448,192,124757,128,0,125038:0:0:0:0:
64,192,124757,128,0,124850:0:0:0:0:
192,192,124850,128,0,124944:0:0:0:0:
320,192,124944,128,0,125038:0:0:0:0:
192,192,125038,1,0,0:0:0:0:
320,192,125132,128,0,125413:0:0:0:0:
448,192,125132,128,0,125225:0:0:0:0:
64,192,125132,1,0,0:0:0:0:
192,192,125225,128,0,125319:0:0:0:0:
64,192,125319,128,0,125413:0:0:0:0:
448,192,125413,1,0,0:0:0:0:
192,192,125507,128,0,125788:0:0:0:0:
64,192,125507,128,0,125600:0:0:0:0:
320,192,125600,128,0,125694:0:0:0:0:
448,192,125694,128,0,125788:0:0:0:0:
320,192,125788,1,0,0:0:0:0:
64,192,125882,128,0,126163:0:0:0:0:
192,192,125882,128,0,125975:0:0:0:0:
448,192,125882,1,0,0:0:0:0:
320,192,125975,128,0,126069:0:0:0:0:
448,192,126069,128,0,126163:0:0:0:0:
192,192,126163,1,0,0:0:0:0:
64,192,126257,1,0,0:0:0:0:
448,192,126257,1,0,0:0:0:0:
320,192,126257,128,0,126444:0:0:0:0:
192,192,126350,1,0,0:0:0:0:
448,192,126444,1,0,0:0:0:0:
192,192,126538,128,0,126725:0:0:0:0:
320,192,126538,1,0,0:0:0:0:
64,192,126632,1,0,0:0:0:0:
448,192,126632,1,0,0:0:0:0:
320,192,126725,1,0,0:0:0:0:
64,192,126819,128,0,127007:0:0:0:0:
192,192,126819,1,0,0:0:0:0:
320,192,126913,1,0,0:0:0:0:
448,192,127007,128,0,127288:0:0:0:0:
192,192,127007,128,0,127194:0:0:0:0:
64,192,127100,128,0,127194:0:0:0:0:
320,192,127194,128,0,127288:0:0:0:0:
192,192,127288,128,0,127569:0:0:0:0:
64,192,127288,128,0,127382:0:0:0:0:
448,192,127382,128,0,127475:0:0:0:0:
320,192,127382,128,0,127475:0:0:0:0:
64,192,127475,128,0,127663:0:0:0:0:
320,192,127569,128,0,127757:0:0:0:0:
448,192,127569,128,0,127663:0:0:0:0:
192,192,127663,128,0,127757:0:0:0:0:
448,192,127757,5,0,0:0:0:0:
64,192,127757,128,0,128225:0:0:0:0:
320,192,127850,1,0,0:0:0:0:
192,192,127944,1,0,0:0:0:0:
448,192,128038,1,0,0:0:0:0:
320,192,128132,1,0,0:0:0:0:
192,192,128132,1,0,0:0:0:0:
448,192,128225,1,0,0:0:0:0:
64,192,128319,1,0,0:0:0:0:
320,192,128319,128,0,128413:0:0:0:0:
192,192,128413,1,0,0:0:0:0:
448,192,128507,128,0,128788:0:0:0:0:
64,192,128507,128,0,128600:0:0:0:0:
320,192,128600,1,0,0:0:0:0:
192,192,128694,128,0,128788:0:0:0:0:
64,192,128788,1,0,0:0:0:0:
448,192,128882,1,0,0:0:0:0:
192,192,128882,1,0,0:0:0:0:
320,192,128882,128,0,128975:0:0:0:0:
64,192,129069,1,0,0:0:0:0:
192,192,129069,128,0,129163:0:0:0:0:
320,192,129163,1,0,0:0:0:0:
448,192,129257,1,0,0:0:0:0:
192,192,129257,1,0,0:0:0:0:
64,192,129257,128,0,129538:0:0:0:0:
320,192,129350,1,0,0:0:0:0:
448,192,129444,1,0,0:0:0:0:
192,192,129538,1,0,0:0:0:0:
448,192,129632,128,0,129913:0:0:0:0:
320,192,129632,1,0,0:0:0:0:
64,192,129632,1,0,0:0:0:0:
192,192,129725,1,0,0:0:0:0:
320,192,129819,1,0,0:0:0:0:
64,192,129913,1,0,0:0:0:0:
320,192,130007,128,0,130288:0:0:0:0:
192,192,130007,1,0,0:0:0:0:
448,192,130100,1,0,0:0:0:0:
192,192,130194,1,0,0:0:0:0:
64,192,130288,1,0,0:0:0:0:
192,192,130382,128,0,130663:0:0:0:0:
320,192,130382,1,0,0:0:0:0:
448,192,130382,1,0,0:0:0:0:
64,192,130475,1,0,0:0:0:0:
448,192,130569,1,0,0:0:0:0:
320,192,130663,1,0,0:0:0:0:
192,192,130757,1,0,0:0:0:0:
64,192,130757,128,0,130944:0:0:0:0:
320,192,130850,1,0,0:0:0:0:
448,192,130944,1,0,0:0:0:0:
192,192,131038,128,0,131225:0:0:0:0:
64,192,131038,1,0,0:0:0:0:
320,192,131132,1,0,0:0:0:0:
448,192,131132,1,0,0:0:0:0:
64,192,131225,1,0,0:0:0:0:
320,192,131319,128,0,131507:0:0:0:0:
448,192,131319,1,0,0:0:0:0:
192,192,131413,1,0,0:0:0:0:
64,192,131507,128,0,131788:0:0:0:0:
448,192,131507,1,0,0:0:0:0:
320,192,131600,1,0,0:0:0:0:
192,192,131694,1,0,0:0:0:0:
320,192,131788,1,0,0:0:0:0:
448,192,131882,128,0,132163:0:0:0:0:
64,192,131882,1,0,0:0:0:0:
192,192,131882,1,0,0:0:0:0:
320,192,131975,1,0,0:0:0:0:
64,192,132069,1,0,0:0:0:0:
192,192,132163,1,0,0:0:0:0:
64,192,132257,128,0,132538:0:0:0:0:
320,192,132257,1,0,0:0:0:0:
448,192,132257,1,0,0:0:0:0:
320,192,132444,1,0,0:0:0:0:
448,192,132444,1,0,0:0:0:0:
320,192,132632,1,0,0:0:0:0:
448,192,132632,1,0,0:0:0:0:
192,192,132632,128,0,132913:0:0:0:0:
320,192,132819,1,0,0:0:0:0:
448,192,132819,1,0,0:0:0:0:
320,192,133007,128,0,133288:0:0:0:0:
192,192,133007,1,0,0:0:0:0:
64,192,133007,1,0,0:0:0:0:
192,192,133194,1,0,0:0:0:0:
64,192,133194,1,0,0:0:0:0:
192,192,133382,1,0,0:0:0:0:
64,192,133382,1,0,0:0:0:0:
448,192,133382,128,0,133663:0:0:0:0:
192,192,133569,1,0,0:0:0:0:
64,192,133569,1,0,0:0:0:0:
320,192,133757,1,0,0:0:0:0:
448,192,133757,128,0,133850:0:0:0:0:
64,192,133803,1,0,0:0:0:0:
192,192,133850,128,0,134038:0:0:0:0:
320,192,133897,1,0,0:0:0:0:
448,192,133944,128,0,134132:0:0:0:0:
64,192,133944,128,0,134038:0:0:0:0:
320,192,134038,128,0,134225:0:0:0:0:
192,192,134132,128,0,134225:0:0:0:0:
64,192,134132,128,0,134319:0:0:0:0:
448,192,134225,128,0,134413:0:0:0:0:
320,192,134319,128,0,134413:0:0:0:0:
192,192,134319,128,0,134507:0:0:0:0:
64,192,134413,128,0,134507:0:0:0:0:
448,192,134507,1,0,0:0:0:0:
320,192,134507,1,0,0:0:0:0:
320,192,134788,1,0,0:0:0:0:
448,192,134788,1,0,0:0:0:0:
192,192,134882,1,0,0:0:0:0:
64,192,134882,1,0,0:0:0:0:
320,192,135069,1,0,0:0:0:0:
448,192,135069,1,0,0:0:0:0:
192,192,135163,1,0,0:0:0:0:
448,192,135257,1,0,0:0:0:0:
64,192,135257,1,0,0:0:0:0:
320,192,135257,128,0,135444:0:0:0:0:
192,192,135350,1,0,0:0:0:0:
448,192,135444,1,0,0:0:0:0:
192,192,135538,128,0,135725:0:0:0:0:
64,192,135538,1,0,0:0:0:0:
320,192,135632,1,0,0:0:0:0:
448,192,135632,1,0,0:0:0:0:
64,192,135725,1,0,0:0:0:0:
448,192,135819,128,0,136007:0:0:0:0:
192,192,135819,1,0,0:0:0:0:
320,192,135913,1,0,0:0:0:0:
64,192,136007,128,0,136194:0:0:0:0:
192,192,136007,128,0,136194:0:0:0:0:
448,192,136100,128,0,136288:0:0:0:0:
320,192,136194,128,0,136288:0:0:0:0:
192,192,136288,128,0,136569:0:0:0:0:
64,192,136288,128,0,136382:0:0:0:0:
320,192,136382,128,0,136475:0:0:0:0:
448,192,136382,128,0,136475:0:0:0:0:
64,192,136475,128,0,136663:0:0:0:0:
320,192,136569,128,0,136757:0:0:0:0:
448,192,136569,128,0,136663:0:0:0:0:
192,192,136663,128,0,136757:0:0:0:0:
64,192,136757,128,0,137038:0:0:0:0:
448,192,136757,128,0,136850:0:0:0:0:
320,192,136850,128,0,136944:0:0:0:0:
192,192,136944,128,0,137038:0:0:0:0:
320,192,137038,1,0,0:0:0:0:
192,192,137132,128,0,137413:0:0:0:0:
64,192,137132,128,0,137225:0:0:0:0:
448,192,137132,1,0,0:0:0:0:
320,192,137225,128,0,137319:0:0:0:0:
448,192,137319,128,0,137413:0:0:0:0:
64,192,137413,1,0,0:0:0:0:
448,192,137507,128,0,137600:0:0:0:0:
320,192,137507,128,0,137788:0:0:0:0:
192,192,137600,128,0,137694:0:0:0:0:
64,192,137694,128,0,137788:0:0:0:0:
192,192,137788,1,0,0:0:0:0:
448,192,137882,128,0,138163:0:0:0:0:
320,192,137882,128,0,137975:0:0:0:0:
64,192,137882,1,0,0:0:0:0:
192,192,137975,128,0,138069:0:0:0:0:
64,192,138069,128,0,138163:0:0:0:0:
320,192,138163,1,0,0:0:0:0:
448,192,138257,1,0,0:0:0:0:
192,192,138257,1,0,0:0:0:0:
64,192,138257,128,0,138444:0:0:0:0:
320,192,138350,1,0,0:0:0:0:
448,192,138444,1,0,0:0:0:0:
192,192,138538,128,0,138725:0:0:0:0:
64,192,138538,1,0,0:0:0:0:
448,192,138632,1,0,0:0:0:0:
320,192,138632,1,0,0:0:0:0:
64,192,138725,1,0,0:0:0:0:
320,192,138819,128,0,139007:0:0:0:0:
192,192,138819,1,0,0:0:0:0:
448,192,138913,1,0,0:0:0:0:
64,192,139007,128,0,139288:0:0:0:0:
192,192,139007,128,0,139194:0:0:0:0:
448,192,139100,128,0,139194:0:0:0:0:
320,192,139194,128,0,139288:0:0:0:0:
448,192,139288,128,0,139475:0:0:0:0:
192,192,139288,128,0,139382:0:0:0:0:
320,192,139382,128,0,139663:0:0:0:0:
64,192,139382,128,0,139475:0:0:0:0:
192,192,139475,128,0,139569:0:0:0:0:
64,192,139569,128,0,139757:0:0:0:0:
448,192,139569,128,0,139663:0:0:0:0:
192,192,139663,128,0,139757:0:0:0:0:
448,192,139757,5,0,0:0:0:0:
320,192,139757,128,0,139944:0:0:0:0:
192,192,139850,1,0,0:0:0:0:
64,192,139944,1,0,0:0:0:0:
192,192,140038,128,0,140225:0:0:0:0:
320,192,140038,1,0,0:0:0:0:
64,192,140132,1,0,0:0:0:0:
448,192,140132,1,0,0:0:0:0:
320,192,140225,1,0,0:0:0:0:
64,192,140319,128,0,140507:0:0:0:0:
448,192,140319,1,0,0:0:0:0:
192,192,140413,1,0,0:0:0:0:
448,192,140507,128,0,140975:0:0:0:0:
320,192,140507,128,0,140600:0:0:0:0:
192,192,140600,1,0,0:0:0:0:
64,192,140694,128,0,140788:0:0:0:0:
320,192,140788,1,0,0:0:0:0:
192,192,140882,128,0,140975:0:0:0:0:
64,192,140882,1,0,0:0:0:0:
320,192,141069,128,0,141163:0:0:0:0:
64,192,141069,1,0,0:0:0:0:
192,192,141163,1,0,0:0:0:0:
320,192,141257,1,0,0:0:0:0:
64,192,141257,1,0,0:0:0:0:
448,192,141257,128,0,141538:0:0:0:0:
192,192,141350,1,0,0:0:0:0:
320,192,141444,1,0,0:0:0:0:
64,192,141538,1,0,0:0:0:0:
320,192,141632,128,0,141913:0:0:0:0:
192,192,141632,1,0,0:0:0:0:
448,192,141632,1,0,0:0:0:0:
64,192,141725,1,0,0:0:0:0:
448,192,141819,128,0,141913:0:0:0:0:
64,192,141913,128,0,142007:0:0:0:0:
192,192,142007,128,0,142194:0:0:0:0:
320,192,142007,1,0,0:0:0:0:
448,192,142007,1,0,0:0:0:0:
64,192,142100,1,0,0:0:0:0:
320,192,142194,1,0,0:0:0:0:
448,192,142288,128,0,142475:0:0:0:0:
192,192,142288,1,0,0:0:0:0:
320,192,142382,1,0,0:0:0:0:
64,192,142382,1,0,0:0:0:0:
192,192,142475,1,0,0:0:0:0:
64,192,142569,128,0,142757:0:0:0:0:
448,192,142569,1,0,0:0:0:0:
192,192,142663,1,0,0:0:0:0:
320,192,142757,128,0,142944:0:0:0:0:
448,192,142757,1,0,0:0:0:0:
192,192,142850,1,0,0:0:0:0:
64,192,142944,1,0,0:0:0:0:
192,192,143038,128,0,143225:0:0:0:0:
448,192,143038,1,0,0:0:0:0:
320,192,143132,1,0,0:0:0:0:
64,192,143132,1,0,0:0:0:0:
448,192,143225,1,0,0:0:0:0:
64,192,143319,128,0,143507:0:0:0:0:
192,192,143319,1,0,0:0:0:0:
320,192,143413,1,0,0:0:0:0:
448,192,143507,128,0,143788:0:0:0:0:
192,192,143507,128,0,143600:0:0:0:0:
64,192,143600,128,0,143694:0:0:0:0:
320,192,143694,128,0,143788:0:0:0:0:
192,192,143788,1,0,0:0:0:0:
448,192,143882,1,0,0:0:0:0:
320,192,143882,1,0,0:0:0:0:
64,192,143882,128,0,143975:0:0:0:0:
192,192,143975,128,0,144069:0:0:0:0:
320,192,144069,128,0,144163:0:0:0:0:
448,192,144069,128,0,144163:0:0:0:0:
192,192,144163,128,0,144257:0:0:0:0:
64,192,144257,128,0,144913:0:0:0:0:
320,192,144257,1,0,0:0:0:0:
448,192,144257,1,0,0:0:0:0:
320,192,144444,1,0,0:0:0:0:
448,192,144444,1,0,0:0:0:0:
320,192,144632,1,0,0:0:0:0:
448,192,144632,1,0,0:0:0:0:
320,192,144819,1,0,0:0:0:0:
448,192,144819,1,0,0:0:0:0:
448,192,145007,1,0,0:0:0:0:
64,192,145007,1,0,0:0:0:0:
192,192,145053,1,0,0:0:0:0:
320,192,145100,1,0,0:0:0:0:
448,192,145147,1,0,0:0:0:0:
64,192,145194,1,0,0:0:0:0:
192,192,145194,1,0,0:0:0:0:
320,192,145288,1,0,0:0:0:0:
448,192,145288,1,0,0:0:0:0:
192,192,145382,1,0,0:0:0:0:
64,192,145382,1,0,0:0:0:0:
320,192,145475,1,0,0:0:0:0:
448,192,145475,1,0,0:0:0:0:
192,192,145569,1,0,0:0:0:0:
64,192,145569,1,0,0:0:0:0:
320,192,145663,1,0,0:0:0:0:
448,192,145757,1,0,0:0:0:0:
192,192,145757,1,0,0:0:0:0:
64,192,145757,1,0,0:0:0:0:
320,192,146038,1,0,0:0:0:0:
448,192,146038,1,0,0:0:0:0:
64,192,146038,1,0,0:0:0:0:
192,192,146319,1,0,0:0:0:0:
320,192,146319,1,0,0:0:0:0:
448,192,146319,1,0,0:0:0:0:
320,192,146507,1,0,0:0:0:0:
192,192,146507,1,0,0:0:0:0:
64,192,146507,1,0,0:0:0:0:
448,192,146507,1,0,0:0:0:0:
448,192,146788,1,0,0:0:0:0:
192,192,146788,1,0,0:0:0:0:
64,192,146788,1,0,0:0:0:0:
320,192,147069,1,0,0:0:0:0:
192,192,147069,1,0,0:0:0:0:
64,192,147069,1,0,0:0:0:0:
64,192,147257,128,0,148757:0:0:0:0:
448,192,147257,128,0,147538:0:0:0:0:
192,192,147632,128,0,147913:0:0:0:0:
320,192,148007,128,0,148288:0:0:0:0:
448,192,148382,128,0,148475:0:0:0:0:
192,192,148569,128,0,148663:0:0:0:0:
320,192,148757,128,0,148850:0:0:0:0:
448,192,148757,128,0,150163:0:0:0:0:
192,192,148944,128,0,149038:0:0:0:0:
64,192,149132,128,0,149413:0:0:0:0:
192,192,149507,128,0,149975:0:0:0:0:
320,192,150069,128,0,150163:0:0:0:0:
192,192,150257,128,0,151663:0:0:0:0:
64,192,150257,128,0,150538:0:0:0:0:
320,192,150632,128,0,150913:0:0:0:0:
448,192,151007,128,0,151288:0:0:0:0:
320,192,151382,128,0,151475:0:0:0:0:
64,192,151569,128,0,151663:0:0:0:0:
320,192,151757,128,0,153163:0:0:0:0:
192,192,151757,128,0,151850:0:0:0:0:
448,192,151944,128,0,152038:0:0:0:0:
64,192,152132,128,0,152413:0:0:0:0:
448,192,152507,128,0,152975:0:0:0:0:
64,192,153069,128,0,153163:0:0:0:0:
448,192,153257,128,0,154663:0:0:0:0:
64,192,153257,1,0,0:0:0:0:
192,192,153257,128,0,153538:0:0:0:0:
320,192,153632,128,0,153913:0:0:0:0:
64,192,154007,128,0,154288:0:0:0:0:
192,192,154382,128,0,154475:0:0:0:0:
320,192,154569,128,0,154663:0:0:0:0:
448,192,154757,128,0,154850:0:0:0:0:
64,192,154757,128,0,156163:0:0:0:0:
320,192,154944,128,0,155038:0:0:0:0:
192,192,155132,128,0,155413:0:0:0:0:
448,192,155507,128,0,155882:0:0:0:0:
320,192,155975,128,0,156163:0:0:0:0:
192,192,156257,128,0,157663:0:0:0:0:
64,192,156257,128,0,156538:0:0:0:0:
320,192,156632,128,0,156913:0:0:0:0:
448,192,157007,128,0,157288:0:0:0:0:
320,192,157382,128,0,157475:0:0:0:0:
64,192,157569,128,0,157663:0:0:0:0:
320,192,157757,128,0,159163:0:0:0:0:
192,192,157757,128,0,157850:0:0:0:0:
448,192,157944,128,0,158038:0:0:0:0:
192,192,158132,128,0,158225:0:0:0:0:
64,192,158319,128,0,158413:0:0:0:0:
448,192,158507,128,0,159163:0:0:0:0:
320,192,159257,5,0,0:0:0:0:
448,192,159257,1,0,0:0:0:0:
64,192,159257,128,0,159725:0:0:0:0:
192,192,159444,1,0,0:0:0:0:
320,192,159632,1,0,0:0:0:0:
448,192,159632,1,0,0:0:0:0:
192,192,159819,128,0,159913:0:0:0:0:
320,192,160007,128,0,160475:0:0:0:0:
64,192,160007,1,0,0:0:0:0:
448,192,160194,1,0,0:0:0:0:
192,192,160382,1,0,0:0:0:0:
64,192,160382,1,0,0:0:0:0:
448,192,160569,128,0,160663:0:0:0:0:
320,192,160757,128,0,161038:0:0:0:0:
64,192,160757,1,0,0:0:0:0:
448,192,160944,1,0,0:0:0:0:
192,192,161132,128,0,161413:0:0:0:0:
64,192,161132,1,0,0:0:0:0:
320,192,161319,1,0,0:0:0:0:
64,192,161507,128,0,161788:0:0:0:0:
448,192,161507,1,0,0:0:0:0:
320,192,161694,1,0,0:0:0:0:
192,192,161882,128,0,162163:0:0:0:0:
448,192,161882,1,0,0:0:0:0:
64,192,162069,1,0,0:0:0:0:
320,192,162257,128,0,162725:0:0:0:0:
192,192,162257,1,0,0:0:0:0:
448,192,162444,1,0,0:0:0:0:
64,192,162632,1,0,0:0:0:0:
192,192,162632,1,0,0:0:0:0:
448,192,162819,128,0,162913:0:0:0:0:
64,192,163007,128,0,163663:0:0:0:0:
320,192,163007,1,0,0:0:0:0:
192,192,163194,1,0,0:0:0:0:
320,192,163382,1,0,0:0:0:0:
448,192,163382,1,0,0:0:0:0:
192,192,163569,1,0,0:0:0:0:
448,192,163757,128,0,164225:0:0:0:0:
64,192,163757,1,0,0:0:0:0:
320,192,163944,1,0,0:0:0:0:
192,192,164132,1,0,0:0:0:0:
64,192,164132,1,0,0:0:0:0:
320,192,164319,128,0,164413:0:0:0:0:
192,192,164507,128,0,165163:0:0:0:0:
448,192,164507,1,0,0:0:0:0:
64,192,164694,1,0,0:0:0:0:
320,192,164882,1,0,0:0:0:0:
448,192,164882,1,0,0:0:0:0:
64,192,165069,1,0,0:0:0:0:
448,192,165257,128,0,165725:0:0:0:0:
192,192,165257,1,0,0:0:0:0:
320,192,165444,1,0,0:0:0:0:
192,192,165632,1,0,0:0:0:0:
64,192,165632,1,0,0:0:0:0:
320,192,165819,128,0,165913:0:0:0:0:
448,192,166007,1,0,0:0:0:0:
192,192,166007,128,0,166475:0:0:0:0:
64,192,166194,1,0,0:0:0:0:
320,192,166382,1,0,0:0:0:0:
448,192,166382,1,0,0:0:0:0:
64,192,166569,128,0,166663:0:0:0:0:
192,192,166757,128,0,167038:0:0:0:0:
448,192,166757,1,0,0:0:0:0:
64,192,166944,1,0,0:0:0:0:
320,192,167132,128,0,167413:0:0:0:0:
192,192,167132,1,0,0:0:0:0:
64,192,167319,1,0,0:0:0:0:
448,192,167507,128,0,167788:0:0:0:0:
320,192,167507,1,0,0:0:0:0:
192,192,167694,1,0,0:0:0:0:
64,192,167882,128,0,168163:0:0:0:0:
448,192,167882,1,0,0:0:0:0:
320,192,168069,1,0,0:0:0:0:
448,192,168257,128,0,169663:0:0:0:0:
64,192,168257,1,0,0:0:0:0:
192,192,168444,1,0,0:0:0:0:
320,192,168632,1,0,0:0:0:0:
64,192,168632,1,0,0:0:0:0:
192,192,168819,1,0,0:0:0:0:
320,192,169007,1,0,0:0:0:0:
64,192,169007,1,0,0:0:0:0:
192,192,169194,1,0,0:0:0:0:
320,192,169382,1,0,0:0:0:0:
64,192,169382,1,0,0:0:0:0:
192,192,169569,1,0,0:0:0:0:
448,192,169757,1,0,0:0:0:0:
320,192,169757,1,0,0:0:0:0:
192,192,169850,1,0,0:0:0:0:
64,192,169850,1,0,0:0:0:0:
320,192,169944,1,0,0:0:0:0:
448,192,169944,1,0,0:0:0:0:
192,192,170038,1,0,0:0:0:0:
448,192,170132,1,0,0:0:0:0:
64,192,170132,1,0,0:0:0:0:
192,192,170225,1,0,0:0:0:0:
320,192,170225,1,0,0:0:0:0:
448,192,170319,1,0,0:0:0:0:
64,192,170319,1,0,0:0:0:0:
320,192,170413,1,0,0:0:0:0:
192,192,170507,1,0,0:0:0:0:
64,192,170507,1,0,0:0:0:0:
320,192,170600,1,0,0:0:0:0:
448,192,170600,1,0,0:0:0:0:
64,192,170694,1,0,0:0:0:0:
192,192,170694,1,0,0:0:0:0:
320,192,170788,1,0,0:0:0:0:
64,192,170882,1,0,0:0:0:0:
448,192,170882,1,0,0:0:0:0:
192,192,170882,1,0,0:0:0:0:
64,192,171257,128,0,171538:0:0:0:0:
320,192,171257,128,0,171444:0:0:0:0:
448,192,171257,128,0,171350:0:0:0:0:
192,192,171350,128,0,171538:0:0:0:0:
448,192,171444,128,0,171538:0:0:0:0:
320,192,171538,128,0,171632:0:0:0:0:
192,192,171632,128,0,171725:0:0:0:0:
64,192,171632,128,0,171819:0:0:0:0:
448,192,171632,128,0,171913:0:0:0:0:
320,192,171725,128,0,171913:0:0:0:0:
192,192,171819,128,0,172007:0:0:0:0:
64,192,171913,128,0,172100:0:0:0:0:
320,192,172007,128,0,172288:0:0:0:0:
448,192,172007,128,0,172194:0:0:0:0:
192,192,172100,128,0,172288:0:0:0:0:
64,192,172194,128,0,172288:0:0:0:0:
448,192,172288,128,0,172382:0:0:0:0:
64,192,172382,128,0,172663:0:0:0:0:
192,192,172382,128,0,172569:0:0:0:0:
320,192,172382,128,0,172475:0:0:0:0:
448,192,172475,128,0,172663:0:0:0:0:
320,192,172569,128,0,172757:0:0:0:0:
192,192,172663,128,0,172757:0:0:0:0:
64,192,172757,128,0,173038:0:0:0:0:
448,192,172757,128,0,172850:0:0:0:0:
320,192,172850,128,0,172944:0:0:0:0:
192,192,172944,128,0,173038:0:0:0:0:
448,192,173132,128,0,173413:0:0:0:0:
320,192,173132,1,0,0:0:0:0:
64,192,173132,128,0,173225:0:0:0:0:
192,192,173225,128,0,173319:0:0:0:0:
320,192,173319,128,0,173413:0:0:0:0:
64,192,173507,128,0,173788:0:0:0:0:
448,192,173507,128,0,173788:0:0:0:0:
192,192,173600,128,0,173694:0:0:0:0:
320,192,173694,128,0,173788:0:0:0:0:
192,192,173788,128,0,173882:0:0:0:0:
64,192,173882,128,0,174163:0:0:0:0:
320,192,173882,128,0,174069:0:0:0:0:
448,192,173882,128,0,173975:0:0:0:0:
192,192,173975,128,0,174163:0:0:0:0:
448,192,174069,128,0,174350:0:0:0:0:
320,192,174163,128,0,174257:0:0:0:0:
64,192,174257,128,0,174444:0:0:0:0:
192,192,174257,128,0,174538:0:0:0:0:
320,192,174350,128,0,174538:0:0:0:0:
448,192,174444,128,0,174538:0:0:0:0:
64,192,174538,128,0,174632:0:0:0:0:
192,192,174632,128,0,174819:0:0:0:0:
320,192,174632,128,0,174725:0:0:0:0:
448,192,174632,128,0,174913:0:0:0:0:
64,192,174725,128,0,174913:0:0:0:0:
320,192,174819,128,0,175007:0:0:0:0:
192,192,174913,128,0,175100:0:0:0:0:
64,192,175007,128,0,175288:0:0:0:0:
448,192,175007,128,0,175288:0:0:0:0:
320,192,175100,128,0,175194:0:0:0:0:
192,192,175194,128,0,175288:0:0:0:0:
320,192,175288,128,0,175382:0:0:0:0:
448,192,175382,128,0,175663:0:0:0:0:
192,192,175382,128,0,175569:0:0:0:0:
64,192,175382,128,0,175475:0:0:0:0:
320,192,175475,128,0,175663:0:0:0:0:
64,192,175569,128,0,175757:0:0:0:0:
192,192,175663,128,0,175757:0:0:0:0:
448,192,175757,128,0,176038:0:0:0:0:
320,192,175757,128,0,175850:0:0:0:0:
192,192,175850,128,0,175944:0:0:0:0:
64,192,175944,128,0,176038:0:0:0:0:
64,192,176132,128,0,176413:0:0:0:0:
192,192,176132,128,0,176225:0:0:0:0:
448,192,176132,1,0,0:0:0:0:
320,192,176225,128,0,176319:0:0:0:0:
448,192,176319,128,0,176413:0:0:0:0:
64,192,176507,128,0,176788:0:0:0:0:
448,192,176507,128,0,176788:0:0:0:0:
320,192,176600,128,0,176694:0:0:0:0:
192,192,176694,128,0,176788:0:0:0:0:
320,192,176788,128,0,176882:0:0:0:0:
448,192,176882,128,0,176975:0:0:0:0:
192,192,176882,128,0,177069:0:0:0:0:
64,192,176882,128,0,176975:0:0:0:0:
320,192,176975,128,0,177163:0:0:0:0:
64,192,177069,128,0,177163:0:0:0:0:
448,192,177069,128,0,177163:0:0:0:0:
192,192,177163,128,0,177257:0:0:0:0:
64,192,177257,128,0,177444:0:0:0:0:
448,192,177257,128,0,177538:0:0:0:0:
320,192,177257,128,0,177350:0:0:0:0:
192,192,177350,128,0,177538:0:0:0:0:
320,192,177444,128,0,177538:0:0:0:0:
64,192,177538,128,0,177632:0:0:0:0:
448,192,177632,128,0,177725:0:0:0:0:
320,192,177632,128,0,177819:0:0:0:0:
192,192,177632,128,0,177913:0:0:0:0:
64,192,177725,128,0,177913:0:0:0:0:
448,192,177819,128,0,178007:0:0:0:0:
320,192,177913,128,0,178100:0:0:0:0:
192,192,178007,128,0,178194:0:0:0:0:
64,192,178007,128,0,178288:0:0:0:0:
448,192,178100,128,0,178288:0:0:0:0:
320,192,178194,128,0,178288:0:0:0:0:
192,192,178288,128,0,178382:0:0:0:0:
448,192,178382,128,0,178475:0:0:0:0:
320,192,178382,128,0,178569:0:0:0:0:
64,192,178382,128,0,178663:0:0:0:0:
192,192,178475,128,0,178663:0:0:0:0:
448,192,178569,128,0,178663:0:0:0:0:
320,192,178663,128,0,178757:0:0:0:0:
448,192,178757,128,0,179038:0:0:0:0:
192,192,178757,128,0,178944:0:0:0:0:
64,192,178757,128,0,178850:0:0:0:0:
320,192,178850,128,0,179038:0:0:0:0:
64,192,178944,128,0,179038:0:0:0:0:
192,192,179038,128,0,179132:0:0:0:0:
320,192,179132,128,0,179225:0:0:0:0:
448,192,179132,128,0,179319:0:0:0:0:
64,192,179132,128,0,179413:0:0:0:0:
192,192,179225,128,0,179413:0:0:0:0:
320,192,179319,128,0,179507:0:0:0:0:
448,192,179413,128,0,179600:0:0:0:0:
192,192,179507,128,0,179788:0:0:0:0:
64,192,179507,128,0,179694:0:0:0:0:
320,192,179600,128,0,179788:0:0:0:0:
448,192,179694,128,0,179788:0:0:0:0:
64,192,179788,128,0,179882:0:0:0:0:
192,192,179882,128,0,180069:0:0:0:0:
320,192,179882,128,0,179975:0:0:0:0:
448,192,179882,128,0,180163:0:0:0:0:
64,192,179975,128,0,180163:0:0:0:0:
320,192,180069,128,0,180163:0:0:0:0:
192,192,180163,128,0,180257:0:0:0:0:
64,192,180257,128,0,180350:0:0:0:0:
320,192,180257,128,0,180444:0:0:0:0:
448,192,180257,128,0,180350:0:0:0:0:
192,192,180350,128,0,180538:0:0:0:0:
64,192,180444,128,0,180538:0:0:0:0:
448,192,180444,128,0,180632:0:0:0:0:
320,192,180538,128,0,180725:0:0:0:0:
192,192,180632,128,0,180725:0:0:0:0:
64,192,180632,128,0,180819:0:0:0:0:
448,192,180725,128,0,180913:0:0:0:0:
192,192,180819,128,0,181007:0:0:0:0:
320,192,180819,128,0,180913:0:0:0:0:
64,192,180913,128,0,181100:0:0:0:0:
448,192,181007,128,0,181100:0:0:0:0:
320,192,181007,128,0,181194:0:0:0:0:
192,192,181100,128,0,181288:0:0:0:0:
64,192,181194,128,0,181288:0:0:0:0:
448,192,181194,128,0,181475:0:0:0:0:
320,192,181288,128,0,181382:0:0:0:0:
192,192,181382,128,0,181569:0:0:0:0:
64,192,181382,128,0,181475:0:0:0:0:
320,192,181475,128,0,181663:0:0:0:0:
448,192,181569,128,0,181663:0:0:0:0:
64,192,181569,128,0,181757:0:0:0:0:
192,192,181663,128,0,181757:0:0:0:0:
320,192,181757,128,0,181850:0:0:0:0:
448,192,181757,128,0,181850:0:0:0:0:
64,192,181803,1,0,0:0:0:0:
192,192,181850,128,0,181944:0:0:0:0:
320,192,181897,1,0,0:0:0:0:
448,192,181944,128,0,182038:0:0:0:0:
64,192,181944,128,0,182225:0:0:0:0:
192,192,182038,128,0,182132:0:0:0:0:
320,192,182132,128,0,182319:0:0:0:0:
448,192,182132,128,0,182225:0:0:0:0:
192,192,182225,128,0,182413:0:0:0:0:
64,192,182319,128,0,182413:0:0:0:0:
448,192,182319,128,0,182507:0:0:0:0:
320,192,182413,128,0,182600:0:0:0:0:
192,192,182507,128,0,182600:0:0:0:0:
64,192,182507,128,0,182694:0:0:0:0:
448,192,182600,128,0,182788:0:0:0:0:
320,192,182694,128,0,182788:0:0:0:0:
192,192,182694,128,0,182882:0:0:0:0:
64,192,182788,128,0,182975:0:0:0:0:
320,192,182882,128,0,183069:0:0:0:0:
448,192,182882,128,0,182975:0:0:0:0:
192,192,182975,128,0,183163:0:0:0:0:
64,192,183069,128,0,183163:0:0:0:0:
448,192,183069,128,0,183163:0:0:0:0:
320,192,183163,128,0,183257:0:0:0:0:
192,192,183257,1,0,0:0:0:0:
64,192,183257,1,0,0:0:0:0:
448,192,183257,1,0,0:0:0:0:
192,192,183538,1,0,0:0:0:0:
320,192,183538,1,0,0:0:0:0:
448,192,183538,1,0,0:0:0:0:
64,192,183819,1,0,0:0:0:0:
192,192,183819,1,0,0:0:0:0:
320,192,183819,1,0,0:0:0:0:
64,192,184007,1,0,0:0:0:0:
192,192,184007,1,0,0:0:0:0:
320,192,184007,1,0,0:0:0:0:
448,192,184007,1,0,0:0:0:0:
192,192,184288,1,0,0:0:0:0:
64,192,184288,1,0,0:0:0:0:
448,192,184288,1,0,0:0:0:0:
448,192,184569,1,0,0:0:0:0:
320,192,184569,1,0,0:0:0:0:
64,192,184569,1,0,0:0:0:0:
192,192,184757,1,0,0:0:0:0:
320,192,184757,1,0,0:0:0:0:
448,192,184757,128,0,186257:0:0:0:0:
64,192,186257,1,0,0:0:0:0:
192,192,186257,128,0,186444:0:0:0:0:
320,192,186538,128,0,186725:0:0:0:0:
448,192,186819,128,0,187007:0:0:0:0:
64,192,187007,128,0,187194:0:0:0:0:
320,192,187007,1,0,0:0:0:0:
320,192,187288,128,0,187475:0:0:0:0:
192,192,187569,128,0,187757:0:0:0:0:
448,192,187757,128,0,188038:0:0:0:0:
64,192,187757,1,0,0:0:0:0:
320,192,188132,128,0,188413:0:0:0:0:
192,192,188507,128,0,188788:0:0:0:0:
448,192,188507,1,0,0:0:0:0:
64,192,188882,128,0,189163:0:0:0:0:
192,192,189257,128,0,189444:0:0:0:0:
448,192,189257,1,0,0:0:0:0:
320,192,189538,128,0,189725:0:0:0:0:
448,192,189819,128,0,190007:0:0:0:0:
64,192,190007,128,0,190194:0:0:0:0:
192,192,190007,1,0,0:0:0:0:
320,192,190288,128,0,190475:0:0:0:0:
192,192,190569,128,0,190757:0:0:0:0:
64,192,190757,128,0,191225:0:0:0:0:
448,192,190757,1,0,0:0:0:0:
192,192,191319,128,0,191413:0:0:0:0:
320,192,191507,128,0,192163:0:0:0:0:
448,192,191507,1,0,0:0:0:0:
448,192,192257,128,0,192538:0:0:0:0:
64,192,192257,1,0,0:0:0:0:
320,192,192632,128,0,192913:0:0:0:0:
192,192,193007,128,0,193288:0:0:0:0:
448,192,193007,1,0,0:0:0:0:
64,192,193382,128,0,193663:0:0:0:0:
448,192,193757,128,0,193944:0:0:0:0:
192,192,193757,1,0,0:0:0:0:
320,192,194038,128,0,194225:0:0:0:0:
192,192,194319,128,0,194507:0:0:0:0:
448,192,194507,128,0,194788:0:0:0:0:
64,192,194507,1,0,0:0:0:0:
64,192,194882,128,0,195163:0:0:0:0:
448,192,195257,128,0,195538:0:0:0:0:
192,192,195257,1,0,0:0:0:0:
64,192,195257,1,0,0:0:0:0:
192,192,195444,1,0,0:0:0:0:
64,192,195444,1,0,0:0:0:0:
192,192,195632,1,0,0:0:0:0:
64,192,195632,1,0,0:0:0:0:
320,192,195632,128,0,195913:0:0:0:0:
192,192,195819,1,0,0:0:0:0:
64,192,195819,1,0,0:0:0:0:
192,192,196007,128,0,196288:0:0:0:0:
320,192,196007,1,0,0:0:0:0:
448,192,196007,1,0,0:0:0:0:
320,192,196194,1,0,0:0:0:0:
448,192,196194,1,0,0:0:0:0:
320,192,196382,1,0,0:0:0:0:
448,192,196382,1,0,0:0:0:0:
64,192,196382,128,0,196663:0:0:0:0:
320,192,196569,1,0,0:0:0:0:
448,192,196569,1,0,0:0:0:0:
448,192,196757,1,0,0:0:0:0:
64,192,196757,1,0,0:0:0:0:
192,192,196803,1,0,0:0:0:0:
320,192,196850,1,0,0:0:0:0:
448,192,196897,1,0,0:0:0:0:
192,192,196944,1,0,0:0:0:0:
64,192,196944,1,0,0:0:0:0:
320,192,197038,1,0,0:0:0:0:
448,192,197038,1,0,0:0:0:0:
192,192,197132,1,0,0:0:0:0:
64,192,197132,1,0,0:0:0:0:
320,192,197225,1,0,0:0:0:0:
448,192,197225,1,0,0:0:0:0:
192,192,197319,1,0,0:0:0:0:
64,192,197319,1,0,0:0:0:0:
320,192,197413,1,0,0:0:0:0:
448,192,197507,1,0,0:0:0:0:
192,192,197507,1,0,0:0:0:0:
64,192,197507,1,0,0:0:0:0:
320,192,197788,1,0,0:0:0:0:
448,192,197788,1,0,0:0:0:0:
192,192,197788,1,0,0:0:0:0:
192,192,198069,1,0,0:0:0:0:
64,192,198069,1,0,0:0:0:0:
320,192,198163,1,0,0:0:0:0:
64,192,198257,1,0,0:0:0:0:
448,192,198257,1,0,0:0:0:0:
192,192,198257,128,0,198444:0:0:0:0:
320,192,198350,1,0,0:0:0:0:
64,192,198444,1,0,0:0:0:0:
320,192,198538,128,0,198725:0:0:0:0:
448,192,198538,1,0,0:0:0:0:
192,192,198632,1,0,0:0:0:0:
64,192,198632,1,0,0:0:0:0:
448,192,198725,1,0,0:0:0:0:
64,192,198819,128,0,199007:0:0:0:0:
320,192,198819,1,0,0:0:0:0:
192,192,198913,1,0,0:0:0:0:
448,192,199007,128,0,199194:0:0:0:0:
320,192,199007,128,0,199194:0:0:0:0:
64,192,199100,128,0,199288:0:0:0:0:
192,192,199194,128,0,199288:0:0:0:0:
320,192,199288,128,0,199569:0:0:0:0:
448,192,199288,128,0,199382:0:0:0:0:
192,192,199382,128,0,199475:0:0:0:0:
64,192,199382,128,0,199475:0:0:0:0:
448,192,199475,128,0,199663:0:0:0:0:
192,192,199569,128,0,199757:0:0:0:0:
64,192,199569,128,0,199663:0:0:0:0:
320,192,199663,128,0,199757:0:0:0:0:
448,192,199757,128,0,200038:0:0:0:0:
64,192,199757,128,0,199850:0:0:0:0:
192,192,199850,128,0,199944:0:0:0:0:
320,192,199944,128,0,200038:0:0:0:0:
192,192,200038,1,0,0:0:0:0:
320,192,200132,128,0,200413:0:0:0:0:
448,192,200132,128,0,200225:0:0:0:0:
64,192,200132,1,0,0:0:0:0:
192,192,200225,128,0,200319:0:0:0:0:
64,192,200319,128,0,200413:0:0:0:0:
448,192,200413,1,0,0:0:0:0:
64,192,200507,128,0,200600:0:0:0:0:
192,192,200507,128,0,200788:0:0:0:0:
320,192,200600,128,0,200694:0:0:0:0:
448,192,200694,128,0,200788:0:0:0:0:
320,192,200788,1,0,0:0:0:0:
64,192,200882,128,0,201163:0:0:0:0:
192,192,200882,128,0,200975:0:0:0:0:
448,192,200882,1,0,0:0:0:0:
320,192,200975,128,0,201069:0:0:0:0:
448,192,201069,128,0,201163:0:0:0:0:
192,192,201163,1,0,0:0:0:0:
64,192,201257,1,0,0:0:0:0:
320,192,201257,1,0,0:0:0:0:
448,192,201257,128,0,201444:0:0:0:0:
192,192,201350,1,0,0:0:0:0:
64,192,201444,1,0,0:0:0:0:
320,192,201538,128,0,201725:0:0:0:0:
448,192,201538,1,0,0:0:0:0:
64,192,201632,1,0,0:0:0:0:
192,192,201632,1,0,0:0:0:0:
448,192,201725,1,0,0:0:0:0:
192,192,201819,128,0,202007:0:0:0:0:
320,192,201819,1,0,0:0:0:0:
64,192,201913,1,0,0:0:0:0:
448,192,202007,128,0,202288:0:0:0:0:
320,192,202007,128,0,202194:0:0:0:0:
64,192,202100,128,0,202194:0:0:0:0:
192,192,202194,128,0,202288:0:0:0:0:
64,192,202288,128,0,202475:0:0:0:0:
320,192,202288,128,0,202382:0:0:0:0:
192,192,202382,128,0,202663:0:0:0:0:
448,192,202382,128,0,202475:0:0:0:0:
320,192,202475,128,0,202569:0:0:0:0:
448,192,202569,128,0,202757:0:0:0:0:
64,192,202569,128,0,202663:0:0:0:0:
320,192,202663,128,0,202757:0:0:0:0:
64,192,202757,5,0,0:0:0:0:
192,192,202757,128,0,202944:0:0:0:0:
320,192,202850,1,0,0:0:0:0:
448,192,202944,1,0,0:0:0:0:
320,192,203038,128,0,203225:0:0:0:0:
192,192,203038,1,0,0:0:0:0:
448,192,203132,1,0,0:0:0:0:
64,192,203132,1,0,0:0:0:0:
192,192,203225,1,0,0:0:0:0:
448,192,203319,128,0,203507:0:0:0:0:
64,192,203319,1,0,0:0:0:0:
320,192,203413,1,0,0:0:0:0:
64,192,203507,128,0,203975:0:0:0:0:
192,192,203507,128,0,203600:0:0:0:0:
320,192,203600,1,0,0:0:0:0:
448,192,203694,128,0,203788:0:0:0:0:
192,192,203788,1,0,0:0:0:0:
320,192,203882,128,0,203975:0:0:0:0:
448,192,203882,1,0,0:0:0:0:
192,192,204069,128,0,204163:0:0:0:0:
448,192,204069,1,0,0:0:0:0:
320,192,204163,1,0,0:0:0:0:
192,192,204257,1,0,0:0:0:0:
448,192,204257,1,0,0:0:0:0:
64,192,204257,128,0,204538:0:0:0:0:
320,192,204350,1,0,0:0:0:0:
192,192,204444,1,0,0:0:0:0:
448,192,204538,1,0,0:0:0:0:
192,192,204632,128,0,204913:0:0:0:0:
320,192,204632,1,0,0:0:0:0:
64,192,204632,1,0,0:0:0:0:
448,192,204725,1,0,0:0:0:0:
64,192,204819,128,0,204913:0:0:0:0:
448,192,204913,128,0,205007:0:0:0:0:
320,192,205007,128,0,205194:0:0:0:0:
192,192,205007,1,0,0:0:0:0:
64,192,205007,1,0,0:0:0:0:
448,192,205100,1,0,0:0:0:0:
192,192,205194,1,0,0:0:0:0:
64,192,205288,128,0,205475:0:0:0:0:
320,192,205288,1,0,0:0:0:0:
192,192,205382,1,0,0:0:0:0:
448,192,205382,1,0,0:0:0:0:
320,192,205475,1,0,0:0:0:0:
448,192,205569,128,0,205757:0:0:0:0:
64,192,205569,1,0,0:0:0:0:
320,192,205663,1,0,0:0:0:0:
192,192,205757,128,0,205944:0:0:0:0:
64,192,205757,1,0,0:0:0:0:
320,192,205850,1,0,0:0:0:0:
448,192,205944,1,0,0:0:0:0:
320,192,206038,128,0,206225:0:0:0:0:
64,192,206038,1,0,0:0:0:0:
192,192,206132,1,0,0:0:0:0:
448,192,206132,1,0,0:0:0:0:
64,192,206225,1,0,0:0:0:0:
448,192,206319,128,0,206507:0:0:0:0:
320,192,206319,1,0,0:0:0:0:
192,192,206413,1,0,0:0:0:0:
64,192,206507,128,0,206788:0:0:0:0:
320,192,206507,128,0,206600:0:0:0:0:
448,192,206600,128,0,206694:0:0:0:0:
192,192,206694,128,0,206788:0:0:0:0:
320,192,206788,1,0,0:0:0:0:
64,192,206882,1,0,0:0:0:0:
192,192,206882,1,0,0:0:0:0:
448,192,206882,128,0,206975:0:0:0:0:
320,192,206975,128,0,207069:0:0:0:0:
192,192,207069,128,0,207163:0:0:0:0:
64,192,207069,128,0,207163:0:0:0:0:
320,192,207163,128,0,207257:0:0:0:0:
448,192,207257,128,0,207913:0:0:0:0:
192,192,207257,1,0,0:0:0:0:
64,192,207257,1,0,0:0:0:0:
192,192,207444,1,0,0:0:0:0:
64,192,207444,1,0,0:0:0:0:
192,192,207632,1,0,0:0:0:0:
64,192,207632,1,0,0:0:0:0:
192,192,207819,1,0,0:0:0:0:
64,192,207819,1,0,0:0:0:0:
64,192,208007,1,0,0:0:0:0:
448,192,208007,1,0,0:0:0:0:
320,192,208053,1,0,0:0:0:0:
192,192,208100,1,0,0:0:0:0:
64,192,208147,1,0,0:0:0:0:
448,192,208194,1,0,0:0:0:0:
320,192,208194,1,0,0:0:0:0:
192,192,208288,1,0,0:0:0:0:
64,192,208288,1,0,0:0:0:0:
320,192,208382,1,0,0:0:0:0:
448,192,208382,1,0,0:0:0:0:
192,192,208475,1,0,0:0:0:0:
64,192,208475,1,0,0:0:0:0:
320,192,208569,1,0,0:0:0:0:
448,192,208569,1,0,0:0:0:0:
192,192,208663,1,0,0:0:0:0:
64,192,208757,1,0,0:0:0:0:
320,192,208757,1,0,0:0:0:0:
448,192,208757,1,0,0:0:0:0:
192,192,209038,1,0,0:0:0:0:
64,192,209038,1,0,0:0:0:0:
448,192,209038,1,0,0:0:0:0:
320,192,209319,1,0,0:0:0:0:
192,192,209319,1,0,0:0:0:0:
64,192,209319,1,0,0:0:0:0:
192,192,209507,1,0,0:0:0:0:
320,192,209507,1,0,0:0:0:0:
448,192,209507,1,0,0:0:0:0:
64,192,209507,1,0,0:0:0:0:
64,192,209788,1,0,0:0:0:0:
320,192,209788,1,0,0:0:0:0:
448,192,209788,1,0,0:0:0:0:
192,192,210069,1,0,0:0:0:0:
320,192,210069,1,0,0:0:0:0:
448,192,210069,1,0,0:0:0:0:
320,192,210257,1,0,0:0:0:0:
448,192,210257,1,0,0:0:0:0:
192,192,210257,128,0,210538:0:0:0:0:
64,192,210257,128,0,210350:0:0:0:0:
320,192,210444,128,0,210538:0:0:0:0:
448,192,210444,128,0,210538:0:0:0:0:
320,192,210632,1,0,0:0:0:0:
192,192,210632,128,0,210725:0:0:0:0:
64,192,210632,128,0,210725:0:0:0:0:
448,192,210819,128,0,210913:0:0:0:0:
64,192,210819,128,0,210913:0:0:0:0:
448,192,211007,128,0,211194:0:0:0:0:
320,192,211007,128,0,211194:0:0:0:0:
192,192,211100,1,0,0:0:0:0:
64,192,211194,128,0,211257:0:0:0:0:
192,192,211257,128,0,211319:0:0:0:0:
320,192,211319,128,0,211382:0:0:0:0:
64,192,211382,128,0,211475:0:0:0:0:
448,192,211382,128,0,211663:0:0:0:0:
192,192,211382,1,0,0:0:0:0:
320,192,211569,128,0,211663:0:0:0:0:
192,192,211569,128,0,211663:0:0:0:0:
320,192,211757,128,0,212225:0:0:0:0:
448,192,211757,128,0,212038:0:0:0:0:
64,192,211944,128,0,212413:0:0:0:0:
192,192,212132,128,0,212413:0:0:0:0:
448,192,212132,128,0,212507:0:0:0:0:
320,192,212319,128,0,212507:0:0:0:0:
64,192,212507,128,0,212788:0:0:0:0:
192,192,212507,128,0,212788:0:0:0:0:
320,192,212600,1,0,0:0:0:0:
448,192,212694,1,0,0:0:0:0:
64,192,212882,1,0,0:0:0:0:
320,192,212882,1,0,0:0:0:0:
448,192,212882,1,0,0:0:0:0:
192,192,213069,1,0,0:0:0:0:
64,192,213257,128,0,213538:0:0:0:0:
448,192,213257,128,0,213350:0:0:0:0:
192,192,213350,1,0,0:0:0:0:
448,192,213444,128,0,213538:0:0:0:0:
320,192,213444,128,0,213538:0:0:0:0:
320,192,213632,1,0,0:0:0:0:
192,192,213632,128,0,213725:0:0:0:0:
64,192,213632,128,0,213725:0:0:0:0:
448,192,213819,128,0,213913:0:0:0:0:
320,192,213819,128,0,213913:0:0:0:0:
64,192,214007,128,0,214288:0:0:0:0:
192,192,214007,128,0,214100:0:0:0:0:
320,192,214100,1,0,0:0:0:0:
192,192,214194,128,0,214288:0:0:0:0:
448,192,214194,128,0,214288:0:0:0:0:
320,192,214382,1,0,0:0:0:0:
448,192,214382,1,0,0:0:0:0:
64,192,214382,128,0,214444:0:0:0:0:
192,192,214444,128,0,214507:0:0:0:0:
320,192,214507,128,0,214569:0:0:0:0:
448,192,214569,128,0,214757:0:0:0:0:
64,192,214569,128,0,215225:0:0:0:0:
320,192,214757,1,0,0:0:0:0:
192,192,214757,128,0,215225:0:0:0:0:
448,192,214850,1,0,0:0:0:0:
320,192,214944,1,0,0:0:0:0:
320,192,215132,1,0,0:0:0:0:
448,192,215132,1,0,0:0:0:0:
192,192,215319,128,0,215413:0:0:0:0:
448,192,215319,128,0,215413:0:0:0:0:
448,192,215507,128,0,215788:0:0:0:0:
64,192,215507,128,0,215600:0:0:0:0:
192,192,215600,1,0,0:0:0:0:
320,192,215694,128,0,215788:0:0:0:0:
64,192,215694,128,0,215788:0:0:0:0:
448,192,215882,1,0,0:0:0:0:
64,192,215882,128,0,216163:0:0:0:0:
192,192,215882,128,0,215975:0:0:0:0:
448,192,216069,128,0,216163:0:0:0:0:
320,192,216069,128,0,216163:0:0:0:0:
192,192,216163,1,0,0:0:0:0:
64,192,216257,1,0,0:0:0:0:
320,192,216257,128,0,216538:0:0:0:0:
448,192,216257,128,0,216350:0:0:0:0:
192,192,216444,128,0,216538:0:0:0:0:
64,192,216444,128,0,216538:0:0:0:0:
192,192,216632,1,0,0:0:0:0:
320,192,216632,128,0,216725:0:0:0:0:
448,192,216632,128,0,216725:0:0:0:0:
64,192,216819,128,0,216913:0:0:0:0:
448,192,216819,128,0,216913:0:0:0:0:
64,192,217007,128,0,217194:0:0:0:0:
192,192,217007,128,0,217194:0:0:0:0:
320,192,217100,1,0,0:0:0:0:
448,192,217194,128,0,217257:0:0:0:0:
320,192,217257,128,0,217319:0:0:0:0:
192,192,217319,128,0,217382:0:0:0:0:
448,192,217382,128,0,217475:0:0:0:0:
64,192,217382,128,0,217663:0:0:0:0:
320,192,217382,1,0,0:0:0:0:
320,192,217569,128,0,217663:0:0:0:0:
192,192,217569,128,0,217663:0:0:0:0:
192,192,217757,128,0,218225:0:0:0:0:
64,192,217757,128,0,218038:0:0:0:0:
448,192,217944,128,0,218413:0:0:0:0:
320,192,218132,128,0,218413:0:0:0:0:
64,192,218132,128,0,218507:0:0:0:0:
192,192,218319,128,0,218507:0:0:0:0:
448,192,218507,128,0,218788:0:0:0:0:
320,192,218507,128,0,218600:0:0:0:0:
192,192,218600,1,0,0:0:0:0:
64,192,218694,128,0,218788:0:0:0:0:
320,192,218694,128,0,218788:0:0:0:0:
64,192,218882,128,0,219163:0:0:0:0:
192,192,218882,1,0,0:0:0:0:
448,192,218882,128,0,218944:0:0:0:0:
320,192,218944,128,0,219007:0:0:0:0:
192,192,219007,128,0,219163:0:0:0:0:
448,192,219069,128,0,219163:0:0:0:0:
320,192,219069,128,0,219163:0:0:0:0:
320,192,219257,1,0,0:0:0:0:
448,192,219257,128,0,219538:0:0:0:0:
64,192,219257,128,0,219350:0:0:0:0:
192,192,219444,128,0,219538:0:0:0:0:
320,192,219444,128,0,219538:0:0:0:0:
320,192,219632,128,0,219913:0:0:0:0:
64,192,219632,128,0,219725:0:0:0:0:
448,192,219632,1,0,0:0:0:0:
64,192,219819,128,0,219913:0:0:0:0:
192,192,219819,128,0,219913:0:0:0:0:
192,192,220007,128,0,220288:0:0:0:0:
448,192,220007,128,0,220100:0:0:0:0:
64,192,220007,1,0,0:0:0:0:
64,192,220194,128,0,220288:0:0:0:0:
320,192,220194,128,0,220288:0:0:0:0:
64,192,220382,128,0,220663:0:0:0:0:
192,192,220382,128,0,220475:0:0:0:0:
448,192,220382,1,0,0:0:0:0:
320,192,220569,128,0,220663:0:0:0:0:
448,192,220569,128,0,220663:0:0:0:0:
192,192,220757,1,0,0:0:0:0:
64,192,220757,1,0,0:0:0:0:
320,192,220850,1,0,0:0:0:0:
448,192,220850,1,0,0:0:0:0:
192,192,220944,1,0,0:0:0:0:
64,192,220944,1,0,0:0:0:0:
320,192,221038,1,0,0:0:0:0:
448,192,221038,1,0,0:0:0:0:
192,192,221132,1,0,0:0:0:0:
64,192,221132,1,0,0:0:0:0:
320,192,221225,1,0,0:0:0:0:
448,192,221225,1,0,0:0:0:0:
192,192,221319,1,0,0:0:0:0:
64,192,221319,1,0,0:0:0:0:
320,192,221413,1,0,0:0:0:0:
448,192,221413,1,0,0:0:0:0:
192,192,221507,1,0,0:0:0:0:
64,192,221507,1,0,0:0:0:0:
448,192,221553,1,0,0:0:0:0:
320,192,221600,1,0,0:0:0:0:
192,192,221647,1,0,0:0:0:0:
64,192,221694,1,0,0:0:0:0:
448,192,221694,1,0,0:0:0:0:
320,192,221788,1,0,0:0:0:0:
192,192,221882,1,0,0:0:0:0:
64,192,221882,1,0,0:0:0:0:
320,192,221975,1,0,0:0:0:0:
448,192,222069,1,0,0:0:0:0:
64,192,222069,1,0,0:0:0:0:
192,192,222163,1,0,0:0:0:0:
64,192,222257,1,0,0:0:0:0:
448,192,222257,128,0,222569:0:0:0:0:
320,192,222319,1,0,0:0:0:0:
192,192,222382,1,0,0:0:0:0:
64,192,222382,1,0,0:0:0:0:
192,192,222507,1,0,0:0:0:0:
320,192,222507,1,0,0:0:0:0:
320,192,222632,128,0,222944:0:0:0:0:
448,192,222632,1,0,0:0:0:0:
192,192,222757,1,0,0:0:0:0:
64,192,222757,1,0,0:0:0:0:
64,192,222882,1,0,0:0:0:0:
448,192,222882,1,0,0:0:0:0:
192,192,223007,128,0,223319:0:0:0:0:
320,192,223007,1,0,0:0:0:0:
64,192,223132,1,0,0:0:0:0:
448,192,223132,1,0,0:0:0:0:
320,192,223257,1,0,0:0:0:0:
448,192,223257,1,0,0:0:0:0:
64,192,223382,128,0,223694:0:0:0:0:
192,192,223382,1,0,0:0:0:0:
320,192,223507,1,0,0:0:0:0:
448,192,223507,1,0,0:0:0:0:
192,192,223632,1,0,0:0:0:0:
448,192,223632,1,0,0:0:0:0:
320,192,223757,128,0,226779:0:0:0:0:
64,192,223757,1,0,0:0:0:0:
192,192,225233,128,0,228443:0:0:0:0:
64,192,225233,1,0,0:0:0:0:
64,192,226779,128,0,230435:0:0:0:0:
448,192,226779,1,0,0:0:0:0:
448,192,228443,128,0,235310:0:0:0:0:
320,192,228443,1,0,0:0:0:0:
192,192,230435,1,0,0:0:0:0:
320,192,230435,128,0,235310:0:0:0:0:
