osu file format v14

[General]
AudioFilename: audio.mp3
AudioLeadIn: 0
PreviewTime: 61637
Countdown: 0
SampleSet: Soft
StackLeniency: 0.2
Mode: 0
LetterboxInBreaks: 0
WidescreenStoryboard: 0

[Editor]
Bookmarks: 47367,73849,88584,225176,247078
DistanceSpacing: 0.4
BeatDivisor: 4
GridSize: 32
TimelineZoom: 2.4

[Metadata]
Title:Shoujo to Ougonryuu no Monogatari
TitleUnicode:少女と黄金竜の物語
Artist:Hatsuki Yura
ArtistUnicode:葉月ゆら
Creator:Garden
Version:schoolboy's Extra
Source:
Tags:清風明月 Seifuumeigetsu Drop 竜と炎の物語 ~Dragon and Flame Story~ ryuu to honoo no monogatari Hey lululu schoolboy Komore Misure Len Fast
BeatmapID:1546635
BeatmapSetID:719158

[Difficulty]
HPDrainRate:5.3
CircleSize:4.3
OverallDifficulty:8.3
ApproachRate:9.3
SliderMultiplier:1.7
SliderTickRate:1

[Events]
//Background and Video events
0,0,"61015605_p0.jpg",0,0
//Break Periods
2,95952,103826
2,158075,165816
//Storyboard Layer 0 (Background)
//Storyboard Layer 1 (Fail)
//Storyboard Layer 2 (Pass)
//Storyboard Layer 3 (Foreground)
//Storyboard Sound Samples

[TimingPoints]
177,265.486725663717,4,2,1,60,1,0
177,-133.333333333333,4,2,1,60,0,0
7477,-100,4,2,1,70,0,0
8539,-80,4,2,1,80,0,0
8938,-100,4,2,1,80,0,0
11725,-80,4,2,1,80,0,0
11924,-80,4,2,1,5,0,0
11991,-80,4,2,1,80,0,0
12522,-200,4,2,1,80,0,0
12654,-80,4,2,1,80,0,0
13185,-100,4,2,1,80,0,0
13584,-80,4,2,1,80,0,0
13849,-100,4,2,1,80,0,0
14911,-80,4,2,1,80,0,0
15309,-100,4,2,1,80,0,0
15973,-80,4,2,1,80,0,0
16172,-80,4,2,1,5,0,0
16238,-80,4,2,1,80,0,0
17433,-100,4,2,1,80,0,0
20221,-80,4,2,1,80,0,0
20420,-80,4,2,1,5,0,0
20486,-80,4,2,1,80,0,0
21017,-200,4,2,1,80,0,0
21150,-80,4,2,1,80,0,0
21681,-100,4,2,1,80,0,0
21946,-100,4,2,1,80,0,0
22345,-80,4,2,1,80,0,0
22743,-100,4,2,1,80,0,0
23407,-80,4,2,1,80,0,0
25000,-133.333333333333,4,2,1,80,0,0
25597,-133.333333333333,4,2,1,5,0,0
25663,-111.111111111111,4,2,1,65,0,0
27721,-111.111111111111,4,2,1,5,0,0
27787,-111.111111111111,4,2,1,65,0,0
29845,-111.111111111111,4,2,1,5,0,0
29911,-111.111111111111,4,2,1,65,0,0
31969,-111.111111111111,4,2,1,5,0,0
32035,-111.111111111111,4,2,1,65,0,0
32566,-111.111111111111,4,2,1,75,0,0
32898,-111.111111111111,4,2,1,15,0,0
32964,-111.111111111111,4,2,1,75,0,0
33163,-111.111111111111,4,2,1,5,0,0
33230,-111.111111111111,4,2,1,75,0,0
33296,-111.111111111111,4,2,1,5,0,0
33362,-111.111111111111,4,2,1,75,0,0
33429,-111.111111111111,4,2,1,5,0,0
33495,-111.111111111111,4,2,1,75,0,0
34092,-111.111111111111,4,2,1,5,0,0
34159,-111.111111111111,4,2,1,65,0,0
36216,-111.111111111111,4,2,1,5,0,0
36283,-111.111111111111,4,2,1,65,0,0
36681,-111.111111111111,4,2,1,75,0,0
36880,-111.111111111111,4,2,1,5,0,0
36946,-111.111111111111,4,2,1,75,0,0
37212,-111.111111111111,4,2,1,65,0,0
38141,-111.111111111111,4,2,1,75,0,0
38340,-111.111111111111,4,2,1,5,0,0
38407,-111.111111111111,4,2,1,65,0,0
40353,-90.9090909090909,4,2,1,65,0,0
40464,-90.9090909090909,4,2,1,5,0,0
40530,-90.9090909090909,4,2,1,75,0,0
41460,-90.9090909090909,4,2,1,65,0,0
42256,-133.333333333333,4,2,1,65,0,0
42588,-133.333333333333,4,2,1,5,0,0
42654,-133.333333333333,4,2,1,65,0,0
49225,-133.333333333333,4,2,1,5,0,0
49292,-133.333333333333,4,2,1,45,0,0
49424,-133.333333333333,4,2,1,65,0,0
49955,-133.333333333333,4,2,1,70,0,0
51150,-111.111111111111,4,2,1,70,0,0
51349,-111.111111111111,4,2,1,5,0,0
51415,-111.111111111111,4,2,1,70,0,0
53207,-111.111111111111,4,2,1,5,0,0
53274,-111.111111111111,4,2,1,75,0,0
53473,-111.111111111111,4,2,1,5,0,0
53539,-111.111111111111,4,2,1,75,0,0
53705,-111.111111111111,4,2,1,15,0,0
53938,-111.111111111111,4,2,1,75,0,0
53971,-111.111111111111,4,2,1,15,0,0
54203,-111.111111111111,4,2,1,70,0,0
57455,-111.111111111111,4,2,1,5,0,0
57522,-100,4,2,1,75,0,0
57721,-100,4,2,1,5,0,0
57787,-100,4,2,1,75,0,0
58451,-79.3650793650794,4,2,1,75,0,0
58716,-66.6666666666667,4,2,1,75,0,0
59115,-133.333333333333,4,2,1,75,0,0
59646,-133.333333333333,4,2,2,55,0,0
60044,-100,4,2,2,55,0,0
60442,-80,4,2,2,55,0,0
60840,-66.6666666666667,4,2,2,55,0,0
61106,-66.6666666666667,4,2,1,75,0,0
61504,-133.333333333333,4,2,1,75,0,0
61703,-133.333333333333,4,2,1,10,0,0
61769,-90.9090909090909,4,2,1,80,0,0
61969,-90.9090909090909,4,2,1,5,0,0
62035,-90.9090909090909,4,2,1,80,0,0
64092,-90.9090909090909,4,2,1,5,0,0
64159,-90.9090909090909,4,2,1,80,0,0
64889,-90.9090909090909,4,2,1,5,0,0
64955,-52.6315789473684,4,2,1,80,0,0
65154,-52.6315789473684,4,2,1,5,0,0
65221,-52.6315789473684,4,2,1,80,0,0
65752,-100,4,2,1,80,0,0
65884,-100,4,2,1,30,0,0
66017,-90.9090909090909,4,2,1,80,0,0
66216,-90.9090909090909,4,2,1,5,0,0
66283,-90.9090909090909,4,2,1,80,0,0
68340,-90.9090909090909,4,2,1,5,0,0
68407,-90.9090909090909,4,2,1,80,0,0
69137,-90.9090909090909,4,2,1,5,0,0
69203,-90.9090909090909,4,2,1,80,0,0
70464,-90.9090909090909,4,2,1,5,0,0
70530,-90.9090909090909,4,2,1,80,0,0
72588,-90.9090909090909,4,2,1,5,0,0
72654,-90.9090909090909,4,2,1,80,0,0
73384,-90.9090909090909,4,2,1,5,0,0
73451,-55.5555555555556,4,2,1,80,0,0
73650,-55.5555555555556,4,2,1,5,0,0
73716,-55.5555555555556,4,2,1,80,0,0
74247,-100,4,2,1,80,0,0
74380,-100,4,2,1,30,0,0
74513,-100,4,2,1,80,0,0
74911,-80,4,2,1,80,0,0
74977,-80,4,2,1,15,0,0
75177,-80,4,2,1,80,0,0
75243,-80,4,2,1,15,0,0
75442,-90.9090909090909,4,2,1,80,0,0
75641,-90.9090909090909,4,2,1,5,0,0
75707,-90.9090909090909,4,2,1,80,0,0
78230,-200,4,2,1,50,0,0
78694,-200,4,2,1,5,0,0
78761,-100,4,2,1,80,0,0
79823,-133.333333333333,4,2,1,80,0,0
80353,-100,4,2,1,80,0,0
82477,-133.333333333333,4,2,1,80,0,0
84070,-100,4,2,1,80,0,0
84867,-83.3333333333333,4,2,1,80,0,0
86261,-83.3333333333333,4,2,1,5,0,0
86327,-83.3333333333333,4,2,1,80,0,0
88053,-100,4,2,1,80,0,0
88318,-133.333333333333,4,2,1,80,0,0
88849,-80,4,2,1,80,0,0
90442,-100,4,2,1,80,0,0
91238,-83.3333333333333,4,2,1,80,0,0
91769,-133.333333333333,4,2,1,80,0,0
93362,-100,4,2,1,80,0,0
93893,-100,4,2,1,70,0,0
94159,-100,4,2,1,60,0,0
94424,-100,4,2,1,80,0,0
94756,-100,4,2,1,10,0,0
94823,-100,4,2,1,80,0,0
95752,-100,4,2,1,65,0,0
95951,-100,4,2,1,5,0,0
96017,-100,4,2,1,65,0,0
98075,-100,4,2,1,5,0,0
98141,-100,4,2,1,65,0,0
100199,-100,4,2,1,5,0,0
100265,-100,4,2,1,65,0,0
102323,-100,4,2,1,5,0,0
102389,-100,4,2,1,65,0,0
103252,-100,4,2,1,5,0,0
103318,-100,4,2,1,65,0,0
104513,-133.333333333333,4,2,1,65,0,0
104712,-133.333333333333,4,2,1,5,0,0
104778,265.486725663717,4,2,1,70,1,0
104778,-111.111111111111,4,2,1,70,0,0
106835,-111.111111111111,4,2,1,5,0,0
106901,-111.111111111111,4,2,1,70,0,0
108959,-111.111111111111,4,2,1,5,0,0
109025,-111.111111111111,4,2,1,70,0,0
111083,-111.111111111111,4,2,1,5,0,0
111149,-111.111111111111,4,2,1,70,0,0
111946,-111.111111111111,4,2,1,75,0,0
112012,-111.111111111111,4,2,1,15,0,0
112078,-111.111111111111,4,2,1,75,0,0
112278,-111.111111111111,4,2,1,5,0,0
112344,-111.111111111111,4,2,1,75,0,0
112410,-111.111111111111,4,2,1,5,0,0
112477,-111.111111111111,4,2,1,75,0,0
112543,-111.111111111111,4,2,1,5,0,0
112609,-111.111111111111,4,2,1,75,0,0
113207,-111.111111111111,4,2,1,5,0,0
113273,-111.111111111111,4,2,1,70,0,0
115331,-111.111111111111,4,2,1,5,0,0
115397,-111.111111111111,4,2,1,70,0,0
115795,-111.111111111111,4,2,1,75,0,0
115994,-111.111111111111,4,2,1,5,0,0
116061,-111.111111111111,4,2,1,75,0,0
116326,-111.111111111111,4,2,1,70,0,0
117454,-111.111111111111,4,2,1,5,0,0
117521,-111.111111111111,4,2,1,70,0,0
119468,-90.9090909090909,4,2,1,70,0,0
119578,-90.9090909090909,4,2,1,5,0,0
119645,-90.9090909090909,4,2,1,75,0,0
121370,-133.333333333333,4,2,1,75,0,0
121702,-133.333333333333,4,2,1,5,0,0
121769,-133.333333333333,4,2,1,65,0,0
128339,-133.333333333333,4,2,1,5,0,0
128406,-133.333333333333,4,2,1,45,0,0
128539,-133.333333333333,4,2,1,65,0,0
130264,-111.111111111111,4,2,1,70,0,0
130463,-111.111111111111,4,2,1,5,0,0
130530,-111.111111111111,4,2,1,70,0,0
132322,-111.111111111111,4,2,1,5,0,0
132388,-111.111111111111,4,2,1,75,0,0
132587,-111.111111111111,4,2,1,5,0,0
132654,-111.111111111111,4,2,1,75,0,0
132820,-111.111111111111,4,2,1,15,0,0
133052,-111.111111111111,4,2,1,75,0,0
133085,-111.111111111111,4,2,1,15,0,0
133317,-111.111111111111,4,2,1,70,0,0
136570,-111.111111111111,4,2,1,5,0,0
136636,-100,4,2,1,75,0,0
136835,-100,4,2,1,5,0,0
136901,-100,4,2,1,75,0,0
137565,-80,4,2,1,75,0,0
137831,-66.6666666666667,4,2,1,75,0,0
138229,-133.333333333333,4,2,1,75,0,0
138760,-133.333333333333,4,2,2,55,0,0
139158,-100,4,2,2,55,0,0
139424,-80,4,2,2,55,0,0
139689,-66.6666666666667,4,2,2,55,0,0
140220,-66.6666666666667,4,2,1,75,0,0
140618,-133.333333333333,4,2,1,75,0,0
140817,-133.333333333333,4,2,1,5,0,0
140884,-90.9090909090909,4,2,1,80,0,0
141083,-90.9090909090909,4,2,1,5,0,0
141149,-90.9090909090909,4,2,1,80,0,0
143207,-90.9090909090909,4,2,1,5,0,0
143273,-90.9090909090909,4,2,1,80,0,0
144003,-90.9090909090909,4,2,1,5,0,0
144070,-52.6315789473684,4,2,1,80,0,0
144269,-52.6315789473684,4,2,1,5,0,0
144335,-52.6315789473684,4,2,1,80,0,0
144866,-100,4,2,1,80,0,0
144999,-100,4,2,1,40,0,0
145131,-90.9090909090909,4,2,1,80,0,0
145331,-90.9090909090909,4,2,1,5,0,0
145397,-90.9090909090909,4,2,1,80,0,0
147454,-90.9090909090909,4,2,1,5,0,0
147521,-90.9090909090909,4,2,1,80,0,0
148251,-90.9090909090909,4,2,1,5,0,0
148317,-90.9090909090909,4,2,1,80,0,0
149578,-90.9090909090909,4,2,1,5,0,0
149645,-90.9090909090909,4,2,1,80,0,0
151702,-90.9090909090909,4,2,1,5,0,0
151769,-90.9090909090909,4,2,1,80,0,0
152499,-90.9090909090909,4,2,1,5,0,0
152565,-52.6315789473684,4,2,1,80,0,0
152764,-52.6315789473684,4,2,1,5,0,0
152831,-52.6315789473684,4,2,1,80,0,0
153362,-100,4,2,1,80,0,0
153494,-100,4,2,1,40,0,0
153627,-100,4,2,1,80,0,0
154025,-80,4,2,1,80,0,0
154092,-80,4,2,1,15,0,0
154291,-80,4,2,1,80,0,0
154357,-80,4,2,1,15,0,0
154556,-90.9090909090909,4,2,1,80,0,0
154755,-90.9090909090909,4,2,1,5,0,0
154822,-90.9090909090909,4,2,1,80,0,0
156415,-80,4,2,1,80,0,0
157278,-80,4,2,1,60,0,0
157344,-133.333333333333,4,2,1,60,0,0
157808,-133.333333333333,4,2,1,5,0,0
157875,-133.333333333333,4,2,1,50,0,0
166370,-133.333333333333,4,2,2,55,0,0
166636,-117.647058823529,4,2,2,55,0,0
182831,-117.647058823529,4,2,1,60,0,0
183096,-66.6666666666667,4,2,1,60,0,0
183362,-83.3333333333333,4,2,1,75,0,0
187211,-71.4285714285714,4,2,1,75,0,0
187609,-83.3333333333333,4,2,1,75,0,0
189733,-100,4,2,1,75,0,0
192056,-100,4,2,1,5,0,0
192123,-100,4,2,1,75,0,0
192388,-100,4,2,1,75,0,0
192454,-100,4,2,1,15,0,0
192521,-100,4,2,1,75,0,0
192587,-100,4,2,1,15,0,0
192654,-100,4,2,1,75,0,0
192720,-100,4,2,1,15,0,0
192786,-83.3333333333333,4,2,1,75,0,0
192985,-83.3333333333333,4,2,1,5,0,0
193052,-83.3333333333333,4,2,1,75,0,0
193981,-66.6666666666667,4,2,1,75,0,0
194180,-66.6666666666667,4,2,1,5,0,0
194247,-66.6666666666667,4,2,1,75,0,0
194844,-66.6666666666667,4,2,1,5,0,0
194910,-200,4,2,1,75,0,0
196039,-200,4,2,1,5,0,0
196105,-200,4,2,1,95,0,0
196171,-200,4,2,1,30,0,0
197631,-200,4,2,1,5,0,0
197698,-200,4,2,1,30,0,0
201216,-200,4,2,1,5,0,0
201282,-200,4,2,1,30,0,0
204601,-200,4,2,1,50,0,0
206127,-200,4,2,1,5,0,0
206193,-200,4,2,1,50,0,0
211901,-200,4,2,2,80,0,0
212034,-200,4,2,1,80,0,0
212698,-200,4,2,1,70,0,0
213030,-200,4,2,1,5,0,0
213096,-90.9090909090909,4,2,1,80,0,0
213295,-90.9090909090909,4,2,1,5,0,0
213362,-90.9090909090909,4,2,1,80,0,0
215419,-90.9090909090909,4,2,1,5,0,0
215485,-90.9090909090909,4,2,1,80,0,0
216216,-90.9090909090909,4,2,1,5,0,0
216282,-52.6315789473684,4,2,1,80,0,0
216481,-52.6315789473684,4,2,1,5,0,0
216547,-52.6315789473684,4,2,1,80,0,0
217078,-100,4,2,1,80,0,0
217344,-90.9090909090909,4,2,1,80,0,0
217543,-90.9090909090909,4,2,1,5,0,0
217609,-90.9090909090909,4,2,1,80,0,0
219667,-90.9090909090909,4,2,1,5,0,0
219733,-90.9090909090909,4,2,1,80,0,0
220463,-90.9090909090909,4,2,1,5,0,0
220530,-90.9090909090909,4,2,1,80,0,0
221791,-90.9090909090909,4,2,1,5,0,0
221857,-90.9090909090909,4,2,1,80,0,0
223915,-90.9090909090909,4,2,1,5,0,0
223981,-90.9090909090909,4,2,1,80,0,0
224711,-90.9090909090909,4,2,1,5,0,0
224778,-50,4,2,1,80,0,0
224977,-50,4,2,1,5,0,0
225043,-50,4,2,1,80,0,0
225574,-100,4,2,1,80,0,0
225839,-90.9090909090909,4,2,1,80,0,0
226304,-90.9090909090909,4,2,1,15,0,0
226503,-90.9090909090909,4,2,1,80,0,0
226570,-90.9090909090909,4,2,1,15,0,0
226769,-90.9090909090909,4,2,1,80,0,0
226968,-90.9090909090909,4,2,1,5,0,0
227034,-90.9090909090909,4,2,1,80,0,0
228494,-76.9230769230769,4,2,1,80,0,0
228627,-71.4285714285714,4,2,1,80,0,0
228693,-66.6666666666667,4,2,1,80,0,0
229954,-80,4,2,1,80,0,0
230220,-100,4,2,1,80,0,0
233140,-80,4,2,1,80,0,0
233339,-80,4,2,1,5,0,0
233406,-80,4,2,1,80,0,0
233472,-80,4,2,1,15,0,0
233539,-80,4,2,1,80,0,0
233605,-80,4,2,1,15,0,0
233671,-80,4,2,1,80,0,0
233937,-200,4,2,1,80,0,0
234202,-80,4,2,1,80,0,0
234601,-100,4,2,1,80,0,0
236326,-80,4,2,1,80,0,0
236724,-100,4,2,1,80,0,0
237388,-80,4,2,1,80,0,0
237587,-80,4,2,1,5,0,0
237654,-80,4,2,1,80,0,0
238848,-100,4,2,1,80,0,0
241636,-80,4,2,1,80,0,0
241835,-80,4,2,1,5,0,0
241901,-80,4,2,1,80,0,0
242432,-200,4,2,1,80,0,0
242698,-80,4,2,1,80,0,0
243096,-100,4,2,1,80,0,0
243760,-80,4,2,1,80,0,0
244291,-100,4,2,1,80,0,0
244822,-80,4,2,1,80,0,0
246348,-133.333333333333,4,2,1,80,0,0
247609,-133.333333333333,4,2,1,70,0,0
248140,-133.333333333333,4,2,1,60,0,0
248671,-133.333333333333,4,2,1,50,0,0
249202,-133.333333333333,4,2,1,80,0,0

[Colours]
Combo1 : 255,66,66
Combo2 : 255,30,255
Combo3 : 255,119,53
Combo4 : 255,128,192

[HitObjects]
98,65,177,6,0,B|87:99|87:99|92:126,1,63.7500024318696,4|0,0:0|0:0,0:0:0:0:
203,219,442,2,0,B|214:185|214:185|208:157,1,63.7500024318696,2|8,0:0|0:0,0:0:0:0:
257,100,707,2,0,L|403:115,1,127.500004863739,2|0,1:2|0:0,0:0:0:0:
495,52,1106,1,8,0:0:0:0:
496,64,1371,5,2,0:0:0:0:
471,132,1504,2,0,L|483:209,1,63.7500024318696,8|2,0:0|0:0,0:0:0:0:
371,322,1769,2,0,P|355:268|420:215,1,127.500004863739,0|0,1:0|0:0,0:0:0:0:
220,113,2300,6,0,P|188:117|156:122,1,63.7500024318696,8|0,0:0|0:0,0:0:0:0:
97,65,2566,1,10,0:0:0:0:
162,14,2699,1,8,0:0:0:0:
77,157,2831,2,0,L|90:283,1,127.500004863739,2|0,1:2|0:0,0:0:0:0:
14,367,3230,1,8,0:0:0:0:
23,375,3495,5,10,0:0:0:0:
162,329,3628,1,0,0:0:0:0:
90,283,3761,2,0,P|58:287|27:291,1,63.7500024318696,10|0,0:0|1:0,0:0:0:0:
233,369,4026,2,0,B|304:388|316:323|384:339,1,159.375006079674,10|0,0:0|0:0,0:0:0:0:
464,371,4424,6,0,P|471:332|461:299,1,63.7500024318696,12|0,0:0|0:0,0:0:0:0:
306,306,4690,2,0,P|298:336|304:368,1,63.7500024318696,10|8,0:0|0:0,0:0:0:0:
385,254,4955,2,0,L|365:118,1,127.500004863739,2|0,1:2|0:0,0:0:0:0:
472,37,5353,1,8,0:0:0:0:
463,44,5619,6,0,L|383:35,1,63.7500024318696,2|8,0:0|0:0,0:0:0:0:
308,182,5884,1,2,0:0:0:0:
240,123,6017,2,0,P|323:93|376:113,1,127.500004863739,0|0,1:0|0:0,0:0:0:0:
150,263,6548,6,0,L|142:183,1,63.7500024318696,8|0,0:0|0:0,0:0:0:0:
240,123,6814,1,10,0:0:0:0:
221,206,6946,1,8,0:0:0:0:
123,110,7079,2,0,P|116:40|162:13,1,127.500004863739,2|0,1:2|0:0,0:0:0:0:
342,145,7477,6,0,B|384:156|384:156|434:141,1,85,14|0,0:0|0:0,0:0:0:0:
188,289,7743,2,0,B|148:278|148:278|96:293,1,85,14|0,0:0|0:0,0:0:0:0:
338,366,8008,5,10,0:0:0:0:
234,79,8141,2,0,L|217:192,1,85,2|2,1:2|1:2,0:0:0:0:
451,372,8539,6,0,P|485:300|436:239,1,159.375,12|0,1:2|0:0,0:0:0:0:
429,245,8805,1,8,0:0:0:0:
364,130,8938,2,0,L|464:141,1,85,2|0,1:2|0:0,0:0:0:0:
237,254,9203,1,10,0:0:0:0:
332,298,9336,2,0,P|345:254|311:200,1,85,8|0,0:0|1:0,0:0:0:0:
194,108,9601,6,0,B|89:121|150:167|44:177,1,170,10|8,0:0|0:0,0:0:0:0:
35,170,10000,2,0,L|54:265,1,85,2|0,1:2|0:0,0:0:0:0:
109,364,10265,2,0,P|73:386|32:379,1,85,10|8,0:0|0:0,0:0:0:0:
197,260,10530,1,0,1:0:0:0:
197,260,10663,6,0,P|280:280|362:302,1,170,10|8,0:0|0:0,0:0:0:0:
488,155,11061,1,2,1:2:0:0:
349,199,11194,1,0,0:0:0:0:
457,297,11327,1,10,0:0:0:0:
488,155,11460,1,10,0:0:0:0:
429,217,11592,1,0,1:0:0:0:
225,334,11725,6,0,B|144:313|153:374|72:354,1,159.375,12|0,1:2|0:0,0:0:0:0:
9,295,11991,1,12,0:0:0:0:
218,189,12123,1,8,0:0:0:0:
100,127,12256,2,0,L|119:255,1,106.25,12|0,1:2|0:0,0:0:0:0:
211,363,12522,6,0,L|259:356,1,42.5,8|0,0:0|1:0,0:0:0:0:
381,316,12787,6,0,B|360:252|408:230|381:159,1,159.375,12|0,0:0|0:0,0:0:0:0:
371,147,13053,1,8,0:0:0:0:
459,18,13185,2,0,P|480:56|462:110,1,85,2|0,1:2|0:0,0:0:0:0:
296,168,13451,1,10,0:0:0:0:
431,256,13584,2,0,L|444:187,2,53.125,10|0|0,0:0|0:0|1:0,0:0:0:0:
249,301,13849,6,0,B|159:280|159:280|112:297|128:342,1,170,10|8,0:0|0:0,0:0:0:0:
324,243,14247,1,0,1:0:0:0:
401,299,14380,2,0,P|414:338|402:378,1,85,2|8,0:0|0:0,0:0:0:0:
243,192,14646,2,0,P|248:150|253:108,1,85,10|0,0:0|1:0,0:0:0:0:
385,44,14911,6,0,P|453:35|467:126,1,159.375,12|0,0:0|0:0,0:0:0:0:
471,120,15177,1,8,0:0:0:0:
331,241,15309,2,0,B|317:201|317:201|333:157,1,85,2|0,1:2|0:0,0:0:0:0:
443,225,15575,1,10,0:0:0:0:
329,338,15707,1,8,0:0:0:0:
204,228,15840,1,0,1:0:0:0:
333,51,15973,6,0,B|431:66|370:105|471:120,1,159.375,14|0,1:2|0:0,0:0:0:0:
485,103,16238,1,12,0:0:0:0:
403,230,16371,1,0,1:0:0:0:
326,191,16504,5,10,0:0:0:0:
329,175,16571,1,8,0:0:0:0:
331,160,16637,1,8,0:0:0:0:
424,310,16769,1,2,1:2:0:0:
424,310,17035,6,0,P|362:268|271:329,1,159.375,12|0,1:2|0:0,0:0:0:0:
280,304,17300,1,8,0:0:0:0:
135,185,17433,2,0,P|178:190|220:194,1,85,2|0,1:2|0:0,0:0:0:0:
165,285,17699,1,10,0:0:0:0:
44,173,17831,2,0,P|36:123|66:87,1,85,10|2,0:0|1:2,0:0:0:0:
237,25,18097,6,0,P|228:109|220:194,1,170,10|8,0:0|0:0,0:0:0:0:
314,305,18495,2,0,P|328:258|304:221,1,85,2|0,1:2|0:0,0:0:0:0:
130,222,18761,2,0,P|113:260|128:298,1,85,10|8,0:0|0:0,0:0:0:0:
286,146,19026,1,0,1:0:0:0:
286,146,19159,6,0,B|394:169|394:169|429:146|412:105,1,170,10|8,0:0|0:0,0:0:0:0:
349,56,19557,1,2,1:2:0:0:
391,263,19690,1,0,0:0:0:0:
263,59,19823,1,10,0:0:0:0:
305,266,19956,1,10,0:0:0:0:
494,176,20088,1,0,1:0:0:0:
198,266,20221,6,0,P|120:254|41:243,1,159.375,12|0,1:2|0:0,0:0:0:0:
27,257,20486,1,12,0:0:0:0:
189,146,20619,1,8,0:0:0:0:
96,98,20752,2,0,L|11:113,2,53.125,8|8|10,0:0|0:0|1:2,0:0:0:0:
198,266,21017,6,0,L|188:211,1,42.5,10|2,1:2|1:2,0:0:0:0:
467,137,21283,6,0,P|409:74|333:92,1,159.375,12|0,0:0|0:0,0:0:0:0:
328,93,21548,1,8,0:0:0:0:
175,0,21681,2,0,L|189:92,1,85,2|0,1:2|0:0,0:0:0:0:
290,11,21946,1,10,0:0:0:0:
75,71,22079,2,0,L|17:57,2,42.5,10|0|0,0:0|0:0|1:0,0:0:0:0:
190,224,22345,6,0,B|272:244|265:188|344:209,1,159.375,12|0,0:0|0:0,0:0:0:0:
358,223,22610,1,8,0:0:0:0:
262,124,22743,1,0,1:0:0:0:
362,68,22876,2,0,P|406:77|462:89,1,85,2|8,0:0|0:0,0:0:0:0:
190,224,23141,2,0,P|146:215|90:203,1,85,10|0,0:0|1:0,0:0:0:0:
319,366,23407,6,0,P|331:287|344:208,1,159.375,12|0,0:0|0:0,0:0:0:0:
410,150,23672,1,8,0:0:0:0:
238,215,23805,1,2,1:2:0:0:
418,295,23938,1,0,0:0:0:0:
256,91,24070,1,10,0:0:0:0:
94,295,24203,1,10,0:0:0:0:
238,215,24336,1,0,1:0:0:0:
107,92,24469,6,0,P|101:141|77:228,1,106.25,12|0,0:0|0:0,0:0:0:0:
424,196,24734,2,0,P|411:144|405:92,1,106.25,12|0,0:0|0:0,0:0:0:0:
256,3,25000,6,0,B|290:109|221:85|251:188,1,191.250007295609,12|2,0:0|0:0,0:0:0:0:
433,327,25663,6,0,P|462:264|421:194,2,152.999995330811,4|0|10,0:1|1:0|0:0,0:0:0:0:
274,281,26327,1,8,0:0:0:0:
374,264,26460,1,0,1:0:0:0:
222,354,26592,6,0,P|230:277|239:202,1,152.999995330811,10|8,0:0|0:0,0:0:0:0:
144,112,26991,2,0,L|161:208,1,76.4999976654053,2|0,1:2|0:0,0:0:0:0:
234,122,27256,1,8,0:0:0:0:
66,163,27389,1,8,0:0:0:0:
222,269,27522,2,0,P|244:238|227:188,1,76.4999976654053,2|0,1:2|0:0,0:0:0:0:
159,64,27787,6,0,P|240:80|328:97,1,152.999995330811,8|0,0:0|1:0,0:0:0:0:
468,15,28185,2,0,P|431:23|386:35,1,76.4999976654053,2|8,0:0|0:0,0:0:0:0:
455,121,28451,1,10,0:0:0:0:
381,204,28584,1,0,1:0:0:0:
463,340,28716,6,0,P|476:261|490:183,1,152.999995330811,10|8,0:0|0:0,0:0:0:0:
340,79,29115,1,2,1:3:0:0:
329,72,29380,2,0,L|352:163,1,76.4999976654053,8|8,0:0|0:0,0:0:0:0:
270,254,29646,1,0,1:0:0:0:
153,177,29911,5,8,0:0:0:0:
165,185,30177,2,0,P|113:210|23:176,1,152.999995330811,2|10,1:2|0:0,0:0:0:0:
94,115,30575,1,8,0:0:0:0:
249,221,30707,1,0,1:0:0:0:
249,221,30840,6,0,P|325:210|401:202,1,152.999995330811,10|8,0:0|0:0,0:0:0:0:
477,136,31238,2,0,P|430:106|392:109,1,76.4999976654053,2|0,1:2|0:0,0:0:0:0:
291,29,31504,1,8,0:0:0:0:
341,137,31637,1,8,0:0:0:0:
249,221,31769,2,0,L|235:130,1,76.4999976654053,2|0,1:2|0:0,0:0:0:0:
153,52,32035,6,0,B|66:37|92:95|3:85,1,152.999995330811,10|0,0:0|1:0,0:0:0:0:
26,1,32433,1,2,0:0:0:0:
136,140,32566,1,10,0:0:0:0:
133,166,32632,1,2,0:0:0:0:
130,192,32699,1,10,0:0:0:0:
127,218,32765,1,2,0:0:0:0:
122,244,32831,2,0,L|174:221,1,38.2499988327027,2|0,1:2|0:0,0:0:0:0:
162,341,32964,6,0,P|103:289|21:325,1,152.999995330811,12|10,0:0|0:0,0:0:0:0:
216,245,33362,1,10,0:0:0:0:
130,192,33495,2,0,P|92:197|54:203,1,76.4999976654053,4|0,1:2|0:0,0:0:0:0:
216,245,33761,1,10,0:0:0:0:
300,189,33893,2,0,P|325:140|276:75,1,114.749996498108,2|0,1:2|0:0,0:0:0:0:
288,83,34159,6,0,L|314:249,1,152.999995330811,4|0,0:1|1:0,0:0:0:0:
466,379,34690,2,0,P|481:343|465:298,1,76.4999976654053,10|8,0:0|0:0,0:0:0:0:
397,236,34955,1,0,1:0:0:0:
512,176,35088,6,0,P|451:162|347:139,1,152.999995330811,10|8,0:0|0:0,0:0:0:0:
248,67,35486,2,0,P|253:102|260:149,1,76.4999976654053,2|0,1:2|0:0,0:0:0:0:
336,36,35752,1,8,0:0:0:0:
153,121,35884,1,8,0:0:0:0:
330,202,36017,2,0,P|368:190|416:194,1,76.4999976654053,2|0,1:2|0:0,0:0:0:0:
229,363,36283,6,0,P|189:334|216:231,1,152.999995330811,10|0,0:0|1:0,0:0:0:0:
74,170,36681,2,0,P|87:223|93:273,1,76.4999976654053,10|0,0:0|0:0,0:0:0:0:
421,244,36946,2,0,P|428:206|438:170,1,76.4999976654053,2|8,0:0|0:0,0:0:0:0:
254,14,37212,6,0,P|261:75|273:176,1,152.999995330811,12|8,0:0|0:0,0:0:0:0:
171,231,37610,2,0,L|185:160,1,38.2499988327027,2|0,1:2|0:0,0:0:0:0:
93,136,37743,2,0,L|103:190,1,38.2499988327027,2|0,0:0|0:0,0:0:0:0:
22,243,37876,1,8,0:0:0:0:
196,96,38008,1,8,0:0:0:0:
196,96,38075,1,8,0:0:0:0:
196,96,38141,2,0,P|232:103|285:115,1,76.4999976654053,2|0,1:2|0:0,0:0:0:0:
493,218,38407,6,0,P|443:258|346:232,1,152.999995330811,12|0,0:0|1:0,0:0:0:0:
221,187,38805,2,0,L|238:277,1,76.4999976654053,2|8,0:0|0:0,0:0:0:0:
334,159,39070,1,10,0:0:0:0:
229,39,39203,1,0,1:0:0:0:
74,205,39336,6,0,B|157:218|142:166|222:186,1,152.999995330811,12|8,0:0|0:0,0:0:0:0:
410,73,39734,2,0,P|372:87|329:68,1,76.4999976654053,2|0,1:2|0:0,0:0:0:0:
288,135,39933,1,2,0:0:0:0:
288,135,40000,2,0,L|301:199,2,38.2499988327027,10|0|8,0:0|0:0|0:0,0:0:0:0:
464,220,40265,5,2,1:2:0:0:
438,235,40353,2,0,L|361:218,1,62.3333352355958,2|2,1:2|1:2,0:0:0:0:
296,333,40530,5,4,1:2:0:0:
211,103,40663,1,8,0:0:0:0:
203,359,40796,1,8,0:0:0:0:
297,81,40929,5,4,1:2:0:0:
95,214,41061,1,8,0:0:0:0:
296,333,41194,1,8,0:0:0:0:
211,103,41327,5,2,1:2:0:0:
446,252,41460,2,0,P|400:196|297:211,1,140.25000428009,12|0,0:0|0:0,0:0:0:0:
245,181,41725,6,0,L|259:234,1,46.7500014266968,8|0,0:0|0:0,0:0:0:0:
186,275,41858,2,0,L|172:222,1,46.7500014266968,2|2,1:2|0:0,0:0:0:0:
258,174,41991,2,0,L|272:227,1,46.7500014266968,2|2,0:0|0:0,0:0:0:0:
173,282,42124,2,0,L|159:229,1,46.7500014266968,10|2,0:0|0:0,0:0:0:0:
266,320,42256,6,0,L|256:369,4,31.8750012159348,10|2|2|0|0,0:0|0:0|1:2|0:0|0:0,0:0:0:0:
41,183,42654,6,0,P|49:247|56:310,1,127.500004863739,4|2,0:1|0:0,0:0:0:0:
163,364,43053,2,0,P|185:306|136:256,1,127.500004863739,8|0,0:0|0:0,0:0:0:0:
134,255,43451,1,2,0:0:0:0:
248,184,43584,6,0,B|353:205|293:259|406:281,1,191.250007295609,10|8,0:0|0:0,0:0:0:0:
481,236,44115,1,0,0:0:0:0:
481,236,44247,1,0,1:0:0:0:
396,122,44380,6,0,P|403:153|415:197,1,63.7500024318696,2|0,0:0|0:0,0:0:0:0:
481,236,44646,1,0,0:0:0:0:
370,332,44778,6,0,P|297:299|240:318,1,127.500004863739,10|0,0:0|0:0,0:0:0:0:
132,240,45177,2,0,P|166:245|206:252,1,63.7500024318696,10|0,0:0|1:0,0:0:0:0:
163,384,45442,2,0,P|143:348|154:303,1,63.7500024318696,2|0,0:0|0:0,0:0:0:0:
272,183,45707,6,0,L|250:330,1,127.500004863739,10|0,0:0|0:0,0:0:0:0:
320,367,46106,1,8,0:0:0:0:
131,252,46371,1,0,1:0:0:0:
131,252,46504,1,8,0:0:0:0:
131,252,46637,2,0,L|57:269,1,63.7500024318696,8|0,0:0|0:0,0:0:0:0:
0,178,46902,6,0,P|76:149|111:202,1,127.500004863739,10|2,0:0|0:0,0:0:0:0:
108,182,47300,2,0,L|121:113,1,63.7500024318696,8|2,0:0|1:2,0:0:0:0:
166,39,47566,2,0,P|128:25|97:29,1,63.7500024318696,0|0,0:0|0:0,0:0:0:0:
212,130,47831,6,0,P|276:122|339:113,1,127.500004863739,10|0,0:0|0:0,0:0:0:0:
456,54,48230,2,0,P|406:32|386:36,1,63.7500024318696,10|0,0:0|0:0,0:0:0:0:
309,192,48495,2,0,P|355:201|418:148,1,127.500004863739,0|2,1:0|0:0,0:0:0:0:
215,66,49026,6,0,B|144:79|185:112|110:131,1,127.500004863739,10|4,0:0|0:0,0:0:0:0:
38,86,49424,1,8,0:0:0:0:
38,86,49557,2,0,P|33:47|45:26,1,63.7500024318696,0|0,1:0|0:0,0:0:0:0:
193,175,49823,1,10,0:0:0:0:
121,227,49955,6,0,L|109:88,1,127.500004863739,12|8,0:0|0:0,0:0:0:0:
212,23,50353,2,0,P|205:55|199:86,1,63.7500024318696,0|0,1:0|0:0,0:0:0:0:
313,206,50619,5,10,1:2:0:0:
329,196,50707,2,0,L|315:124,1,42.5000016212464,8|8,0:0|0:0,0:0:0:0:
456,263,50884,5,10,1:2:0:0:
440,253,50972,2,0,L|454:181,1,42.5000016212464,8|8,0:0|0:0,0:0:0:0:
336,312,51150,6,0,B|247:290|273:350|189:328,1,152.999995330811,12|0,0:0|1:0,0:0:0:0:
87,286,51548,2,0,P|93:321|102:377,1,76.4999976654053,2|8,0:0|0:0,0:0:0:0:
157,210,51814,2,0,P|120:186|77:186,1,76.4999976654053,10|0,0:0|1:0,0:0:0:0:
186,305,52079,6,0,L|347:287,1,152.999995330811,10|8,0:0|0:0,0:0:0:0:
467,220,52477,2,0,P|426:227|379:194,1,76.4999976654053,0|0,1:0|0:0,0:0:0:0:
296,119,52743,1,10,0:0:0:0:
296,119,52809,1,0,0:0:0:0:
296,119,52876,2,0,L|307:180,1,38.2499988327027,8|0,0:0|0:0,0:0:0:0:
219,215,53008,2,0,L|230:157,1,38.2499988327027,2|0,1:2|0:0,0:0:0:0:
164,112,53141,1,0,0:0:0:0:
0,167,53274,6,0,P|75:181|149:197,1,152.999995330811,12|0,0:0|1:0,0:0:0:0:
216,82,53672,2,0,P|177:89|126:99,1,76.4999976654053,10|0,0:0|0:0,0:0:0:0:
162,306,53938,2,0,P|200:298|252:289,1,76.4999976654053,10|0,0:0|0:0,0:0:0:0:
441,220,54203,6,0,P|369:167|299:197,1,152.999995330811,12|8,0:0|0:0,0:0:0:0:
188,52,54601,1,0,1:0:0:0:
317,93,54734,1,2,0:0:0:0:
220,151,54867,1,10,0:0:0:0:
332,77,55000,1,8,0:0:0:0:
136,14,55132,2,0,P|144:49|155:98,1,76.4999976654053,0|2,1:0|0:0,0:0:0:0:
0,223,55398,6,0,P|57:174|146:197,1,152.999995330811,12|0,0:0|1:0,0:0:0:0:
242,70,55796,2,0,L|231:125,1,38.2499988327027,2|2,0:0|0:0,0:0:0:0:
218,194,55929,1,8,0:0:0:0:
128,85,56061,1,10,0:0:0:0:
317,163,56194,1,0,1:0:0:0:
195,294,56327,6,0,L|170:144,1,152.999995330811,10|8,0:0|0:0,0:0:0:0:
276,45,56725,2,0,L|260:132,1,76.4999976654053,2|0,1:2|0:0,0:0:0:0:
391,211,56991,2,0,P|402:177|382:134,1,76.4999976654053,10|8,0:0|0:0,0:0:0:0:
281,276,57256,2,0,P|319:284|377:301,1,76.4999976654053,2|0,1:2|0:0,0:0:0:0:
200,174,57522,6,0,P|109:175|78:268,2,170,12|4|10,0:0|1:2|0:0,0:0:0:0:
355,294,58185,1,10,0:0:0:0:
189,361,58318,1,0,1:0:0:0:
164,249,58451,6,0,L|337:219,1,160.649995097351,4|0,1:2|0:0,0:0:0:0:
391,161,58716,6,0,L|318:143,1,63.7500024318696,10|8,0:0|0:0,0:0:0:0:
234,84,58849,2,0,L|156:103,1,63.7500024318696,10|0,0:0|0:0,0:0:0:0:
68,167,58982,2,0,P|27:161|2:141,1,63.7500024318696,10|0,0:0|0:0,0:0:0:0:
64,23,59115,6,0,L|72:56,3,31.8750012159348,10|0|10|0,0:0|0:0|0:0|0:0,0:0:0:0:
172,99,59380,2,0,L|164:132,3,31.8750012159348,10|0|10|0,0:0|0:0|0:0|0:0,0:0:0:0:
67,206,59646,6,0,L|-26:219,2,63.7500024318696,2|0|0,1:2|0:0|0:0,0:0:0:0:
240,361,60044,6,0,P|246:314|253:276,2,85,2|0|0,0:0|0:0|0:0,0:0:0:0:
172,99,60442,6,0,P|145:125|163:204,2,106.25,2|0|0,0:0|0:0|0:0,0:0:0:0:
368,255,60840,6,0,P|436:238|511:221,2,127.500004863739,2|0|2,0:0|0:0|0:0,0:0:0:0:
299,210,61172,1,2,0:0:0:0:
284,191,61238,2,0,P|292:158|302:124,1,63.7500024318696,2|0,1:2|0:0,0:0:0:0:
201,16,61371,5,8,0:0:0:0:
183,8,61438,1,10,0:0:0:0:
167,19,61504,6,0,L|184:126,1,95.6250036478044,10|0,1:2|0:0,0:0:0:0:
103,172,61769,6,0,B|205:145|184:219|289:189,1,187.000005706787,12|0,1:2|1:0,0:0:0:0:
440,98,62168,2,0,P|402:70|340:78,1,93.5000028533936,2|8,0:0|0:0,0:0:0:0:
365,284,62433,2,0,L|378:191,1,93.5000028533936,10|0,0:0|1:0,0:0:0:0:
198,95,62699,6,0,B|144:104|90:116|90:116|50:89|83:45,1,187.000005706787,2|8,0:0|0:0,0:0:0:0:
159,221,63097,2,0,P|204:244|273:227,1,93.5000028533936,2|0,1:2|0:0,0:0:0:0:
426,86,63362,1,10,0:0:0:0:
273,168,63495,1,10,0:0:0:0:
366,312,63628,2,0,P|398:253|347:190,1,140.25000428009,0|0,1:0|0:0,0:0:0:0:
273,168,63893,6,0,L|115:189,1,140.25000428009,10|0,0:0|0:0,0:0:0:0:
31,91,64159,2,0,P|81:99|131:107,1,93.5000028533936,2|0,1:2|0:0,0:0:0:0:
297,67,64424,1,10,0:0:0:0:
224,238,64557,1,8,0:0:0:0:
123,105,64690,2,0,P|114:54|138:12,1,93.5000028533936,2|0,1:2|0:0,0:0:0:0:
149,198,64955,6,0,B|166:131|45:84|22:194|47:273|124:235|87:351,1,322.99999137497,12|10,0:0|1:2,0:0:0:0:
425,351,65353,6,0,B|388:235|465:273|490:194|467:84|346:131|363:198,1,322.99999137497,12|8,0:0|0:0,0:0:0:0:
418,264,65685,1,8,0:0:0:0:
418,264,65752,6,0,L|271:243,1,127.5,10|0,1:2|0:0,0:0:0:0:
217,202,66017,6,0,P|128:242|25:204,1,187.000005706787,12|0,0:0|1:0,0:0:0:0:
113,37,66415,2,0,P|117:78|127:155,1,93.5000028533936,2|8,0:0|0:0,0:0:0:0:
291,245,66681,2,0,P|307:186|276:146,1,93.5000028533936,10|0,0:0|1:0,0:0:0:0:
54,340,66946,6,0,B|165:309|165:309|216:321|207:383,1,187.000005706787,10|8,0:0|0:0,0:0:0:0:
448,271,67345,2,0,P|402:262|335:247,1,93.5000028533936,0|0,1:0|0:0,0:0:0:0:
153,136,67610,1,10,0:0:0:0:
264,283,67743,1,10,0:0:0:0:
388,137,67876,2,0,P|398:85|365:44,1,93.5000028533936,0|2,1:0|0:0,0:0:0:0:
117,250,68141,6,0,P|74:258|17:273,1,93.5000028533936,12|0,0:0|0:0,0:0:0:0:
395,250,68407,2,0,P|438:258|495:273,1,93.5000028533936,2|0,1:2|0:0,0:0:0:0:
153,136,68672,2,0,P|110:128|53:113,1,93.5000028533936,10|8,0:0|0:0,0:0:0:0:
359,136,68938,2,0,P|402:128|459:113,1,93.5000028533936,2|0,1:2|0:0,0:0:0:0:
184,325,69203,5,4,1:2:0:0:
264,63,69336,1,8,0:0:0:0:
312,243,69469,1,8,0:0:0:0:
153,136,69601,5,4,1:2:0:0:
256,368,69734,1,8,0:0:0:0:
359,136,69867,1,8,0:0:0:0:
230,209,70000,5,0,1:0:0:0:
230,209,70132,1,8,0:0:0:0:
230,209,70265,6,0,P|140:225|29:247,1,187.000005706787,12|0,1:2|1:0,0:0:0:0:
266,120,70663,2,0,P|312:127|358:135,1,93.5000028533936,2|8,0:0|0:0,0:0:0:0:
206,44,70929,1,10,0:0:0:0:
114,173,71061,2,0,P|104:123|91:50,1,93.5000028533936,0|2,1:0|0:0,0:0:0:0:
294,274,71327,6,0,P|349:292|412:261,1,93.5000028533936,12|8,0:0|0:0,0:0:0:0:
114,173,71592,2,0,P|68:182|22:190,1,93.5000028533936,4|0,1:2|0:0,0:0:0:0:
269,82,71858,1,10,0:0:0:0:
200,248,71991,1,10,0:0:0:0:
40,95,72123,2,0,P|105:62|175:95,1,140.25000428009,0|0,1:0|0:0,0:0:0:0:
223,155,72389,6,0,P|269:147|315:140,1,93.5000028533936,10|0,0:0|0:0,0:0:0:0:
486,257,72654,2,0,P|410:260|378:227,1,93.5000028533936,2|0,1:2|0:0,0:0:0:0:
315,140,72920,1,10,0:0:0:0:
442,64,73053,1,8,0:0:0:0:
321,316,73185,1,2,1:2:0:0:
321,316,73451,6,0,B|370:310|398:351|398:351|451:283|441:197|382:161,1,305.999990661621,12|10,0:0|1:2,0:0:0:0:
191,316,73849,6,0,B|141:310|113:351|113:351|60:283|70:197|129:161,1,305.999990661621,12|8,0:0|0:0,0:0:0:0:
192,102,74181,1,8,0:0:0:0:
192,102,74247,6,0,P|197:161|205:242,1,127.5,10|0,1:2|0:0,0:0:0:0:
191,316,74513,5,12,0:0:0:0:
299,183,74646,1,8,0:0:0:0:
73,89,74778,1,8,0:0:0:0:
30,168,74911,6,0,P|99:177|150:133,1,106.25,10|0,1:2|0:0,0:0:0:0:
482,216,75177,2,0,P|413:207|362:251,1,106.25,10|0,1:2|0:0,0:0:0:0:
264,383,75442,6,0,L|241:223,1,140.25000428009,12|0,0:0|0:0,0:0:0:0:
198,167,75707,1,10,0:0:0:0:
344,298,75840,1,0,1:0:0:0:
161,352,75973,6,0,P|99:316|17:338,1,140.25000428009,12|0,0:0|0:0,0:0:0:0:
18,348,76238,1,10,0:0:0:0:
178,240,76371,1,2,1:2:0:0:
13,153,76504,1,2,1:2:0:0:
149,87,76637,5,12,0:0:0:0:
170,77,76703,1,0,0:0:0:0:
193,75,76769,1,0,0:0:0:0:
215,81,76836,1,0,0:0:0:0:
252,114,76902,5,0,1:0:0:0:
274,120,76969,1,0,0:0:0:0:
297,118,77035,1,2,0:0:0:0:
318,108,77101,1,2,0:0:0:0:
351,81,77168,6,0,P|343:55|331:23,1,46.7500014266968,10|0,0:0|0:0,0:0:0:0:
467,152,77300,2,0,P|474:126|487:94,1,46.7500014266968,10|0,0:0|0:0,0:0:0:0:
346,219,77433,2,0,P|353:241|360:263,1,46.7500014266968,2|0,1:2|0:0,0:0:0:0:
475,370,77566,5,12,0:0:0:0:
83,226,78230,6,0,B|160:241|139:182|225:198,1,148.75,2|0,0:0|0:0,0:0:0:0:
301,143,78761,5,12,1:2:0:0:
289,263,78893,1,0,0:0:0:0:
316,149,79026,5,2,1:2:0:0:
304,257,79158,1,0,0:0:0:0:
331,155,79292,5,10,0:0:0:0:
319,251,79424,1,8,0:0:0:0:
344,160,79557,5,2,1:2:0:0:
332,246,79689,1,8,0:0:0:0:
365,204,79823,6,0,P|408:197|454:189,1,63.7500024318696,0|10,0:0|0:0,0:0:0:0:
485,106,80088,2,0,P|442:113|395:120,1,63.7500024318696,2|0,1:2|0:0,0:0:0:0:
277,14,80353,6,0,P|234:21|179:31,1,85,8|10,0:0|0:0,0:0:0:0:
68,181,80619,2,0,P|113:172|151:164,1,85,2|0,1:2|0:0,0:0:0:0:
286,350,80884,5,10,0:0:0:0:
359,177,81017,1,0,0:0:0:0:
351,320,81150,5,2,1:2:0:0:
314,122,81283,1,0,0:0:0:0:
416,289,81415,5,10,0:0:0:0:
268,66,81548,1,8,0:0:0:0:
250,221,81681,5,2,1:2:0:0:
387,108,81814,1,0,0:0:0:0:
170,13,81946,2,0,P|181:81|183:115,1,85,8|10,0:0|0:0,0:0:0:0:
346,261,82212,2,0,P|350:218|358:176,1,85,2|0,1:2|0:0,0:0:0:0:
160,269,82477,6,0,L|149:195,1,63.7500024318696,8|10,0:0|0:0,0:0:0:0:
268,66,82743,2,0,L|279:140,1,63.7500024318696,2|0,1:2|0:0,0:0:0:0:
248,358,83008,5,12,0:0:0:0:
462,294,83141,1,0,0:0:0:0:
283,250,83274,6,0,P|317:255|358:263,1,63.7500024318696,2|0,1:2|0:0,0:0:0:0:
487,173,83539,2,0,P|452:167|412:160,1,63.7500024318696,10|8,0:0|0:0,0:0:0:0:
298,48,83805,2,0,P|332:53|373:61,1,63.7500024318696,2|8,1:2|0:0,0:0:0:0:
174,159,84070,6,0,L|153:59,1,85,0|10,0:0|0:0,0:0:0:0:
330,247,84336,2,0,L|351:147,1,85,2|0,1:2|0:0,0:0:0:0:
91,356,84601,5,8,0:0:0:0:
219,277,84734,1,10,0:0:0:0:
102,183,84867,2,0,P|51:194|-7:196,1,101.999996887207,2|0,1:2|0:0,0:0:0:0:
257,84,85132,5,12,0:0:0:0:
203,184,85265,1,0,0:0:0:0:
257,84,85398,5,2,1:2:0:0:
203,184,85531,1,0,0:0:0:0:
257,84,85663,5,10,0:0:0:0:
203,184,85796,1,8,0:0:0:0:
257,84,85929,5,0,1:0:0:0:
203,184,86061,2,0,P|129:220|40:176,1,152.999995330811,12|0,0:0|0:0,0:0:0:0:
48,190,86327,5,8,0:0:0:0:
0,250,86460,1,10,0:0:0:0:
38,333,86592,1,8,0:0:0:0:
127,375,86725,1,10,0:0:0:0:
229,341,86858,1,10,0:0:0:0:
288,249,86991,1,2,1:2:0:0:
401,207,87123,1,2,0:0:0:0:
479,343,87256,6,0,P|428:346|378:358,1,101.999996887207,12|0,1:2|0:0,0:0:0:0:
187,233,87522,2,0,P|241:246|298:248,1,101.999996887207,2|0,1:2|0:0,0:0:0:0:
493,176,87787,5,10,0:0:0:0:
369,272,87920,1,8,0:0:0:0:
256,140,88053,2,0,P|261:98|268:57,1,85,2|8,1:2|0:0,0:0:0:0:
113,157,88318,6,0,P|82:172|44:170,1,63.7500024318696,2|8,0:0|0:0,0:0:0:0:
29,70,88584,2,0,P|60:55|98:57,1,63.7500024318696,0|0,1:0|0:0,0:0:0:0:
256,140,88849,6,0,P|308:109|374:125,1,106.25,10|8,0:0|0:0,0:0:0:0:
390,264,89115,2,0,P|347:293|295:292,1,106.25,0|0,1:0|0:0,0:0:0:0:
324,205,89380,5,10,0:0:0:0:
152,267,89513,1,0,0:0:0:0:
258,230,89646,5,2,1:2:0:0:
85,244,89778,1,0,0:0:0:0:
294,292,89911,5,10,0:0:0:0:
137,198,90044,1,8,0:0:0:0:
361,267,90177,5,2,1:2:0:0:
101,314,90309,1,8,0:0:0:0:
239,384,90442,6,0,P|279:368|338:369,1,85,2|8,0:0|0:0,0:0:0:0:
512,310,90707,2,0,P|472:294|413:295,1,85,0|0,1:0|0:0,0:0:0:0:
210,151,90973,5,10,0:0:0:0:
331,247,91106,1,8,0:0:0:0:
433,142,91238,2,0,P|429:91|420:41,1,101.999996887207,0|0,1:0|0:0,0:0:0:0:
312,158,91504,5,12,0:0:0:0:
430,291,91637,1,0,0:0:0:0:
269,374,91769,2,0,P|275:338|283:296,1,63.7500024318696,2|0,1:2|0:0,0:0:0:0:
25,271,92035,5,10,0:0:0:0:
221,241,92168,1,8,0:0:0:0:
120,228,92300,2,0,P|126:264|134:306,1,63.7500024318696,2|8,1:2|0:0,0:0:0:0:
381,370,92566,6,0,P|398:325|387:288,1,63.7500024318696,2|8,0:0|0:0,0:0:0:0:
495,265,92831,2,0,P|480:213|457:191,1,63.7500024318696,0|0,1:0|0:0,0:0:0:0:
297,77,93097,5,10,0:0:0:0:
388,225,93230,1,8,0:0:0:0:
291,71,93362,2,0,P|283:113|274:165,1,85,0|0,1:0|0:0,0:0:0:0:
111,360,93628,5,12,0:0:0:0:
38,184,93761,1,2,0:0:0:0:
178,265,93893,5,12,0:3:0:0:
206,157,94026,1,2,0:0:0:0:
57,276,94159,5,4,0:3:0:0:
57,276,94292,1,2,0:0:0:0:
57,276,94424,1,0,1:0:0:0:
255,361,94557,6,0,P|324:346|391:333,1,127.5,12|0,0:0|0:0,0:0:0:0:
456,371,94823,1,0,1:0:0:0:
287,237,94955,1,0,1:0:0:0:
391,98,95088,6,0,P|435:126|414:222,1,127.5,12|0,0:0|0:0,0:0:0:0:
376,252,95353,1,8,0:0:0:0:
320,52,95486,1,8,0:0:0:0:
509,132,95619,1,10,0:0:0:0:
469,281,95752,5,12,0:0:0:0:
108,286,104380,5,8,0:0:0:0:
114,296,104446,1,8,0:0:0:0:
120,307,104513,2,0,P|128:243|136:191,1,95.6250036478044,12|0,0:0|0:0,0:0:0:0:
174,144,104778,6,0,P|107:172|45:133,2,152.999995330811,4|0|10,0:1|1:0|0:0,0:0:0:0:
271,24,105441,1,8,0:0:0:0:
112,80,105574,1,0,1:0:0:0:
277,126,105707,6,0,P|264:194|244:303,1,152.999995330811,10|8,0:0|0:0,0:0:0:0:
353,357,106105,2,0,P|338:318|327:271,1,76.4999976654053,2|0,1:2|0:0,0:0:0:0:
248,352,106370,1,8,0:0:0:0:
423,289,106503,1,8,0:0:0:0:
263,198,106636,2,0,P|222:188|172:212,1,76.4999976654053,2|0,1:2|0:0,0:0:0:0:
398,160,106901,6,0,P|421:113|361:38,1,152.999995330811,8|0,0:0|1:0,0:0:0:0:
223,107,107300,2,0,L|311:116,1,76.4999976654053,2|8,0:0|0:0,0:0:0:0:
272,9,107565,1,10,0:0:0:0:
129,123,107698,1,0,1:0:0:0:
129,123,107831,6,0,L|146:278,1,152.999995330811,10|8,0:0|0:0,0:0:0:0:
282,366,108229,2,0,P|290:337|284:308,3,38.2499988327027,2|0|0|0,1:3|0:0|0:0|0:0,0:0:0:0:
228,268,108494,1,8,0:0:0:0:
64,375,108627,2,0,P|103:359|158:364,1,76.4999976654053,8|0,0:0|1:0,0:0:0:0:
454,150,109025,5,8,0:0:0:0:
439,139,109291,2,0,B|355:132|379:188|295:177,1,152.999995330811,2|10,1:2|0:0,0:0:0:0:
204,100,109689,1,8,0:0:0:0:
302,9,109822,1,0,1:0:0:0:
189,107,109954,6,0,L|217:275,1,152.999995330811,10|8,0:0|0:0,0:0:0:0:
317,384,110353,2,0,P|332:341|309:294,1,76.4999976654053,2|0,1:2|0:0,0:0:0:0:
214,257,110618,1,8,0:0:0:0:
333,215,110751,1,8,0:0:0:0:
226,357,110884,2,0,P|189:353|136:349,1,76.4999976654053,2|0,1:2|0:0,0:0:0:0:
0,191,111149,6,0,B|80:199|73:146|149:158,1,152.999995330811,10|0,0:0|1:0,0:0:0:0:
322,187,111547,1,2,0:0:0:0:
216,69,111680,1,10,0:0:0:0:
220,99,111747,1,2,0:0:0:0:
224,129,111813,1,10,0:0:0:0:
229,159,111879,1,2,0:0:0:0:
234,189,111946,2,0,L|224:258,1,38.2499988327027,2|0,1:2|0:0,0:0:0:0:
132,323,112078,6,0,P|214:311|313:300,1,152.999995330811,12|10,0:0|0:0,0:0:0:0:
446,364,112477,1,10,0:0:0:0:
390,221,112609,2,0,P|383:258|375:296,1,76.4999976654053,4|0,1:2|0:0,0:0:0:0:
472,189,112875,1,10,0:0:0:0:
394,116,113008,2,0,P|348:92|270:127,1,114.749996498108,2|0,1:2|0:0,0:0:0:0:
272,125,113273,6,0,L|294:276,1,152.999995330811,4|0,0:1|1:0,0:0:0:0:
86,384,113804,2,0,P|69:342|84:308,1,76.4999976654053,10|8,0:0|0:0,0:0:0:0:
158,249,114070,1,0,1:0:0:0:
114,149,114202,6,0,P|56:137|1:213,1,152.999995330811,10|8,0:0|0:0,0:0:0:0:
191,77,114601,2,0,L|182:-11,1,76.4999976654053,2|0,1:2|0:0,0:0:0:0:
95,60,114866,1,8,0:0:0:0:
258,133,114999,1,8,0:0:0:0:
150,222,115131,2,0,P|116:214|68:214,1,76.4999976654053,2|0,1:2|0:0,0:0:0:0:
269,323,115397,6,0,B|347:338|341:280|418:299,1,152.999995330811,10|0,0:0|1:0,0:0:0:0:
512,217,115795,2,0,P|482:215|425:195,1,76.4999976654053,10|0,0:0|0:0,0:0:0:0:
214,105,116061,2,0,P|247:103|304:83,1,76.4999976654053,2|8,0:0|0:0,0:0:0:0:
395,2,116326,6,0,P|385:53|368:163,1,152.999995330811,12|8,0:0|0:0,0:0:0:0:
508,254,116724,2,0,L|499:211,1,38.2499988327027,2|0,1:2|0:0,0:0:0:0:
405,304,116857,2,0,L|418:252,1,38.2499988327027,2|0,0:0|0:0,0:0:0:0:
491,347,116990,1,8,0:0:0:0:
317,241,117123,1,8,0:0:0:0:
317,241,117189,1,8,0:0:0:0:
317,241,117255,2,0,P|276:246|220:255,1,76.4999976654053,2|0,1:2|0:0,0:0:0:0:
110,339,117521,6,0,P|77:285|137:206,1,152.999995330811,12|0,0:0|1:0,0:0:0:0:
221,93,117919,2,0,L|236:193,1,76.4999976654053,2|8,0:0|0:0,0:0:0:0:
132,112,118185,1,10,0:0:0:0:
250,8,118317,1,0,1:0:0:0:
366,171,118450,6,0,P|443:191|512:128,1,152.999995330811,12|8,0:0|0:0,0:0:0:0:
377,293,118848,2,0,P|338:279|296:292,1,76.4999976654053,2|0,1:2|0:0,0:0:0:0:
251,347,119047,1,2,0:0:0:0:
251,347,119114,2,0,L|261:402,2,38.2499988327027,10|0|8,0:0|0:0|0:0,0:0:0:0:
27,220,119379,5,2,1:2:0:0:
52,232,119468,2,0,P|82:225|113:219,1,62.3333352355958,2|2,1:2|1:2,0:0:0:0:
187,151,119645,5,4,1:2:0:0:
251,347,119778,1,8,0:0:0:0:
322,209,119910,1,8,0:0:0:0:
191,280,120043,5,4,1:2:0:0:
371,307,120176,1,8,0:0:0:0:
308,126,120308,1,8,0:0:0:0:
271,273,120441,5,2,1:2:0:0:
478,384,120574,2,0,P|503:338|442:273,1,140.25000428009,12|0,0:0|0:0,0:0:0:0:
364,261,120839,6,0,P|368:288|376:331,1,46.7500014266968,8|0,0:0|0:0,0:0:0:0:
271,273,120972,2,0,P|274:296|278:319,1,46.7500014266968,2|2,1:2|0:0,0:0:0:0:
375,236,121105,2,0,P|379:263|387:306,1,46.7500014266968,2|2,0:0|0:0,0:0:0:0:
282,248,121238,2,0,P|285:271|289:294,1,46.7500014266968,10|2,0:0|0:0,0:0:0:0:
220,381,121370,6,0,L|182:371,4,31.8750012159348,10|2|2|0|0,0:0|0:0|1:2|0:0|0:0,0:0:0:0:
140,307,121769,6,0,P|101:336|21:319,1,127.500004863739,4|2,0:1|0:0,0:0:0:0:
13,213,122167,2,0,P|65:180|126:196,1,127.500004863739,10|0,0:0|0:0,0:0:0:0:
78,259,122565,1,2,0:0:0:0:
257,300,122698,6,0,B|278:242|245:178|245:178|274:221|323:217,1,191.250007295609,10|8,0:0|0:0,0:0:0:0:
374,180,123229,1,0,0:0:0:0:
374,180,123361,1,0,1:0:0:0:
337,48,123494,6,0,P|316:76|323:125,1,63.7500024318696,2|0,0:0|0:0,0:0:0:0:
374,180,123760,1,0,0:0:0:0:
271,231,123893,6,0,L|135:210,1,127.500004863739,10|0,0:0|0:0,0:0:0:0:
132,226,124291,2,0,P|140:178|142:163,1,63.7500024318696,10|0,0:0|1:0,0:0:0:0:
41,106,124556,2,0,P|49:153|51:168,1,63.7500024318696,2|0,0:0|0:0,0:0:0:0:
0,287,124822,6,0,P|48:270|99:338,1,127.500004863739,10|0,0:0|0:0,0:0:0:0:
29,373,125220,1,8,0:0:0:0:
216,254,125485,1,0,1:0:0:0:
216,254,125618,1,8,0:0:0:0:
216,254,125751,2,0,P|209:211|205:179,1,63.7500024318696,8|0,0:0|0:0,0:0:0:0:
301,140,126016,6,0,B|375:125|355:172|431:158,1,127.500004863739,10|2,0:0|0:0,0:0:0:0:
479,86,126415,2,0,P|443:68|414:70,1,63.7500024318696,8|2,0:0|1:2,0:0:0:0:
309,0,126680,2,0,L|321:77,1,63.7500024318696,0|0,0:0|0:0,0:0:0:0:
232,155,126946,6,0,P|157:177|108:135,1,127.500004863739,10|0,0:0|0:0,0:0:0:0:
31,108,127344,2,0,P|38:140|48:183,1,63.7500024318696,10|0,0:0|0:0,0:0:0:0:
0,283,127609,2,0,P|96:269|133:265,1,127.500004863739,0|2,1:0|0:0,0:0:0:0:
306,361,128140,6,0,P|358:382|421:339,1,127.500004863739,10|4,0:0|0:0,0:0:0:0:
480,279,128539,1,8,0:0:0:0:
480,279,128671,2,0,P|449:262|395:260,1,63.7500024318696,0|0,1:0|0:0,0:0:0:0:
265,182,128937,1,10,0:0:0:0:
353,146,129070,6,0,P|343:204|330:284,1,127.500004863739,12|8,0:0|0:0,0:0:0:0:
416,369,129468,2,0,P|426:333|406:301,1,63.7500024318696,0|0,1:0|0:0,0:0:0:0:
216,266,129733,5,10,1:2:0:0:
199,255,129822,2,0,L|149:267,1,42.5000016212464,8|8,0:0|0:0,0:0:0:0:
28,190,129999,5,10,1:2:0:0:
45,201,130088,2,0,L|95:189,1,42.5000016212464,10|10,0:0|0:0,0:0:0:0:
180,114,130264,6,0,B|269:92|243:152|327:130,1,152.999995330811,12|0,0:0|1:0,0:0:0:0:
468,58,130662,2,0,P|425:37|385:49,1,76.4999976654053,2|8,0:0|0:0,0:0:0:0:
401,205,130928,2,0,P|405:166|413:125,1,76.4999976654053,10|0,0:0|1:0,0:0:0:0:
289,7,131193,6,0,L|314:159,1,152.999995330811,10|8,0:0|0:0,0:0:0:0:
486,147,131592,2,0,P|452:139|407:127,1,76.4999976654053,0|0,1:0|0:0,0:0:0:0:
327,238,131857,1,10,0:0:0:0:
327,238,131924,1,8,0:0:0:0:
327,238,131990,2,0,L|341:299,1,38.2499988327027,8|0,0:0|0:0,0:0:0:0:
422,316,132123,2,0,L|432:278,1,38.2499988327027,2|0,1:2|0:0,0:0:0:0:
512,233,132255,1,0,0:0:0:0:
352,372,132388,6,0,P|297:334|216:352,1,152.999995330811,12|0,0:0|1:0,0:0:0:0:
84,257,132786,2,0,P|91:287|99:341,1,76.4999976654053,10|0,0:0|0:0,0:0:0:0:
274,185,133052,2,0,P|266:154|259:101,1,76.4999976654053,10|0,0:0|0:0,0:0:0:0:
96,27,133317,6,0,P|58:42|46:152,1,152.999995330811,12|8,0:0|0:0,0:0:0:0:
174,235,133716,1,0,1:0:0:0:
107,104,133848,1,2,0:0:0:0:
16,232,133981,1,10,0:0:0:0:
210,150,134114,1,8,0:0:0:0:
107,104,134247,2,0,P|115:151|123:197,1,76.4999976654053,0|2,1:0|0:0,0:0:0:0:
256,297,134512,6,0,B|335:313|327:262|408:285,1,152.999995330811,12|0,0:0|1:0,0:0:0:0:
472,118,134910,2,0,L|458:179,1,38.2499988327027,2|2,0:0|0:0,0:0:0:0:
512,229,135043,1,8,0:0:0:0:
348,141,135176,1,10,0:0:0:0:
489,35,135308,1,0,1:0:0:0:
334,154,135441,6,0,P|237:179|166:178,1,152.999995330811,10|8,0:0|0:0,0:0:0:0:
72,91,135839,2,0,P|120:88|160:109,1,76.4999976654053,2|0,1:2|0:0,0:0:0:0:
133,269,136105,2,0,P|85:272|45:251,1,76.4999976654053,10|8,0:0|0:0,0:0:0:0:
256,199,136370,2,0,P|296:210|340:220,1,76.4999976654053,2|0,1:2|0:0,0:0:0:0:
508,65,136636,6,0,P|436:55|374:134,2,170,12|4|10,0:0|1:2|0:0,0:0:0:0:
463,143,137300,1,10,0:0:0:0:
288,72,137432,1,0,1:0:0:0:
358,280,137565,6,0,P|366:200|375:121,1,159.375,4|0,1:2|0:0,0:0:0:0:
288,72,137831,6,0,P|296:107|302:147,1,63.7500024318696,10|8,0:0|0:0,0:0:0:0:
453,227,137963,2,0,P|458:195|465:164,1,63.7500024318696,10|0,0:0|0:0,0:0:0:0:
255,280,138096,2,0,P|262:310|267:342,1,63.7500024318696,10|0,0:0|0:0,0:0:0:0:
387,384,138229,6,0,L|435:376,3,31.8750012159348,10|0|10|0,0:0|0:0|0:0|0:0,0:0:0:0:
481,309,138494,2,0,L|529:317,3,31.8750012159348,10|0|10|0,0:0|0:0|0:0|0:0,0:0:0:0:
403,256,138760,6,0,P|395:220|410:182,2,63.7500024318696,2|0|0,1:2|0:0|0:0,0:0:0:0:
512,104,139158,6,0,L|429:86,2,85,2|0|0,0:0|0:0|0:0,0:0:0:0:
255,12,139556,6,0,L|276:131,2,106.25,2|0|0,0:0|0:0|0:0,0:0:0:0:
98,279,139954,6,0,P|78:232|122:161,2,127.500004863739,2|0|2,0:0|0:0|0:0,0:0:0:0:
176,313,140286,1,2,0:0:0:0:
196,298,140353,2,0,P|191:265|182:200,1,63.7500024318696,2|0,1:2|0:0,0:0:0:0:
334,102,140485,5,8,0:0:0:0:
352,96,140552,1,10,0:0:0:0:
371,105,140618,6,0,L|357:225,1,95.6250036478044,10|0,1:2|0:0,0:0:0:0:
301,304,140884,6,0,P|370:247|463:280,1,187.000005706787,12|0,1:2|1:0,0:0:0:0:
246,164,141282,2,0,P|200:172|154:181,1,93.5000028533936,2|8,0:0|0:0,0:0:0:0:
354,58,141547,2,0,P|374:100|357:150,1,93.5000028533936,10|0,0:0|1:0,0:0:0:0:
209,308,141813,6,0,B|99:285|99:285|58:307|74:345,1,187.000005706787,2|8,0:0|0:0,0:0:0:0:
201,216,142211,2,0,P|218:162|179:108,1,93.5000028533936,2|0,1:2|0:0,0:0:0:0:
89,90,142477,1,10,0:0:0:0:
209,308,142609,1,10,0:0:0:0:
346,168,142742,2,0,P|418:137|493:166,1,140.25000428009,0|0,1:0|0:0,0:0:0:0:
420,238,143008,6,0,L|237:207,1,140.25000428009,10|0,0:0|0:0,0:0:0:0:
188,150,143273,2,0,L|201:245,1,93.5000028533936,2|0,1:2|0:0,0:0:0:0:
281,87,143539,1,10,0:0:0:0:
84,212,143671,1,8,0:0:0:0:
296,358,143804,2,0,P|316:309|281:263,1,93.5000028533936,2|0,1:2|0:0,0:0:0:0:
7,95,144070,6,0,B|88:69|157:128|157:128|209:45|292:61,1,322.99999137497,12|10,0:0|1:2,0:0:0:0:
510,320,144468,6,0,B|429:346|360:287|360:287|308:370|224:353,1,322.99999137497,12|8,0:0|0:0,0:0:0:0:
155,306,144800,1,8,0:0:0:0:
155,306,144866,6,0,P|166:243|180:181,1,127.5,10|0,1:2|0:0,0:0:0:0:
113,90,145131,6,0,P|61:90|32:201,1,187.000005706787,12|0,0:0|1:0,0:0:0:0:
221,92,145530,2,0,P|214:45|207:0,1,93.5000028533936,2|8,0:0|0:0,0:0:0:0:
358,153,145795,2,0,P|420:170|452:158,1,93.5000028533936,10|0,0:0|1:0,0:0:0:0:
268,283,146061,6,0,B|162:259|190:329|81:305,1,187.000005706787,10|8,0:0|0:0,0:0:0:0:
221,92,146459,2,0,L|235:190,1,93.5000028533936,0|0,1:0|0:0,0:0:0:0:
123,152,146724,1,10,0:0:0:0:
358,249,146857,1,10,0:0:0:0:
208,368,146990,2,0,P|215:321|221:275,1,93.5000028533936,0|2,1:0|0:0,0:0:0:0:
424,137,147255,6,0,P|503:111|540:119,1,93.5000028533936,12|0,0:0|0:0,0:0:0:0:
272,23,147521,2,0,P|318:48|385:45,1,93.5000028533936,2|0,1:2|0:0,0:0:0:0:
185,204,147786,2,0,P|264:178|301:186,1,93.5000028533936,10|8,0:0|0:0,0:0:0:0:
38,47,148052,2,0,P|77:66|130:69,1,93.5000028533936,2|0,1:2|0:0,0:0:0:0:
63,262,148317,5,4,1:2:0:0:
393,221,148450,1,8,0:0:0:0:
393,221,148583,1,8,0:0:0:0:
230,332,148716,5,4,1:2:0:0:
289,174,148848,5,8,0:0:0:0:
285,156,148981,1,8,0:0:0:0:
339,95,149114,5,0,1:0:0:0:
335,77,149247,1,8,0:0:0:0:
259,38,149379,6,0,B|209:3|162:22|162:22|126:64|75:52,1,187.000005706787,12|0,1:2|1:0,0:0:0:0:
289,174,149778,2,0,P|344:180|382:148,1,93.5000028533936,2|8,0:0|0:0,0:0:0:0:
199,96,150043,1,10,0:0:0:0:
82,234,150176,2,0,P|76:184|68:114,1,93.5000028533936,0|2,1:0|0:0,0:0:0:0:
169,342,150441,6,0,P|113:371|67:363,1,93.5000028533936,12|8,0:0|0:0,0:0:0:0:
315,269,150707,2,0,P|361:276|407:283,1,93.5000028533936,4|0,1:2|0:0,0:0:0:0:
171,182,150972,1,10,0:0:0:0:
289,364,151105,1,10,0:0:0:0:
444,202,151238,2,0,P|468:153|416:82,1,140.25000428009,0|0,1:0|0:0,0:0:0:0:
333,61,151503,6,0,P|341:107|351:164,1,93.5000028533936,10|0,0:0|0:0,0:0:0:0:
158,291,151769,2,0,P|139:244|174:191,1,93.5000028533936,2|0,1:2|0:0,0:0:0:0:
303,280,152034,1,10,0:0:0:0:
82,364,152167,1,8,0:0:0:0:
199,122,152300,1,2,1:2:0:0:
199,122,152565,6,0,B|-6:183|18:-31|164:42,1,322.99999137497,12|10,0:0|1:2,0:0:0:0:
313,122,152963,6,0,B|518:183|493:-31|347:42,1,322.99999137497,12|8,0:0|0:0,0:0:0:0:
295,113,153295,1,8,0:0:0:0:
295,113,153362,6,0,P|306:168|324:255,1,127.5,10|0,1:2|0:0,0:0:0:0:
264,316,153627,5,12,0:0:0:0:
416,231,153760,1,8,0:0:0:0:
159,114,153893,1,8,0:0:0:0:
116,221,154025,6,0,B|167:237|167:237|221:214,1,106.25,10|0,1:2|0:0,0:0:0:0:
447,37,154291,2,0,B|396:21|396:21|342:44,1,106.25,10|0,1:2|0:0,0:0:0:0:
347,277,154556,6,0,P|368:222|316:150,1,140.25000428009,12|0,0:0|0:0,0:0:0:0:
314,147,154822,1,10,0:0:0:0:
237,286,154954,1,0,1:0:0:0:
452,383,155087,6,0,P|463:310|477:242,1,140.25000428009,12|0,0:0|0:0,0:0:0:0:
498,227,155353,1,10,0:0:0:0:
359,69,155485,1,2,1:2:0:0:
387,295,155618,1,2,1:2:0:0:
243,154,155751,5,12,0:0:0:0:
205,173,155817,1,0,0:0:0:0:
162,173,155884,1,0,0:0:0:0:
122,159,155950,1,0,0:0:0:0:
95,126,156016,6,0,P|98:142|105:192,1,46.7500014266968,0|0,1:0|0:0,0:0:0:0:
7,279,156149,1,2,0:0:0:0:
7,279,156216,1,2,0:0:0:0:
7,279,156282,2,0,P|6:243|23:210,1,46.7500014266968,10|0,0:0|0:0,0:0:0:0:
133,295,156415,6,0,P|159:307|196:308,1,53.125,10|0,0:0|0:0,0:0:0:0:
317,225,156547,2,0,P|290:228|266:239,1,53.125,2|0,1:2|0:0,0:0:0:0:
285,360,156680,5,12,0:0:0:0:
450,69,157344,6,0,B|506:132|498:204|435:249|411:163|450:135,1,223.125008511544,2|0,0:0|0:0,0:0:0:0:
447,138,157875,1,6,0:0:0:0:
153,137,166370,5,4,1:0:0:0:
153,137,166636,2,0,P|190:145|232:118,1,72.2500013780594,0|8,0:0|0:0,0:0:0:0:
355,70,166901,2,0,P|329:51|281:54,1,72.2500013780594,2|0,1:2|0:0,0:0:0:0:
302,137,167167,1,8,0:0:0:0:
452,67,167300,1,8,0:0:0:0:
452,67,167366,1,8,0:0:0:0:
452,67,167432,6,0,P|442:113|425:210,1,144.500002756119,10|8,0:0|0:0,0:0:0:0:
491,277,167831,1,0,0:0:0:0:
491,277,167897,1,0,0:0:0:0:
491,277,167963,1,2,0:0:0:0:
329,346,168096,1,8,0:0:0:0:
421,384,168229,2,0,L|412:312,1,72.2500013780594,0|0,1:0|0:0,0:0:0:0:
284,238,168494,6,0,P|225:228|174:299,1,144.500002756119,10|0,0:0|0:0,0:0:0:0:
31,180,168893,1,8,0:0:0:0:
122,162,169025,2,0,L|108:233,1,72.2500013780594,2|0,1:2|0:0,0:0:0:0:
50,85,169291,1,0,0:0:0:0:
218,146,169424,1,8,0:0:0:0:
218,146,169490,1,8,0:0:0:0:
218,146,169556,6,0,B|301:123|275:177|360:158,1,144.500002756119,10|2,0:0|0:0,0:0:0:0:
467,118,169954,1,8,0:0:0:0:
467,118,170021,1,8,0:0:0:0:
467,118,170087,2,0,L|440:216,1,72.2500013780594,10|8,0:0|0:0,0:0:0:0:
322,73,170353,2,0,P|357:58|410:62,1,72.2500013780594,2|0,1:2|0:0,0:0:0:0:
311,194,170618,6,0,P|238:218|172:173,1,144.500002756119,10|0,0:0|0:0,0:0:0:0:
28,113,171016,1,8,0:0:0:0:
103,48,171149,2,0,B|125:125|125:125|101:150|98:187,1,144.500002756119,2|8,1:2|0:0,0:0:0:0:
0,317,171547,1,8,0:0:0:0:
0,317,171614,1,8,0:0:0:0:
0,317,171680,6,0,P|69:264|131:298,1,144.500002756119,10|8,0:0|0:0,0:0:0:0:
218,372,172078,1,0,0:0:0:0:
218,372,172145,1,0,0:0:0:0:
218,372,172211,2,0,P|211:315|209:288,1,72.2500013780594,2|8,0:0|0:0,0:0:0:0:
338,241,172477,2,0,L|325:334,1,72.2500013780594,0|0,1:0|0:0,0:0:0:0:
263,183,172742,6,0,P|232:117|288:50,1,144.500002756119,10|0,0:0|0:0,0:0:0:0:
338,241,173140,1,8,0:0:0:0:
338,241,173273,2,0,B|294:220|294:220|259:264|211:249,1,144.500002756119,2|0,1:2|0:0,0:0:0:0:
89,197,173671,1,8,0:0:0:0:
89,197,173738,1,8,0:0:0:0:
89,197,173804,6,0,P|95:231|103:273,1,72.2500013780594,10|8,0:0|0:0,0:0:0:0:
173,147,174070,1,2,0:0:0:0:
16,262,174202,1,8,0:0:0:0:
16,262,174269,1,8,0:0:0:0:
16,262,174335,1,10,0:0:0:0:
168,339,174468,1,8,0:0:0:0:
97,102,174601,1,2,1:2:0:0:
97,102,174866,6,0,P|173:134|241:82,1,144.500002756119,4|0,1:0|0:0,0:0:0:0:
357,33,175264,1,8,0:0:0:0:
357,33,175331,1,0,0:0:0:0:
357,33,175397,2,0,P|320:22|267:40,1,72.2500013780594,2|0,1:2|0:0,0:0:0:0:
319,115,175662,1,8,0:0:0:0:
457,43,175795,1,8,0:0:0:0:
457,43,175862,1,8,0:0:0:0:
457,43,175928,6,0,B|428:142|428:142|462:195,1,144.500002756119,10|8,0:0|0:0,0:0:0:0:
512,257,176326,1,0,0:0:0:0:
512,257,176393,1,0,0:0:0:0:
512,257,176459,1,2,0:0:0:0:
363,340,176592,1,8,0:0:0:0:
457,381,176724,2,0,L|444:309,1,72.2500013780594,0|0,1:0|0:0,0:0:0:0:
271,346,176990,6,0,B|188:324|208:377|129:358,1,144.500002756119,10|0,0:0|0:0,0:0:0:0:
0,245,177388,1,8,0:0:0:0:
104,223,177521,2,0,L|85:312,1,72.2500013780594,2|0,1:2|0:0,0:0:0:0:
32,128,177786,1,0,0:0:0:0:
203,209,177919,1,8,0:0:0:0:
203,209,177985,1,8,0:0:0:0:
203,209,178052,6,0,P|265:170|346:192,1,144.500002756119,10|2,0:0|0:0,0:0:0:0:
396,13,178450,1,8,0:0:0:0:
396,13,178516,1,8,0:0:0:0:
396,13,178583,1,10,0:0:0:0:
280,78,178716,1,8,0:0:0:0:
412,142,178848,2,0,P|450:147|497:118,1,72.2500013780594,2|0,1:2|0:0,0:0:0:0:
307,265,179114,6,0,B|205:279|205:279|159:250,1,144.500002756119,10|0,0:0|0:0,0:0:0:0:
54,128,179512,1,8,0:0:0:0:
12,211,179645,2,0,P|90:157|129:172,1,144.500002756119,2|0,1:2|0:0,0:0:0:0:
226,72,180043,1,8,0:0:0:0:
226,72,180109,1,8,0:0:0:0:
226,72,180176,6,0,P|187:81|142:74,1,72.2500013780594,10|0,0:0|0:0,0:0:0:0:
305,176,180441,2,0,P|344:167|389:174,1,72.2500013780594,8|0,0:0|0:0,0:0:0:0:
396,185,180640,1,0,0:0:0:0:
396,185,180707,1,2,0:0:0:0:
326,78,180839,1,8,0:0:0:0:
216,200,180972,2,0,P|225:253|236:319,1,108.375002067089,0|0,1:0|0:0,0:0:0:0:
217,325,181238,6,0,P|156:293|71:323,1,144.500002756119,10|0,0:0|0:0,0:0:0:0:
305,372,181636,1,8,0:0:0:0:
305,372,181769,2,0,L|278:200,1,144.500002756119,2|8,1:2|0:0,0:0:0:0:
396,158,182167,1,8,0:0:0:0:
396,158,182233,1,8,0:0:0:0:
396,158,182300,6,0,L|381:235,1,72.2500013780594,10|0,0:0|0:0,0:0:0:0:
295,145,182565,1,0,1:0:0:0:
492,203,182698,1,8,0:0:0:0:
492,203,182764,1,8,0:0:0:0:
492,203,182831,1,8,0:0:0:0:
381,351,182963,6,0,L|392:285,1,36.1250006890297,8|0,1:2|0:0,0:0:0:0:
303,255,183096,6,0,P|273:264|238:270,1,63.7500024318696,0|0,1:0|1:0,0:0:0:0:
153,355,183229,2,0,P|123:346|88:340,1,63.7500024318696,0|0,1:0|1:0,0:0:0:0:
20,231,183362,6,0,B|-24:164|28:102|28:102|79:111|75:168,1,203.999993774414,4|0,1:0|1:0,0:0:0:0:
241,269,183760,2,0,B|355:281|317:201|430:216,1,203.999993774414,4|0,1:0|1:0,0:0:0:0:
153,355,184158,2,0,P|115:272|174:172,1,203.999993774414,4|0,1:0|1:0,0:0:0:0:
351,33,184556,5,0,1:0:0:0:
253,186,184689,1,2,1:2:0:0:
407,129,184822,1,0,1:0:0:0:
142,49,184954,1,2,1:2:0:0:
64,101,185087,5,2,1:2:0:0:
36,182,185220,5,2,1:2:0:0:
55,258,185353,5,2,1:2:0:0:
152,338,185485,6,0,B|260:313|260:313|310:328|306:391,1,203.999993774414,4|0,1:0|1:0,0:0:0:0:
499,237,185884,2,0,B|450:214|405:243|405:243|376:187|320:194,1,203.999993774414,4|0,1:0|1:0,0:0:0:0:
176,32,186282,2,0,L|214:233,1,203.999993774414,4|0,1:0|1:0,0:0:0:0:
59,346,186680,5,0,1:0:0:0:
112,200,186813,1,2,1:2:0:0:
4,247,186946,1,2,1:2:0:0:
169,328,187078,1,2,1:2:0:0:
270,166,187211,6,0,B|330:93|254:18|254:18|220:57|247:93,1,237.999992736817,4|8,1:0|0:0,0:0:0:0:
364,161,187543,1,8,0:0:0:0:
364,161,187609,6,0,B|509:176|509:176|469:189|464:234,1,203.999993774414,4|0,1:0|1:0,0:0:0:0:
281,384,188008,2,0,B|258:241|258:241|305:236|325:283,1,203.999993774414,4|0,1:0|1:0,0:0:0:0:
44,359,188406,2,0,P|1:315|78:194,1,203.999993774414,4|0,1:0|1:0,0:0:0:0:
237,109,188804,5,0,1:0:0:0:
172,266,188937,1,2,1:2:0:0:
121,58,189070,1,0,1:0:0:0:
273,204,189202,5,2,1:2:0:0:
354,189,189335,1,2,1:2:0:0:
367,269,189468,1,2,1:2:0:0:
287,284,189601,1,2,1:2:0:0:
446,203,189733,6,0,P|475:103|405:46,2,170,4|0|10,1:2|1:0|0:0,0:0:0:0:
272,90,190397,1,8,0:0:0:0:
387,129,190530,1,0,1:0:0:0:
244,216,190662,6,0,B|150:238|175:175|81:197,1,170,10|8,0:0|0:0,0:0:0:0:
202,50,191061,2,0,P|223:92|209:127,1,85,2|0,1:2|0:0,0:0:0:0:
112,85,191326,1,8,0:0:0:0:
303,160,191459,1,8,0:0:0:0:
156,285,191592,2,0,P|164:243|172:201,1,85,2|0,1:2|0:0,0:0:0:0:
298,345,191857,6,0,B|413:317|413:317|460:355,1,170,12|12,1:2|1:2,0:0:0:0:
389,155,192255,1,2,0:0:0:0:
389,155,192322,1,2,0:0:0:0:
389,155,192388,2,0,P|381:192|369:248,1,85,10|8,0:0|0:0,0:0:0:0:
490,104,192654,1,2,1:2:0:0:
262,171,192786,6,0,B|195:177|125:186|125:186|91:152|130:115,1,203.999993774414,4|0,1:2|1:0,0:0:0:0:
216,52,193185,1,2,1:2:0:0:
18,187,193317,1,2,1:2:0:0:
228,288,193450,1,2,1:2:0:0:
174,207,193583,1,2,1:2:0:0:
119,126,193716,1,2,1:2:0:0:
98,362,193848,1,2,1:2:0:0:
358,285,193981,6,0,B|337:217|337:217|358:180|358:180|333:96,1,191.250007295609,4|0,1:2|0:0,0:0:0:0:
257,65,194247,1,4,1:2:0:0:
469,11,194379,6,0,P|453:66|447:143,1,127.500004863739,2|0,0:0|1:0,0:0:0:0:
202,367,194645,2,0,P|218:312|224:235,1,127.500004863739,4|0,1:2|0:0,0:0:0:0:
55,127,194910,6,0,B|129:90|130:-6|24:-20|-59:57|76:222,1,361.25,12|0,1:2|0:0,0:0:0:0:
76,219,196105,6,0,L|161:197,1,85,2|0,0:0|0:0,0:0:0:0:
224,228,196503,1,2,0:0:0:0:
231,232,196769,1,2,0:0:0:0:
239,237,197034,2,0,B|349:224|306:300|415:286,1,191.25,2|0,0:0|0:0,0:0:0:0:
423,279,197698,2,0,L|411:226,1,42.5,2|0,0:0|0:0,0:0:0:0:
462,182,197963,1,2,0:0:0:0:
340,79,198229,6,0,P|331:42|363:-10,2,85,2|2|2,0:0|0:0|0:0,0:0:0:0:
462,182,199025,1,2,0:0:0:0:
401,229,199291,6,0,P|362:221|302:211,1,85,2|0,0:0|0:0,0:0:0:0:
245,291,199689,2,0,P|191:301|223:309,1,170,2|0,0:0|0:0,0:0:0:0:
344,363,200353,6,0,L|330:274,1,85,2|0,0:0|0:0,0:0:0:0:
427,249,200751,2,0,L|420:291,1,42.5,2|0,0:0|0:0,0:0:0:0:
359,201,201016,2,0,P|348:169|370:127,1,63.75,2|0,0:0|0:0,0:0:0:0:
366,131,201282,6,0,B|270:110|306:179|206:161,1,170,2|0,0:0|0:0,0:0:0:0:
151,113,201946,1,2,0:0:0:0:
201,58,202078,1,2,0:0:0:0:
82,119,202211,2,0,P|58:117|23:105,1,42.5,2|0,0:0|0:0,0:0:0:0:
0,218,202477,6,0,P|25:213|47:211,1,42.5,2|0,0:0|0:0,0:0:0:0:
119,289,202742,2,0,P|94:293|65:282,1,42.5,2|0,0:0|0:0,0:0:0:0:
134,208,203008,2,0,P|177:186|224:192,1,85,2|0,0:0|0:0,0:0:0:0:
221,192,203539,6,0,P|215:230|208:280,1,85,2|0,0:0|0:0,0:0:0:0:
322,372,203937,2,0,P|343:333|268:350,1,170,2|0,0:0|0:0,0:0:0:0:
430,318,204601,6,0,P|445:272|426:238,1,85
368,200,204999,1,2,0:0:0:0:
373,192,205264,1,2,0:0:0:0:
379,182,205530,2,0,B|250:159|250:159|280:185|275:217,1,191.25,2|0,0:0|0:0,0:0:0:0:
271,220,206193,2,0,L|281:277,1,42.5,0|0,0:0|0:0,0:0:0:0:
335,308,206459,2,0,L|321:353,1,42.5,2|0,0:0|0:0,0:0:0:0:
217,372,206724,6,0,P|178:351|123:362,1,85
1,276,207255,2,0,P|42:282|75:249,1,85,2|0,0:0|0:0,0:0:0:0:
150,147,207786,6,0,P|140:102|129:53,1,85,2|0,0:0|0:0,0:0:0:0:
41,27,208185,2,0,B|12:123|12:123|37:156|80:140,1,170
185,120,208848,5,2,0:0:0:0:
277,72,208981,1,2,0:0:0:0:
225,22,209114,1,2,0:0:0:0:
299,140,209247,2,0,P|338:160|385:149,1,85,0|2,0:0|0:0,0:0:0:0:
512,61,209778,6,0,P|470:53|428:85,1,85
377,153,210176,1,2,0:0:0:0:
313,115,210308,2,0,B|207:109|263:171|141:176,1,170
80,104,210972,6,0,P|72:72|97:29,1,85,2|0,0:0|0:0,0:0:0:0:
165,2,211370,1,2,0:0:0:0:
174,10,211636,1,2,0:0:0:0:
306,207,211901,6,0,B|371:241|445:185|445:185|437:230|393:241,1,212.5,4|0,0:0|0:0,0:0:0:0:
360,123,212698,5,8,0:0:0:0:
369,94,212764,1,8,0:0:0:0:
351,59,212831,6,0,L|362:142,1,63.75,8|0,1:2|0:0,0:0:0:0:
306,207,213096,6,0,B|254:177|254:177|202:231|125:208,1,187.000005706787,12|0,1:2|1:0,0:0:0:0:
5,141,213494,2,0,P|64:114|106:123,1,93.5000028533936,2|8,0:0|0:0,0:0:0:0:
136,317,213760,2,0,P|77:344|35:335,1,93.5000028533936,10|0,0:0|1:0,0:0:0:0:
232,197,214025,6,0,B|336:177|305:256|412:231,1,187.000005706787,2|8,0:0|0:0,0:0:0:0:
358,31,214424,2,0,P|336:69|339:130,1,93.5000028533936,2|0,1:2|0:0,0:0:0:0:
512,247,214689,1,10,0:0:0:0:
428,96,214822,1,10,0:0:0:0:
319,282,214954,2,0,P|257:321|179:291,1,140.25000428009,0|0,1:0|0:0,0:0:0:0:
131,230,215220,6,0,L|157:53,1,140.25000428009,10|0,0:0|0:0,0:0:0:0:
48,16,215485,2,0,P|54:59|61:117,1,93.5000028533936,2|0,1:2|0:0,0:0:0:0:
229,172,215751,1,10,0:0:0:0:
142,11,215884,1,8,0:0:0:0:
0,228,216016,2,0,P|64:192|107:206,1,93.5000028533936,2|0,1:2|0:0,0:0:0:0:
375,259,216282,6,0,B|418:256|441:285|441:285|385:185|423:60|574:156|517:207|471:239,1,322.99999137497,12|10,0:0|1:2,0:0:0:0:
161,259,216680,6,0,B|118:256|95:285|95:285|151:185|113:60|-38:156|19:207|65:239,1,322.99999137497,12|8,0:0|0:0,0:0:0:0:
162,343,217012,1,8,0:0:0:0:
162,343,217078,2,0,P|244:299|296:327,1,127.5,10|0,1:2|0:0,0:0:0:0:
353,362,217344,6,0,B|456:324|456:324|512:338|501:384,1,187.000005706787,12|0,0:0|1:0,0:0:0:0:
381,241,217742,2,0,P|341:213|270:230,1,93.5000028533936,2|8,0:0|0:0,0:0:0:0:
129,349,218008,2,0,P|174:360|241:317,1,93.5000028533936,10|0,0:0|1:0,0:0:0:0:
181,124,218273,6,0,P|87:145|-22:172,1,187.000005706787,14|8,0:0|0:0,0:0:0:0:
167,272,218671,2,0,P|197:287|280:279,1,93.5000028533936,0|0,1:0|0:0,0:0:0:0:
445,119,218937,1,10,0:0:0:0:
286,197,219070,1,10,0:0:0:0:
427,362,219202,2,0,P|446:298|416:263,1,93.5000028533936,0|2,1:0|0:0,0:0:0:0:
328,104,219468,6,0,P|351:36|369:0,1,93.5000028533936,12|0,0:0|0:0,0:0:0:0:
173,220,219733,2,0,P|100:247|59:256,1,93.5000028533936,2|0,1:2|0:0,0:0:0:0:
184,104,219999,6,0,P|161:36|143:0,1,93.5000028533936,10|8,0:0|0:0,0:0:0:0:
339,220,220264,2,0,P|412:247|453:256,1,93.5000028533936,2|0,1:2|0:0,0:0:0:0:
235,354,220530,5,4,1:2:0:0:
282,86,220662,1,8,0:0:0:0:
173,220,220795,1,8,0:0:0:0:
353,323,220928,5,4,1:2:0:0:
96,192,221061,1,8,0:0:0:0:
353,61,221193,1,8,0:0:0:0:
256,192,221326,5,0,1:0:0:0:
256,192,221459,1,8,0:0:0:0:
256,192,221592,6,0,B|153:182|197:253|84:248,1,187.000005706787,12|0,1:2|1:0,0:0:0:0:
249,376,221990,2,0,P|243:329|237:283,1,93.5000028533936,2|8,0:0|0:0,0:0:0:0:
423,212,222255,1,10,0:0:0:0:
346,85,222388,2,0,P|338:127|324:202,1,93.5000028533936,0|2,1:0|0:0,0:0:0:0:
99,104,222654,6,0,P|186:87|211:77,1,93.5000028533936,12|8,0:0|0:0,0:0:0:0:
411,310,222919,2,0,P|324:327|299:337,1,93.5000028533936,4|0,1:2|0:0,0:0:0:0:
201,251,223185,1,10,0:0:0:0:
328,176,223317,1,10,0:0:0:0:
209,28,223450,2,0,L|232:169,1,140.25000428009,0|0,1:0|0:0,0:0:0:0:
201,251,223716,6,0,P|161:282|99:269,1,93.5000028533936,10|0,0:0|0:0,0:0:0:0:
328,176,223981,2,0,P|376:188|441:204,1,93.5000028533936,2|0,1:2|0:0,0:0:0:0:
235,92,224247,1,10,0:0:0:0:
286,270,224379,1,8,0:0:0:0:
364,18,224512,1,2,1:2:0:0:
364,18,224778,6,0,B|305:57|288:143|322:217|322:217|369:220|395:179|388:137,1,340,12|10,0:0|1:2,0:0:0:0:
148,366,225176,6,0,B|207:327|224:241|189:166|189:166|143:164|117:205|124:247,1,340,12|8,0:0|0:0,0:0:0:0:
270,354,225508,1,8,0:0:0:0:
270,354,225574,6,0,P|342:342|432:329,1,127.5,10|0,1:2|0:0,0:0:0:0:
481,363,225839,5,12,0:0:0:0:
261,229,225972,1,8,0:0:0:0:
481,150,226105,1,8,0:0:0:0:
390,82,226238,6,0,P|373:126|365:172,1,93.5000028533936,10|0,1:2|0:0,0:0:0:0:
163,358,226503,2,0,P|179:314|187:268,1,93.5000028533936,10|0,1:2|0:0,0:0:0:0:
49,142,226769,6,0,B|125:152|112:103|186:118,1,140.25000428009,12|0,0:0|0:0,0:0:0:0:
200,129,227034,1,10,0:0:0:0:
58,38,227167,1,0,1:0:0:0:
0,263,227300,6,0,P|66:213|136:232,1,140.25000428009,12|0,0:0|0:0,0:0:0:0:
187,268,227565,1,10,0:0:0:0:
49,142,227698,1,2,1:2:0:0:
215,23,227831,1,2,1:2:0:0:
318,173,227963,5,12,0:0:0:0:
313,205,228030,1,0,0:0:0:0:
308,237,228096,1,0,0:0:0:0:
303,269,228162,1,0,0:0:0:0:
300,301,228229,1,0,1:0:0:0:
308,332,228295,1,0,0:0:0:0:
332,354,228362,1,2,0:0:0:0:
362,364,228428,1,10,0:0:0:0:
392,351,228494,6,0,P|393:323|371:288,1,55.2499974708558,10|0,0:0|0:0,0:0:0:0:
164,248,228627,6,0,P|190:266|229:267,1,59.4999981842042,10|0,0:0|0:0,0:0:0:0:
379,157,228760,6,0,P|348:164|289:182,1,63.7500024318696,10|8,1:2|0:2,0:0:0:0:
190,357,228893,5,12,1:2:0:0:
190,357,229556,5,2,1:2:0:0:
142,60,229689,1,2,1:2:0:0:
91,124,229954,6,0,P|164:77|238:104,1,159.375,12|0,1:2|0:0,0:0:0:0:
241,107,230220,1,8,0:0:0:0:
415,16,230353,2,0,P|337:14|317:8,1,85,2|0,1:2|0:0,0:0:0:0:
241,107,230618,1,10,0:0:0:0:
361,183,230751,2,0,P|375:121|339:80,1,85,8|0,0:0|1:0,0:0:0:0:
176,218,231016,6,0,B|192:342|192:342|223:348|244:303,1,170,10|8,0:0|0:0,0:0:0:0:
380,257,231415,2,0,L|292:243,1,85,2|0,1:2|0:0,0:0:0:0:
456,368,231680,2,0,P|474:322|443:268,1,85,10|8,0:0|0:0,0:0:0:0:
305,373,231946,1,0,1:0:0:0:
305,373,232078,6,0,P|227:327|144:362,1,170,10|8,0:0|0:0,0:0:0:0:
32,192,232477,1,2,1:2:0:0:
133,235,232609,1,0,0:0:0:0:
26,333,232742,1,10,0:0:0:0:
101,142,232875,1,10,0:0:0:0:
250,287,233008,1,0,1:0:0:0:
133,235,233140,6,0,P|95:152|164:87,1,159.375,12|0,1:2|0:0,0:0:0:0:
206,68,233406,1,12,0:0:0:0:
4,198,233539,1,8,0:0:0:0:
250,287,233671,2,0,P|316:261|371:283,1,106.25,12|0,1:2|0:0,0:0:0:0:
481,351,233937,6,0,L|493:300,1,42.5,8|0,0:0|1:0,0:0:0:0:
407,72,234202,6,0,L|428:236,1,159.375,12|0,0:0|0:0,0:0:0:0:
418,248,234468,1,8,0:0:0:0:
313,372,234601,2,0,P|296:331|324:280,1,85,2|0,1:2|0:0,0:0:0:0:
492,228,234866,1,10,0:0:0:0:
365,135,234999,2,0,L|352:227,1,85,10|0,0:0|1:0,0:0:0:0:
166,357,235264,6,0,B|62:327|62:327|23:341|32:386,1,170,10|8,0:0|0:0,0:0:0:0:
196,207,235662,1,0,1:0:0:0:
98,174,235795,2,0,P|104:211|117:275,1,85,2|8,0:0|0:0,0:0:0:0:
260,379,236061,2,0,P|276:330|241:283,1,85,10|0,0:0|1:0,0:0:0:0:
320,128,236326,6,0,B|414:138|368:189|474:198,1,159.375,12|0,0:0|0:0,0:0:0:0:
479,184,236592,1,8,0:0:0:0:
408,307,236724,2,0,P|374:326|305:321,1,85,2|0,1:2|0:0,0:0:0:0:
183,180,236990,1,10,0:0:0:0:
340,237,237123,1,8,0:0:0:0:
206,362,237255,1,0,1:0:0:0:
6,287,237388,6,0,P|86:274|175:261,1,159.375,14|0,1:2|0:0,0:0:0:0:
178,276,237654,1,12,0:0:0:0:
18,151,237786,1,0,1:0:0:0:
96,91,237919,5,10,0:0:0:0:
90,70,237985,1,8,0:0:0:0:
83,49,238052,1,8,0:0:0:0:
6,287,238185,1,2,1:2:0:0:
6,287,238450,6,0,B|113:263|70:333|187:307,1,159.375,12|0,1:2|0:0,0:0:0:0:
173,302,238716,1,8,0:0:0:0:
152,129,238848,2,0,P|145:169|134:234,1,85,2|0,1:2|0:0,0:0:0:0:
339,188,239114,1,10,0:0:0:0:
262,371,239247,2,0,L|251:268,1,85,10|2,0:0|1:2,0:0:0:0:
387,114,239512,6,0,P|454:96|523:177,1,170,10|8,0:0|0:0,0:0:0:0:
402,290,239910,1,2,1:2:0:0:
442,177,240043,1,0,0:0:0:0:
256,85,240176,1,10,0:0:0:0:
296,198,240309,1,8,0:0:0:0:
396,20,240441,1,0,1:0:0:0:
164,142,240574,6,0,B|46:158|46:158|24:132|59:89,1,170,10|8,0:0|0:0,0:0:0:0:
169,45,240972,1,2,1:2:0:0:
96,236,241105,1,0,0:0:0:0:
44,110,241238,1,10,0:0:0:0:
202,233,241370,1,10,0:0:0:0:
14,310,241503,1,0,1:0:0:0:
164,142,241636,6,0,B|204:112|242:130|242:130|271:164|321:158,1,159.375,12|0,1:2|0:0,0:0:0:0:
327,149,241901,1,12,0:0:0:0:
492,66,242034,1,8,0:0:0:0:
384,16,242167,2,0,L|396:75,2,53.125,8|8|10,0:0|0:0|1:2,0:0:0:0:
487,178,242432,6,0,L|475:227,1,42.5,10|2,1:2|1:2,0:0:0:0:
370,343,242698,6,0,B|260:310|260:310|206:352,1,159.375,12|0,0:0|0:0,0:0:0:0:
211,346,242963,1,8,0:0:0:0:
56,264,243096,2,0,P|112:274|154:256,1,85,2|0,1:2|0:0,0:0:0:0:
286,184,243362,1,10,0:0:0:0:
194,91,243494,2,0,L|181:201,1,85,10|0,0:0|1:0,0:0:0:0:
304,315,243760,6,0,B|397:333|368:269|474:297,1,159.375,12|0,0:0|0:0,0:0:0:0:
470,306,244025,1,8,0:0:0:0:
332,194,244158,1,0,1:0:0:0:
422,128,244291,2,0,P|467:137|513:149,1,85,2|8,0:0|0:0,0:0:0:0:
305,46,244556,2,0,P|260:55|214:67,1,85,10|0,0:0|1:0,0:0:0:0:
0,213,244822,6,0,B|46:186|46:186|91:231|162:215,1,159.375,12|0,0:0|0:0,0:0:0:0:
213,166,245087,1,8,0:0:0:0:
106,80,245220,1,2,1:2:0:0:
235,252,245353,1,0,0:0:0:0:
352,80,245485,1,10,0:0:0:0:
142,218,245618,1,10,0:0:0:0:
357,331,245751,1,0,1:0:0:0:
110,315,245884,6,0,P|59:319|-3:333,1,106.25,12|0,0:0|0:0,0:0:0:0:
401,227,246149,2,0,P|452:238|505:242,1,106.25,12|0,0:0|0:0,0:0:0:0:
260,107,246415,6,0,B|256:75|253:47|253:47|175:52|133:135|203:219|290:192,1,318.750012159348,12|6,0:0|0:0,0:0:0:0:
256,192,247145,12,2,248937,0:0:0:0:
149,108,249070,5,8,0:0:0:0:
149,108,249136,1,8,0:0:0:0:
149,108,249202,1,14,1:2:0:0:
