osu file format v14

[General]
AudioFilename: audio.mp3
AudioLeadIn: 0
PreviewTime: 61637
Countdown: 0
SampleSet: Soft
StackLeniency: 0.7
Mode: 0
LetterboxInBreaks: 0
WidescreenStoryboard: 0

[Editor]
Bookmarks: 41460,120574,247078
DistanceSpacing: 1
BeatDivisor: 4
GridSize: 8
TimelineZoom: 2.4

[Metadata]
Title:Shoujo to Ougonryuu no Monogatari
TitleUnicode:少女と黄金竜の物語
Artist:Hatsuki Yura
ArtistUnicode:葉月ゆら
Creator:Garden
Version:lululu's Extreme
Source:
Tags:清風明月 Seifuumeigetsu Drop 竜と炎の物語 ~Dragon and Flame Story~ ryuu to honoo no monogatari Hey lululu schoolboy Komore Misure Len Fast
BeatmapID:1521717
BeatmapSetID:719158

[Difficulty]
HPDrainRate:6
CircleSize:4
OverallDifficulty:8.5
ApproachRate:9.4
SliderMultiplier:1.7
SliderTickRate:1

[Events]
//Background and Video events
0,0,"61015605_p0.jpg",0,0
//Break Periods
2,158075,165830
2,196305,204061
//Storyboard Layer 0 (Background)
//Storyboard Layer 1 (Fail)
//Storyboard Layer 2 (Pass)
//Storyboard Layer 3 (Foreground)
//Storyboard Sound Samples

[TimingPoints]
177,265.486725663717,4,2,1,60,1,0
7477,-100,4,2,1,70,0,0
8539,-90.9090909090909,4,2,1,80,0,0
11924,-90.9090909090909,4,2,1,5,0,0
11991,-90.9090909090909,4,2,1,80,0,0
16172,-90.9090909090909,4,2,1,5,0,0
16238,-90.9090909090909,4,2,1,80,0,0
20420,-90.9090909090909,4,2,1,5,0,0
20486,-90.9090909090909,4,2,1,80,0,0
25398,-142.857142857143,4,2,1,80,0,0
25597,-142.857142857143,4,2,1,5,0,0
25663,-111.111111111111,4,2,1,65,0,0
27721,-111.111111111111,4,2,1,5,0,0
27787,-111.111111111111,4,2,1,65,0,0
29845,-111.111111111111,4,2,1,5,0,0
29911,-111.111111111111,4,2,1,65,0,0
31969,-111.111111111111,4,2,1,5,0,0
32035,-111.111111111111,4,2,1,65,0,0
32566,-111.111111111111,4,2,1,75,0,0
32898,-111.111111111111,4,2,1,15,0,0
32964,-100,4,2,1,75,0,0
33163,-100,4,2,1,5,0,0
33230,-100,4,2,1,75,0,0
33296,-100,4,2,1,5,0,0
33362,-100,4,2,1,75,0,0
33429,-100,4,2,1,5,0,0
33495,-100,4,2,1,75,0,0
34092,-100,4,2,1,5,0,0
34159,-111.111111111111,4,2,1,65,0,0
36216,-111.111111111111,4,2,1,5,0,0
36283,-111.111111111111,4,2,1,65,0,0
36681,-111.111111111111,4,2,1,75,0,0
36880,-111.111111111111,4,2,1,5,0,0
36946,-111.111111111111,4,2,1,75,0,0
37212,-111.111111111111,4,2,1,65,0,0
38141,-111.111111111111,4,2,1,75,0,0
38340,-111.111111111111,4,2,1,5,0,0
38407,-111.111111111111,4,2,1,65,0,0
40464,-111.111111111111,4,2,1,5,0,0
40530,-100,4,2,1,75,0,0
41460,-100,4,2,1,65,0,0
42654,-111.111111111111,4,2,1,65,0,0
49292,-111.111111111111,4,2,1,45,0,0
49424,-111.111111111111,4,2,1,65,0,0
49955,-111.111111111111,4,2,1,70,0,0
51150,-100,4,2,1,70,0,0
51349,-100,4,2,1,5,0,0
51415,-100,4,2,1,70,0,0
53207,-100,4,2,1,5,0,0
53274,-100,4,2,1,75,0,0
53473,-100,4,2,1,5,0,0
53539,-100,4,2,1,75,0,0
53738,-100,4,2,1,15,0,0
53938,-100,4,2,1,75,0,0
54004,-100,4,2,1,15,0,0
54203,-100,4,2,1,70,0,0
57455,-100,4,2,1,5,0,0
57522,-100,4,2,1,75,0,0
57721,-100,4,2,1,5,0,0
57787,-100,4,2,1,75,0,0
59646,-100,4,2,2,55,0,0
61106,-90.9090909090909,4,2,1,75,0,0
61703,-90.9090909090909,4,2,1,10,0,0
61769,-83.3333333333333,4,2,1,80,0,1
61969,-83.3333333333333,4,2,1,5,0,1
62035,-83.3333333333333,4,2,1,80,0,1
64092,-83.3333333333333,4,2,1,5,0,1
64159,-83.3333333333333,4,2,1,80,0,1
64889,-83.3333333333333,4,2,1,5,0,1
64955,-83.3333333333333,4,2,1,80,0,1
65154,-83.3333333333333,4,2,1,5,0,1
65221,-83.3333333333333,4,2,1,80,0,1
65884,-83.3333333333333,4,2,1,30,0,1
66017,-83.3333333333333,4,2,1,80,0,1
66216,-83.3333333333333,4,2,1,5,0,1
66283,-83.3333333333333,4,2,1,80,0,1
68340,-83.3333333333333,4,2,1,5,0,1
68407,-83.3333333333333,4,2,1,80,0,1
69137,-83.3333333333333,4,2,1,5,0,1
69203,-83.3333333333333,4,2,1,80,0,1
70464,-83.3333333333333,4,2,1,5,0,1
70530,-83.3333333333333,4,2,1,80,0,1
72588,-83.3333333333333,4,2,1,5,0,1
72654,-83.3333333333333,4,2,1,80,0,1
73384,-83.3333333333333,4,2,1,5,0,1
73451,-83.3333333333333,4,2,1,80,0,1
73650,-83.3333333333333,4,2,1,5,0,1
73716,-83.3333333333333,4,2,1,80,0,1
74380,-83.3333333333333,4,2,1,30,0,1
74513,-83.3333333333333,4,2,1,80,0,1
74977,-83.3333333333333,4,2,1,15,0,1
75177,-83.3333333333333,4,2,1,80,0,1
75243,-83.3333333333333,4,2,1,15,0,1
75442,-83.3333333333333,4,2,1,80,0,1
75641,-83.3333333333333,4,2,1,5,0,1
75707,-83.3333333333333,4,2,1,80,0,1
78230,-200,4,2,1,50,0,1
78694,-200,4,2,1,5,0,1
78761,-90.9090909090909,4,2,1,80,0,0
86261,-90.9090909090909,4,2,1,5,0,0
86327,-90.9090909090909,4,2,1,80,0,0
93893,-90.9090909090909,4,2,1,70,0,0
94159,-90.9090909090909,4,2,1,60,0,0
94424,-90.9090909090909,4,2,1,80,0,0
94756,-90.9090909090909,4,2,1,10,0,0
94823,-90.9090909090909,4,2,1,80,0,0
95752,-125,4,2,1,65,0,0
95951,-125,4,2,1,5,0,0
96017,-125,4,2,1,65,0,0
98075,-125,4,2,1,5,0,0
98141,-125,4,2,1,65,0,0
100199,-125,4,2,1,5,0,0
100265,-125,4,2,1,65,0,0
102323,-125,4,2,1,5,0,0
102389,-125,4,2,1,65,0,0
103252,-125,4,2,1,5,0,0
103318,-125,4,2,1,65,0,0
104513,-166.666666666667,4,2,1,65,0,0
104712,-166.666666666667,4,2,1,5,0,0
104778,265.486725663717,4,2,1,70,1,0
104778,-111.111111111111,4,2,1,70,0,0
106835,-100,4,2,1,5,0,0
106901,-100,4,2,1,70,0,0
108959,-100,4,2,1,5,0,0
109025,-100,4,2,1,70,0,0
111083,-100,4,2,1,5,0,0
111149,-100,4,2,1,70,0,0
111946,-100,4,2,1,75,0,0
112012,-100,4,2,1,15,0,0
112078,-100,4,2,1,75,0,0
112278,-100,4,2,1,5,0,0
112344,-100,4,2,1,75,0,0
112410,-100,4,2,1,5,0,0
112477,-100,4,2,1,75,0,0
112543,-100,4,2,1,5,0,0
112609,-100,4,2,1,75,0,0
113207,-100,4,2,1,5,0,0
113273,-111.111111111111,4,2,1,70,0,0
115331,-111.111111111111,4,2,1,5,0,0
115397,-111.111111111111,4,2,1,70,0,0
115795,-111.111111111111,4,2,1,75,0,0
115994,-111.111111111111,4,2,1,5,0,0
116061,-111.111111111111,4,2,1,75,0,0
116326,-111.111111111111,4,2,1,70,0,0
117454,-111.111111111111,4,2,1,5,0,0
117521,-111.111111111111,4,2,1,70,0,0
119578,-111.111111111111,4,2,1,5,0,0
119645,-100,4,2,1,75,0,0
121769,-111.111111111111,4,2,1,65,0,0
128406,-111.111111111111,4,2,1,45,0,0
128539,-111.111111111111,4,2,1,65,0,0
130264,-100,4,2,1,70,0,0
130463,-100,4,2,1,5,0,0
130530,-100,4,2,1,70,0,0
132322,-100,4,2,1,5,0,0
132388,-100,4,2,1,75,0,0
132587,-100,4,2,1,5,0,0
132654,-100,4,2,1,75,0,0
132853,-100,4,2,1,15,0,0
133052,-100,4,2,1,75,0,0
133118,-100,4,2,1,15,0,0
133317,-100,4,2,1,70,0,0
136570,-100,4,2,1,5,0,0
136636,-100,4,2,1,75,0,0
136835,-100,4,2,1,5,0,0
136901,-100,4,2,1,75,0,0
138760,-100,4,2,2,55,0,0
140220,-90.9090909090909,4,2,1,75,0,0
140817,-90.9090909090909,4,2,1,5,0,0
140884,-83.3333333333333,4,2,1,80,0,1
141083,-83.3333333333333,4,2,1,5,0,1
141149,-83.3333333333333,4,2,1,80,0,1
143207,-83.3333333333333,4,2,1,5,0,1
143273,-83.3333333333333,4,2,1,80,0,1
144003,-83.3333333333333,4,2,1,5,0,1
144070,-83.3333333333333,4,2,1,80,0,1
144269,-83.3333333333333,4,2,1,5,0,1
144335,-83.3333333333333,4,2,1,80,0,1
144999,-83.3333333333333,4,2,1,40,0,1
145131,-83.3333333333333,4,2,1,80,0,1
145331,-83.3333333333333,4,2,1,5,0,1
145397,-83.3333333333333,4,2,1,80,0,1
147454,-83.3333333333333,4,2,1,5,0,1
147521,-83.3333333333333,4,2,1,80,0,1
148251,-83.3333333333333,4,2,1,5,0,1
148317,-83.3333333333333,4,2,1,80,0,1
149578,-83.3333333333333,4,2,1,5,0,1
149645,-83.3333333333333,4,2,1,80,0,1
151702,-83.3333333333333,4,2,1,5,0,1
151769,-83.3333333333333,4,2,1,80,0,1
152499,-83.3333333333333,4,2,1,5,0,1
152565,-83.3333333333333,4,2,1,80,0,1
152764,-83.3333333333333,4,2,1,5,0,1
152831,-83.3333333333333,4,2,1,80,0,1
153494,-83.3333333333333,4,2,1,40,0,1
153627,-83.3333333333333,4,2,1,80,0,1
154092,-83.3333333333333,4,2,1,15,0,1
154291,-83.3333333333333,4,2,1,80,0,1
154357,-83.3333333333333,4,2,1,15,0,1
154556,-83.3333333333333,4,2,1,80,0,1
154755,-83.3333333333333,4,2,1,5,0,1
154822,-83.3333333333333,4,2,1,80,0,1
157278,-200,4,2,1,60,0,1
157808,-200,4,2,1,5,0,1
157875,-200,4,2,1,50,0,0
166370,-100,4,2,2,55,0,0
182831,-100,4,2,1,60,0,0
183362,-66.6666666666667,4,2,1,75,0,0
187211,-125,4,2,1,75,0,0
187609,-66.6666666666667,4,2,1,75,0,0
189733,-90.9090909090909,4,2,1,75,0,0
192056,-90.9090909090909,4,2,1,5,0,0
192123,-90.9090909090909,4,2,1,75,0,0
192322,-90.9090909090909,4,2,1,5,0,0
192388,-90.9090909090909,4,2,1,75,0,0
192454,-90.9090909090909,4,2,1,15,0,0
192521,-90.9090909090909,4,2,1,75,0,0
192587,-90.9090909090909,4,2,1,15,0,0
192654,-90.9090909090909,4,2,1,75,0,0
192720,-90.9090909090909,4,2,1,15,0,0
192786,-90.9090909090909,4,2,1,75,0,0
192985,-90.9090909090909,4,2,1,5,0,0
193052,-90.9090909090909,4,2,1,75,0,0
193981,-66.6666666666667,4,2,1,75,0,0
194180,-66.6666666666667,4,2,1,5,0,0
194247,-76.9230769230769,4,2,1,75,0,0
194645,-66.6666666666667,4,2,1,75,0,0
194844,-66.6666666666667,4,2,1,5,0,0
194910,-66.6666666666667,4,2,1,75,0,0
196105,-200,4,2,1,95,0,0
196171,-200,4,2,1,50,0,0
211901,-200,4,2,2,80,0,0
212034,-200,4,2,1,80,0,0
212698,-90.9090909090909,4,2,1,70,0,0
213030,-90.9090909090909,4,2,1,5,0,0
213096,-83.3333333333333,4,2,1,80,0,1
213295,-83.3333333333333,4,2,1,5,0,1
213362,-83.3333333333333,4,2,1,80,0,1
215419,-83.3333333333333,4,2,1,5,0,1
215485,-83.3333333333333,4,2,1,80,0,1
216216,-83.3333333333333,4,2,1,5,0,1
216282,-83.3333333333333,4,2,1,80,0,1
216481,-83.3333333333333,4,2,1,5,0,1
216547,-83.3333333333333,4,2,1,80,0,1
217543,-83.3333333333333,4,2,1,5,0,1
217609,-83.3333333333333,4,2,1,80,0,1
219667,-83.3333333333333,4,2,1,5,0,1
219733,-83.3333333333333,4,2,1,80,0,1
220463,-83.3333333333333,4,2,1,5,0,1
220530,-83.3333333333333,4,2,1,80,0,1
221791,-83.3333333333333,4,2,1,5,0,1
221857,-83.3333333333333,4,2,1,80,0,1
223915,-83.3333333333333,4,2,1,5,0,1
223981,-83.3333333333333,4,2,1,80,0,1
224711,-83.3333333333333,4,2,1,5,0,1
224778,-83.3333333333333,4,2,1,80,0,1
224977,-83.3333333333333,4,2,1,5,0,1
225043,-83.3333333333333,4,2,1,80,0,1
226304,-83.3333333333333,4,2,1,15,0,1
226503,-83.3333333333333,4,2,1,80,0,1
226570,-83.3333333333333,4,2,1,15,0,1
226769,-83.3333333333333,4,2,1,80,0,1
226968,-83.3333333333333,4,2,1,5,0,1
227034,-83.3333333333333,4,2,1,80,0,1
229954,-90.9090909090909,4,2,1,80,0,0
233339,-90.9090909090909,4,2,1,5,0,0
233406,-90.9090909090909,4,2,1,80,0,0
233472,-90.9090909090909,4,2,1,15,0,0
233539,-90.9090909090909,4,2,1,80,0,0
233605,-90.9090909090909,4,2,1,15,0,0
233671,-90.9090909090909,4,2,1,80,0,0
237587,-90.9090909090909,4,2,1,5,0,0
237654,-90.9090909090909,4,2,1,80,0,0
241835,-90.9090909090909,4,2,1,5,0,0
241901,-90.9090909090909,4,2,1,80,0,0
247078,-100,4,2,1,80,0,0
247609,-100,4,2,1,70,0,0
248140,-100,4,2,1,60,0,0
248671,-100,4,2,1,50,0,0
249202,-100,4,2,1,80,0,0

[Colours]
Combo1 : 255,66,66
Combo2 : 255,30,255
Combo3 : 255,119,53
Combo4 : 255,128,192

[HitObjects]
101,60,177,6,0,L|207:73,1,85,4|0,0:0|0:0,0:0:0:0:
168,232,442,2,0,L|83:221,1,85,2|8,0:0|0:0,0:0:0:0:
134,146,707,1,2,1:2:0:0:
198,321,973,1,8,0:0:0:0:
198,321,1106,6,0,P|249:325|326:230,1,170,8|2,0:0|0:0,0:0:0:0:
272,80,1504,2,0,P|258:119|267:160,1,85,8|2,0:0|0:0,0:0:0:0:
343,124,1769,2,0,L|521:109,1,170,0|0,1:0|0:0,0:0:0:0:
341,38,2300,6,0,P|300:49|271:79,1,85,8|0,0:0|0:0,0:0:0:0:
349,208,2566,2,0,P|389:196|418:166,1,85,10|8,0:0|0:0,0:0:0:0:
343,124,2831,1,2,1:2:0:0:
298,286,3097,1,8,0:0:0:0:
298,286,3230,6,0,B|258:263|216:277|216:277|173:291|123:261,1,170,8|10,0:0|0:0,0:0:0:0:
190,119,3628,2,0,P|204:157|182:205,1,85,0|10,0:0|0:0,0:0:0:0:
31,197,3893,1,0,1:0:0:0:
31,197,4026,2,0,B|5:149|29:91|29:91|89:108|105:156,1,212.5,10|0,0:0|0:0,0:0:0:0:
190,119,4424,6,0,L|282:105,1,85,12|0,0:0|0:0,0:0:0:0:
395,168,4690,2,0,L|487:154,1,85,10|8,0:0|0:0,0:0:0:0:
419,58,4955,1,2,1:2:0:0:
344,265,5221,1,8,0:0:0:0:
344,265,5353,6,0,L|542:234,1,170,8|2,0:0|0:0,0:0:0:0:
281,212,5752,2,0,P|260:259|270:300,1,85,8|2,0:0|0:0,0:0:0:0:
196,372,6017,2,0,B|150:326|150:326|162:196,1,170,0|0,1:0|0:0,0:0:0:0:
86,89,6548,6,0,P|119:110|175:106,1,85,8|0,0:0|0:0,0:0:0:0:
353,57,6814,2,0,P|320:36|264:40,1,85,10|8,0:0|0:0,0:0:0:0:
240,181,7079,2,0,L|383:163,1,127.5,2|0,1:2|0:0,0:0:0:0:
393,151,7345,1,0,0:0:0:0:
302,262,7477,5,14,0:0:0:0:
353,57,7743,1,14,0:0:0:0:
302,262,8008,5,10,0:0:0:0:
353,57,8141,1,2,1:2:0:0:
420,316,8274,1,2,1:2:0:0:
420,316,8539,6,0,P|362:285|261:353,1,187.000005706787,12|8,1:2|0:0,0:0:0:0:
412,219,8938,2,0,P|422:166|418:121,1,93.5000028533936,2|0,1:2|0:0,0:0:0:0:
321,159,9203,1,10,0:0:0:0:
321,159,9336,1,8,0:0:0:0:
504,202,9469,1,0,1:0:0:0:
443,34,9601,6,0,B|323:24|377:79|242:60,1,187.000005706787,10|8,0:0|0:0,0:0:0:0:
150,114,10000,2,0,L|137:9,1,93.5000028533936,2|0,1:2|0:0,0:0:0:0:
309,251,10265,2,0,L|322:146,1,93.5000028533936,10|8,0:0|0:0,0:0:0:0:
261,62,10530,1,0,1:0:0:0:
149,216,10663,6,0,P|62:218|8:131,1,187.000005706787,10|8,0:0|0:0,0:0:0:0:
163,21,11061,2,0,L|148:127,1,93.5000028533936,2|0,1:2|0:0,0:0:0:0:
289,183,11327,1,10,0:0:0:0:
261,62,11460,1,10,0:0:0:0:
220,260,11592,1,0,1:0:0:0:
289,183,11725,6,0,L|431:162,1,140.25000428009,12|0,1:2|0:0,0:0:0:0:
460,156,11991,1,12,0:0:0:0:
261,62,12123,1,8,0:0:0:0:
220,260,12256,2,0,P|185:185|204:121,1,140.25000428009,12|0,1:2|0:0,0:0:0:0:
261,62,12522,2,0,L|342:49,1,46.7500014266968,8|0,0:0|0:0,0:0:0:0:
106,128,12654,2,0,L|25:115,1,46.7500014266968,0|0,1:0|0:0,0:0:0:0:
1,8,12787,6,0,L|195:40,1,187.000005706787,12|8,0:0|0:0,0:0:0:0:
106,128,13185,2,0,L|13:112,1,93.5000028533936,2|0,1:2|0:0,0:0:0:0:
261,62,13451,1,10,0:0:0:0:
184,237,13584,1,10,0:0:0:0:
106,128,13716,1,0,1:0:0:0:
262,200,13849,6,0,L|472:180,1,187.000005706787,10|8,0:0|0:0,0:0:0:0:
324,84,14247,1,0,1:0:0:0:
193,148,14380,2,0,P|175:191|188:244,1,93.5000028533936,2|8,0:0|0:0,0:0:0:0:
320,296,14646,2,0,P|337:339|324:392,1,93.5000028533936,10|0,0:0|1:0,0:0:0:0:
81,348,14911,6,0,P|164:320|263:351,1,187.000005706787,12|8,0:0|0:0,0:0:0:0:
397,260,15309,2,0,L|377:109,1,140.25000428009,2|0,1:2|0:0,0:0:0:0:
358,94,15575,1,10,0:0:0:0:
295,240,15707,1,8,0:0:0:0:
480,114,15840,1,0,1:0:0:0:
254,148,15973,6,0,B|191:140|191:140|140:110|140:110|75:100,1,187.000005706787,14|12,1:2|0:0,0:0:0:0:
112,189,16371,1,0,1:0:0:0:
232,19,16504,1,10,0:0:0:0:
232,19,16570,1,8,0:0:0:0:
232,19,16637,2,0,L|243:90,1,46.7500014266968,8|0,0:0|0:0,0:0:0:0:
277,232,16769,1,2,1:2:0:0:
277,232,17035,6,0,P|328:208|430:285,1,187.000005706787,12|8,1:2|0:0,0:0:0:0:
229,296,17433,2,0,P|201:260|206:199,1,93.5000028533936,2|0,1:2|0:0,0:0:0:0:
271,79,17699,1,10,0:0:0:0:
271,79,17831,1,10,0:0:0:0:
277,232,17964,1,2,1:2:0:0:
54,102,18097,6,0,P|110:79|215:141,1,187.000005706787,10|8,0:0|0:0,0:0:0:0:
144,260,18495,2,0,L|42:248,1,93.5000028533936,2|0,1:2|0:0,0:0:0:0:
305,147,18761,2,0,L|203:135,1,93.5000028533936,10|8,0:0|0:0,0:0:0:0:
328,324,19026,1,0,1:0:0:0:
473,234,19159,6,0,P|499:178|428:82,1,187.000005706787,10|8,0:0|0:0,0:0:0:0:
295,229,19557,2,0,L|401:212,1,93.5000028533936,2|0,1:2|0:0,0:0:0:0:
305,147,19823,1,10,0:0:0:0:
221,271,19955,1,10,0:0:0:0:
165,93,20088,1,0,1:0:0:0:
28,241,20221,6,0,L|169:214,1,140.25000428009,12|0,1:2|0:0,0:0:0:0:
185,188,20486,1,12,0:0:0:0:
56,123,20619,1,8,0:0:0:0:
160,298,20752,1,8,0:0:0:0:
160,298,20818,1,8,0:0:0:0:
160,298,20884,1,10,1:2:0:0:
287,149,21017,2,0,L|300:90,1,46.7500014266968,10|0,1:2|0:0,0:0:0:0:
197,16,21150,2,0,L|186:61,1,46.7500014266968,2|0,1:2|0:0,0:0:0:0:
287,149,21283,6,0,B|396:126|370:195|482:166,1,187.000005706787,12|8,0:0|0:0,0:0:0:0:
416,0,21681,2,0,L|430:97,1,93.5000028533936,2|0,1:2|0:0,0:0:0:0:
511,291,21946,2,0,L|501:219,1,46.7500014266968,10|0,0:0|0:0,0:0:0:0:
380,159,22079,2,0,L|386:205,1,46.7500014266968,10|0,0:0|0:0,0:0:0:0:
323,377,22212,2,0,L|316:330,1,46.7500014266968,0|0,1:0|0:0,0:0:0:0:
224,187,22345,6,0,B|185:164|135:173|135:173|90:201|29:184,1,187.000005706787,12|8,0:0|0:0,0:0:0:0:
69,99,22743,1,0,1:0:0:0:
209,279,22876,2,0,L|223:187,1,93.5000028533936,2|8,0:0|0:0,0:0:0:0:
327,95,23141,2,0,L|313:3,1,93.5000028533936,10|0,0:0|1:0,0:0:0:0:
97,48,23407,6,0,B|67:101|67:101|217:66,1,187.000005706787,12|8,0:0|0:0,0:0:0:0:
263,162,23805,2,0,L|157:192,1,93.5000028533936,2|0,1:2|0:0,0:0:0:0:
327,95,24070,1,10,0:0:0:0:
284,246,24203,1,10,0:0:0:0:
226,0,24336,1,0,1:0:0:0:
395,158,24469,6,0,L|516:143,1,93.5000028533936,12|0,0:0|0:0,0:0:0:0:
284,246,24734,2,0,L|191:234,1,93.5000028533936,12|0,0:0|0:0,0:0:0:0:
416,339,25000,2,0,L|537:324,1,93.5000028533936,12|0,0:0|0:0,0:0:0:0:
104,111,25398,6,0,P|84:139|104:131,1,89.2499972763062,2|0,0:0|0:0,0:0:0:0:
187,124,25663,6,0,B|280:100|250:160|356:134,1,152.999995330811,4|0,0:1|1:0,0:0:0:0:
309,52,26061,1,0,0:0:0:0:
218,200,26194,2,0,L|225:286,2,76.4999976654053,10|8|0,0:0|0:0|1:0,0:0:0:0:
365,232,26592,6,0,L|357:390,1,152.999995330811,10|8,0:0|0:0,0:0:0:0:
224,276,26991,2,0,L|218:200,1,76.4999976654053,2|0,1:2|0:0,0:0:0:0:
318,152,27256,1,8,0:0:0:0:
318,152,27389,1,8,0:0:0:0:
136,31,27522,2,0,P|171:47|255:40,1,114.749996498108,2|0,1:2|0:0,0:0:0:0:
264,30,27787,6,0,L|219:184,1,152.999995330811,8|0,0:0|1:0,0:0:0:0:
102,207,28185,2,0,P|91:171|113:117,1,76.4999976654053,2|8,0:0|0:0,0:0:0:0:
221,176,28451,1,10,0:0:0:0:
221,176,28584,1,0,1:0:0:0:
175,307,28716,6,0,L|17:294,1,152.999995330811,10|8,0:0|0:0,0:0:0:0:
102,207,29115,1,2,1:3:0:0:
102,207,29247,1,0,0:0:0:0:
154,384,29380,1,8,0:0:0:0:
253,261,29513,1,8,0:0:0:0:
333,353,29646,2,0,L|472:340,1,114.749996498108,0|0,1:0|0:0,0:0:0:0:
470,341,29911,6,0,P|450:290|469:208,1,114.749996498108,8|0,0:0|0:0,0:0:0:0:
483,140,30177,2,0,L|379:152,1,76.4999976654053,2|0,1:2|0:0,0:0:0:0:
269,101,30442,1,10,0:0:0:0:
269,101,30575,1,8,0:0:0:0:
348,195,30707,1,0,1:0:0:0:
321,41,30840,6,0,P|237:27|189:86,1,152.999995330811,10|8,0:0|0:0,0:0:0:0:
84,154,31238,2,0,L|60:69,1,76.4999976654053,2|0,1:2|0:0,0:0:0:0:
184,169,31504,1,8,0:0:0:0:
184,169,31637,1,8,0:0:0:0:
102,264,31769,1,2,1:2:0:0:
102,264,31902,1,0,0:0:0:0:
195,344,32035,6,0,P|239:348|272:337,1,76.4999976654053,10|0,0:0|0:0,0:0:0:0:
333,221,32300,1,0,1:0:0:0:
222,260,32433,1,2,0:0:0:0:
386,300,32566,1,10,0:0:0:0:
411,271,32632,1,2,0:0:0:0:
424,236,32698,1,10,0:0:0:0:
422,198,32765,1,2,0:0:0:0:
406,164,32831,2,0,L|356:144,1,38.2499988327027,2|0,1:2|0:0,0:0:0:0:
234,0,32964,6,0,L|248:136,1,127.5,12|0,0:0|0:0,0:0:0:0:
249,152,33230,1,10,0:0:0:0:
65,72,33362,1,10,0:0:0:0:
249,152,33495,6,0,L|235:288,1,127.5,4|0,1:2|0:0,0:0:0:0:
234,304,33761,1,10,0:0:0:0:
418,224,33893,1,2,1:2:0:0:
418,224,34026,1,0,0:0:0:0:
342,321,34159,6,0,L|464:338,1,114.749996498108,4|0,0:1|0:0,0:0:0:0:
512,251,34424,2,0,P|514:204|498:163,1,76.4999976654053,0|0,1:0|0:0,0:0:0:0:
320,155,34690,1,10,0:0:0:0:
418,224,34823,1,8,0:0:0:0:
342,41,34955,1,0,1:0:0:0:
267,223,35088,6,0,L|254:65,1,152.999995330811,10|8,0:0|0:0,0:0:0:0:
105,118,35486,2,0,P|147:124|187:121,1,76.4999976654053,2|0,1:2|0:0,0:0:0:0:
342,41,35752,1,8,0:0:0:0:
342,41,35884,1,8,0:0:0:0:
392,173,36017,2,0,L|373:309,1,114.749996498108,2|0,1:2|0:0,0:0:0:0:
370,309,36283,6,0,P|331:290|283:287,1,76.4999976654053,10|0,0:0|0:0,0:0:0:0:
188,318,36548,1,0,1:0:0:0:
40,174,36681,1,10,0:0:0:0:
54,177,36946,1,2,0:0:0:0:
68,180,37212,6,0,B|49:336,1,152.999995330811,12|8,0:0|0:0,0:0:0:0:
136,297,37610,2,0,L|145:214,1,76.4999976654053,2|0,1:2|0:0,0:0:0:0:
43,95,37876,1,8,0:0:0:0:
167,144,38008,1,8,0:0:0:0:
167,144,38075,1,8,0:0:0:0:
167,144,38141,2,0,P|225:134|282:112,1,114.749996498108,2|0,1:2|0:0,0:0:0:0:
299,99,38407,6,0,L|289:204,1,76.4999976654053,12|0,0:0|0:0,0:0:0:0:
278,300,38672,1,0,1:0:0:0:
381,320,38805,2,0,P|378:268|363:234,1,76.4999976654053,2|8,0:0|0:0,0:0:0:0:
184,310,39070,2,0,P|172:346|172:384,1,76.4999976654053,10|0,0:0|1:0,0:0:0:0:
254,207,39336,6,0,L|85:178,1,152.999995330811,12|8,0:0|0:0,0:0:0:0:
109,77,39734,2,0,L|186:91,1,76.4999976654053,2|0,1:2|0:0,0:0:0:0:
339,63,40000,2,0,P|346:48|349:14,1,38.2499988327027,10|0,0:0|0:0,0:0:0:0:
261,22,40132,1,8,0:0:0:0:
261,22,40199,1,0,0:0:0:0:
261,22,40265,2,0,L|269:140,1,114.749996498108,2|0,1:2|0:0,0:0:0:0:
271,165,40530,5,4,1:2:0:0:
433,134,40663,1,8,0:0:0:0:
339,63,40796,1,8,0:0:0:0:
368,223,40929,5,4,1:2:0:0:
180,212,41061,1,8,0:0:0:0:
301,306,41194,1,8,0:0:0:0:
253,75,41327,1,2,1:2:0:0:
82,157,41460,6,0,P|54:106|116:12,1,170,12|8,0:0|0:0,0:0:0:0:
276,151,41858,2,0,L|215:145,1,42.5,10|2,0:0|0:0,0:0:0:0:
61,273,41991,2,0,L|122:267,1,42.5,10|2,0:0|0:0,0:0:0:0:
221,287,42123,5,10,0:0:0:0:
260,271,42189,1,2,0:0:0:0:
302,271,42256,1,10,0:0:0:0:
341,287,42322,1,2,0:0:0:0:
372,318,42389,5,2,0:0:0:0:
401,330,42455,1,2,0:0:0:0:
433,330,42521,1,2,0:0:0:0:
463,318,42588,1,2,0:0:0:0:
485,294,42654,6,0,P|499:265|498:214,2,76.4999976654053,4|0|2,0:1|0:0|0:0,0:0:0:0:
423,241,43053,1,8,0:0:0:0:
423,241,43185,2,0,L|434:86,1,152.999995330811,2|2,1:2|0:0,0:0:0:0:
460,12,43584,6,0,B|364:2|407:58|296:33,1,152.999995330811,10|0,0:0|0:0,0:0:0:0:
211,12,43982,2,0,P|223:49|208:98,1,76.4999976654053,8|0,0:0|0:0,0:0:0:0:
305,211,44247,2,0,P|293:174|308:125,1,76.4999976654053,0|2,1:0|0:0,0:0:0:0:
385,172,44513,1,0,0:0:0:0:
385,172,44646,1,0,0:0:0:0:
453,265,44778,6,0,L|348:257,2,76.4999976654053,10|0|0,0:0|0:0|0:0,0:0:0:0:
461,178,45177,2,0,L|364:170,1,76.4999976654053,10|0,0:0|1:0,0:0:0:0:
304,210,45442,2,0,L|228:204,1,76.4999976654053,2|0,0:0|0:0,0:0:0:0:
102,257,45707,6,0,P|68:203|102:122,1,152.999995330811,10|0,0:0|0:0,0:0:0:0:
184,35,46106,2,0,L|192:131,1,76.4999976654053,8|0,0:0|0:0,0:0:0:0:
228,204,46371,1,0,1:0:0:0:
228,204,46504,1,8,0:0:0:0:
312,139,46637,2,0,P|347:122|401:123,1,76.4999976654053,8|0,0:0|0:0,0:0:0:0:
511,211,46902,6,0,B|407:235|407:235|344:191,1,152.999995330811,10|2,0:0|0:0,0:0:0:0:
460,53,47300,2,0,L|472:142,1,76.4999976654053,8|2,0:0|1:2,0:0:0:0:
369,208,47566,2,0,L|358:132,1,76.4999976654053,0|0,0:0|0:0,0:0:0:0:
286,21,47831,6,0,P|204:9|150:54,1,152.999995330811,10|0,0:0|0:0,0:0:0:0:
223,175,48230,2,0,L|231:98,1,76.4999976654053,10|0,0:0|0:0,0:0:0:0:
126,287,48495,2,0,L|116:198,1,76.4999976654053,0|0,1:0|0:0,0:0:0:0:
280,384,48761,2,0,L|290:295,1,76.4999976654053,2|0,0:0|0:0,0:0:0:0:
353,228,49026,6,0,P|283:227|222:173,2,152.999995330811,10|4|0,0:0|0:0|1:0,0:0:0:0:
434,121,49823,1,10,0:0:0:0:
360,33,49955,6,0,L|191:49,1,152.999995330811,12|8,0:0|0:0,0:0:0:0:
41,60,50353,1,0,1:0:0:0:
136,199,50619,6,0,P|146:174|148:130,2,50.9999984436036,10|8|8,1:2|0:0|0:0,0:0:0:0:
21,268,50884,2,0,P|11:243|9:199,2,50.9999984436036,10|8|8,1:2|0:0|0:0,0:0:0:0:
26,363,51150,6,0,L|171:336,1,127.5,12|0,0:0|0:0,0:0:0:0:
174,321,51415,1,0,1:0:0:0:
131,155,51548,2,0,P|117:207|127:239,1,85,2|8,0:0|0:0,0:0:0:0:
243,366,51814,2,0,P|257:314|247:282,1,85,10|0,0:0|1:0,0:0:0:0:
204,204,52079,6,0,L|391:183,1,170,10|8,0:0|0:0,0:0:0:0:
372,185,52477,1,0,1:0:0:0:
238,9,52743,1,10,0:0:0:0:
360,88,52876,1,8,0:0:0:0:
158,103,53008,2,0,P|153:57|140:6,1,85,2|0,1:2|0:0,0:0:0:0:
264,100,53274,6,0,P|238:163|228:250,1,127.5,12|0,0:0|0:0,0:0:0:0:
241,247,53539,1,0,1:0:0:0:
359,324,53672,1,10,0:0:0:0:
367,345,53938,1,10,0:0:0:0:
374,367,54203,6,0,B|416:320|416:320|395:198,1,170,12|8,0:0|0:0,0:0:0:0:
451,110,54601,2,0,L|462:176,1,42.5,0|0,1:0|0:0,0:0:0:0:
313,259,54734,2,0,L|306:217,1,42.5,2|2,0:0|0:0,0:0:0:0:
346,86,54867,1,10,0:0:0:0:
346,86,54933,1,0,0:0:0:0:
346,86,55000,2,0,L|357:152,1,42.5,8|0,0:0|0:0,0:0:0:0:
231,261,55132,1,0,1:0:0:0:
231,261,55265,1,2,0:0:0:0:
164,89,55398,6,0,B|204:55|204:55|192:189,1,170,12|0,0:0|1:0,0:0:0:0:
100,234,55796,1,2,0:0:0:0:
100,234,55929,1,8,0:0:0:0:
6,184,56061,2,0,L|-4:123,1,42.5,10|0,0:0|0:0,0:0:0:0:
60,35,56194,2,0,L|66:76,1,42.5,0|0,1:0|0:0,0:0:0:0:
100,234,56327,6,0,P|166:201|281:213,1,170,10|8,0:0|0:0,0:0:0:0:
374,261,56725,2,0,P|365:222|364:169,1,85,2|0,1:2|0:0,0:0:0:0:
470,207,56991,1,10,0:0:0:0:
278,288,57123,1,8,0:0:0:0:
352,93,57256,2,0,P|361:132|362:185,1,85,2|0,1:2|0:0,0:0:0:0:
191,159,57522,6,0,L|180:24,1,127.5,12|0,0:0|0:0,0:0:0:0:
198,8,57787,2,0,L|208:135,1,127.5,4|0,1:2|0:0,0:0:0:0:
113,214,58053,1,10,0:0:0:0:
113,214,58185,1,10,0:0:0:0:
68,77,58318,1,0,1:0:0:0:
34,257,58451,6,0,B|92:245|92:245|140:264|140:264|213:248,1,170,4|10,1:2|0:0,0:0:0:0:
333,170,58849,1,10,0:0:0:0:
202,167,58982,1,10,0:0:0:0:
278,279,59115,1,10,0:0:0:0:
421,237,59247,6,0,L|438:294,1,42.5,10|0,0:0|0:0,0:0:0:0:
333,170,59380,2,0,L|320:210,1,42.5,10|0,0:0|0:0,0:0:0:0:
496,119,59513,2,0,L|513:176,1,42.5,10|0,0:0|0:0,0:0:0:0:
335,60,59646,5,2,1:2:0:0:
231,119,59778,2,0,L|110:104,1,85,0|0,0:0|0:0,0:0:0:0:
88,4,60044,5,2,0:0:0:0:
146,108,60176,2,0,L|131:229,1,85,0|0,0:0|0:0,0:0:0:0:
31,250,60442,5,2,0:0:0:0:
135,192,60574,2,0,L|256:207,1,85,0|0,0:0|0:0,0:0:0:0:
277,306,60840,5,2,0:0:0:0:
219,202,60973,2,0,L|234:81,1,85,0|2,0:0|0:0,0:0:0:0:
331,104,61172,1,2,0:0:0:0:
331,104,61238,6,0,L|324:167,1,46.7500014266968,2|0,1:2|0:0,0:0:0:0:
399,264,61371,1,8,0:0:0:0:
399,264,61438,1,10,0:0:0:0:
399,264,61504,2,0,P|439:240|386:254,1,140.25000428009,10|0,1:2|0:0,0:0:0:0:
444,342,61769,6,0,B|385:352|348:324|348:324|308:298|249:306,1,203.999993774414,12|0,1:2|1:0,0:0:0:0:
143,359,62168,2,0,B|158:313|158:313|145:259,1,101.999996887207,2|8,0:0|0:0,0:0:0:0:
34,74,62433,2,0,B|18:119|18:119|31:173,1,101.999996887207,10|0,0:0|1:0,0:0:0:0:
149,183,62699,6,0,B|231:164|231:164|270:177|270:177|356:161,1,203.999993774414,2|8,0:0|0:0,0:0:0:0:
301,0,63097,2,0,B|273:44|273:44|286:110,1,101.999996887207,2|0,1:2|0:0,0:0:0:0:
413,230,63362,1,10,0:0:0:0:
437,82,63495,1,10,0:0:0:0:
296,261,63628,1,0,1:0:0:0:
296,261,63893,6,0,P|244:249|181:260,1,101.999996887207,10|0,0:0|0:0,0:0:0:0:
100,321,64159,2,0,P|112:269|101:206,1,101.999996887207,2|0,1:2|0:0,0:0:0:0:
31,111,64424,2,0,P|83:123|146:112,1,101.999996887207,10|8,0:0|0:0,0:0:0:0:
227,51,64690,2,0,P|215:103|226:166,1,101.999996887207,2|0,1:2|0:0,0:0:0:0:
326,168,64955,6,0,B|382:153|382:153|482:162,1,152.999995330811,12|0,0:0|0:0,0:0:0:0:
497,191,65221,1,10,1:2:0:0:
399,338,65353,2,0,L|396:218,1,101.999996887207,12|0,0:0|0:0,0:0:0:0:
395,59,65619,1,8,0:0:0:0:
395,59,65685,1,8,0:0:0:0:
395,59,65752,6,0,P|425:13|371:50,1,152.999995330811,10|0,1:2|0:0,0:0:0:0:
283,54,66017,6,0,B|150:91|212:16|84:54,1,203.999993774414,12|0,0:0|1:0,0:0:0:0:
8,106,66415,2,0,B|-11:64|-11:64|2:-2,1,101.999996887207,2|8,0:0|0:0,0:0:0:0:
130,129,66681,2,0,B|149:171|149:171|136:237,1,101.999996887207,10|0,0:0|1:0,0:0:0:0:
0,303,66946,6,0,P|93:299|148:387,1,203.999993774414,10|8,0:0|0:0,0:0:0:0:
138,225,67345,2,0,B|119:183|119:183|132:117,1,101.999996887207,0|0,1:0|0:0,0:0:0:0:
279,0,67610,1,10,0:0:0:0:
226,189,67743,1,10,0:0:0:0:
173,18,67876,1,0,1:0:0:0:
352,97,68008,1,2,0:0:0:0:
226,189,68141,6,0,P|209:137|221:87,1,101.999996887207,12|0,0:0|0:0,0:0:0:0:
363,224,68407,2,0,P|387:175|431:148,1,101.999996887207,2|0,1:2|0:0,0:0:0:0:
288,302,68672,1,10,0:0:0:0:
288,302,68805,1,8,0:0:0:0:
169,315,68938,2,0,P|120:290|93:246,1,101.999996887207,2|0,1:2|0:0,0:0:0:0:
56,81,69203,5,4,1:2:0:0:
227,202,69336,1,8,0:0:0:0:
33,316,69469,1,8,0:0:0:0:
200,71,69601,5,4,1:2:0:0:
253,289,69734,1,8,0:0:0:0:
436,158,69867,1,8,0:0:0:0:
152,200,70000,5,0,1:0:0:0:
369,314,70132,1,8,0:0:0:0:
436,158,70265,6,0,B|487:94|446:16|446:16|395:62,1,203.999993774414,12|0,1:2|1:0,0:0:0:0:
402,235,70663,2,0,P|455:241|505:207,1,101.999996887207,2|8,0:0|0:0,0:0:0:0:
289,316,70929,2,0,P|236:310|186:344,1,101.999996887207,10|0,0:0|1:0,0:0:0:0:
389,336,71194,6,0,L|402:229,1,101.999996887207,2|12,0:0|0:0,0:0:0:0:
333,152,71460,1,8,0:0:0:0:
235,211,71592,2,0,P|219:176|232:100,1,101.999996887207,4|0,1:2|0:0,0:0:0:0:
333,152,71858,1,10,0:0:0:0:
149,202,71991,1,10,0:0:0:0:
214,17,72123,2,0,P|230:52|217:128,1,101.999996887207,0|2,1:0|0:0,0:0:0:0:
116,85,72389,6,0,L|8:73,1,101.999996887207,10|0,0:0|0:0,0:0:0:0:
149,202,72654,2,0,L|41:190,1,101.999996887207,2|0,1:2|0:0,0:0:0:0:
246,253,72920,2,0,L|354:241,1,101.999996887207,10|8,0:0|0:0,0:0:0:0:
213,370,73185,2,0,L|321:358,1,101.999996887207,2|0,1:2|0:0,0:0:0:0:
434,280,73451,6,0,P|435:210|342:146,1,152.999995330811,12|0,0:0|0:0,0:0:0:0:
344,157,73716,1,10,1:2:0:0:
441,34,73849,2,0,B|409:50|409:50|316:28,1,101.999996887207,12|0,0:0|0:0,0:0:0:0:
212,0,74115,1,8,0:0:0:0:
212,0,74181,1,8,0:0:0:0:
212,0,74247,2,0,B|190:88|240:55|216:164,1,152.999995330811,10|0,1:2|0:0,0:0:0:0:
215,185,74513,5,12,0:0:0:0:
6,57,74646,1,8,0:0:0:0:
215,185,74778,1,8,0:0:0:0:
9,232,74911,1,10,1:2:0:0:
12,252,75177,1,10,1:2:0:0:
13,272,75442,6,0,P|67:263|125:304,1,101.999996887207,12|0,0:0|0:0,0:0:0:0:
41,363,75707,1,10,0:0:0:0:
116,181,75840,1,0,1:0:0:0:
261,256,75973,2,0,L|378:236,1,101.999996887207,12|0,0:0|0:0,0:0:0:0:
482,102,76238,6,0,L|486:153,1,50.9999984436036,10|0,0:0|0:0,0:0:0:0:
429,348,76371,2,0,L|425:297,1,50.9999984436036,2|0,1:2|0:0,0:0:0:0:
326,110,76504,2,0,L|330:161,1,50.9999984436036,2|0,1:2|0:0,0:0:0:0:
328,341,76637,5,12,0:0:0:0:
279,356,76703,1,0,0:0:0:0:
230,343,76769,1,0,0:0:0:0:
195,308,76836,1,0,0:0:0:0:
166,266,76902,1,0,1:0:0:0:
117,252,76968,1,0,0:0:0:0:
68,265,77034,1,2,0:0:0:0:
33,300,77101,1,2,0:0:0:0:
26,352,77168,5,10,0:0:0:0:
77,325,77234,1,0,0:0:0:0:
115,280,77300,1,10,0:0:0:0:
130,225,77367,1,0,0:0:0:0:
123,167,77433,1,2,1:2:0:0:
92,117,77499,1,0,0:0:0:0:
46,84,77566,5,12,0:0:0:0:
46,84,78230,6,0,B|135:77|107:109|196:98,1,148.75,2|0,0:0|0:0,0:0:0:0:
267,117,78761,5,12,1:2:0:0:
248,8,78893,1,0,0:0:0:0:
267,117,79026,1,2,1:2:0:0:
248,8,79158,1,0,0:0:0:0:
361,141,79292,5,10,0:0:0:0:
342,32,79424,1,8,0:0:0:0:
361,141,79557,1,2,1:2:0:0:
342,32,79689,1,8,0:0:0:0:
415,206,79823,6,0,P|433:254|429:308,1,93.5000028533936,0|10,0:0|0:0,0:0:0:0:
311,246,80088,2,0,P|289:292|248:328,1,93.5000028533936,2|0,1:2|0:0,0:0:0:0:
202,221,80353,2,0,P|220:173|216:119,1,93.5000028533936,8|10,0:0|0:0,0:0:0:0:
98,181,80619,2,0,P|76:134|35:98,1,93.5000028533936,2|0,1:2|0:0,0:0:0:0:
11,272,80884,5,10,0:0:0:0:
129,260,81017,1,0,0:0:0:0:
11,272,81150,1,2,1:2:0:0:
129,260,81283,1,0,0:0:0:0:
66,362,81415,5,10,0:0:0:0:
184,374,81548,1,8,0:0:0:0:
66,362,81681,1,2,1:2:0:0:
184,374,81814,1,0,0:0:0:0:
150,169,81946,6,0,L|126:270,1,93.5000028533936,8|10,0:0|0:0,0:0:0:0:
241,103,82212,2,0,L|265:204,1,93.5000028533936,2|0,1:2|0:0,0:0:0:0:
376,183,82477,2,0,L|352:284,1,93.5000028533936,8|10,0:0|0:0,0:0:0:0:
467,117,82743,2,0,L|491:218,1,93.5000028533936,2|0,1:2|0:0,0:0:0:0:
253,295,83008,6,0,P|224:257|261:171,1,140.25000428009,12|0,0:0|0:0,0:0:0:0:
283,166,83274,2,0,L|395:186,1,93.5000028533936,2|0,1:2|0:0,0:0:0:0:
465,285,83539,1,10,0:0:0:0:
467,117,83672,1,8,0:0:0:0:
363,260,83805,1,2,1:2:0:0:
511,217,83938,1,8,0:0:0:0:
375,100,84070,6,0,P|329:90|276:68,1,93.5000028533936,0|10,0:0|0:0,0:0:0:0:
215,229,84336,2,0,P|246:194|292:159,1,93.5000028533936,2|0,1:2|0:0,0:0:0:0:
180,24,84601,2,0,P|194:68|201:125,1,93.5000028533936,8|10,0:0|0:0,0:0:0:0:
99,198,84867,2,0,L|-26:226,1,93.5000028533936,2|0,1:2|0:0,0:0:0:0:
100,107,85132,5,12,0:0:0:0:
56,284,85265,1,0,0:0:0:0:
3,90,85398,1,2,1:2:0:0:
99,198,85530,1,0,0:0:0:0:
211,141,85663,2,0,P|217:78|201:26,1,93.5000028533936,10|8,0:0|0:0,0:0:0:0:
100,107,85929,1,0,1:0:0:0:
181,222,86061,6,0,B|241:252|241:252|365:231,1,187.000005706787,12|8,0:0|0:0,0:0:0:0:
422,99,86460,1,10,0:0:0:0:
331,146,86592,1,8,0:0:0:0:
480,195,86725,1,10,0:0:0:0:
480,195,86858,1,10,0:0:0:0:
365,11,86991,1,2,1:2:0:0:
512,57,87123,1,2,0:0:0:0:
422,99,87256,6,0,P|386:70|369:12,1,93.5000028533936,12|0,1:2|0:0,0:0:0:0:
391,204,87522,2,0,P|434:187|492:201,1,93.5000028533936,2|0,1:2|0:0,0:0:0:0:
317,132,87787,2,0,P|309:177|268:221,1,93.5000028533936,10|8,0:0|0:0,0:0:0:0:
132,26,88053,2,0,L|241:29,1,93.5000028533936,2|8,1:2|0:0,0:0:0:0:
18,154,88318,6,0,P|6:106|22:45,1,93.5000028533936,2|0,0:0|0:0,0:0:0:0:
187,249,88584,2,0,P|229:223|261:169,1,93.5000028533936,0|0,1:0|0:0,0:0:0:0:
113,169,88849,2,0,P|138:126|192:94,1,93.5000028533936,10|8,0:0|0:0,0:0:0:0:
165,355,89115,2,0,P|213:367|274:351,1,93.5000028533936,0|0,1:0|0:0,0:0:0:0:
443,277,89380,5,10,0:0:0:0:
334,301,89513,1,0,0:0:0:0:
443,277,89646,1,2,1:2:0:0:
334,301,89779,1,0,0:0:0:0:
356,198,89911,5,10,0:0:0:0:
247,174,90044,1,8,0:0:0:0:
356,198,90177,1,2,1:2:0:0:
247,174,90310,1,8,0:0:0:0:
454,70,90442,6,0,L|474:171,1,93.5000028533936,2|0,0:0|0:0,0:0:0:0:
355,18,90707,2,0,L|335:119,1,93.5000028533936,0|0,1:0|0:0,0:0:0:0:
228,82,90973,2,0,L|248:183,1,93.5000028533936,10|8,0:0|0:0,0:0:0:0:
129,30,91238,2,0,L|109:131,1,93.5000028533936,0|0,1:0|0:0,0:0:0:0:
4,161,91504,5,12,0:0:0:0:
23,266,91637,1,0,0:0:0:0:
4,161,91769,1,2,1:2:0:0:
23,266,91902,1,0,0:0:0:0:
151,279,92035,5,10,0:0:0:0:
132,384,92168,1,8,0:0:0:0:
151,279,92300,1,2,1:2:0:0:
132,384,92433,1,8,0:0:0:0:
100,205,92566,6,0,L|192:190,1,93.5000028533936,2|0,0:0|0:0,0:0:0:0:
177,49,92831,2,0,L|84:34,1,93.5000028533936,0|0,1:0|0:0,0:0:0:0:
319,190,93097,2,0,L|412:205,1,93.5000028533936,10|8,0:0|0:0,0:0:0:0:
427,34,93362,2,0,L|335:49,1,93.5000028533936,0|0,1:0|0:0,0:0:0:0:
162,123,93628,5,12,0:0:0:0:
344,154,93761,1,0,0:0:0:0:
163,205,93893,5,12,0:3:0:0:
326,232,94026,1,0,0:0:0:0:
167,284,94159,5,4,0:3:0:0:
313,308,94292,1,0,0:0:0:0:
255,165,94424,1,0,1:0:0:0:
130,67,94557,6,0,P|106:136|149:208,1,140.25000428009,12|0,0:0|0:0,0:0:0:0:
163,205,94823,1,0,1:0:0:0:
350,104,94955,1,0,1:0:0:0:
234,26,95088,6,0,L|255:168,1,140.25000428009,12|0,0:0|0:0,0:0:0:0:
333,214,95353,2,0,L|391:225,1,46.7500014266968,8|8,0:0|0:0,0:0:0:0:
197,306,95486,2,0,L|139:317,1,46.7500014266968,8|0,0:0|0:0,0:0:0:0:
320,360,95619,2,0,L|378:371,1,46.7500014266968,10|0,0:0|0:0,0:0:0:0:
280,288,95752,5,12,0:0:0:0:
443,143,96017,1,2,0:0:0:0:
468,252,96283,1,0,1:0:0:0:
468,252,96415,2,0,L|478:174,1,68,2|0,0:0|0:0,0:0:0:0:
405,59,96681,6,0,P|342:86|265:81,1,136,10|0,0:0|0:0,0:0:0:0:
180,13,97079,1,8,0:0:0:0:
98,156,97345,2,0,L|16:166,1,68,0|10,1:0|0:0,0:0:0:0:
22,71,97610,2,0,L|89:62,1,68,0|2,0:0|0:0,0:0:0:0:
178,101,97876,5,8,0:0:0:0:
117,289,98141,1,2,0:0:0:0:
219,317,98274,1,8,0:0:0:0:
219,317,98407,2,0,L|232:394,2,68,0|2|0,1:0|0:0|0:0,0:0:0:0:
194,201,98805,6,0,P|244:217|328:176,1,136,10|0,0:0|0:0,0:0:0:0:
346,84,99203,1,8,0:0:0:0:
346,84,99336,1,2,0:0:0:0:
238,53,99469,2,0,L|247:132,1,68,0|8,1:0|0:0,0:0:0:0:
406,237,99734,2,0,L|398:169,1,68,8|8,0:0|0:0,0:0:0:0:
322,312,100000,5,12,0:0:0:0:
322,312,100265,1,2,0:0:0:0:
227,264,100530,1,0,1:0:0:0:
227,264,100663,2,0,L|247:349,1,68,10|0,0:0|0:0,0:0:0:0:
243,183,100929,6,0,B|163:169|192:220|94:204,1,136,10|0,0:0|0:0,0:0:0:0:
116,54,101327,1,8,0:0:0:0:
116,54,101592,2,0,L|131:148,1,68,0|10,1:0|0:0,0:0:0:0:
253,250,101858,2,0,L|242:182,1,68,0|2,0:0|0:0,0:0:0:0:
309,60,102123,5,8,0:0:0:0:
309,60,102389,1,2,0:0:0:0:
405,136,102522,1,8,0:0:0:0:
405,136,102654,2,0,L|474:129,2,68,0|10|0,1:0|0:0|0:0,0:0:0:0:
358,229,103053,6,0,L|506:219,1,136,12|2,0:0|0:0,0:0:0:0:
395,119,103451,1,8,0:0:0:0:
395,119,103584,1,2,0:0:0:0:
385,319,103716,1,8,0:0:0:0:
493,219,103849,1,8,0:0:0:0:
296,164,103982,1,10,0:0:0:0:
395,119,104115,1,10,0:0:0:0:
395,119,104380,1,8,0:0:0:0:
395,119,104446,1,8,0:0:0:0:
395,119,104513,6,0,P|381:76|381:36,1,76.4999976654053,12|0,0:0|0:0,0:0:0:0:
386,7,104778,6,0,L|292:16,1,76.4999976654053,4|0,0:1|0:0,0:0:0:0:
133,90,105043,2,0,L|209:97,1,76.4999976654053,0|0,1:0|0:0,0:0:0:0:
296,164,105308,1,10,0:0:0:0:
209,97,105441,1,8,0:0:0:0:
252,260,105574,1,0,1:0:0:0:
428,173,105707,6,0,P|359:136|295:164,1,152.999995330811,10|8,0:0|0:0,0:0:0:0:
311,317,106105,2,0,P|331:288|329:234,1,76.4999976654053,2|0,1:2|0:0,0:0:0:0:
161,121,106370,2,0,P|176:152|223:178,1,76.4999976654053,8|8,0:0|0:0,0:0:0:0:
242,50,106636,2,0,L|107:31,1,114.749996498108,2|0,1:2|0:0,0:0:0:0:
102,37,106901,6,0,P|47:96|66:179,1,170,8|0,0:0|1:0,0:0:0:0:
135,294,107300,2,0,P|146:261|128:208,1,85,2|8,0:0|0:0,0:0:0:0:
34,275,107565,1,10,0:0:0:0:
34,275,107698,1,0,1:0:0:0:
77,382,107831,6,0,L|248:361,1,170,10|8,0:0|0:0,0:0:0:0:
349,264,108229,1,2,1:3:0:0:
203,205,108362,1,0,0:0:0:0:
336,369,108494,2,0,L|437:376,1,85,8|8,0:0|0:0,0:0:0:0:
471,267,108760,2,0,P|439:229|357:258,1,127.5,0|0,1:0|0:0,0:0:0:0:
349,264,109025,6,0,L|335:161,1,85,8|0,0:0|0:0,0:0:0:0:
366,1,109291,2,0,L|377:85,1,85,2|0,1:2|0:0,0:0:0:0:
442,153,109556,1,10,0:0:0:0:
442,153,109689,1,8,0:0:0:0:
290,109,109822,1,0,1:0:0:0:
229,241,109954,6,0,B|197:195|197:195|206:74,1,170,10|8,0:0|0:0,0:0:0:0:
295,24,110353,2,0,L|289:118,1,85,2|0,1:2|0:0,0:0:0:0:
229,241,110618,1,8,0:0:0:0:
229,241,110751,1,8,0:0:0:0:
122,159,110884,2,0,L|131:20,1,127.5,2|0,1:2|0:0,0:0:0:0:
97,5,111149,6,0,P|58:6|21:30,1,85,10|0,0:0|0:0,0:0:0:0:
206,82,111415,2,0,P|245:81|282:57,1,85,0|2,1:0|0:0,0:0:0:0:
385,11,111680,1,10,0:0:0:0:
382,33,111746,1,2,0:0:0:0:
379,56,111812,1,10,0:0:0:0:
376,79,111879,1,2,0:0:0:0:
373,102,111946,2,0,L|363:166,1,42.5,2|0,1:2|0:0,0:0:0:0:
409,254,112078,6,0,P|351:236|261:237,1,127.5,12|0,0:0|0:0,0:0:0:0:
263,252,112344,1,10,0:0:0:0:
446,177,112477,1,10,0:0:0:0:
276,379,112609,6,0,L|261:229,1,127.5,4|0,1:2|0:0,0:0:0:0:
261,226,112875,1,10,0:0:0:0:
117,322,113008,1,2,1:2:0:0:
117,322,113140,1,0,0:0:0:0:
38,238,113273,6,0,P|60:178|167:165,1,152.999995330811,4|0,0:1|1:0,0:0:0:0:
261,226,113671,1,0,0:0:0:0:
152,245,113804,1,10,0:0:0:0:
210,66,113937,1,8,0:0:0:0:
152,245,114070,1,0,1:0:0:0:
267,313,114202,6,0,P|325:283|331:178,1,152.999995330811,10|8,0:0|0:0,0:0:0:0:
210,66,114601,2,0,L|113:87,1,76.4999976654053,2|0,1:2|0:0,0:0:0:0:
247,159,114866,1,8,0:0:0:0:
329,12,114999,1,8,0:0:0:0:
210,66,115131,1,2,1:2:0:0:
378,105,115264,1,0,0:0:0:0:
241,235,115397,6,0,L|248:139,1,76.4999976654053,10|0,0:0|0:0,0:0:0:0:
378,105,115662,1,0,1:0:0:0:
484,218,115795,1,10,0:0:0:0:
468,225,116061,1,2,0:0:0:0:
453,234,116326,6,0,B|432:113|432:113|482:153,1,152.999995330811,12|8,0:0|0:0,0:0:0:0:
364,294,116724,1,2,1:2:0:0:
364,294,116791,1,0,0:0:0:0:
364,294,116857,2,0,L|353:237,1,38.2499988327027,0|0,0:0|0:0,0:0:0:0:
332,148,116990,1,8,0:0:0:0:
268,357,117123,1,8,0:0:0:0:
268,357,117189,1,8,0:0:0:0:
268,357,117255,2,0,P|219:332|138:328,1,114.749996498108,2|0,1:2|0:0,0:0:0:0:
119,336,117521,6,0,P|139:250|120:158,1,152.999995330811,12|0,0:0|1:0,0:0:0:0:
12,90,117919,2,0,B|41:112|41:112|112:98,1,76.4999976654053,2|8,0:0|0:0,0:0:0:0:
253,63,118185,1,10,0:0:0:0:
138,8,118317,1,0,1:0:0:0:
212,163,118450,6,0,P|287:148|380:139,1,152.999995330811,12|8,0:0|0:0,0:0:0:0:
418,285,118848,2,0,P|387:253|362:210,1,76.4999976654053,2|0,1:2|0:0,0:0:0:0:
482,154,119114,2,0,L|470:212,1,38.2499988327027,10|0,0:0|0:0,0:0:0:0:
341,331,119247,1,8,0:0:0:0:
341,331,119313,1,0,0:0:0:0:
341,331,119379,2,0,P|288:309|204:296,1,114.749996498108,2|0,1:2|0:0,0:0:0:0:
194,305,119645,5,4,1:2:0:0:
114,143,119778,1,8,0:0:0:0:
51,248,119910,1,8,0:0:0:0:
221,112,120043,5,4,1:2:0:0:
29,70,120176,1,8,0:0:0:0:
151,228,120308,1,8,0:0:0:0:
230,13,120441,1,2,1:2:0:0:
259,229,120574,6,0,L|246:170,5,42.5,12|0|0|0|8|0,0:0|0:0|0:0|0:0|0:0|0:0,0:0:0:0:
206,299,120972,5,2,1:2:0:0:
244,315,121038,1,2,0:0:0:0:
286,309,121104,1,2,0:0:0:0:
318,282,121171,1,2,0:0:0:0:
346,249,121238,1,10,0:0:0:0:
384,232,121304,1,2,0:0:0:0:
426,238,121370,1,10,0:0:0:0:
458,265,121437,1,2,0:0:0:0:
474,304,121503,2,0,L|500:205,1,85,2|0,1:2|0:0,0:0:0:0:
496,61,121769,6,0,P|430:92|340:78,1,152.999995330811,4|2,0:1|0:0,0:0:0:0:
243,125,122167,1,8,0:0:0:0:
243,125,122300,2,0,P|230:87|233:49,2,76.4999976654053,2|0|2,1:2|0:0|0:0,0:0:0:0:
323,227,122698,6,0,P|246:214|178:263,1,152.999995330811,10|0,0:0|0:0,0:0:0:0:
256,384,123096,2,0,L|269:303,1,76.4999976654053,8|0,0:0|0:0,0:0:0:0:
111,298,123362,2,0,L|98:217,1,76.4999976654053,0|2,1:0|0:0,0:0:0:0:
211,105,123627,1,0,0:0:0:0:
211,105,123760,1,0,0:0:0:0:
208,239,123893,6,0,P|284:236|360:247,1,152.999995330811,10|0,0:0|0:0,0:0:0:0:
469,290,124291,2,0,P|457:252|462:194,1,76.4999976654053,10|0,0:0|1:0,0:0:0:0:
491,64,124556,2,0,P|503:102|498:160,1,76.4999976654053,2|0,0:0|0:0,0:0:0:0:
401,112,124822,6,0,L|244:97,1,152.999995330811,10|0,0:0|0:0,0:0:0:0:
176,158,125220,2,0,P|156:121|159:65,1,76.4999976654053,8|0,0:0|0:0,0:0:0:0:
248,97,125485,1,0,1:0:0:0:
248,97,125618,1,8,0:0:0:0:
238,233,125751,1,8,0:0:0:0:
238,233,125884,1,0,0:0:0:0:
100,181,126016,6,0,P|43:187|3:278,1,152.999995330811,10|2,0:0|0:0,0:0:0:0:
84,356,126415,2,0,L|178:338,1,76.4999976654053,8|2,0:0|1:2,0:0:0:0:
273,311,126680,2,0,L|367:329,1,76.4999976654053,0|0,0:0|0:0,0:0:0:0:
480,318,126946,6,0,P|504:248|461:162,1,152.999995330811,10|0,0:0|0:0,0:0:0:0:
323,227,127344,2,0,L|408:245,1,76.4999976654053,10|0,0:0|0:0,0:0:0:0:
432,75,127609,2,0,L|357:59,1,76.4999976654053,0|0,1:0|0:0,0:0:0:0:
249,122,127875,1,2,0:0:0:0:
249,122,128008,1,0,0:0:0:0:
122,144,128140,6,0,P|90:92|122:-14,2,152.999995330811,10|4|0,0:0|0:0|1:0,0:0:0:0:
249,122,128937,1,10,0:0:0:0:
218,222,129070,6,0,L|47:247,1,152.999995330811,12|8,0:0|0:0,0:0:0:0:
249,122,129468,1,0,1:0:0:0:
410,230,129733,6,0,P|433:195|432:149,2,50.9999984436036,10|8|8,1:2|0:0|0:0,0:0:0:0:
331,308,129999,2,0,P|308:273|309:227,2,50.9999984436036,10|10|10,1:2|0:0|0:0,0:0:0:0:
433,378,130264,6,0,P|388:356|251:379,1,170,12|0,0:0|1:0,0:0:0:0:
160,280,130662,2,0,P|144:234|149:189,1,85,2|8,0:0|0:0,0:0:0:0:
236,222,130928,1,10,0:0:0:0:
62,252,131061,1,0,1:0:0:0:
112,116,131193,6,0,B|176:108|176:108|211:122|211:122|299:109,1,170,10|8,0:0|0:0,0:0:0:0:
381,11,131592,2,0,P|339:9|283:29,1,85,0|0,1:0|0:0,0:0:0:0:
357,196,131857,1,10,0:0:0:0:
436,103,131990,1,8,0:0:0:0:
278,112,132123,2,0,L|259:246,1,127.5,2|0,1:2|0:0,0:0:0:0:
236,273,132388,6,0,P|281:270|332:288,1,85,12|0,0:0|0:0,0:0:0:0:
422,351,132654,1,0,1:0:0:0:
503,209,132786,1,10,0:0:0:0:
486,212,133052,1,10,0:0:0:0:
469,216,133317,6,0,B|424:176|424:176|402:49,1,170,12|8,0:0|0:0,0:0:0:0:
508,112,133716,1,0,1:0:0:0:
379,259,133848,1,2,0:0:0:0:
379,259,133915,1,2,0:0:0:0:
379,259,133981,1,10,0:0:0:0:
405,67,134114,1,8,0:0:0:0:
278,121,134247,2,0,L|145:105,1,127.5,0|0,1:0|0:0,0:0:0:0:
128,124,134512,6,0,P|113:81|124:35,1,85,12|0,0:0|0:0,0:0:0:0:
211,195,134778,2,0,P|226:238|215:284,1,85,0|2,1:0|0:0,0:0:0:0:
117,370,135043,1,8,0:0:0:0:
117,370,135176,1,10,0:0:0:0:
139,240,135308,1,0,1:0:0:0:
139,240,135375,1,0,0:0:0:0:
139,240,135441,6,0,L|330:218,1,170,10|8,0:0|0:0,0:0:0:0:
375,135,135839,2,0,P|338:116|279:115,1,85,2|0,1:2|0:0,0:0:0:0:
307,220,136105,1,10,0:0:0:0:
359,29,136238,1,8,0:0:0:0:
478,137,136370,2,0,L|497:221,1,85,2|0,1:2|0:0,0:0:0:0:
386,363,136636,6,0,L|395:257,1,85,12|0,0:0|0:0,0:0:0:0:
213,51,136901,2,0,L|205:135,1,85,4|0,1:2|0:0,0:0:0:0:
190,299,137167,1,10,0:0:0:0:
307,220,137300,1,10,0:0:0:0:
117,140,137432,1,0,1:0:0:0:
345,100,137565,6,0,L|334:283,1,170,4|10,1:2|0:0,0:0:0:0:
229,197,137963,1,10,0:0:0:0:
425,143,138096,1,10,0:0:0:0:
259,36,138229,1,10,0:0:0:0:
335,141,138362,6,0,L|348:85,1,42.5,10|0,0:0|0:0,0:0:0:0:
143,157,138494,2,0,L|130:101,1,42.5,10|0,0:0|0:0,0:0:0:0:
311,269,138627,2,0,L|324:213,1,42.5,10|0,0:0|0:0,0:0:0:0:
207,328,138760,5,2,1:2:0:0:
311,269,138892,2,0,L|432:284,1,85,0|0,0:0|0:0,0:0:0:0:
454,384,139158,5,2,0:0:0:0:
396,280,139291,2,0,L|411:159,1,85,0|0,0:0|0:0,0:0:0:0:
511,138,139556,5,2,0:0:0:0:
407,196,139689,2,0,L|286:181,1,85,0|0,0:0|0:0,0:0:0:0:
265,82,139954,5,2,0:0:0:0:
323,186,140087,2,0,L|308:307,1,85,0|2,0:0|0:0,0:0:0:0:
203,335,140286,1,2,0:0:0:0:
203,335,140353,6,0,L|212:276,1,46.7500014266968,2|0,1:2|0:0,0:0:0:0:
88,192,140485,1,8,0:0:0:0:
88,192,140552,1,10,0:0:0:0:
88,192,140618,2,0,P|139:209|193:141,1,140.25000428009,10|0,1:2|0:0,0:0:0:0:
203,117,140884,6,0,B|130:74|69:63|69:63|6:112,1,203.999993774414,12|0,1:2|1:0,0:0:0:0:
220,25,141282,1,2,0:0:0:0:
262,181,141415,2,0,L|272:317,1,101.999996887207,8|10,0:0|0:0,0:0:0:0:
203,117,141680,1,0,1:0:0:0:
363,194,141813,6,0,P|444:200|513:99,1,203.999993774414,2|8,0:0|0:0,0:0:0:0:
392,0,142211,2,0,P|384:48|385:113,1,101.999996887207,2|0,1:2|0:0,0:0:0:0:
298,257,142477,1,10,0:0:0:0:
203,117,142609,1,10,0:0:0:0:
110,248,142742,2,0,P|66:243|-10:215,1,101.999996887207,0|2,1:0|0:0,0:0:0:0:
106,37,143008,6,0,P|117:95|104:139,1,101.999996887207,10|0,0:0|0:0,0:0:0:0:
243,345,143273,2,0,P|232:287|245:243,1,101.999996887207,2|0,1:2|0:0,0:0:0:0:
313,145,143539,2,0,B|260:156|260:156|214:140,1,101.999996887207,10|8,0:0|0:0,0:0:0:0:
6,243,143804,2,0,B|59:232|59:232|105:248,1,101.999996887207,2|0,1:2|0:0,0:0:0:0:
153,319,144070,6,0,P|185:275|152:176,1,152.999995330811,12|0,0:0|0:0,0:0:0:0:
133,164,144335,1,10,1:2:0:0:
70,355,144468,2,0,L|182:368,1,101.999996887207,12|0,0:0|0:0,0:0:0:0:
348,326,144733,1,8,0:0:0:0:
348,326,144800,1,8,0:0:0:0:
348,326,144866,2,0,P|353:258|414:288,1,152.999995330811,10|0,1:2|0:0,0:0:0:0:
434,308,145131,6,0,B|476:279|476:279|483:124,1,203.999993774414,12|0,0:0|1:0,0:0:0:0:
370,16,145530,2,0,P|370:66|394:115,1,101.999996887207,2|8,0:0|0:0,0:0:0:0:
303,225,145795,2,0,P|303:175|279:126,1,101.999996887207,10|0,0:0|1:0,0:0:0:0:
153,330,146061,6,0,L|359:298,1,203.999993774414,10|8,0:0|0:0,0:0:0:0:
178,247,146459,1,0,1:0:0:0:
178,247,146592,1,0,0:0:0:0:
268,384,146724,1,10,0:0:0:0:
303,225,146857,1,10,0:0:0:0:
153,330,146990,1,0,1:0:0:0:
354,298,147123,1,2,0:0:0:0:
166,158,147255,6,0,P|124:149|65:154,1,101.999996887207,12|0,0:0|0:0,0:0:0:0:
154,73,147521,2,0,P|130:36|85:-1,1,101.999996887207,2|0,1:2|0:0,0:0:0:0:
346,158,147786,2,0,P|388:149|447:154,1,101.999996887207,10|8,0:0|0:0,0:0:0:0:
358,73,148052,2,0,P|381:36|426:-1,1,101.999996887207,2|0,1:2|0:0,0:0:0:0:
309,275,148317,5,4,1:2:0:0:
103,84,148450,1,8,0:0:0:0:
346,158,148583,1,8,0:0:0:0:
159,288,148716,5,4,1:2:0:0:
203,44,148848,1,8,0:0:0:0:
309,275,148981,1,8,0:0:0:0:
81,164,149114,5,0,1:0:0:0:
358,73,149247,1,8,0:0:0:0:
203,44,149379,6,0,B|170:76|165:118|165:118|196:172|185:251,1,203.999993774414,12|0,1:2|1:0,0:0:0:0:
81,164,149778,2,0,P|70:113|47:67,1,101.999996887207,2|8,0:0|0:0,0:0:0:0:
280,249,150043,2,0,P|291:198|314:152,1,101.999996887207,10|0,0:0|1:0,0:0:0:0:
395,331,150308,6,0,B|349:353|349:353|296:341,1,101.999996887207,2|12,0:0|0:0,0:0:0:0:
280,249,150574,1,8,0:0:0:0:
402,241,150707,2,0,P|444:257|481:312,1,101.999996887207,4|0,1:2|0:0,0:0:0:0:
299,341,150972,1,10,0:0:0:0:
345,161,151105,1,10,0:0:0:0:
217,189,151238,2,0,L|60:202,1,152.999995330811,0|0,1:0|0:0,0:0:0:0:
40,228,151503,6,0,P|47:184|26:117,1,101.999996887207,10|0,0:0|0:0,0:0:0:0:
153,12,151769,2,0,P|146:56|167:123,1,101.999996887207,2|0,1:2|0:0,0:0:0:0:
226,225,152034,2,0,L|361:240,1,101.999996887207,10|8,0:0|0:0,0:0:0:0:
360,70,152300,2,0,L|258:58,1,101.999996887207,2|0,1:2|0:0,0:0:0:0:
430,205,152565,6,0,P|466:172|465:73,1,152.999995330811,12|0,0:0|0:0,0:0:0:0:
443,45,152831,1,10,1:2:0:0:
226,113,152963,2,0,P|195:168|216:231,1,101.999996887207,12|0,0:0|0:0,0:0:0:0:
430,205,153229,1,8,0:0:0:0:
430,205,153295,1,8,0:0:0:0:
430,205,153362,2,0,L|272:181,1,152.999995330811,10|0,1:2|0:0,0:0:0:0:
228,175,153627,5,12,0:0:0:0:
355,69,153760,1,8,0:0:0:0:
302,277,153893,1,8,0:0:0:0:
148,111,154025,1,10,1:2:0:0:
142,127,154291,1,10,1:2:0:0:
137,143,154556,6,0,L|298:125,1,152.999995330811,12|0,0:0|0:0,0:0:0:0:
324,122,154822,1,10,0:0:0:0:
218,31,154954,1,0,1:0:0:0:
361,199,155087,2,0,P|392:176|393:85,1,101.999996887207,12|0,0:0|0:0,0:0:0:0:
381,0,155353,6,0,L|364:51,1,50.9999984436036,10|0,0:0|0:0,0:0:0:0:
490,150,155485,2,0,L|507:201,1,50.9999984436036,2|0,1:2|0:0,0:0:0:0:
408,285,155618,2,0,L|391:336,1,50.9999984436036,2|0,1:2|0:0,0:0:0:0:
252,357,155751,5,12,0:0:0:0:
224,315,155817,1,0,0:0:0:0:
220,264,155883,1,0,0:0:0:0:
243,219,155950,1,0,0:0:0:0:
280,184,156017,1,0,1:0:0:0:
307,142,156083,1,0,0:0:0:0:
311,91,156150,1,2,0:0:0:0:
288,46,156216,1,2,0:0:0:0:
253,8,156282,5,10,0:0:0:0:
253,65,156348,1,0,0:0:0:0:
277,116,156414,1,10,0:0:0:0:
321,153,156481,1,0,0:0:0:0:
376,168,156547,1,2,1:2:0:0:
433,158,156613,1,0,0:0:0:0:
479,126,156680,5,12,0:0:0:0:
479,126,157278,6,0,B|474:201|474:201|450:238|450:238|444:316,1,191.25,2|6,0:0|0:0,0:0:0:0:
54,198,166370,6,0,L|162:179,1,85,4|0,1:0|0:0,0:0:0:0:
230,164,166636,1,0,0:0:0:0:
230,164,166769,1,8,0:0:0:0:
163,21,166901,2,0,B|143:51|143:51|160:116,1,85,2|0,1:2|0:0,0:0:0:0:
230,164,167167,1,8,0:0:0:0:
300,89,167300,1,8,0:0:0:0:
300,89,167366,1,8,0:0:0:0:
300,89,167432,6,0,L|474:70,1,170,10|8,0:0|0:0,0:0:0:0:
327,174,167831,1,0,0:0:0:0:
327,174,167897,1,0,0:0:0:0:
327,174,167963,1,2,0:0:0:0:
336,8,168096,1,8,0:0:0:0:
327,174,168229,1,0,1:0:0:0:
223,41,168494,6,0,P|209:81|227:136,1,85,10|0,0:0|0:0,0:0:0:0:
327,174,168760,1,0,0:0:0:0:
327,174,168893,1,8,0:0:0:0:
274,268,169025,2,0,L|182:263,1,85,2|0,1:2|0:0,0:0:0:0:
53,326,169291,2,0,L|137:330,1,85,0|8,0:0|0:0,0:0:0:0:
189,263,169490,1,8,0:0:0:0:
189,263,169556,6,0,P|205:225|179:162,1,85,10|8,0:0|0:0,0:0:0:0:
116,218,169822,1,2,0:0:0:0:
144,105,169954,1,8,0:0:0:0:
144,105,170021,1,8,0:0:0:0:
144,105,170087,1,10,0:0:0:0:
59,143,170220,1,8,0:0:0:0:
196,183,170353,2,0,L|329:158,1,127.5,2|0,1:2|0:0,0:0:0:0:
395,140,170618,6,0,P|398:99|373:52,1,85,10|0,0:0|0:0,0:0:0:0:
223,235,170884,2,0,P|190:211|170:161,1,85,0|8,0:0|0:0,0:0:0:0:
468,187,171149,2,0,P|491:154|495:100,1,85,2|0,1:2|0:0,0:0:0:0:
279,168,171415,2,0,P|262:131|272:78,1,85,8|8,0:0|0:0,0:0:0:0:
388,252,171614,1,8,0:0:0:0:
388,252,171680,6,0,L|284:244,1,85,10|0,0:0|0:0,0:0:0:0:
168,342,171946,2,0,L|252:348,1,85,8|0,0:0|0:0,0:0:0:0:
282,351,172145,1,0,0:0:0:0:
282,351,172211,1,2,0:0:0:0:
229,253,172344,1,8,0:0:0:0:
81,297,172477,2,0,B|56:258|56:258|71:157,1,127.5,0|0,1:0|0:0,0:0:0:0:
31,104,172742,6,0,P|74:98|126:125,1,85,10|0,0:0|0:0,0:0:0:0:
167,0,173008,2,0,P|201:26|219:82,1,85,0|8,0:0|0:0,0:0:0:0:
326,39,173273,2,0,P|332:82|305:134,1,85,2|0,1:2|0:0,0:0:0:0:
200,164,173539,1,0,0:0:0:0:
320,231,173671,1,8,0:0:0:0:
320,231,173738,1,8,0:0:0:0:
320,231,173804,6,0,L|415:218,2,85,10|8|2,0:0|0:0|0:0,0:0:0:0:
266,339,174202,1,8,0:0:0:0:
266,339,174269,1,8,0:0:0:0:
266,339,174335,1,10,0:0:0:0:
320,231,174468,1,8,0:0:0:0:
350,377,174601,1,2,1:2:0:0:
229,254,174866,6,0,L|219:156,1,85,4|0,1:0|0:0,0:0:0:0:
298,15,175131,2,0,L|306:99,1,85,0|8,0:0|0:0,0:0:0:0:
320,231,175397,1,2,1:2:0:0:
397,152,175530,1,0,0:0:0:0:
397,152,175662,1,8,0:0:0:0:
420,256,175795,1,8,0:0:0:0:
420,256,175862,1,8,0:0:0:0:
420,256,175928,6,0,L|512:244,1,85,10|0,0:0|0:0,0:0:0:0:
460,339,176193,2,0,L|375:349,1,85,8|0,0:0|0:0,0:0:0:0:
346,356,176393,1,0,0:0:0:0:
346,356,176459,1,2,0:0:0:0:
297,214,176592,1,8,0:0:0:0:
189,314,176724,2,0,B|98:301|98:301|131:338,1,127.5,0|0,1:0|0:0,0:0:0:0:
250,367,176990,6,0,P|268:330|261:278,1,85,10|0,0:0|0:0,0:0:0:0:
184,202,177255,1,0,0:0:0:0:
184,202,177388,1,8,0:0:0:0:
189,314,177521,1,2,1:2:0:0:
297,214,177654,1,0,0:0:0:0:
382,291,177786,2,0,L|478:277,1,85,0|8,0:0|0:0,0:0:0:0:
470,165,177985,1,8,0:0:0:0:
470,165,178052,6,0,L|385:177,1,85,10|8,0:0|0:0,0:0:0:0:
265,121,178317,1,2,0:0:0:0:
363,92,178450,1,8,0:0:0:0:
363,92,178516,1,8,0:0:0:0:
363,92,178583,1,10,0:0:0:0:
297,214,178716,1,8,0:0:0:0:
191,170,178848,2,0,P|174:124|212:48,1,127.5,2|0,1:2|0:0,0:0:0:0:
227,36,179114,6,0,L|138:22,1,85,10|0,0:0|0:0,0:0:0:0:
4,95,179379,2,0,L|87:108,1,85,0|8,0:0|0:0,0:0:0:0:
191,170,179645,1,2,1:2:0:0:
119,254,179778,1,0,0:0:0:0:
202,335,179910,2,0,L|208:286,3,42.5,0|0|8|8,0:0|0:0|0:0|0:0,0:0:0:0:
281,366,180176,6,0,L|292:261,2,85,10|0|8,0:0|0:0|0:0,0:0:0:0:
371,273,180574,1,0,0:0:0:0:
371,273,180640,1,0,0:0:0:0:
371,273,180707,1,2,0:0:0:0:
295,196,180839,1,8,0:0:0:0:
358,108,180972,2,0,L|491:86,1,127.5,0|0,1:0|0:0,0:0:0:0:
502,63,181238,6,0,L|318:94,1,170,10|0,0:0|0:0,0:0:0:0:
243,26,181636,1,8,0:0:0:0:
186,160,181769,2,0,L|171:70,1,85,2|0,1:2|0:0,0:0:0:0:
43,27,182034,2,0,L|56:110,1,85,8|8,0:0|0:0,0:0:0:0:
62,140,182233,1,8,0:0:0:0:
62,140,182300,5,10,0:0:0:0:
172,76,182432,1,0,0:0:0:0:
106,259,182565,1,0,1:0:0:0:
186,160,182698,1,8,0:0:0:0:
186,160,182764,1,8,0:0:0:0:
186,160,182831,1,8,0:0:0:0:
9,221,182963,1,8,1:2:0:0:
140,348,183096,1,0,1:0:0:0:
165,343,183162,1,0,1:0:0:0:
190,338,183228,1,0,1:0:0:0:
215,333,183295,1,0,1:0:0:0:
236,329,183362,6,0,B|381:298|381:298|342:358,1,191.250007295609,4|0,1:0|0:0,0:0:0:0:
357,334,183627,1,0,1:0:0:0:
130,215,183760,6,0,B|-15:184|-15:184|24:244,1,191.250007295609,4|0,1:0|0:0,0:0:0:0:
8,220,184025,1,0,1:0:0:0:
247,104,184158,6,0,B|392:73|392:73|353:133,1,191.250007295609,4|0,1:0|0:0,0:0:0:0:
368,109,184423,1,0,1:0:0:0:
256,202,184556,5,0,1:0:0:0:
298,14,184689,1,2,1:2:0:0:
394,254,184822,1,0,1:0:0:0:
509,129,184954,5,2,1:2:0:0:
368,109,185087,1,2,1:2:0:0:
482,214,185220,1,2,1:2:0:0:
510,40,185353,1,2,1:2:0:0:
307,175,185485,6,0,P|278:113|345:22,1,191.250007295609,4|0,1:0|0:0,0:0:0:0:
343,22,185751,1,0,1:0:0:0:
398,203,185884,6,0,P|358:259|246:246,1,191.250007295609,4|0,1:0|0:0,0:0:0:0:
247,247,186150,1,0,1:0:0:0:
21,146,186282,6,0,B|92:107|172:134|172:134|143:174,1,191.250007295609,4|0,1:0|0:0,0:0:0:0:
151,162,186547,1,0,1:0:0:0:
72,49,186680,5,0,1:0:0:0:
267,40,186813,1,2,1:2:0:0:
82,208,186946,1,2,1:2:0:0:
247,247,187078,1,2,1:2:0:0:
247,247,187211,6,0,B|272:196|256:149|256:149|227:187,1,136,4|8,1:0|0:0,0:0:0:0:
201,323,187543,1,8,0:0:0:0:
201,323,187609,6,0,B|258:343|296:321|296:321|334:300|406:316,1,191.250007295609,4|0,1:0|0:0,0:0:0:0:
387,312,187875,1,0,1:0:0:0:
512,192,188008,6,0,B|455:212|417:190|417:190|379:169|307:185,1,191.250007295609,4|0,1:0|0:0,0:0:0:0:
325,181,188274,1,0,1:0:0:0:
419,10,188406,6,0,B|485:-5|485:-5|464:121,1,191.250007295609,4|0,1:0|0:0,0:0:0:0:
464,116,188671,1,0,1:0:0:0:
207,45,188804,5,0,1:0:0:0:
382,100,188937,1,2,1:2:0:0:
250,215,189070,1,0,1:0:0:0:
301,22,189202,5,2,1:2:0:0:
377,266,189335,1,2,1:2:0:0:
464,116,189468,1,2,1:2:0:0:
250,215,189601,1,2,1:2:0:0:
382,100,189733,6,0,B|390:163|390:163|370:193,1,93.5000028533936,4|0,1:2|0:0,0:0:0:0:
241,302,189999,2,0,B|233:239|233:239|253:209,1,93.5000028533936,0|0,1:0|0:0,0:0:0:0:
377,266,190264,1,10,0:0:0:0:
318,364,190397,1,8,0:0:0:0:
295,143,190530,1,0,1:0:0:0:
144,253,190662,6,0,B|5:269|5:269|65:291,1,187.000005706787,10|8,0:0|0:0,0:0:0:0:
150,168,191061,2,0,P|151:123|119:77,1,93.5000028533936,2|0,1:2|0:0,0:0:0:0:
272,115,191326,2,0,P|261:159|228:192,1,93.5000028533936,8|8,0:0|0:0,0:0:0:0:
268,271,191592,2,0,P|314:271|353:247,1,93.5000028533936,2|0,1:2|0:0,0:0:0:0:
465,119,191857,6,0,L|473:221,1,93.5000028533936,12|0,1:2|0:0,0:0:0:0:
268,271,192123,2,0,L|275:364,1,93.5000028533936,12|0,1:2|0:0,0:0:0:0:
376,198,192388,1,8,0:0:0:0:
189,237,192521,1,8,0:0:0:0:
371,342,192654,1,2,1:2:0:0:
241,144,192786,6,0,L|50:110,1,187.000005706787,4|2,1:2|1:2,0:0:0:0:
25,101,193118,1,2,0:0:0:0:
25,101,193185,1,2,1:2:0:0:
109,30,193317,1,2,1:2:0:0:
71,207,193450,1,2,1:2:0:0:
207,7,193583,1,2,1:2:0:0:
161,262,193716,1,2,1:2:0:0:
241,144,193848,1,2,1:2:0:0:
137,345,193981,6,0,B|93:286|132:216|132:216|165:268,1,191.250007295609,4|0,1:2|0:0,0:0:0:0:
270,360,194247,6,0,B|324:370|324:370|392:343,1,110.499994941712,4|0,1:2|0:0,0:0:0:0:
309,227,194446,1,0,1:0:0:0:
309,227,194512,2,0,L|319:304,1,55.2499974708558,0|0,1:0|0:0,0:0:0:0:
398,245,194645,6,0,B|386:180|386:180|348:135|348:135|336:64,1,191.250007295609,4|0,1:2|0:0,0:0:0:0:
428,85,194910,1,12,1:2:0:0:
256,192,194977,12,2,196105,0:0:0:0:
74,98,204601,5,2,0:0:0:0:
157,208,205264,2,0,L|170:153,2,42.5,0|0|0,0:0|0:0|0:0,0:0:0:0:
138,291,205662,1,2,0:0:0:0:
138,291,206193,6,0,L|188:282,1,42.5,0|0,0:0|0:0,0:0:0:0:
249,333,206459,2,0,L|299:342,1,42.5,0|0,0:0|0:0,0:0:0:0:
366,301,206724,1,2,0:0:0:0:
366,301,207388,6,0,L|374:347,2,42.5,0|0|0,0:0|0:0|0:0,0:0:0:0:
351,217,207786,1,2,0:0:0:0:
351,217,208185,1,2,0:0:0:0:
134,111,208848,5,2,0:0:0:0:
134,111,209247,1,2,0:0:0:0:
147,310,209778,5,2,0:0:0:0:
134,111,210308,1,2,0:0:0:0:
134,111,210972,6,0,B|322:74|234:179|430:142,1,297.5,2|4,0:0|0:0,0:0:0:0:
440,144,212698,6,0,L|427:208,1,46.7500014266968,8|8,0:0|0:0,0:0:0:0:
435,346,212831,2,0,P|390:293|290:298,1,140.25000428009,8|0,1:2|0:0,0:0:0:0:
295,305,213096,6,0,B|252:188|324:229|289:96,1,203.999993774414,12|0,1:2|1:0,0:0:0:0:
107,174,213494,2,0,L|216:162,1,101.999996887207,2|8,0:0|0:0,0:0:0:0:
474,262,213760,2,0,L|365:250,1,101.999996887207,10|0,0:0|1:0,0:0:0:0:
278,20,214025,6,0,P|342:25|363:150,1,203.999993774414,2|8,0:0|0:0,0:0:0:0:
224,263,214424,2,0,P|218:217|206:151,1,101.999996887207,2|0,1:2|0:0,0:0:0:0:
16,88,214689,1,10,0:0:0:0:
110,236,214822,1,10,0:0:0:0:
144,119,214954,2,0,B|162:65|129:11|129:11|96:63,1,152.999995330811,0|0,1:0|0:0,0:0:0:0:
107,44,215220,6,0,L|221:28,1,101.999996887207,10|0,0:0|0:0,0:0:0:0:
358,96,215485,2,0,P|337:48|351:-11,1,101.999996887207,2|0,1:2|0:0,0:0:0:0:
484,155,215751,1,10,0:0:0:0:
428,39,215884,1,8,0:0:0:0:
387,252,216016,2,0,L|514:226,1,101.999996887207,2|0,1:2|0:0,0:0:0:0:
345,170,216282,6,0,P|304:215|330:323,1,152.999995330811,12|0,0:0|0:0,0:0:0:0:
336,326,216547,1,10,1:2:0:0:
475,377,216680,2,0,L|488:269,1,101.999996887207,12|0,0:0|0:0,0:0:0:0:
506,125,216946,1,8,0:0:0:0:
506,125,217012,1,8,0:0:0:0:
506,125,217078,2,0,P|456:147|512:147,1,152.999995330811,10|0,1:2|0:0,0:0:0:0:
494,30,217344,6,0,B|356:42|443:102|282:111,1,203.999993774414,12|0,0:0|1:0,0:0:0:0:
156,21,217742,2,0,B|208:8|208:8|260:33,1,101.999996887207,2|8,0:0|0:0,0:0:0:0:
243,183,218008,2,0,B|191:196|191:196|139:171,1,101.999996887207,10|0,0:0|1:0,0:0:0:0:
312,108,218273,6,0,L|327:320,1,203.999993774414,14|8,0:0|0:0,0:0:0:0:
428,375,218671,1,0,1:0:0:0:
428,375,218804,1,0,0:0:0:0:
399,191,218937,1,10,0:0:0:0:
236,313,219070,1,10,0:0:0:0:
459,287,219202,1,0,1:0:0:0:
459,287,219335,1,2,0:0:0:0:
445,112,219468,6,0,P|394:101|340:121,1,101.999996887207,12|0,0:0|0:0,0:0:0:0:
182,195,219733,2,0,P|132:206|84:191,1,101.999996887207,2|0,1:2|0:0,0:0:0:0:
28,90,219999,1,10,0:0:0:0:
28,90,220131,1,8,0:0:0:0:
152,17,220264,2,0,L|135:126,1,101.999996887207,2|0,1:2|0:0,0:0:0:0:
101,293,220530,5,4,1:2:0:0:
389,238,220662,1,8,0:0:0:0:
217,374,220795,1,8,0:0:0:0:
195,142,220928,5,4,1:2:0:0:
332,293,221061,1,8,0:0:0:0:
375,40,221193,1,8,0:0:0:0:
237,240,221326,5,0,1:0:0:0:
473,179,221459,1,8,0:0:0:0:
375,40,221592,6,0,B|423:176|345:113|397:261,1,203.999993774414,12|0,1:2|1:0,0:0:0:0:
481,372,221990,2,0,P|505:329|486:265,1,101.999996887207,2|8,0:0|0:0,0:0:0:0:
286,120,222255,2,0,P|262:163|281:227,1,101.999996887207,10|0,0:0|1:0,0:0:0:0:
345,333,222521,6,0,L|245:352,1,101.999996887207,2|12,0:0|0:0,0:0:0:0:
82,294,222786,1,8,0:0:0:0:
170,125,222919,2,0,P|193:179|175:229,1,101.999996887207,4|0,1:2|0:0,0:0:0:0:
82,294,223185,1,10,0:0:0:0:
8,151,223317,1,10,0:0:0:0:
182,218,223450,2,0,L|334:185,1,152.999995330811,0|0,1:0|0:0,0:0:0:0:
367,180,223716,6,0,P|360:132|308:90,1,101.999996887207,10|0,0:0|0:0,0:0:0:0:
454,264,223981,2,0,P|482:225|475:158,1,101.999996887207,2|0,1:2|0:0,0:0:0:0:
301,316,224247,1,10,0:0:0:0:
439,378,224379,1,8,0:0:0:0:
304,230,224512,2,0,P|249:251|231:358,1,152.999995330811,2|0,1:2|0:0,0:0:0:0:
197,361,224778,6,0,L|175:195,1,152.999995330811,12|0,0:0|0:0,0:0:0:0:
174,173,225043,1,10,1:2:0:0:
29,65,225176,2,0,L|45:191,1,101.999996887207,12|0,0:0|0:0,0:0:0:0:
12,294,225441,1,8,0:0:0:0:
12,294,225508,1,8,0:0:0:0:
12,294,225574,2,0,B|107:263|63:328|176:292,1,152.999995330811,10|0,1:2|0:0,0:0:0:0:
191,281,225839,5,12,0:0:0:0:
398,216,225972,1,8,0:0:0:0:
308,362,226105,1,8,0:0:0:0:
248,95,226238,1,10,1:2:0:0:
239,113,226503,1,10,1:2:0:0:
229,131,226769,6,0,L|365:112,1,101.999996887207,12|0,0:0|0:0,0:0:0:0:
198,292,227034,1,10,0:0:0:0:
82,172,227167,1,0,1:0:0:0:
276,239,227300,2,0,P|293:297|274:354,1,101.999996887207,12|0,0:0|0:0,0:0:0:0:
104,366,227565,6,0,L|94:299,1,50.9999984436036,10|0,0:0|0:0,0:0:0:0:
185,198,227698,2,0,L|195:131,1,50.9999984436036,2|0,1:2|0:0,0:0:0:0:
10,81,227831,2,0,L|0:14,1,50.9999984436036,2|0,1:2|0:0,0:0:0:0:
135,85,227963,5,12,0:0:0:0:
180,63,228029,1,0,0:0:0:0:
229,71,228095,1,0,0:0:0:0:
265,107,228162,1,0,0:0:0:0:
297,147,228229,1,0,1:0:0:0:
342,168,228295,1,0,0:0:0:0:
391,160,228361,1,2,0:0:0:0:
427,124,228428,1,10,0:0:0:0:
441,75,228494,5,10,0:0:0:0:
404,115,228560,1,0,0:0:0:0:
393,170,228626,1,10,0:0:0:0:
412,222,228693,1,0,0:0:0:0:
456,257,228760,1,10,1:2:0:0:
483,304,228826,1,8,0:2:0:0:
477,360,228893,5,12,1:2:0:0:
477,360,229556,5,2,1:2:0:0:
169,247,229688,1,2,1:2:0:0:
169,247,229954,6,0,P|237:222|330:292,1,187.000005706787,12|8,1:2|0:0,0:0:0:0:
129,332,230353,2,0,P|94:299|80:230,1,93.5000028533936,2|0,1:2|0:0,0:0:0:0:
171,146,230618,1,10,0:0:0:0:
171,146,230751,1,8,0:0:0:0:
239,311,230884,1,0,1:0:0:0:
357,184,231016,6,0,B|496:145|496:145|463:192,1,187.000005706787,10|8,0:0|0:0,0:0:0:0:
266,143,231415,2,0,P|253:97|253:41,1,93.5000028533936,2|0,1:2|0:0,0:0:0:0:
457,271,231680,2,0,P|470:225|470:169,1,93.5000028533936,10|8,0:0|0:0,0:0:0:0:
357,184,231946,1,0,1:0:0:0:
312,288,232078,6,0,L|118:305,1,187.000005706787,10|8,0:0|0:0,0:0:0:0:
354,369,232477,2,0,P|390:335|399:283,1,93.5000028533936,2|0,1:2|0:0,0:0:0:0:
235,181,232742,1,10,0:0:0:0:
312,288,232875,1,10,0:0:0:0:
345,139,233008,1,0,1:0:0:0:
176,239,233140,6,0,P|152:193|205:104,1,140.25000428009,12|0,1:2|0:0,0:0:0:0:
228,103,233406,1,12,0:0:0:0:
433,190,233539,1,8,0:0:0:0:
331,0,233671,2,0,L|347:152,1,140.25000428009,12|0,1:2|0:0,0:0:0:0:
433,190,233937,2,0,L|487:180,1,46.7500014266968,8|0,0:0|0:0,0:0:0:0:
512,68,234070,2,0,L|466:76,1,46.7500014266968,0|0,1:0|0:0,0:0:0:0:
362,243,234202,6,0,B|245:271|294:194|156:228,1,187.000005706787,12|8,0:0|0:0,0:0:0:0:
197,384,234601,2,0,P|223:344|198:276,1,93.5000028533936,2|0,1:2|0:0,0:0:0:0:
21,214,234866,1,10,0:0:0:0:
118,318,234999,1,10,0:0:0:0:
135,108,235131,1,0,1:0:0:0:
21,214,235264,6,0,B|75:242|75:242|202:218,1,187.000005706787,10|8,0:0|0:0,0:0:0:0:
222,74,235662,1,0,1:0:0:0:
67,57,235795,2,0,P|51:116|78:174,1,93.5000028533936,2|8,0:0|0:0,0:0:0:0:
267,270,236061,2,0,P|283:211|256:153,1,93.5000028533936,10|0,0:0|1:0,0:0:0:0:
222,74,236326,6,0,B|295:62|295:62|333:76|333:76|412:62,1,187.000005706787,12|8,0:0|0:0,0:0:0:0:
501,176,236724,2,0,P|514:131|504:86,1,93.5000028533936,2|0,1:2|0:0,0:0:0:0:
350,227,236990,1,10,0:0:0:0:
485,270,237123,1,8,0:0:0:0:
306,147,237255,1,0,1:0:0:0:
222,342,237388,6,0,L|413:328,1,187.000005706787,14|12,1:2|0:0,0:0:0:0:
501,176,237786,1,0,1:0:0:0:
374,72,237919,1,10,0:0:0:0:
374,72,237985,1,8,0:0:0:0:
374,72,238052,2,0,L|384:131,1,46.7500014266968,8|0,0:0|0:0,0:0:0:0:
407,253,238185,1,2,1:2:0:0:
407,253,238450,6,0,P|332:213|234:258,1,187.000005706787,12|8,1:2|0:0,0:0:0:0:
91,360,238848,2,0,L|73:258,1,93.5000028533936,2|0,1:2|0:0,0:0:0:0:
172,124,239114,1,10,0:0:0:0:
172,124,239247,1,10,0:0:0:0:
168,305,239379,1,2,1:2:0:0:
32,196,239512,6,0,B|150:170|98:230|217:206,1,187.000005706787,10|8,0:0|0:0,0:0:0:0:
355,259,239910,2,0,L|359:197,1,46.7500014266968,2|0,1:2|0:0,0:0:0:0:
365,97,240043,1,0,0:0:0:0:
224,368,240176,2,0,L|220:306,1,46.7500014266968,10|0,0:0|0:0,0:0:0:0:
214,206,240309,1,8,0:0:0:0:
369,336,240441,1,0,1:0:0:0:
472,170,240574,6,0,P|389:172|355:261,1,187.000005706787,10|8,0:0|0:0,0:0:0:0:
445,384,240972,2,0,P|456:329|440:284,1,93.5000028533936,2|0,1:2|0:0,0:0:0:0:
253,273,241238,1,10,0:0:0:0:
369,336,241370,1,10,0:0:0:0:
287,168,241503,1,0,1:0:0:0:
176,348,241636,6,0,L|155:190,1,140.25000428009,12|0,1:2|0:0,0:0:0:0:
153,162,241901,1,12,0:0:0:0:
253,273,242034,1,8,0:0:0:0:
92,338,242167,1,8,0:0:0:0:
92,338,242233,1,8,0:0:0:0:
92,338,242300,1,10,1:2:0:0:
258,226,242432,2,0,L|251:282,1,46.7500014266968,10|0,1:2|0:0,0:0:0:0:
63,228,242565,2,0,L|70:172,1,46.7500014266968,10|0,1:2|0:0,0:0:0:0:
98,80,242698,6,0,B|219:43|169:120|297:74,1,187.000005706787,12|8,0:0|0:0,0:0:0:0:
397,14,243096,2,0,P|385:72|391:118,1,93.5000028533936,2|0,1:2|0:0,0:0:0:0:
464,285,243362,1,10,0:0:0:0:
512,143,243494,1,10,0:0:0:0:
356,197,243627,1,0,1:0:0:0:
492,373,243760,6,0,B|364:374|430:322|297:324,1,187.000005706787,12|8,0:0|0:0,0:0:0:0:
189,347,244158,1,0,1:0:0:0:
250,245,244291,2,0,P|264:203|240:133,1,93.5000028533936,2|8,0:0|0:0,0:0:0:0:
167,0,244556,2,0,P|153:42|177:112,1,93.5000028533936,10|0,0:0|1:0,0:0:0:0:
255,155,244822,6,0,L|453:138,1,187.000005706787,12|8,0:0|0:0,0:0:0:0:
277,10,245220,1,2,1:2:0:0:
277,10,245353,1,0,0:0:0:0:
388,237,245485,1,10,0:0:0:0:
462,56,245618,1,10,0:0:0:0:
167,174,245751,1,0,1:0:0:0:
407,362,245884,5,12,0:0:0:0:
407,362,246149,1,12,0:0:0:0:
407,362,246415,1,12,0:0:0:0:
407,362,247078,6,0,P|436:363|482:351,2,56.6666666666667,6|0|0,0:0|0:0|0:0,0:0:0:0:
303,311,247344,2,0,P|274:310|228:322,2,56.6666666666667,2|0|0,0:0|0:0|0:0,0:0:0:0:
429,278,247609,5,2,0:0:0:0:
429,278,247698,2,0,P|431:252|418:211,1,56.6666666666667,0|0,0:0|0:0,0:0:0:0:
496,170,247875,1,2,0:0:0:0:
496,170,247964,2,0,P|479:150|440:130,1,56.6666666666667,0|0,0:0|0:0,0:0:0:0:
325,82,248140,5,2,0:0:0:0:
269,81,248228,1,0,0:0:0:0:
229,119,248316,1,0,0:0:0:0:
225,174,248405,1,2,0:0:0:0:
260,217,248493,1,0,0:0:0:0:
315,224,248582,1,0,0:0:0:0:
367,201,248671,5,2,0:0:0:0:
422,208,248760,1,0,0:0:0:0:
457,251,248848,1,0,0:0:0:0:
453,306,248937,1,2,0:0:0:0:
413,344,249025,1,0,0:0:0:0:
357,343,249113,1,0,0:0:0:0:
385,274,249202,5,14,1:2:0:0:
