osu file format v14

[General]
AudioFilename: audio.mp3
AudioLeadIn: 0
PreviewTime: 61637
Countdown: 0
SampleSet: Soft
StackLeniency: 0.7
Mode: 0
LetterboxInBreaks: 0
WidescreenStoryboard: 0

[Editor]
Bookmarks: 78761,104778,157875,166370,183362,196105,213096,229954
DistanceSpacing: 0.8
BeatDivisor: 4
GridSize: 8
TimelineZoom: 2.4

[Metadata]
Title:Shoujo to Ougonryuu no Monogatari
TitleUnicode:少女と黄金竜の物語
Artist:Hatsuki Yura
ArtistUnicode:葉月ゆら
Creator:Garden
Version:Salvation
Source:
Tags:清風明月 Seifuumeigetsu Drop 竜と炎の物語 ~Dragon and Flame Story~ ryuu to honoo no monogatari Hey lululu schoolboy Komore Misure Len Fast
BeatmapID:1518701
BeatmapSetID:719158

[Difficulty]
HPDrainRate:6.6
CircleSize:4
OverallDifficulty:9
ApproachRate:9.6
SliderMultiplier:1.8
SliderTickRate:1

[Events]
//Background and Video events
0,0,"61015605_p0.jpg",0,0
//Break Periods
2,196304,204092
//Storyboard Layer 0 (Background)
//Storyboard Layer 1 (Fail)
//Storyboard Layer 2 (Pass)
//Storyboard Layer 3 (Foreground)
//Storyboard Sound Samples

[TimingPoints]
177,265.486725663717,4,2,1,60,1,0
177,-133.333333333333,4,2,1,60,0,0
7477,-133.333333333333,4,2,1,70,0,0
8539,-100,4,2,1,80,0,0
11725,-80,4,2,1,80,0,0
11924,-100,4,2,1,5,0,0
11991,-80,4,2,1,80,0,0
12256,-111.111111111111,4,2,1,80,0,0
12787,-100,4,2,1,80,0,0
16172,-100,4,2,1,5,0,0
16238,-100,4,2,1,80,0,0
20221,-80,4,2,1,80,0,0
20420,-80,4,2,1,5,0,0
20486,-80,4,2,1,80,0,0
20752,-100,4,2,1,80,0,0
25398,-200,4,2,1,80,0,0
25597,-200,4,2,1,5,0,0
25663,-111.111111111111,4,2,1,65,0,0
27721,-111.111111111111,4,2,1,5,0,0
27787,-111.111111111111,4,2,1,65,0,0
29845,-111.111111111111,4,2,1,5,0,0
29911,-111.111111111111,4,2,1,65,0,0
31969,-111.111111111111,4,2,1,5,0,0
32035,-111.111111111111,4,2,1,65,0,0
32566,-80,4,2,1,75,0,0
32898,-80,4,2,1,15,0,0
32964,-80,4,2,1,75,0,0
33163,-80,4,2,1,5,0,0
33230,-80,4,2,1,75,0,0
33296,-80,4,2,1,5,0,0
33362,-80,4,2,1,75,0,0
33429,-80,4,2,1,5,0,0
33495,-80,4,2,1,75,0,0
34092,-80,4,2,1,5,0,0
34159,-111.111111111111,4,2,1,65,0,0
36216,-111.111111111111,4,2,1,5,0,0
36283,-111.111111111111,4,2,1,65,0,0
36681,-80,4,2,1,75,0,0
36880,-80,4,2,1,5,0,0
36946,-80,4,2,1,75,0,0
37212,-111.111111111111,4,2,1,65,0,0
38141,-100,4,2,1,75,0,0
38340,-100,4,2,1,5,0,0
38407,-111.111111111111,4,2,1,65,0,0
40265,-80,4,2,1,65,0,0
40464,-80,4,2,1,5,0,0
40530,-80,4,2,1,75,0,0
41460,-100,4,2,1,65,0,0
42588,-100,4,2,1,5,0,0
42654,-133.333333333333,4,2,1,65,0,0
49225,-133.333333333333,4,2,1,5,0,0
49292,-133.333333333333,4,2,1,45,0,0
49424,-133.333333333333,4,2,1,65,0,0
49955,-100,4,2,1,70,0,0
51349,-100,4,2,1,5,0,0
51415,-100,4,2,1,70,0,0
53207,-100,4,2,1,5,0,0
53274,-80,4,2,1,75,0,0
53473,-80,4,2,1,5,0,0
53539,-66.6666666666667,4,2,1,75,0,0
53705,-66.6666666666667,4,2,1,15,0,0
53938,-66.6666666666667,4,2,1,75,0,0
53971,-80,4,2,1,15,0,0
54203,-100,4,2,1,70,0,0
57455,-100,4,2,1,5,0,0
57522,-80,4,2,1,75,0,0
57721,-80,4,2,1,5,0,0
57787,-80,4,2,1,75,0,0
59646,-111.111111111111,4,2,2,55,0,0
61106,-80,4,2,1,75,0,0
61703,-80,4,2,1,10,0,0
61769,-80,4,2,1,80,0,1
61969,-100,4,2,1,5,0,1
62035,-100,4,2,1,80,0,1
64092,-100,4,2,1,5,0,1
64159,-100,4,2,1,80,0,1
64889,-100,4,2,1,5,0,1
64955,-80,4,2,1,80,0,1
65154,-80,4,2,1,5,0,1
65221,-80,4,2,1,80,0,1
65353,-111.111111111111,4,2,1,80,0,1
65752,-80,4,2,1,80,0,1
65884,-80,4,2,1,30,0,1
66017,-100,4,2,1,80,0,1
66216,-100,4,2,1,5,0,1
66283,-100,4,2,1,80,0,1
68340,-100,4,2,1,5,0,1
68407,-100,4,2,1,80,0,1
69137,-100,4,2,1,5,0,1
69203,-100,4,2,1,80,0,1
70265,-80,4,2,1,80,0,1
70464,-100,4,2,1,5,0,1
70530,-100,4,2,1,80,0,1
72588,-100,4,2,1,5,0,1
72654,-100,4,2,1,80,0,1
73384,-100,4,2,1,5,0,1
73451,-80,4,2,1,80,0,1
73650,-80,4,2,1,5,0,1
73716,-80,4,2,1,80,0,1
73849,-111.111111111111,4,2,1,80,0,1
74247,-80,4,2,1,80,0,1
74380,-80,4,2,1,30,0,1
74513,-100,4,2,1,80,0,1
74911,-80,4,2,1,80,0,1
74977,-80,4,2,1,15,0,1
75177,-80,4,2,1,80,0,1
75243,-80,4,2,1,15,0,1
75442,-100,4,2,1,80,0,1
75641,-100,4,2,1,5,0,1
75707,-100,4,2,1,80,0,1
77566,-100,4,2,1,80,0,0
78230,-200,4,2,1,50,0,0
78694,-200,4,2,1,5,0,0
78761,-100,4,2,1,80,0,1
78794,-100,4,2,1,80,0,0
86261,-100,4,2,1,5,0,0
86327,-100,4,2,1,80,0,0
87256,-100,4,2,1,80,0,1
87289,-100,4,2,1,80,0,0
88318,-200,4,2,1,80,0,0
93628,-100,4,2,1,80,0,0
93893,-125,4,2,1,70,0,0
94159,-166.666666666667,4,2,1,60,0,0
94424,-100,4,2,1,80,0,0
94756,-100,4,2,1,10,0,0
94823,-100,4,2,1,80,0,0
95752,-111.111111111111,4,2,1,65,0,0
95951,-111.111111111111,4,2,1,5,0,0
96017,-111.111111111111,4,2,1,65,0,0
98075,-111.111111111111,4,2,1,5,0,0
98141,-111.111111111111,4,2,1,65,0,0
100199,-111.111111111111,4,2,1,5,0,0
100265,-111.111111111111,4,2,1,65,0,0
102323,-111.111111111111,4,2,1,5,0,0
102389,-111.111111111111,4,2,1,65,0,0
103252,-111.111111111111,4,2,1,5,0,0
103318,-111.111111111111,4,2,1,65,0,0
104712,-111.111111111111,4,2,1,5,0,0
104778,265.486725663717,4,2,1,70,1,0
104778,-111.111111111111,4,2,1,70,0,0
106835,-111.111111111111,4,2,1,5,0,0
106901,-111.111111111111,4,2,1,70,0,0
108959,-111.111111111111,4,2,1,5,0,0
109025,-111.111111111111,4,2,1,70,0,0
111083,-111.111111111111,4,2,1,5,0,0
111149,-111.111111111111,4,2,1,70,0,0
111946,-80,4,2,1,75,0,0
112012,-80,4,2,1,15,0,0
112078,-80,4,2,1,75,0,0
112278,-80,4,2,1,5,0,0
112344,-80,4,2,1,75,0,0
112410,-80,4,2,1,5,0,0
112477,-80,4,2,1,75,0,0
112543,-80,4,2,1,5,0,0
112609,-80,4,2,1,75,0,0
113207,-80,4,2,1,5,0,0
113273,-111.111111111111,4,2,1,70,0,0
115331,-111.111111111111,4,2,1,5,0,0
115397,-111.111111111111,4,2,1,70,0,0
115795,-80,4,2,1,75,0,0
115994,-80,4,2,1,5,0,0
116061,-80,4,2,1,75,0,0
116326,-111.111111111111,4,2,1,70,0,0
117255,-100,4,2,1,70,0,0
117454,-100,4,2,1,5,0,0
117521,-111.111111111111,4,2,1,70,0,0
119379,-80,4,2,1,70,0,0
119578,-80,4,2,1,5,0,0
119645,-80,4,2,1,75,0,0
120574,-100,4,2,1,75,0,0
121702,-100,4,2,1,5,0,0
121769,-133.333333333333,4,2,1,65,0,0
128339,-133.333333333333,4,2,1,5,0,0
128406,-133.333333333333,4,2,1,45,0,0
128539,-133.333333333333,4,2,1,65,0,0
129070,-100,4,2,1,65,0,0
130264,-100,4,2,1,70,0,0
130463,-100,4,2,1,5,0,0
130530,-100,4,2,1,70,0,0
132322,-100,4,2,1,5,0,0
132388,-80,4,2,1,75,0,0
132587,-80,4,2,1,5,0,0
132654,-66.6666666666667,4,2,1,75,0,0
132820,-66.6666666666667,4,2,1,15,0,0
133052,-66.6666666666667,4,2,1,75,0,0
133085,-80,4,2,1,15,0,0
133317,-100,4,2,1,70,0,0
136570,-100,4,2,1,5,0,0
136636,-80,4,2,1,75,0,0
136835,-80,4,2,1,5,0,0
136901,-80,4,2,1,75,0,0
138760,-111.111111111111,4,2,2,55,0,0
140220,-80,4,2,1,75,0,0
140817,-80,4,2,1,5,0,0
140884,-80,4,2,1,80,0,1
141083,-80,4,2,1,5,0,1
141149,-100,4,2,1,80,0,1
143207,-100,4,2,1,5,0,1
143273,-100,4,2,1,80,0,1
144003,-100,4,2,1,5,0,1
144070,-80,4,2,1,80,0,1
144269,-80,4,2,1,5,0,1
144335,-80,4,2,1,80,0,1
144468,-111.111111111111,4,2,1,80,0,1
144866,-80,4,2,1,80,0,1
144999,-80,4,2,1,40,0,1
145131,-100,4,2,1,80,0,1
145331,-100,4,2,1,5,0,1
145397,-100,4,2,1,80,0,1
147454,-100,4,2,1,5,0,1
147521,-100,4,2,1,80,0,1
148251,-100,4,2,1,5,0,1
148317,-100,4,2,1,80,0,1
149379,-80,4,2,1,80,0,1
149578,-80,4,2,1,5,0,1
149645,-100,4,2,1,80,0,1
151702,-100,4,2,1,5,0,1
151769,-100,4,2,1,80,0,1
152499,-100,4,2,1,5,0,1
152565,-80,4,2,1,80,0,1
152764,-80,4,2,1,5,0,1
152831,-80,4,2,1,80,0,1
152963,-111.111111111111,4,2,1,80,0,1
153362,-80,4,2,1,80,0,1
153494,-80,4,2,1,40,0,1
153627,-80,4,2,1,80,0,1
154092,-80,4,2,1,15,0,1
154291,-80,4,2,1,80,0,1
154357,-80,4,2,1,15,0,1
154556,-100,4,2,1,80,0,1
154755,-100,4,2,1,5,0,1
154822,-100,4,2,1,80,0,1
156680,-100,4,2,1,80,0,0
157278,-200,4,2,1,60,0,0
157808,-200,4,2,1,5,0,0
157875,-400,4,2,1,50,0,0
166370,-133.333333333333,4,2,2,55,0,0
182831,-100,4,2,1,60,0,0
183362,-80,4,2,1,75,0,0
187211,-111.111111111111,4,2,1,75,0,0
187609,-80,4,2,1,75,0,0
189733,-100,4,2,1,75,0,0
191857,-80,4,2,1,75,0,0
192056,-80,4,2,1,5,0,0
192123,-80,4,2,1,75,0,0
192322,-80,4,2,1,5,0,0
192388,-80,4,2,1,75,0,0
192454,-80,4,2,1,15,0,0
192521,-80,4,2,1,75,0,0
192587,-80,4,2,1,15,0,0
192654,-80,4,2,1,75,0,0
192720,-80,4,2,1,15,0,0
192786,-80,4,2,1,75,0,0
192985,-80,4,2,1,5,0,0
193052,-66.6666666666667,4,2,1,75,0,0
194180,-66.6666666666667,4,2,1,5,0,0
194247,-66.6666666666667,4,2,1,75,0,0
194379,-66.6666666666667,4,2,1,60,0,0
194645,-66.6666666666667,4,2,1,75,0,0
194844,-66.6666666666667,4,2,1,5,0,0
194910,-200,4,2,1,75,0,0
196105,-200,4,2,1,95,0,0
196171,-200,4,2,1,50,0,0
211901,-100,4,2,2,80,0,0
212034,-100,4,2,1,80,0,0
212698,-80,4,2,1,70,0,0
213030,-80,4,2,1,5,0,0
213096,-80,4,2,1,80,0,1
213295,-80,4,2,1,5,0,1
213362,-100,4,2,1,80,0,1
215419,-100,4,2,1,5,0,1
215485,-100,4,2,1,80,0,1
216216,-100,4,2,1,5,0,1
216282,-80,4,2,1,80,0,1
216481,-80,4,2,1,5,0,1
216547,-80,4,2,1,80,0,1
216680,-111.111111111111,4,2,1,80,0,1
217078,-80,4,2,1,80,0,1
217344,-100,4,2,1,80,0,1
217543,-100,4,2,1,5,0,1
217609,-100,4,2,1,80,0,1
219667,-100,4,2,1,5,0,1
219733,-100,4,2,1,80,0,1
220463,-100,4,2,1,5,0,1
220530,-100,4,2,1,80,0,1
221592,-80,4,2,1,80,0,1
221791,-80,4,2,1,5,0,1
221857,-100,4,2,1,80,0,1
223915,-100,4,2,1,5,0,1
223981,-100,4,2,1,80,0,1
224711,-100,4,2,1,5,0,1
224778,-80,4,2,1,80,0,1
224977,-80,4,2,1,5,0,1
225043,-80,4,2,1,80,0,1
225176,-111.111111111111,4,2,1,80,0,1
225574,-80,4,2,1,80,0,1
226304,-80,4,2,1,15,0,1
226503,-80,4,2,1,80,0,1
226570,-80,4,2,1,15,0,1
226769,-100,4,2,1,80,0,1
226968,-100,4,2,1,5,0,1
227034,-100,4,2,1,80,0,1
228893,-100,4,2,1,80,0,0
229954,-100,4,2,1,80,0,1
229988,-100,4,2,1,80,0,0
233140,-80,4,2,1,80,0,0
233339,-80,4,2,1,5,0,0
233406,-80,4,2,1,80,0,0
233472,-80,4,2,1,15,0,0
233539,-80,4,2,1,80,0,0
233605,-80,4,2,1,15,0,0
233671,-111.111111111111,4,2,1,80,0,0
234202,-100,4,2,1,80,0,0
237587,-100,4,2,1,5,0,0
237654,-100,4,2,1,80,0,0
241636,-80,4,2,1,80,0,0
241835,-80,4,2,1,5,0,0
241901,-80,4,2,1,80,0,0
242698,-100,4,2,1,80,0,0
247609,-100,4,2,1,70,0,0
248140,-100,4,2,1,60,0,0
248671,-100,4,2,1,50,0,0
249202,-100,4,2,1,80,0,0

[Colours]
Combo1 : 255,66,66
Combo2 : 255,30,255
Combo3 : 255,119,53
Combo4 : 255,128,192

[HitObjects]
234,309,177,6,0,L|245:237,1,67.5000025749208,4|0,0:0|0:0,0:0:0:0:
244,242,442,1,2,0:0:0:0:
106,364,575,1,8,0:0:0:0:
25,313,707,2,0,P|77:273|153:280,1,135.000005149842,2|0,1:2|0:0,0:0:0:0:
308,366,1106,1,8,0:0:0:0:
308,366,1371,5,2,0:0:0:0:
392,326,1504,2,0,L|480:318,1,67.5000025749208,8|2,0:0|0:0,0:0:0:0:
501,159,1769,2,0,B|482:132|482:132|493:244,1,135.000005149842,0|0,1:0|0:0,0:0:0:0:
491,233,2300,6,0,L|407:241,1,67.5000025749208,8|0,0:0|0:0,0:0:0:0:
423,239,2566,1,10,0:0:0:0:
348,90,2699,1,8,0:0:0:0:
248,184,2831,2,0,L|382:170,1,135.000005149842,2|0,1:2|0:0,0:0:0:0:
437,33,3230,1,8,0:0:0:0:
437,33,3495,6,0,L|445:110,1,67.5000025749208,10|0,0:0|0:0,0:0:0:0:
443,100,3761,1,10,0:0:0:0:
346,1,3893,1,0,1:0:0:0:
221,77,4026,2,2,B|250:71|250:71|270:77|270:77|289:69|289:69|316:93|348:89,1,135.000005149842,10|0,0:0|0:0,0:0:0:0:
157,145,4424,6,0,P|135:119|127:79,1,67.5000025749208,12|0,0:0|0:0,0:0:0:0:
126,87,4690,1,10,0:0:0:0:
249,170,4823,1,8,0:0:0:0:
117,234,4955,2,0,P|53:228|-9:279,1,135.000005149842,2|0,1:2|0:0,0:0:0:0:
82,325,5353,1,8,0:0:0:0:
82,325,5619,5,2,0:0:0:0:
180,317,5752,2,0,L|171:391,1,67.5000025749208,8|2,0:0|0:0,0:0:0:0:
302,263,6017,2,0,B|326:245|326:245|221:232,1,135.000005149842,0|0,1:0|0:0,0:0:0:0:
221,232,6548,6,0,L|229:165,1,67.5000025749208,8|0,0:0|0:0,0:0:0:0:
229,164,6814,1,10,0:0:0:0:
58,107,6946,1,8,0:0:0:0:
162,0,7079,2,0,L|147:134,1,135.000005149842,2|0,1:2|0:0,0:0:0:0:
319,199,7477,5,14,0:0:0:0:
58,107,7743,1,14,0:0:0:0:
319,199,8008,5,10,0:0:0:0:
58,107,8141,1,2,1:2:0:0:
404,68,8274,1,2,1:2:0:0:
404,68,8539,6,0,B|396:115|396:115|417:195|417:195|407:251,1,180,12|8,1:2|0:0,0:0:0:0:
229,207,8938,2,0,L|323:198,1,90,2|0,1:2|0:0,0:0:0:0:
495,103,9203,1,10,0:0:0:0:
318,198,9336,1,8,0:0:0:0:
505,246,9469,1,0,1:0:0:0:
337,386,9601,6,0,B|377:355|377:355|367:291|367:291|395:278|408:244,1,180,10|8,0:0|0:0,0:0:0:0:
314,108,10000,2,0,L|318:198,1,90,2|0,1:2|0:0,0:0:0:0:
509,335,10265,2,0,L|504:234,1,90,10|8,0:0|0:0,0:0:0:0:
459,158,10530,1,0,1:0:0:0:
255,274,10663,6,0,B|202:265|202:265|125:288|125:288|79:279,1,180,10|8,0:0|0:0,0:0:0:0:
214,361,11061,2,0,L|315:379,1,90,2|0,1:2|0:0,0:0:0:0:
119,189,11327,1,10,0:0:0:0:
67,381,11460,1,10,0:0:0:0:
255,274,11592,1,0,1:0:0:0:
64,83,11725,6,0,L|78:255,1,168.75,12|0,1:2|0:0,0:0:0:0:
79,279,11991,1,12,0:0:0:0:
309,132,12123,1,8,0:0:0:0:
214,361,12256,2,0,L|202:199,1,161.999995056153,12|8,1:2|0:0,0:0:0:0:
251,39,12654,1,0,1:0:0:0:
477,161,12787,6,0,B|424:130|366:156|366:156|346:132|309:132,1,180,12|8,0:0|0:0,0:0:0:0:
0,122,13185,2,0,L|89:110,1,90,2|0,1:2|0:0,0:0:0:0:
308,131,13451,1,10,0:0:0:0:
89,110,13584,1,10,0:0:0:0:
266,240,13716,1,0,1:0:0:0:
217,2,13849,6,0,B|187:74|187:74|209:129|176:180,1,180,10|8,0:0|0:0,0:0:0:0:
98,19,14247,1,0,1:0:0:0:
0,122,14380,2,0,L|104:113,1,90,2|8,0:0|0:0,0:0:0:0:
266,240,14646,2,0,L|361:230,1,90,10|0,0:0|1:0,0:0:0:0:
180,172,14911,6,0,B|159:205|173:239|173:239|156:283|156:283|172:311|160:351,1,180,12|8,0:0|0:0,0:0:0:0:
362,147,15309,1,2,1:2:0:0:
362,147,15575,2,0,L|262:158,1,90,10|8,0:0|0:0,0:0:0:0:
394,57,15840,1,0,1:0:0:0:
332,242,15973,6,0,L|477:224,1,135,14|0,1:2|0:0,0:0:0:0:
502,221,16238,2,0,B|491:249|491:249|501:317,1,90,12|0,0:0|1:0,0:0:0:0:
458,134,16504,1,10,0:0:0:0:
480,131,16570,1,8,0:0:0:0:
502,127,16637,1,8,0:0:0:0:
332,242,16769,1,2,1:2:0:0:
332,242,17035,6,0,B|199:225|199:225|157:250,1,180,12|8,1:2|0:0,0:0:0:0:
276,143,17433,2,0,L|286:53,1,90,2|0,1:2|0:0,0:0:0:0:
177,340,17699,1,10,0:0:0:0:
141,340,17765,1,8,0:0:0:0:
107,326,17831,1,10,0:0:0:0:
81,300,17898,1,8,0:0:0:0:
68,266,17964,2,0,L|74:221,1,45,2|0,1:2|0:0,0:0:0:0:
180,70,18097,6,0,L|157:264,1,180,10|8,0:0|0:0,0:0:0:0:
347,155,18495,2,0,B|303:141|303:141|255:153,1,90,2|0,1:2|0:0,0:0:0:0:
107,326,18761,2,0,B|152:343|152:343|203:332,1,90,10|8,0:0|0:0,0:0:0:0:
405,230,19026,1,0,1:0:0:0:
322,384,19159,6,0,B|319:337|309:267|309:267|324:307|359:315,1,180,10|8,0:0|0:0,0:0:0:0:
493,235,19557,2,0,L|404:229,1,90,2|0,1:2|0:0,0:0:0:0:
260,151,19823,1,10,0:0:0:0:
403,228,19955,1,10,0:0:0:0:
192,334,20088,1,0,1:0:0:0:
272,67,20221,6,0,B|315:198|315:198|295:246,1,168.75,12|0,1:2|0:0,0:0:0:0:
288,253,20486,2,0,B|165:239,1,112.5,12|8,0:0|0:0,0:0:0:0:
391,125,20752,1,8,0:0:0:0:
391,125,20818,1,8,0:0:0:0:
391,125,20884,2,0,L|443:131,1,45,10|0,1:2|0:0,0:0:0:0:
277,22,21017,2,0,L|270:76,1,45,10|0,1:2|0:0,0:0:0:0:
512,64,21150,1,2,1:2:0:0:
288,253,21283,6,0,B|337:234|337:234|376:246|376:246|425:217|486:243,1,180,12|8,0:0|0:0,0:0:0:0:
241,337,21681,2,0,L|143:333,1,90,2|0,1:2|0:0,0:0:0:0:
245,161,21946,1,10,0:0:0:0:
337,341,22079,1,10,0:0:0:0:
245,161,22212,1,0,1:0:0:0:
108,246,22345,6,0,L|287:252,1,180,12|8,0:0|0:0,0:0:0:0:
461,149,22743,1,0,1:0:0:0:
369,99,22876,2,0,B|352:143|352:143|365:190,1,90,2|8,0:0|0:0,0:0:0:0:
412,384,23141,2,0,B|427:338|427:338|416:288,1,90,10|0,0:0|1:0,0:0:0:0:
245,161,23407,6,0,L|52:154,1,180,12|8,0:0|0:0,0:0:0:0:
204,65,23805,1,2,1:2:0:0:
287,252,23938,1,0,0:0:0:0:
26,241,24070,5,10,0:0:0:0:
245,161,24203,1,10,0:0:0:0:
0,77,24336,1,0,1:0:0:0:
339,120,24469,5,12,0:0:0:0:
65,154,24734,1,12,0:0:0:0:
287,252,25000,1,12,0:0:0:0:
287,252,25398,6,0,P|304:302|296:326,1,67.5,2|0,0:0|0:0,0:0:0:0:
227,299,25663,6,0,B|409:279,2,161.999995056153,4|0|10,0:1|1:0|0:0,0:0:0:0:
227,299,26327,1,8,0:0:0:0:
114,161,26460,1,0,1:0:0:0:
57,240,26592,2,0,P|152:245|207:188,1,161.999995056153,10|8,0:0|0:0,0:0:0:0:
206,28,26991,2,0,P|191:69|207:124,1,80.9999975280763,2|0,1:2|0:0,0:0:0:0:
355,0,27256,1,8,0:0:0:0:
355,0,27389,1,8,0:0:0:0:
408,85,27522,2,0,L|264:73,1,121.499996292114,2|0,1:2|0:0,0:0:0:0:
266,89,27787,6,0,L|428:103,1,161.999995056153,8|0,0:0|1:0,0:0:0:0:
419,275,28185,2,0,P|404:237|406:197,1,80.9999975280763,2|8,0:0|0:0,0:0:0:0:
427,102,28451,1,10,0:0:0:0:
502,220,28584,1,0,1:0:0:0:
314,263,28716,2,0,L|141:247,1,161.999995056153,10|8,0:0|0:0,0:0:0:0:
206,324,29115,2,0,P|233:294|241:255,1,80.9999975280763,2|0,1:3|0:0,0:0:0:0:
64,240,29380,1,8,0:0:0:0:
64,240,29513,1,8,0:0:0:0:
101,74,29646,2,0,B|115:48|115:48|119:139,1,121.499996292114,0|0,1:0|0:0,0:0:0:0:
120,164,29911,6,0,L|209:157,1,80.9999975280763,8|0,0:0|0:0,0:0:0:0:
412,138,30177,2,0,P|341:141|274:78,1,161.999995056153,2|10,1:2|0:0,0:0:0:0:
276,83,30575,1,8,0:0:0:0:
415,229,30707,1,0,1:0:0:0:
319,334,30840,2,0,L|323:167,1,161.999995056153,10|8,0:0|0:0,0:0:0:0:
498,88,31238,2,0,P|512:130|498:184,1,80.9999975280763,2|0,1:2|0:0,0:0:0:0:
352,6,31504,1,8,0:0:0:0:
352,6,31637,1,8,0:0:0:0:
276,83,31769,2,0,L|410:103,1,121.499996292114,2|0,1:2|0:0,0:0:0:0:
415,121,32035,6,0,L|251:97,1,161.999995056153,10|0,0:0|1:0,0:0:0:0:
75,246,32433,1,2,0:0:0:0:
106,341,32566,1,10,0:0:0:0:
143,318,32632,1,2,0:0:0:0:
168,281,32699,1,10,0:0:0:0:
174,237,32765,1,2,0:0:0:0:
160,195,32831,2,0,P|138:166|130:135,1,56.25,2|0,1:2|0:0,0:0:0:0:
353,113,32964,6,0,B|227:129|227:129|252:112|257:86,1,168.75,12|0,0:0|0:0,0:0:0:0:
175,0,33230,2,0,P|170:33|186:75,1,56.25,10|0,0:0|0:0,0:0:0:0:
273,209,33362,2,0,L|350:199,1,56.25,10|0,0:0|0:0,0:0:0:0:
465,157,33495,1,4,1:2:0:0:
465,157,33761,5,10,0:0:0:0:
374,280,33893,2,0,L|352:112,1,168.75,2|0,1:2|0:0,0:0:0:0:
347,81,34159,6,0,B|422:111|411:33|511:75,2,161.999995056153,4|0|10,0:1|1:0|0:0,0:0:0:0:
347,81,34823,1,8,0:0:0:0:
242,244,34955,1,0,1:0:0:0:
152,195,35088,2,0,P|228:151|314:175,1,161.999995056153,10|8,0:0|0:0,0:0:0:0:
423,270,35486,2,0,P|380:270|335:248,1,80.9999975280763,2|0,1:2|0:0,0:0:0:0:
403,167,35752,1,8,0:0:0:0:
403,167,35884,1,8,0:0:0:0:
262,363,36017,2,0,L|239:235,1,121.499996292114,2|0,1:2|0:0,0:0:0:0:
219,234,36283,6,0,L|236:321,1,80.9999975280763,10|0,0:0|0:0,0:0:0:0:
345,255,36548,1,0,1:0:0:0:
256,95,36681,6,0,B|275:48|275:48|295:169,1,168.75,10|0,0:0|0:0,0:0:0:0:
321,177,36946,2,0,L|448:158,1,112.5,2|8,0:0|0:0,0:0:0:0:
176,28,37212,6,0,P|91:24|30:89,1,161.999995056153,12|8,0:0|0:0,0:0:0:0:
256,95,37610,2,0,L|354:81,1,80.9999975280763,2|0,1:2|0:0,0:0:0:0:
176,28,37876,1,8,0:0:0:0:
123,210,38008,1,8,0:0:0:0:
123,210,38075,1,8,0:0:0:0:
123,210,38141,2,0,B|149:223|149:223|130:115,1,135,2|0,1:2|0:0,0:0:0:0:
107,111,38407,6,0,L|142:289,1,161.999995056153,12|0,0:0|1:0,0:0:0:0:
236,213,38805,2,0,L|331:200,1,80.9999975280763,2|8,0:0|0:0,0:0:0:0:
138,269,39070,1,10,0:0:0:0:
226,116,39203,1,0,1:0:0:0:
397,297,39336,6,0,L|235:316,1,161.999995056153,12|8,0:0|0:0,0:0:0:0:
336,97,39734,2,0,P|358:130|363:178,1,80.9999975280763,2|0,1:2|0:0,0:0:0:0:
356,197,39933,1,2,0:0:0:0:
356,197,40000,2,0,L|308:202,1,40.4999987640381,10|0,0:0|0:0,0:0:0:0:
444,111,40132,2,0,L|505:104,1,40.4999987640381,8|0,0:0|0:0,0:0:0:0:
259,21,40265,6,0,L|83:38,1,168.75,2|0,1:2|0:0,0:0:0:0:
61,42,40530,5,4,1:2:0:0:
336,97,40663,1,8,0:0:0:0:
141,268,40796,1,8,0:0:0:0:
259,21,40929,5,4,1:2:0:0:
24,141,41061,1,8,0:0:0:0:
271,275,41194,1,8,0:0:0:0:
61,42,41327,5,2,1:2:0:0:
209,332,41460,2,0,B|235:283|235:283|206:146,1,180,12|8,0:0|0:0,0:0:0:0:
68,309,41858,5,2,1:2:0:0:
90,307,41924,1,2,0:0:0:0:
111,300,41991,1,2,0:0:0:0:
129,287,42057,1,2,0:0:0:0:
141,268,42123,5,10,0:0:0:0:
132,223,42190,1,2,0:0:0:0:
121,179,42256,1,10,0:0:0:0:
109,134,42323,1,2,0:0:0:0:
75,104,42389,6,0,P|143:129|220:91,1,135,2|0,1:2|0:0,0:0:0:0:
199,110,42654,6,0,B|191:7|191:7|215:33|241:41,1,135.000005149842,4|2,0:1|0:0,0:0:0:0:
290,173,43053,1,8,0:0:0:0:
388,35,43185,2,0,L|321:39,1,67.5000025749208,2|0,1:2|0:0,0:0:0:0:
503,118,43451,1,2,0:0:0:0:
503,118,43584,2,0,L|363:126,1,135.000005149842,10|0,0:0|0:0,0:0:0:0:
291,239,43982,2,0,P|283:207|290:174,1,67.5000025749208,8|0,0:0|0:0,0:0:0:0:
512,278,44247,1,0,1:0:0:0:
388,214,44380,1,2,0:0:0:0:
388,214,44513,2,0,L|482:206,1,67.5000025749208
360,306,44778,6,0,P|296:288|237:316,1,135.000005149842,10|0,0:0|0:0,0:0:0:0:
67,240,45177,2,0,L|57:314,1,67.5000025749208,10|0,0:0|1:0,0:0:0:0:
138,384,45442,2,0,L|147:315,1,67.5000025749208,2|0,0:0|0:0,0:0:0:0:
0,190,45707,2,0,P|62:195|119:152,1,135.000005149842,10|0,0:0|0:0,0:0:0:0:
252,93,46106,2,0,L|176:83,1,67.5000025749208,8|0,0:0|0:0,0:0:0:0:
39,106,46371,1,0,1:0:0:0:
210,180,46504,1,8,0:0:0:0:
210,180,46637,2,0,L|197:261,1,67.5000025749208,8|0,0:0|0:0,0:0:0:0:
146,317,46902,6,0,P|194:288|274:301,1,135.000005149842,10|2,0:0|0:0,0:0:0:0:
434,278,47300,1,8,0:0:0:0:
363,384,47433,2,0,L|353:291,1,67.5000025749208,2|0,1:2|0:0,0:0:0:0:
512,235,47699,1,0,0:0:0:0:
420,143,47831,2,0,L|436:298,1,135.000005149842,10|0,0:0|0:0,0:0:0:0:
272,209,48230,2,0,L|339:201,1,67.5000025749208,10|0,0:0|0:0,0:0:0:0:
512,235,48495,1,0,1:0:0:0:
441,344,48628,1,0,0:0:0:0:
441,344,48761,2,0,L|433:269,1,67.5000025749208,2|0,0:0|0:0,0:0:0:0:
498,107,49026,6,0,L|511:226,1,101.250003862381,10|0,0:0|0:0,0:0:0:0:
512,235,49292,1,4,0:0:0:0:
406,78,49424,1,8,0:0:0:0:
272,209,49557,2,0,P|336:224|401:193,1,135.000005149842,0|10,1:0|0:0,0:0:0:0:
345,318,49955,6,0,P|337:237|328:123,1,180,12|8,0:0|0:0,0:0:0:0:
231,310,50353,2,0,P|188:326|141:317,1,90,0|0,1:0|0:0,0:0:0:0:
66,116,50619,5,10,1:2:0:0:
99,149,50707,5,8,0:0:0:0:
106,196,50796,5,8,0:0:0:0:
90,241,50884,5,10,1:2:0:0:
48,265,50973,5,8,0:0:0:0:
0,256,51061,5,8,0:0:0:0:
31,188,51150,6,0,L|171:188,1,135,12|0,0:0|0:0,0:0:0:0:
197,188,51415,1,0,1:0:0:0:
299,156,51548,2,0,P|320:123|323:65,1,90,2|8,0:0|0:0,0:0:0:0:
175,290,51814,2,0,P|182:343|212:384,1,90,10|0,0:0|1:0,0:0:0:0:
455,315,52079,6,0,B|405:287|405:287|281:302,1,180,10|8,0:0|0:0,0:0:0:0:
107,200,52477,2,0,L|216:185,1,90,0|0,1:0|0:0,0:0:0:0:
393,112,52743,1,10,0:0:0:0:
393,112,52876,1,8,0:0:0:0:
299,212,53008,2,0,L|278:66,1,135,2|0,1:2|0:0,0:0:0:0:
226,19,53274,6,0,B|285:47|353:41|353:41|382:13,1,168.75,12|0,0:0|0:0,0:0:0:0:
380,14,53539,1,0,1:0:0:0:
112,126,53672,6,0,L|119:77,1,33.7500012874604,10|0,0:0|0:0,0:0:0:0:
302,245,53938,2,0,L|297:190,1,33.7500012874604,10|0,0:0|0:0,0:0:0:0:
40,209,54203,6,0,P|130:160|216:188,1,180,12|8,0:0|0:0,0:0:0:0:
29,306,54601,1,0,1:0:0:0:
131,350,54734,1,2,0:0:0:0:
131,350,54800,1,2,0:0:0:0:
131,350,54867,2,0,L|137:240,1,90,10|8,0:0|0:0,0:0:0:0:
322,171,55132,1,0,1:0:0:0:
243,339,55265,1,2,0:0:0:0:
487,276,55398,6,0,L|302:267,1,180,12|0,0:0|1:0,0:0:0:0:
389,90,55796,1,2,0:0:0:0:
389,90,55862,1,2,0:0:0:0:
389,90,55929,2,0,P|418:132|416:189,1,90,8|10,0:0|0:0,0:0:0:0:
301,43,56194,1,0,1:0:0:0:
142,158,56327,6,0,L|322:171,1,180,10|8,0:0|0:0,0:0:0:0:
487,276,56725,2,0,L|397:269,1,90,2|0,1:2|0:0,0:0:0:0:
161,301,56991,1,10,0:0:0:0:
322,171,57123,1,8,0:0:0:0:
268,358,57256,2,0,B|263:313|251:255|251:255|267:277|296:279,1,135,2|0,1:2|0:0,0:0:0:0:
343,332,57522,6,0,P|429:342|483:246,1,168.75,12|0,0:0|0:0,0:0:0:0:
467,209,57787,2,0,L|450:91,1,112.5,4|0,1:2|0:0,0:0:0:0:
316,45,58053,1,10,0:0:0:0:
274,273,58185,1,10,0:0:0:0:
467,209,58318,1,0,1:0:0:0:
347,166,58451,6,0,B|303:149|303:149|177:159,1,168.75,4|0,1:2|0:0,0:0:0:0:
122,253,58716,1,10,0:0:0:0:
122,253,58783,1,8,0:0:0:0:
122,253,58849,6,0,L|194:246,1,56.25,10|0,0:0|0:0,0:0:0:0:
330,269,58982,2,0,L|255:274,1,56.25,10|0,0:0|0:0,0:0:0:0:
78,233,59115,6,0,L|141:239,1,56.25,10|0,0:0|0:0,0:0:0:0:
364,287,59247,2,0,L|307:283,1,56.25,10|0,0:0|0:0,0:0:0:0:
54,205,59380,6,0,L|115:221,1,56.25,10|0,0:0|0:0,0:0:0:0:
386,314,59513,2,0,L|331:299,1,56.25,10|0,0:0|0:0,0:0:0:0:
181,158,59646,5,2,1:2:0:0:
259,84,59778,2,0,L|287:175,1,80.9999975280763
181,158,60044,5,2,0:0:0:0:
370,210,60177,2,0,L|456:204,1,80.9999975280763
181,158,60442,5,2,0:0:0:0:
339,77,60575,2,0,L|256:84,1,80.9999975280763
181,158,60840,5,2,0:0:0:0:
370,210,60973,1,0,0:0:0:0:
303,342,61106,2,0,P|290:317|285:289,1,56.25,2|2,0:0|0:0,0:0:0:0:
426,143,61238,6,0,B|459:185|459:185|448:243,1,112.5,2|8,1:2|0:0,0:0:0:0:
386,294,61438,1,10,0:0:0:0:
386,294,61504,2,0,L|193:285,1,168.75,10|0,1:2|0:0,0:0:0:0:
88,354,61769,6,0,B|111:358|125:383|125:383|123:326|131:253,1,168.75,12|0,1:2|0:0,0:0:0:0:
137,232,62035,1,0,1:0:0:0:
90,103,62168,2,0,P|52:87|1:89,1,90,2|8,0:0|0:0,0:0:0:0:
242,143,62433,2,0,P|289:141|329:120,1,90,10|0,0:0|1:0,0:0:0:0:
145,239,62699,1,2,0:0:0:0:
145,239,62765,1,2,0:0:0:0:
145,239,62831,5,12,0:0:0:0:
326,121,62964,1,8,0:0:0:0:
79,13,63097,2,0,L|90:109,1,90,4|0,1:2|0:0,0:0:0:0:
306,226,63362,1,10,0:0:0:0:
345,23,63495,1,10,0:0:0:0:
92,129,63628,1,0,1:0:0:0:
334,129,63761,1,2,0:0:0:0:
334,129,63827,1,2,0:0:0:0:
334,129,63893,6,0,P|400:115|444:66,1,135,10|0,0:0|0:0,0:0:0:0:
245,73,64159,2,0,P|229:127|241:172,1,90,2|0,1:2|0:0,0:0:0:0:
494,239,64424,1,10,0:0:0:0:
345,23,64557,1,8,0:0:0:0:
494,239,64690,2,0,L|340:225,1,135,2|0,1:2|0:0,0:0:0:0:
285,211,64955,6,0,P|342:218|430:152,1,168.75,12|0,0:0|0:0,0:0:0:0:
428,155,65221,1,10,1:2:0:0:
205,298,65353,6,0,P|114:295|63:245,1,161.999995056153,12|8,0:0|0:0,0:0:0:0:
44,226,65685,1,8,0:0:0:0:
44,226,65752,2,0,L|53:363,1,112.5,10|0,1:2|0:0,0:0:0:0:
161,196,66017,6,0,L|150:52,1,135,12|0,0:0|0:0,0:0:0:0:
149,30,66283,1,0,1:0:0:0:
285,211,66415,2,0,P|332:211|370:189,1,90,2|8,0:0|0:0,0:0:0:0:
205,298,66681,1,10,0:0:0:0:
301,108,66814,1,0,1:0:0:0:
205,298,66946,6,0,P|126:263|25:299,1,180,10|8,0:0|0:0,0:0:0:0:
300,352,67345,2,0,P|297:307|322:263,1,90,0|0,1:0|0:0,0:0:0:0:
119,384,67610,1,10,0:0:0:0:
395,328,67743,1,10,0:0:0:0:
194,181,67876,1,0,1:0:0:0:
300,352,68008,1,2,0:0:0:0:
510,241,68141,6,0,L|377:216,1,135,12|0,0:0|0:0,0:0:0:0:
346,214,68407,2,0,P|384:190|409:149,1,90,2|0,1:2|0:0,0:0:0:0:
277,31,68672,1,10,0:0:0:0:
413,121,68805,1,8,0:0:0:0:
194,181,68938,2,0,L|56:155,1,135,2|0,1:2|0:0,0:0:0:0:
31,150,69203,5,4,1:2:0:0:
346,214,69336,1,8,0:0:0:0:
101,353,69469,1,8,0:0:0:0:
450,333,69601,5,4,1:2:0:0:
148,269,69734,1,8,0:0:0:0:
413,121,69867,1,8,0:0:0:0:
50,83,70000,5,0,1:0:0:0:
199,357,70132,1,8,0:0:0:0:
505,221,70265,6,0,B|465:195|465:195|336:215,1,168.75,12|0,1:2|0:0,0:0:0:0:
313,220,70530,1,0,1:0:0:0:
199,357,70663,2,0,P|147:358|99:326,1,90,2|8,0:0|0:0,0:0:0:0:
245,156,70929,2,0,P|267:111|264:48,1,90,10|0,0:0|1:0,0:0:0:0:
178,258,71194,1,2,0:0:0:0:
178,258,71261,1,2,0:0:0:0:
178,258,71327,5,12,0:0:0:0:
345,213,71460,1,8,0:0:0:0:
62,103,71592,2,0,L|155:90,1,90,4|0,1:2|0:0,0:0:0:0:
385,56,71858,1,10,0:0:0:0:
245,156,71991,1,10,0:0:0:0:
484,125,72123,1,0,1:0:0:0:
352,221,72256,1,2,0:0:0:0:
352,221,72323,1,2,0:0:0:0:
352,221,72389,6,0,L|341:360,1,135,10|0,0:0|0:0,0:0:0:0:
366,376,72654,2,0,L|374:274,1,90,2|0,1:2|0:0,0:0:0:0:
237,374,72920,1,10,0:0:0:0:
463,265,73053,1,8,0:0:0:0:
237,374,73185,2,0,L|83:358,1,135,2|0,1:2|0:0,0:0:0:0:
23,344,73451,6,0,P|105:342|171:275,1,168.75,12|0,0:0|0:0,0:0:0:0:
166,285,73716,1,10,1:2:0:0:
96,107,73849,6,0,B|76:96|58:74|58:74|72:161|78:219,1,161.999995056153,12|8,0:0|0:0,0:0:0:0:
102,206,74181,1,8,0:0:0:0:
102,206,74247,2,0,L|218:191,1,112.5,10|0,1:2|0:0,0:0:0:0:
352,126,74513,5,12,0:0:0:0:
166,285,74646,1,8,0:0:0:0:
449,186,74778,1,8,0:0:0:0:
196,31,74911,6,0,L|185:118,1,56.25,10|0,1:2|0:0,0:0:0:0:
449,186,75177,2,0,L|456:131,1,56.25,10|0,1:2|0:0,0:0:0:0:
213,191,75442,6,0,L|196:324,1,135,12|0,0:0|0:0,0:0:0:0:
192,355,75707,1,10,0:0:0:0:
102,206,75840,1,0,1:0:0:0:
307,331,75973,2,0,P|405:335|464:283,1,180,12|10,0:0|0:0,0:0:0:0:
192,355,76371,1,2,1:2:0:0:
360,235,76504,1,2,1:2:0:0:
193,14,76637,6,0,B|200:83|200:83|196:104|196:104|206:123|206:123|214:207,1,180,12|0,0:0|1:0,0:0:0:0:
58,70,77035,1,2,0:0:0:0:
58,70,77101,1,2,0:0:0:0:
58,70,77168,2,0,L|120:64,1,45,10|0,0:0|0:0,0:0:0:0:
352,124,77300,2,0,L|307:127,1,45,10|0,0:0|0:0,0:0:0:0:
60,177,77433,2,0,L|116:173,1,45,2|0,1:2|0:0,0:0:0:0:
360,235,77566,5,12,0:0:0:0:
360,235,78230,2,0,P|276:229|214:290,1,157.5,2|0,0:0|0:0,0:0:0:0:
222,273,78761,6,0,L|121:266,1,90,12|0,1:2|0:0,0:0:0:0:
316,322,79026,2,0,L|424:330,1,90,2|0,1:2|0:0,0:0:0:0:
210,255,79292,2,0,L|116:249,1,90,10|8,0:0|0:0,0:0:0:0:
324,339,79557,2,0,L|413:346,1,90,2|8,1:2|0:0,0:0:0:0:
222,363,79823,5,0,0:0:0:0:
411,262,79955,1,10,0:0:0:0:
306,140,80088,2,0,L|315:230,1,90,2|0,1:2|0:0,0:0:0:0:
324,339,80353,5,8,0:0:0:0:
118,302,80486,1,10,0:0:0:0:
200,165,80619,2,0,L|212:273,1,90,2|0,1:2|0:0,0:0:0:0:
0,243,80884,6,0,P|42:220|91:217,1,90,10|0,0:0|0:0,0:0:0:0:
170,54,81150,2,0,P|210:73|255:74,1,90,2|0,1:2|0:0,0:0:0:0:
87,238,81415,2,0,P|43:232|0:243,1,90,10|8,0:0|0:0,0:0:0:0:
256,39,81681,2,0,P|212:56|147:45,1,90,2|0,1:2|0:0,0:0:0:0:
102,140,81946,5,8,0:0:0:0:
296,169,82079,1,10,0:0:0:0:
210,275,82212,2,0,P|206:229|198:185,1,90,2|0,1:2|0:0,0:0:0:0:
403,193,82477,5,8,0:0:0:0:
210,275,82610,1,10,0:0:0:0:
310,361,82743,2,0,P|315:315|327:264,1,90,2|0,1:2|0:0,0:0:0:0:
259,45,83008,6,0,L|169:53,1,90,12|0,0:0|0:0,0:0:0:0:
354,123,83274,2,0,L|444:117,1,90,2|0,1:2|0:0,0:0:0:0:
233,63,83539,2,0,L|144:59,1,90,10|8,0:0|0:0,0:0:0:0:
378,107,83805,2,0,L|468:113,1,90,2|8,1:2|0:0,0:0:0:0:
233,63,84070,5,0,0:0:0:0:
360,0,84203,1,10,0:0:0:0:
260,168,84336,2,0,L|267:262,1,90,2|0,1:2|0:0,0:0:0:0:
360,0,84601,5,8,0:0:0:0:
233,63,84734,1,10,0:0:0:0:
368,189,84867,2,0,L|374:93,1,90,2|0,1:2|0:0,0:0:0:0:
124,35,85132,5,12,0:0:0:0:
260,168,85265,1,2,0:0:0:0:
233,63,85398,5,0,1:2:0:0:
186,244,85530,1,2,0:0:0:0:
153,142,85663,5,10,0:0:0:0:
300,276,85796,1,10,0:0:0:0:
300,276,85862,1,2,0:0:0:0:
300,276,85929,1,0,1:0:0:0:
493,198,86061,6,0,B|404:169|404:169|346:199,1,135,12|0,0:0|0:0,0:0:0:0:
367,188,86327,1,8,0:0:0:0:
170,265,86460,5,10,0:0:0:0:
205,250,86592,1,8,0:0:0:0:
260,168,86725,5,10,0:0:0:0:
146,140,86858,1,10,0:0:0:0:
127,24,86991,5,2,1:2:0:0:
318,84,87123,1,2,0:0:0:0:
127,24,87256,5,12,1:2:0:0:
146,140,87389,1,0,0:0:0:0:
260,168,87522,5,2,1:2:0:0:
318,84,87654,1,0,0:0:0:0:
415,113,87787,5,10,0:0:0:0:
425,203,87920,1,8,0:0:0:0:
508,209,88053,5,2,1:2:0:0:
512,170,88185,1,8,0:0:0:0:
425,203,88318,6,0,L|435:248,1,45,2|0,0:0|0:0,0:0:0:0:
325,338,88584,2,0,L|334:294,1,45,0|0,1:0|0:0,0:0:0:0:
415,196,88849,2,0,L|428:255,1,45,10|8,0:0|0:0,0:0:0:0:
317,333,89115,2,0,L|327:290,1,45,0|0,1:0|0:0,0:0:0:0:
415,113,89380,5,10,0:0:0:0:
503,301,89513,1,0,0:0:0:0:
407,97,89646,5,2,1:2:0:0:
508,209,89778,1,0,0:0:0:0:
401,83,89911,5,10,0:0:0:0:
510,120,90044,1,8,0:0:0:0:
395,69,90177,5,2,1:2:0:0:
508,209,90309,1,8,0:0:0:0:
308,130,90442,6,0,L|294:67,1,45,2|0,0:0|0:0,0:0:0:0:
76,162,90707,2,0,L|120:166,1,45,0|0,1:0|0:0,0:0:0:0:
308,84,90973,2,0,L|316:128,1,45,10|8,0:0|0:0,0:0:0:0:
110,155,91238,2,0,L|65:149,1,45,0|0,1:0|0:0,0:0:0:0:
168,0,91504,5,12,0:0:0:0:
205,110,91637,1,0,0:0:0:0:
211,129,91769,5,2,1:2:0:0:
308,84,91902,1,0,0:0:0:0:
314,105,92035,5,10,0:0:0:0:
348,217,92168,1,8,0:0:0:0:
355,238,92300,5,2,1:2:0:0:
245,250,92433,1,8,0:0:0:0:
180,360,92566,6,0,L|238:352,1,45,2|0,0:0|0:0,0:0:0:0:
349,282,92831,2,0,L|355:237,1,45,0|0,1:0|0:0,0:0:0:0:
169,371,93097,2,0,L|213:365,1,45,10|8,0:0|0:0,0:0:0:0:
361,280,93362,2,0,L|368:235,1,45,0|0,1:0|0:0,0:0:0:0:
296,6,93628,6,0,P|287:49|284:116,1,90,12|0,0:0|0:0,0:0:0:0:
368,235,93893,6,0,P|388:264|412:291,1,72,12|0,0:3|0:0,0:0:0:0:
506,135,94159,6,0,P|475:138|438:152,1,53.9999983520508,4|0,0:3|0:0,0:0:0:0:
453,145,94424,1,0,1:0:0:0:
368,235,94557,6,0,B|331:222|331:222|218:246,1,135,12|0,0:0|0:0,0:0:0:0:
215,247,94823,1,0,1:0:0:0:
464,273,94955,1,0,1:0:0:0:
186,344,95088,2,0,P|125:299|148:173,1,180,12|8,0:0|0:0,0:0:0:0:
147,179,95420,1,8,0:0:0:0:
147,179,95486,1,8,0:0:0:0:
43,348,95619,1,10,0:0:0:0:
215,247,95752,6,0,L|340:222,1,121.499996292114,12|0,0:0|0:0,0:0:0:0:
362,217,96017,2,0,P|405:235|465:223,1,80.9999975280763,2|8,0:0|0:0,0:0:0:0:
512,110,96283,1,0,1:0:0:0:
419,67,96415,2,0,B|417:149,1,80.9999975280763,2|0,0:0|0:0,0:0:0:0:
497,323,96681,2,0,B|512:314|513:283|513:283|451:351|379:302,1,161.999995056153,10|0,0:0|0:0,0:0:0:0:
318,295,97079,1,8,0:0:0:0:
318,295,97345,5,0,1:0:0:0:
249,344,97477,1,10,0:0:0:0:
163,342,97610,1,0,0:0:0:0:
101,283,97743,1,2,0:0:0:0:
89,203,97876,6,0,B|91:165|88:111|88:111|98:128|110:130,1,121.499996292114,8|0,0:0|0:0,0:0:0:0:
109,129,98141,2,0,L|16:126,1,80.9999975280763,2|8,0:0|0:0,0:0:0:0:
174,64,98407,1,0,1:0:0:0:
174,64,98539,2,0,L|277:67,1,80.9999975280763,2|0,0:0|0:0,0:0:0:0:
359,201,98805,2,0,B|345:220|338:243|338:243|328:176|324:128,1,161.999995056153,10|0,0:0|0:0,0:0:0:0:
340,37,99203,1,8,0:0:0:0:
238,159,99336,1,2,0:0:0:0:
238,159,99469,6,0,L|246:243,1,80.9999975280763,0|8,1:0|0:0,0:0:0:0:
324,129,99734,1,8,0:0:0:0:
153,207,99867,1,8,0:0:0:0:
337,250,100000,6,0,P|404:224|467:241,1,121.499996292114,12|0,0:0|0:0,0:0:0:0:
451,232,100265,2,0,L|459:142,1,80.9999975280763,2|8,0:0|0:0,0:0:0:0:
489,322,100530,1,0,1:0:0:0:
489,322,100663,2,0,L|402:315,1,80.9999975280763,10|0,0:0|0:0,0:0:0:0:
254,384,100929,2,0,B|217:341|245:283|245:283|259:323|307:331,1,161.999995056153,10|0,0:0|0:0,0:0:0:0:
337,250,101327,1,8,0:0:0:0:
337,250,101592,5,0,1:0:0:0:
412,209,101725,1,10,0:0:0:0:
427,125,101858,1,0,0:0:0:0:
396,45,101991,1,2,0:0:0:0:
324,9,102123,6,0,B|307:41|307:41|332:143,1,121.499996292114,8|0,0:0|0:0,0:0:0:0:
326,123,102389,2,0,L|243:141,1,80.9999975280763,2|8,0:0|0:0,0:0:0:0:
181,6,102654,1,0,1:0:0:0:
92,113,102787,2,0,L|170:93,1,80.9999975280763,10|0,0:0|0:0,0:0:0:0:
228,227,103053,6,0,L|104:257,1,121.499996292114,12|0,0:0|0:0,0:0:0:0:
81,263,103318,1,2,0:0:0:0:
293,299,103451,1,8,0:0:0:0:
293,299,103584,2,0,P|320:258|323:218,1,80.9999975280763,2|8,0:0|0:0,0:0:0:0:
228,227,103849,1,8,0:0:0:0:
401,295,103982,1,10,0:0:0:0:
197,332,104115,1,10,0:0:0:0:
205,340,104380,5,8,0:0:0:0:
205,340,104446,1,8,0:0:0:0:
205,340,104513,2,0,L|81:332,1,121.499996292114,12|0,0:0|0:0,0:0:0:0:
3,315,104778,6,0,P|91:309|140:234,2,161.999995056153,4|0|10,0:1|1:0|0:0,0:0:0:0:
3,315,105441,1,8,0:0:0:0:
205,340,105574,1,0,1:0:0:0:
43,225,105707,2,0,B|34:155|19:118|19:118|47:143|73:140,1,161.999995056153,10|8,0:0|0:0,0:0:0:0:
227,187,106105,2,0,L|141:185,1,80.9999975280763,2|0,1:2|0:0,0:0:0:0:
298,120,106370,1,8,0:0:0:0:
298,120,106503,1,8,0:0:0:0:
91,55,106636,2,0,L|214:61,1,121.499996292114,2|0,1:2|0:0,0:0:0:0:
233,39,106901,6,0,P|309:20|390:75,1,161.999995056153,8|0,0:0|1:0,0:0:0:0:
465,178,107300,2,0,L|473:91,1,80.9999975280763,2|8,0:0|0:0,0:0:0:0:
298,120,107565,1,10,0:0:0:0:
469,197,107698,1,0,1:0:0:0:
379,359,107831,2,0,L|366:192,1,161.999995056153,10|8,0:0|0:0,0:0:0:0:
281,332,108229,2,0,L|200:334,1,80.9999975280763,2|0,1:3|0:0,0:0:0:0:
474,306,108494,1,8,0:0:0:0:
474,306,108627,1,8,0:0:0:0:
277,234,108760,2,0,L|138:239,1,121.499996292114,0|0,1:0|0:0,0:0:0:0:
130,253,109025,6,0,P|139:213|128:162,1,80.9999975280763,8|0,0:0|0:0,0:0:0:0:
74,76,109291,2,0,P|130:130|212:125,1,161.999995056153,2|10,1:2|0:0,0:0:0:0:
209,126,109689,1,8,0:0:0:0:
46,210,109822,1,0,1:0:0:0:
168,36,109954,2,0,P|259:36|314:112,1,161.999995056153,10|8,0:0|0:0,0:0:0:0:
406,200,110353,2,0,P|401:160|414:121,1,80.9999975280763,2|0,1:2|0:0,0:0:0:0:
294,211,110618,1,8,0:0:0:0:
294,211,110751,1,8,0:0:0:0:
487,307,110884,2,0,L|365:290,1,121.499996292114,2|0,1:2|0:0,0:0:0:0:
343,305,111149,6,0,P|274:314|199:256,1,161.999995056153,10|0,0:0|1:0,0:0:0:0:
80,97,111547,1,2,0:0:0:0:
2,205,111680,1,10,0:0:0:0:
42,197,111747,1,2,0:0:0:0:
81,189,111813,1,10,0:0:0:0:
120,180,111879,1,2,0:0:0:0:
159,171,111946,2,0,P|177:144|183:120,1,56.25,2|0,1:2|0:0,0:0:0:0:
21,79,112078,6,0,B|-27:116|-27:116|102:92,1,168.75,12|0,0:0|0:0,0:0:0:0:
251,47,112344,2,0,P|271:70|282:114,1,56.25,10|0,0:0|0:0,0:0:0:0:
140,277,112477,2,0,L|84:288,1,56.25,10|0,0:0|0:0,0:0:0:0:
159,171,112609,1,4,1:2:0:0:
159,171,112875,5,10,0:0:0:0:
275,201,113008,2,0,L|451:169,1,168.75,2|0,1:2|0:0,0:0:0:0:
467,152,113273,6,0,B|437:227|515:216|473:316,2,161.999995056153,4|0|10,0:1|1:0|0:0,0:0:0:0:
467,152,113937,1,8,0:0:0:0:
339,17,114070,1,0,1:0:0:0:
287,102,114202,2,0,P|377:105|438:39,1,161.999995056153,10|8,0:0|0:0,0:0:0:0:
275,201,114601,2,0,L|179:189,1,80.9999975280763,2|0,1:2|0:0,0:0:0:0:
373,254,114866,1,8,0:0:0:0:
373,254,114999,1,8,0:0:0:0:
284,384,115131,2,0,B|264:291|264:291|295:313,1,121.499996292114,2|0,1:2|0:0,0:0:0:0:
286,306,115397,6,0,L|200:298,1,80.9999975280763,10|0,0:0|0:0,0:0:0:0:
25,284,115662,1,0,1:0:0:0:
113,384,115795,6,0,B|123:255|123:255|86:206,1,168.75,10|0,0:0|0:0,0:0:0:0:
75,203,116061,2,0,L|200:187,1,112.5,2|8,0:0|0:0,0:0:0:0:
395,150,116326,6,0,P|331:166|252:110,1,161.999995056153,12|8,0:0|0:0,0:0:0:0:
155,0,116724,2,0,L|170:94,1,80.9999975280763,2|0,1:2|0:0,0:0:0:0:
274,247,116990,1,8,0:0:0:0:
101,199,117123,1,8,0:0:0:0:
101,199,117189,1,8,0:0:0:0:
101,199,117255,2,0,B|81:179|81:179|139:191|198:188,1,135,2|0,1:2|0:0,0:0:0:0:
215,173,117521,6,0,P|177:246|216:326,1,161.999995056153,12|0,0:0|1:0,0:0:0:0:
369,283,117919,2,0,L|464:266,1,80.9999975280763,2|8,0:0|0:0,0:0:0:0:
274,247,118185,1,10,0:0:0:0:
468,265,118317,1,0,1:0:0:0:
291,356,118450,6,0,L|127:344,1,161.999995056153,12|8,0:0|0:0,0:0:0:0:
0,246,118848,2,0,L|96:254,1,80.9999975280763,2|0,1:2|0:0,0:0:0:0:
112,237,119047,1,2,0:0:0:0:
112,237,119114,2,0,L|115:192,1,40.4999987640381,10|0,0:0|0:0,0:0:0:0:
38,344,119247,2,0,L|32:398,1,40.4999987640381,8|0,0:0|0:0,0:0:0:0:
202,231,119379,6,0,B|210:107|210:107|197:126|163:138,1,168.75,2|0,1:2|0:0,0:0:0:0:
137,51,119645,5,4,1:2:0:0:
382,139,119778,1,8,0:0:0:0:
114,196,119910,1,8,0:0:0:0:
410,0,120043,5,4,1:2:0:0:
174,133,120176,1,8,0:0:0:0:
432,217,120308,1,8,0:0:0:0:
102,284,120441,5,2,1:2:0:0:
213,25,120574,2,0,P|276:92|269:183,1,180,12|8,0:0|0:0,0:0:0:0:
22,213,120972,5,2,1:2:0:0:
39,198,121039,1,2,0:0:0:0:
58,186,121105,1,2,0:0:0:0:
79,179,121171,1,2,0:0:0:0:
101,176,121238,5,10,0:0:0:0:
145,184,121304,1,2,0:0:0:0:
180,211,121370,1,10,0:0:0:0:
201,250,121437,1,2,0:0:0:0:
209,293,121503,6,0,L|366:269,1,135,2|0,1:2|0:0,0:0:0:0:
412,124,121769,6,0,B|396:195|396:195|427:219|430:253,1,135.000005149842,4|2,0:1|0:0,0:0:0:0:
355,371,122167,1,8,0:0:0:0:
512,340,122300,2,0,L|445:344,1,67.5000025749208,2|0,1:2|0:0,0:0:0:0:
342,272,122565,1,2,0:0:0:0:
342,272,122698,2,0,P|281:250|202:280,1,135.000005149842,10|0,0:0|0:0,0:0:0:0:
59,278,123096,2,0,L|60:203,1,67.5000025749208,8|0,0:0|0:0,0:0:0:0:
276,338,123362,1,0,1:0:0:0:
138,384,123494,1,2,0:0:0:0:
138,384,123627,2,0,L|138:303,1,67.5000025749208
10,137,123893,6,0,P|75:123|132:157,1,135.000005149842,10|0,0:0|0:0,0:0:0:0:
269,94,124291,2,0,L|187:89,1,67.5000025749208,10|0,0:0|1:0,0:0:0:0:
191,228,124556,2,0,L|272:232,1,67.5000025749208,2|0,0:0|0:0,0:0:0:0:
391,132,124822,2,0,B|356:166|356:166|356:266,1,135.000005149842,10|0,0:0|0:0,0:0:0:0:
447,277,125220,2,0,L|448:190,1,67.5000025749208,8|0,0:0|0:0,0:0:0:0:
380,346,125485,1,0,1:0:0:0:
290,322,125618,1,8,0:0:0:0:
290,322,125751,2,0,L|212:319,1,67.5000025749208,8|0,0:0|0:0,0:0:0:0:
52,274,126016,6,0,P|137:270|184:224,1,135.000005149842,10|2,0:0|0:0,0:0:0:0:
6,196,126415,1,8,0:0:0:0:
100,122,126547,2,0,L|97:189,1,67.5000025749208,2|0,1:2|0:0,0:0:0:0:
217,158,126813,1,0,0:0:0:0:
217,158,126946,2,0,B|307:163|307:163|359:129,1,135.000005149842,10|0,0:0|0:0,0:0:0:0:
190,7,127344,2,0,L|187:80,1,67.5000025749208,10|0,0:0|0:0,0:0:0:0:
371,41,127609,1,0,1:0:0:0:
281,75,127742,1,0,0:0:0:0:
281,75,127875,2,0,L|279:1,1,67.5000025749208,2|0,0:0|0:0,0:0:0:0:
469,143,128140,6,0,P|417:120|351:137,1,101.250003862381,10|0,0:0|0:0,0:0:0:0:
344,138,128406,1,4,0:0:0:0:
492,231,128539,1,8,0:0:0:0:
400,349,128671,2,0,L|404:214,1,135.000005149842,0|10,1:0|0:0,0:0:0:0:
281,75,129070,6,0,B|313:127|294:203|294:203|274:173|232:157,1,180,12|8,0:0|0:0,0:0:0:0:
122,257,129468,2,0,L|212:250,1,90,0|0,1:0|0:0,0:0:0:0:
476,249,129733,5,10,1:2:0:0:
443,282,129822,5,8,0:0:0:0:
396,289,129910,5,8,0:0:0:0:
351,273,129999,5,10,1:2:0:0:
327,231,130087,5,10,0:0:0:0:
336,183,130176,5,10,0:0:0:0:
404,214,130264,6,0,L|398:354,1,135,12|0,0:0|0:0,0:0:0:0:
396,375,130530,1,0,1:0:0:0:
254,339,130662,2,0,L|164:345,1,90,2|8,0:0|0:0,0:0:0:0:
404,214,130928,2,0,L|498:207,1,90,10|0,0:0|1:0,0:0:0:0:
268,70,131193,6,0,B|305:180|305:180|285:241,1,180,10|8,0:0|0:0,0:0:0:0:
108,182,131592,2,0,L|218:178,1,90,0|0,1:0|0:0,0:0:0:0:
155,0,131857,1,10,0:0:0:0:
155,0,131990,1,8,0:0:0:0:
43,94,132123,2,0,L|196:88,1,135,2|0,1:2|0:0,0:0:0:0:
249,59,132388,6,0,B|196:106|197:178|197:178|208:165|250:160,1,168.75,12|0,0:0|0:0,0:0:0:0:
246,236,132654,1,0,1:0:0:0:
469,90,132786,6,0,L|419:84,1,33.7500012874604,10|0,0:0|0:0,0:0:0:0:
225,330,133052,2,0,L|180:336,1,33.7500012874604,10|0,0:0|0:0,0:0:0:0:
412,255,133317,6,0,B|362:223|292:260|292:260|272:238|225:232,1,180,12|8,0:0|0:0,0:0:0:0:
359,335,133716,1,0,1:0:0:0:
465,180,133848,1,2,0:0:0:0:
465,180,133915,1,2,0:0:0:0:
465,180,133981,2,0,L|471:70,1,90,10|8,0:0|0:0,0:0:0:0:
245,235,134247,1,0,1:0:0:0:
359,335,134379,1,2,0:0:0:0:
283,144,134512,6,0,P|195:148|145:234,1,180,12|0,0:0|1:0,0:0:0:0:
366,342,134910,1,2,0:0:0:0:
366,342,134977,1,2,0:0:0:0:
366,342,135043,2,0,L|374:239,1,90,8|10,0:0|0:0,0:0:0:0:
245,235,135308,1,0,1:0:0:0:
105,354,135441,6,0,B|147:321|147:321|283:336,1,180,10|8,0:0|0:0,0:0:0:0:
372,153,135839,2,0,L|273:142,1,90,2|0,1:2|0:0,0:0:0:0:
66,184,136105,1,10,0:0:0:0:
245,235,136238,1,8,0:0:0:0:
145,45,136370,2,0,B|135:141|135:141|122:120|87:99,1,135,2|0,1:2|0:0,0:0:0:0:
66,184,136636,6,0,P|154:112|227:133,1,168.75,12|0,0:0|0:0,0:0:0:0:
282,143,136901,2,0,L|411:129,1,112.5,4|0,1:2|0:0,0:0:0:0:
326,41,137167,1,10,0:0:0:0:
245,235,137300,1,10,0:0:0:0:
326,41,137432,1,0,1:0:0:0:
452,216,137565,6,0,B|342:229|342:229|381:234|400:264,1,168.75,4|0,1:2|0:0,0:0:0:0:
274,322,137831,1,10,0:0:0:0:
274,322,137897,1,8,0:0:0:0:
274,322,137963,6,0,L|334:312,1,56.25,10|0,0:0|0:0,0:0:0:0:
136,255,138096,2,0,L|81:262,1,56.25,10|0,0:0|0:0,0:0:0:0:
304,339,138229,6,0,L|378:350,1,56.25,10|0,0:0|0:0,0:0:0:0:
108,235,138362,2,0,L|53:226,1,56.25,10|0,0:0|0:0,0:0:0:0:
336,366,138494,6,0,L|402:389,1,56.25,10|0,0:0|0:0,0:0:0:0:
87,208,138627,2,0,L|29:189,1,56.25,10|0,0:0|0:0,0:0:0:0:
166,358,138760,5,2,1:2:0:0:
245,235,138893,2,0,L|239:155,1,80.9999975280763
166,358,139158,5,2,0:0:0:0:
0,267,139291,2,0,L|86:261,1,80.9999975280763
166,358,139556,5,2,0:0:0:0:
374,318,139689,2,0,L|293:324,1,80.9999975280763
166,358,139954,5,2,0:0:0:0:
374,318,140087,1,0,0:0:0:0:
240,178,140220,2,0,L|245:235,1,56.25,2|2,0:0|0:0,0:0:0:0:
162,269,140353,6,0,L|152:154,1,112.5,2|8,1:2|0:0,0:0:0:0:
93,108,140552,1,10,0:0:0:0:
93,108,140618,2,0,P|176:116|245:57,1,168.75,10|0,1:2|0:0,0:0:0:0:
418,31,140884,6,0,B|351:0|294:2|294:2|319:20|324:54,1,168.75,12|0,1:2|0:0,0:0:0:0:
325,60,141149,1,0,1:0:0:0:
502,178,141282,2,0,L|508:82,1,90,2|8,0:0|0:0,0:0:0:0:
413,228,141547,2,0,L|405:321,1,90,10|0,0:0|1:0,0:0:0:0:
329,171,141813,1,2,0:0:0:0:
329,171,141879,1,2,0:0:0:0:
329,171,141946,5,12,0:0:0:0:
505,279,142078,1,8,0:0:0:0:
305,360,142211,2,0,L|201:346,1,90,4|0,1:2|0:0,0:0:0:0:
0,384,142477,1,10,0:0:0:0:
192,346,142609,1,10,0:0:0:0:
48,179,142742,1,0,1:0:0:0:
79,291,142875,1,2,0:0:0:0:
79,291,142941,1,2,0:0:0:0:
79,291,143008,6,0,L|222:261,1,135,10|0,0:0|0:0,0:0:0:0:
238,264,143273,2,0,P|285:285|337:277,1,90,2|0,1:2|0:0,0:0:0:0:
407,65,143539,1,10,0:0:0:0:
297,184,143671,1,8,0:0:0:0:
435,323,143804,2,0,L|435:178,1,135,2|0,1:2|0:0,0:0:0:0:
409,169,144070,6,0,L|410:356,1,168.75,12|0,0:0|0:0,0:0:0:0:
389,355,144335,1,10,1:2:0:0:
364,79,144468,6,0,P|443:79|499:136,1,161.999995056153,12|8,0:0|0:0,0:0:0:0:
512,170,144800,1,8,0:0:0:0:
512,170,144866,2,0,L|511:293,1,112.5,10|0,1:2|0:0,0:0:0:0:
274,162,145131,6,0,L|440:170,1,135,12|0,0:0|0:0,0:0:0:0:
435,188,145397,1,0,1:0:0:0:
221,258,145530,2,0,L|131:254,1,90,2|8,0:0|0:0,0:0:0:0:
303,338,145795,1,10,0:0:0:0:
274,162,145928,1,0,1:0:0:0:
303,338,146061,6,0,B|245:362|245:362|109:355,1,180,10|8,0:0|0:0,0:0:0:0:
356,249,146459,2,0,P|395:288|405:337,1,90,0|0,1:0|0:0,0:0:0:0:
221,258,146724,1,10,0:0:0:0:
404,320,146857,1,10,0:0:0:0:
221,258,146990,1,0,1:0:0:0:
464,173,147123,1,2,0:0:0:0:
285,12,147255,6,0,L|275:156,1,135,12|0,0:0|0:0,0:0:0:0:
279,176,147521,2,0,P|318:152|370:146,1,90,2|0,1:2|0:0,0:0:0:0:
221,258,147786,1,10,0:0:0:0:
464,173,147919,1,8,0:0:0:0:
192,83,148052,2,0,L|47:71,1,135,2|0,1:2|0:0,0:0:0:0:
34,64,148317,5,4,1:2:0:0:
279,176,148450,1,8,0:0:0:0:
13,57,148583,1,8,0:0:0:0:
356,75,148716,5,4,1:2:0:0:
59,188,148848,1,8,0:0:0:0:
377,66,148981,1,8,0:0:0:0:
103,307,149114,5,0,1:0:0:0:
240,9,149247,1,8,0:0:0:0:
482,228,149379,6,0,B|366:201|366:201|306:225,1,168.75,12|0,1:2|0:0,0:0:0:0:
295,231,149645,1,0,1:0:0:0:
451,122,149778,2,0,P|468:79|467:26,1,90,2|8,0:0|0:0,0:0:0:0:
374,304,150043,2,0,P|381:347|410:381,1,90,10|0,0:0|1:0,0:0:0:0:
491,234,150308,1,2,0:0:0:0:
491,234,150375,1,2,0:0:0:0:
491,234,150441,5,12,0:0:0:0:
268,332,150574,1,8,0:0:0:0:
368,54,150707,2,0,L|261:46,1,90,4|0,1:2|0:0,0:0:0:0:
374,304,150972,1,10,0:0:0:0:
451,122,151105,1,10,0:0:0:0:
479,376,151238,1,0,1:0:0:0:
187,278,151370,1,2,0:0:0:0:
187,278,151437,1,2,0:0:0:0:
187,278,151503,6,0,P|244:240|332:259,1,135,10|0,0:0|0:0,0:0:0:0:
374,304,151769,2,0,L|486:277,1,90,2|0,1:2|0:0,0:0:0:0:
268,332,152034,1,10,0:0:0:0:
484,277,152167,1,8,0:0:0:0:
363,28,152300,2,0,B|315:109|315:109|327:147,1,135,2|0,1:2|0:0,0:0:0:0:
379,208,152565,6,0,P|323:165|214:187,1,168.75,12|0,0:0|0:0,0:0:0:0:
229,175,152831,1,10,1:2:0:0:
135,343,152963,6,0,B|155:354|173:376|173:376|178:319|172:253,1,161.999995056153,12|8,0:0|0:0,0:0:0:0:
150,247,153295,1,8,0:0:0:0:
150,247,153362,2,0,L|30:241,1,112.5,10|0,1:2|0:0,0:0:0:0:
290,252,153627,5,12,0:0:0:0:
67,137,153760,1,8,0:0:0:0:
397,209,153893,1,8,0:0:0:0:
145,303,154025,6,0,L|150:241,1,56.25,10|0,1:2|0:0,0:0:0:0:
401,152,154291,2,0,L|397:209,1,56.25,10|0,1:2|0:0,0:0:0:0:
241,162,154556,6,0,L|250:27,1,135,12|0,0:0|0:0,0:0:0:0:
253,0,154822,1,10,0:0:0:0:
401,152,154954,1,0,1:0:0:0:
149,246,155087,2,0,P|240:199|321:221,1,180,12|10,0:0|0:0,0:0:0:0:
473,383,155485,1,2,1:2:0:0:
248,294,155618,1,2,1:2:0:0:
485,111,155751,6,0,B|505:159|482:202|482:202|496:242|496:242|490:284,1,180,12|0,0:0|1:0,0:0:0:0:
356,149,156149,1,2,0:0:0:0:
356,149,156216,1,2,0:0:0:0:
356,149,156282,2,0,L|418:153,1,45,10|0,0:0|0:0,0:0:0:0:
203,290,156415,2,0,L|248:294,1,45,10|0,0:0|0:0,0:0:0:0:
131,78,156547,2,0,L|194:83,1,45,2|0,1:2|0:0,0:0:0:0:
428,361,156680,1,12,0:0:0:0:
428,361,157278,6,0,P|500:333|443:286,1,180,2|0,0:0|0:0,0:0:0:0:
369,305,157875,6,0,B|281:328|281:252|197:279,2,180,6|2|2,0:0|0:0|0:0,0:0:0:0:
369,305,161061,1,2,0:0:0:0:
49,351,162123,6,0,L|45:297,1,45,2|0,0:0|0:0,0:0:0:0:
116,260,162654,2,0,L|111:207,1,45,2|0,0:0|0:0,0:0:0:0:
40,169,163185,2,0,L|49:74,1,90,2|2,0:0|0:0,0:0:0:0:
48,79,164247,6,0,P|147:92|207:41,1,180,2|2,0:0|0:0,0:0:0:0:
204,45,165839,2,0,L|199:97,1,45,2|0,0:0|0:0,0:0:0:0:
150,165,166370,6,0,P|209:133|277:145,1,135.000005149842,4|0,1:0|0:0,0:0:0:0:
444,272,166769,1,8,0:0:0:0:
349,263,166901,2,0,L|353:196,1,67.5000025749208,2|0,1:2|0:0,0:0:0:0:
388,347,167167,1,8,0:0:0:0:
450,205,167300,1,8,0:0:0:0:
450,205,167366,1,8,0:0:0:0:
450,205,167432,6,0,L|443:285,1,67.5000025749208,10|0,0:0|0:0,0:0:0:0:
294,340,167698,2,0,L|227:333,1,67.5000025749208,8|0,0:0|0:0,0:0:0:0:
205,332,167897,1,0,0:0:0:0:
205,332,167963,1,2,0:0:0:0:
121,379,168096,1,8,0:0:0:0:
43,329,168229,2,0,L|52:257,1,67.5000025749208,0|0,1:0|0:0,0:0:0:0:
175,176,168494,6,0,B|151:142|151:142|141:242,1,135.000005149842,10|0,0:0|0:0,0:0:0:0:
238,251,168893,1,8,0:0:0:0:
238,251,169025,2,0,L|333:258,1,67.5000025749208,2|0,1:2|0:0,0:0:0:0:
449,272,169291,1,0,0:0:0:0:
379,321,169424,1,8,0:0:0:0:
379,321,169490,1,8,0:0:0:0:
379,321,169556,5,10,0:0:0:0:
305,255,169689,1,8,0:0:0:0:
387,205,169822,1,2,0:0:0:0:
456,280,169954,1,8,0:0:0:0:
456,280,170021,1,8,0:0:0:0:
456,280,170087,1,10,0:0:0:0:
305,255,170220,1,8,0:0:0:0:
394,137,170353,2,0,L|385:213,1,67.5000025749208,2|0,1:2|0:0,0:0:0:0:
291,347,170618,6,0,L|130:326,1,135.000005149842,10|0,0:0|0:0,0:0:0:0:
4,208,171016,1,8,0:0:0:0:
4,208,171149,2,0,L|-1:289,1,67.5000025749208,2|0,1:2|0:0,0:0:0:0:
142,247,171415,1,8,0:0:0:0:
73,372,171547,1,8,0:0:0:0:
73,372,171614,1,8,0:0:0:0:
73,372,171680,6,0,L|79:288,1,67.5000025749208,10|0,0:0|0:0,0:0:0:0:
224,272,171946,2,0,L|312:280,1,67.5000025749208,8|0,0:0|0:0,0:0:0:0:
317,283,172145,1,0,0:0:0:0:
317,283,172211,1,2,0:0:0:0:
289,374,172344,1,8,0:0:0:0:
412,270,172477,2,0,L|420:202,1,67.5000025749208,0|0,1:0|0:0,0:0:0:0:
512,371,172742,6,0,L|379:355,1,135.000005149842,10|0,0:0|0:0,0:0:0:0:
419,202,173140,1,8,0:0:0:0:
419,202,173273,2,0,L|407:286,1,67.5000025749208,2|0,1:2|0:0,0:0:0:0:
289,374,173539,1,0,0:0:0:0:
317,283,173671,1,8,0:0:0:0:
317,283,173738,1,8,0:0:0:0:
317,283,173804,5,10,0:0:0:0:
379,355,173937,1,8,0:0:0:0:
221,306,174070,1,2,0:0:0:0:
409,268,174202,1,8,0:0:0:0:
409,268,174269,1,8,0:0:0:0:
409,268,174335,1,10,0:0:0:0:
289,374,174468,1,8,0:0:0:0:
245,216,174601,1,2,1:2:0:0:
245,216,174866,6,0,P|188:181|122:188,1,135.000005149842,4|0,1:0|0:0,0:0:0:0:
39,74,175264,1,8,0:0:0:0:
39,74,175397,2,0,L|45:141,1,67.5000025749208,2|0,1:2|0:0,0:0:0:0:
220,10,175662,1,8,0:0:0:0:
140,111,175795,1,8,0:0:0:0:
140,111,175862,1,8,0:0:0:0:
140,111,175928,6,0,L|130:29,1,67.5000025749208,10|0,0:0|0:0,0:0:0:0:
233,92,176193,2,0,L|304:82,1,67.5000025749208,8|0,0:0|0:0,0:0:0:0:
328,82,176393,1,0,0:0:0:0:
328,82,176459,1,2,0:0:0:0:
386,12,176592,1,8,0:0:0:0:
465,54,176724,2,0,L|483:139,1,67.5000025749208,0|0,1:0|0:0,0:0:0:0:
410,227,176990,6,0,B|394:139|394:139|379:162|340:166,1,135.000005149842,10|0,0:0|0:0,0:0:0:0:
260,76,177388,1,8,0:0:0:0:
260,76,177521,2,0,L|342:83,1,67.5000025749208,2|0,1:2|0:0,0:0:0:0:
465,54,177786,1,0,0:0:0:0:
386,12,177919,1,8,0:0:0:0:
386,12,177985,1,8,0:0:0:0:
386,12,178052,5,10,0:0:0:0:
327,81,178185,1,8,0:0:0:0:
411,128,178317,1,2,0:0:0:0:
473,61,178450,1,8,0:0:0:0:
473,61,178516,1,8,0:0:0:0:
473,61,178583,1,10,0:0:0:0:
327,81,178716,1,8,0:0:0:0:
422,194,178848,2,0,L|410:127,1,67.5000025749208,2|0,1:2|0:0,0:0:0:0:
290,0,179114,6,0,L|143:17,1,135.000005149842,10|0,0:0|0:0,0:0:0:0:
25,88,179512,1,8,0:0:0:0:
25,88,179645,2,0,L|109:77,1,67.5000025749208,2|0,1:2|0:0,0:0:0:0:
182,102,179910,1,0,0:0:0:0:
49,181,180043,1,8,0:0:0:0:
49,181,180109,1,8,0:0:0:0:
49,181,180176,6,0,L|128:168,1,67.5000025749208,10|0,0:0|0:0,0:0:0:0:
166,7,180441,2,0,L|178:86,1,67.5000025749208,8|0,0:0|0:0,0:0:0:0:
181,101,180640,1,0,0:0:0:0:
181,101,180707,1,2,0:0:0:0:
257,152,180839,1,8,0:0:0:0:
334,54,180972,2,0,L|254:63,1,67.5000025749208,0|0,1:0|0:0,0:0:0:0:
257,152,181238,6,0,L|399:137,1,135.000005149842,10|0,0:0|0:0,0:0:0:0:
490,42,181636,1,8,0:0:0:0:
490,42,181769,2,0,L|406:53,1,67.5000025749208,2|0,1:2|0:0,0:0:0:0:
391,137,182034,1,8,0:0:0:0:
496,198,182167,1,8,0:0:0:0:
496,198,182233,1,8,0:0:0:0:
496,198,182300,6,0,L|482:124,1,67.5000025749208,10|0,0:0|0:0,0:0:0:0:
257,152,182565,1,0,1:0:0:0:
399,181,182698,1,8,0:0:0:0:
399,181,182764,1,8,0:0:0:0:
399,181,182831,2,0,L|390:136,1,45,8|0,0:0|0:0,0:0:0:0:
159,92,182963,2,0,L|166:149,1,45,8|0,1:2|0:0,0:0:0:0:
331,255,183096,5,0,1:0:0:0:
369,277,183162,1,0,1:0:0:0:
414,280,183229,1,0,1:0:0:0:
455,263,183295,1,0,1:0:0:0:
489,229,183362,6,0,L|474:34,1,168.75,4|0,1:0|0:0,0:0:0:0:
476,60,183627,1,0,1:0:0:0:
245,202,183760,6,0,P|317:162|398:180,1,168.75,4|0,1:0|0:0,0:0:0:0:
398,180,184025,1,0,1:0:0:0:
214,313,184158,6,0,P|144:267|62:275,1,168.75,4|0,1:0|0:0,0:0:0:0:
62,274,184424,1,0,1:0:0:0:
310,369,184556,5,0,1:0:0:0:
245,202,184689,1,2,1:2:0:0:
121,367,184822,1,0,1:0:0:0:
341,268,184954,5,2,1:2:0:0:
145,239,185087,1,2,1:2:0:0:
339,166,185220,5,2,1:2:0:0:
214,313,185353,1,2,1:2:0:0:
451,346,185485,6,0,P|485:260|457:189,1,168.75,4|0,1:0|0:0,0:0:0:0:
459,192,185751,1,0,1:0:0:0:
319,357,185884,6,0,L|116:341,1,168.75,4|0,1:0|0:0,0:0:0:0:
150,343,186149,1,0,1:0:0:0:
377,266,186282,6,0,L|184:250,1,168.75,4|0,1:0|0:0,0:0:0:0:
208,252,186547,1,0,1:0:0:0:
451,346,186680,5,0,1:0:0:0:
302,171,186813,1,2,1:2:0:0:
319,357,186946,1,2,1:2:0:0:
439,135,187078,1,2,1:2:0:0:
208,252,187211,6,0,B|270:256|270:256|277:261|277:261|288:256|288:256|292:261|292:261|369:264,1,161.999995056153,4|8,1:0|0:0,0:0:0:0:
440,318,187543,1,8,0:0:0:0:
439,317,187609,6,0,B|405:269|405:269|433:157,1,168.75,4|0,1:0|0:0,0:0:0:0:
439,135,187875,1,0,1:0:0:0:
262,9,188008,6,0,B|237:109|237:109|261:164|301:169,1,168.75,4|0,1:0|0:0,0:0:0:0:
302,171,188273,1,0,1:0:0:0:
150,319,188406,6,0,B|98:350|30:343|30:343|15:320|9:294,1,168.75,4|0,1:0|0:0,0:0:0:0:
6,274,188671,1,0,1:0:0:0:
251,362,188804,5,0,1:0:0:0:
101,226,188937,1,2,1:2:0:0:
251,362,189070,1,0,1:0:0:0:
273,155,189202,5,2,1:2:0:0:
150,319,189335,1,2,1:2:0:0:
276,160,189468,5,2,1:2:0:0:
101,226,189601,1,2,1:2:0:0:
392,216,189733,6,0,L|498:199,1,90,4|0,1:2|0:0,0:0:0:0:
389,319,189999,2,0,L|496:301,1,90,0|0,1:0|0:0,0:0:0:0:
270,362,190264,1,10,0:0:0:0:
270,362,190397,1,8,0:0:0:0:
392,216,190530,1,0,1:0:0:0:
246,48,190662,6,0,B|268:115|289:167|289:167|275:192|272:243,1,180,10|8,0:0|0:0,0:0:0:0:
93,172,191061,2,0,L|202:167,1,90,2|0,1:2|0:0,0:0:0:0:
392,216,191326,1,8,0:0:0:0:
392,216,191459,1,8,0:0:0:0:
278,308,191592,2,0,L|274:219,1,90,2|0,1:2|0:0,0:0:0:0:
146,90,191857,6,0,P|69:78|-3:146,1,168.75,12|0,1:2|0:0,0:0:0:0:
37,257,192123,2,0,P|114:269|186:201,1,168.75,12|0,1:2|0:0,0:0:0:0:
257,51,192388,6,0,L|242:109,1,56.25,8|0,0:0|0:0,0:0:0:0:
262,273,192521,2,0,L|275:219,1,56.25,8|0,0:0|0:0,0:0:0:0:
360,30,192654,2,0,L|341:102,1,56.25,2|0,1:2|0:0,0:0:0:0:
470,206,192786,6,0,B|344:172|344:172|362:198|354:232,1,168.75,4|0,1:2|0:0,0:0:0:0:
275,219,193052,1,0,1:0:0:0:
506,288,193185,5,2,1:2:0:0:
438,117,193317,1,2,1:2:0:0:
363,341,193450,5,2,1:2:0:0:
345,84,193583,1,2,1:2:0:0:
205,345,193716,5,2,1:2:0:0:
257,51,193848,1,2,1:2:0:0:
470,206,193981,6,0,B|423:262|343:266|343:266|362:236|352:200,1,202.500007724762,4|0,1:2|0:0,0:0:0:0:
141,196,194247,2,0,L|292:222,1,135.000005149842,4|0,1:2|0:0,0:0:0:0:
289,141,194446,1,0,1:0:0:0:
289,141,194512,2,0,L|217:127,1,67.5000025749208,0|0,1:0|0:0,0:0:0:0:
75,252,194645,6,0,P|90:334|151:277,1,202.500007724762,4|0,1:2|0:0,0:0:0:0:
141,196,194910,6,0,B|140:116|124:15|-50:83|16:194|50:233|120:191|162:161|121:123|182:112|226:130,1,405,12|2,1:2|0:0,0:0:0:0:
221,128,204601,6,0,P|282:131|316:106,1,90,2|0,0:0|0:0,0:0:0:0:
360,53,204999,2,0,P|355:29|351:-1,1,45,2|0,0:0|0:0,0:0:0:0:
436,92,205264,2,0,P|428:146|423:198,1,90,2|0,0:0|0:0,0:0:0:0:
424,181,205662,5,2,0:0:0:0:
347,357,206193,2,0,P|341:332|336:311,1,45,2|0,0:0|0:0,0:0:0:0:
271,225,206459,2,0,P|265:246|261:268,1,45,2|0,0:0|0:0,0:0:0:0:
236,384,206724,6,0,P|192:378|134:371,1,90,2|0,0:0|0:0,0:0:0:0:
0,277,207255,2,0,P|57:268|109:259,1,90,2|0,0:0|0:0,0:0:0:0:
271,225,207786,5,2,0:0:0:0:
271,225,208052,5,0,0:0:0:0:
225,145,208185,1,2,0:0:0:0:
182,68,208848,6,0,P|186:36|193:11,2,45,2|0|0,0:0|0:0|0:0,0:0:0:0:
225,145,209247,2,0,P|274:137|318:132,1,90,2|0,0:0|0:0,0:0:0:0:
464,69,209778,2,0,P|413:63|359:59,1,90,2|0,0:0|0:0,0:0:0:0:
374,60,210176,1,0,0:0:0:0:
480,216,210308,1,2,0:0:0:0:
484,219,210972,5,2,0:0:0:0:
484,219,211238,5,0,0:0:0:0:
431,151,211370,1,2,0:0:0:0:
429,44,211636,5,2,0:0:0:0:
302,287,211901,5,4,0:0:0:0:
308,342,212698,6,0,L|302:287,1,56.25,8|8,0:0|0:0,0:0:0:0:
337,209,212831,2,0,P|412:214|370:277,1,168.75,8|0,1:2|0:0,0:0:0:0:
301,286,213096,6,0,B|186:267|186:267|128:294,1,168.75,12|0,1:2|0:0,0:0:0:0:
111,303,213362,1,0,1:0:0:0:
145,97,213494,2,0,B|175:129|175:129|179:174,1,90,2|8,0:0|0:0,0:0:0:0:
43,384,213760,2,0,B|12:351|12:351|9:306,1,90,10|0,0:0|1:0,0:0:0:0:
337,209,214025,1,2,0:0:0:0:
337,209,214092,1,2,0:0:0:0:
337,209,214158,5,12,0:0:0:0:
111,303,214291,1,8,0:0:0:0:
402,307,214424,2,0,L|502:293,1,90,4|0,1:2|0:0,0:0:0:0:
337,209,214689,1,10,0:0:0:0:
294,384,214822,1,10,0:0:0:0:
500,185,214954,1,0,1:0:0:0:
225,97,215087,1,2,0:0:0:0:
225,97,215154,1,2,0:0:0:0:
225,97,215220,6,0,B|191:187|191:187|234:237,1,135,10|0,0:0|0:0,0:0:0:0:
247,216,215485,2,0,L|339:208,1,90,2|0,1:2|0:0,0:0:0:0:
186,320,215751,1,10,0:0:0:0:
358,205,215884,1,8,0:0:0:0:
186,320,216016,2,0,L|35:311,1,135,2|0,1:2|0:0,0:0:0:0:
0,372,216282,6,0,B|31:321|31:321|11:206,1,168.75,12|0,0:0|0:0,0:0:0:0:
4,179,216547,1,10,1:2:0:0:
126,0,216680,6,0,B|103:45|103:45|108:78|108:78|94:111|94:111|106:152,1,161.999995056153,12|8,0:0|0:0,0:0:0:0:
136,167,217012,1,8,0:0:0:0:
136,167,217078,2,0,L|258:151,1,112.5,10|0,1:2|0:0,0:0:0:0:
494,95,217344,6,0,B|399:70|399:70|362:87,1,135,12|0,0:0|0:0,0:0:0:0:
340,100,217609,1,0,1:0:0:0:
354,292,217742,2,0,L|348:194,1,90,2|8,0:0|0:0,0:0:0:0:
258,338,218008,1,10,0:0:0:0:
456,245,218140,1,0,1:0:0:0:
258,338,218273,6,0,B|211:343|177:322|177:322|129:342|129:342|78:339,1,180,14|8,0:0|0:0,0:0:0:0:
247,152,218671,2,0,B|232:194|232:194|240:241,1,90,0|0,1:0|0:0,0:0:0:0:
430,363,218937,1,10,0:0:0:0:
348,202,219070,1,10,0:0:0:0:
258,338,219202,1,0,1:0:0:0:
456,245,219335,1,2,0:0:0:0:
247,152,219468,6,0,L|109:147,1,135,12|0,0:0|0:0,0:0:0:0:
64,66,219733,2,0,B|91:102|91:102|85:157,1,90,2|0,1:2|0:0,0:0:0:0:
0,296,219999,1,10,0:0:0:0:
160,30,220131,1,8,0:0:0:0:
312,241,220264,2,0,L|164:236,1,135,2|0,1:2|0:0,0:0:0:0:
145,236,220530,5,4,1:2:0:0:
459,344,220662,1,8,0:0:0:0:
396,16,220795,1,8,0:0:0:0:
276,335,220928,5,4,1:2:0:0:
482,161,221061,1,8,0:0:0:0:
230,68,221193,1,8,0:0:0:0:
459,344,221326,5,0,1:0:0:0:
145,236,221459,1,8,0:0:0:0:
396,16,221592,6,0,B|439:118|439:118|421:186,1,168.75,12|0,1:2|0:0,0:0:0:0:
415,203,221857,1,0,1:0:0:0:
145,236,221990,2,0,L|238:224,1,90,2|8,0:0|0:0,0:0:0:0:
459,344,222255,2,0,L|369:356,1,90,10|0,0:0|1:0,0:0:0:0:
256,131,222521,1,2,0:0:0:0:
256,131,222587,1,2,0:0:0:0:
256,131,222654,5,12,0:0:0:0:
196,376,222786,1,8,0:0:0:0:
415,203,222919,2,0,B|432:159|432:159|428:112,1,90,4|0,1:2|0:0,0:0:0:0:
369,355,223185,1,10,0:0:0:0:
234,224,223317,1,10,0:0:0:0:
415,203,223450,1,0,1:0:0:0:
196,376,223583,1,2,0:0:0:0:
196,376,223649,1,2,0:0:0:0:
196,376,223716,6,0,L|35:366,1,135,10|0,0:0|0:0,0:0:0:0:
43,344,223981,2,0,B|26:301|26:301|39:245,1,90,2|0,1:2|0:0,0:0:0:0:
297,382,224247,1,10,0:0:0:0:
127,286,224379,1,8,0:0:0:0:
250,66,224512,2,0,B|270:159|270:159|243:213,1,135,2|0,1:2|0:0,0:0:0:0:
234,224,224778,6,0,B|285:244|285:244|418:210,1,168.75,12|0,0:0|0:0,0:0:0:0:
423,206,225043,1,10,1:2:0:0:
127,286,225176,6,0,B|102:178|102:178|136:178|155:204,1,161.999995056153,12|8,0:0|0:0,0:0:0:0:
234,224,225508,1,8,0:0:0:0:
234,224,225574,2,0,L|354:196,1,112.5,10|0,1:2|0:0,0:0:0:0:
35,268,225839,5,12,0:0:0:0:
313,318,225972,1,8,0:0:0:0:
200,67,226105,1,8,0:0:0:0:
98,378,226238,6,0,L|163:370,1,56.25,10|0,1:2|0:0,0:0:0:0:
343,198,226503,2,0,L|407:205,1,56.25,10|0,1:2|0:0,0:0:0:0:
200,67,226769,6,0,B|229:102|229:102|213:209,1,135,12|0,0:0|0:0,0:0:0:0:
208,223,227034,1,10,0:0:0:0:
292,27,227167,1,0,1:0:0:0:
375,310,227300,2,0,B|329:326|329:326|305:306|269:305|269:305|243:327|207:324,1,180,12|10,0:0|0:0,0:0:0:0:
11,269,227698,1,2,1:2:0:0:
343,198,227831,1,2,1:2:0:0:
114,384,227963,6,0,B|99:327|99:327|114:270|114:270|98:206,1,180,12|0,0:0|1:0,0:0:0:0:
160,88,228362,1,2,0:0:0:0:
160,88,228428,1,10,0:0:0:0:
160,88,228494,2,0,L|176:147,1,45,10|0,0:0|0:0,0:0:0:0:
11,269,228627,2,0,L|0:225,1,45,10|0,0:0|0:0,0:0:0:0:
207,324,228760,2,0,L|220:368,1,45,10|0,1:2|0:0,0:0:0:0:
38,118,228893,5,12,1:2:0:0:
11,269,229556,5,2,1:2:0:0:
299,199,229689,1,2,1:2:0:0:
299,199,229954,6,0,B|261:211|223:195|223:195|169:218|169:218|122:200,1,180,12|8,1:2|0:0,0:0:0:0:
376,132,230353,2,0,P|401:172|401:225,1,90,2|0,1:2|0:0,0:0:0:0:
274,102,230618,1,10,0:0:0:0:
274,102,230751,1,8,0:0:0:0:
487,154,230884,1,0,1:0:0:0:
306,369,231016,6,0,B|249:268|341:297|294:187,1,180,10|8,0:0|0:0,0:0:0:0:
478,326,231415,2,0,L|388:317,1,90,2|0,1:2|0:0,0:0:0:0:
119,245,231680,2,0,L|209:237,1,90,10|8,0:0|0:0,0:0:0:0:
229,48,231946,1,0,1:0:0:0:
402,127,232078,6,0,B|205:144,1,180,10|8,0:0|0:0,0:0:0:0:
446,220,232477,2,0,P|488:186|499:146,1,90,2|0,1:2|0:0,0:0:0:0:
316,237,232742,1,10,0:0:0:0:
498,153,232875,1,10,0:0:0:0:
316,237,233008,1,0,1:0:0:0:
229,48,233140,6,0,B|253:23|272:6|272:6|264:68|268:125,1,168.75,12|0,1:2|0:0,0:0:0:0:
103,150,233406,2,0,L|171:149,1,56.25,12|0,0:0|0:0,0:0:0:0:
316,237,233539,2,0,L|251:236,1,56.25,8|0,0:0|0:0,0:0:0:0:
129,343,233671,6,0,B|147:361|159:379|159:379|155:330|157:262,1,161.999995056153,12|8,1:2|0:0,0:0:0:0:
156,264,234070,1,0,1:0:0:0:
341,332,234202,6,0,B|382:325|398:297|398:297|449:330|515:304,1,180,12|8,0:0|0:0,0:0:0:0:
325,147,234601,2,0,P|319:193|315:247,1,90,2|0,1:2|0:0,0:0:0:0:
396,73,234866,1,10,0:0:0:0:
214,151,234999,1,10,0:0:0:0:
460,220,235131,1,0,1:0:0:0:
240,305,235264,6,0,B|225:275|198:260|198:260|139:264|71:290,1,180,10|8,0:0|0:0,0:0:0:0:
99,84,235662,1,0,1:0:0:0:
3,201,235795,2,0,P|53:188|109:175,1,90,2|8,0:0|0:0,0:0:0:0:
315,236,236061,2,0,P|371:244|415:246,1,90,10|0,0:0|1:0,0:0:0:0:
171,367,236326,6,0,B|177:320|199:262|199:262|186:229|184:178,1,180,12|8,0:0|0:0,0:0:0:0:
380,364,236724,1,2,1:2:0:0:
380,364,236990,2,0,P|340:359|283:356,1,90,10|8,0:0|0:0,0:0:0:0:
184,192,237255,1,0,1:0:0:0:
106,297,237388,6,0,L|251:279,1,135,14|0,1:2|0:0,0:0:0:0:
272,274,237654,2,0,B|283:246|283:246|276:186,1,90,12|0,0:0|1:0,0:0:0:0:
12,293,237919,1,10,0:0:0:0:
16,315,237985,1,8,0:0:0:0:
19,337,238052,1,8,0:0:0:0:
290,356,238185,1,2,1:2:0:0:
184,192,238317,1,8,0:0:0:0:
180,168,238384,1,8,0:0:0:0:
176,146,238450,6,0,B|309:163|309:163|348:139,1,180,12|8,1:2|0:0,0:0:0:0:
79,88,238848,2,0,L|69:178,1,90,2|0,1:2|0:0,0:0:0:0:
331,48,239114,1,10,0:0:0:0:
367,48,239180,1,8,0:0:0:0:
401,62,239247,1,10,0:0:0:0:
427,88,239313,1,8,0:0:0:0:
440,122,239379,2,0,L|434:167,1,45,2|0,1:2|0:0,0:0:0:0:
357,226,239512,6,0,B|333:241|325:265|325:265|348:138,1,180,10|8,0:0|0:0,0:0:0:0:
512,319,239910,2,0,P|472:302|421:304,1,90,2|0,1:2|0:0,0:0:0:0:
201,375,240176,2,0,P|245:377|287:361,1,90,10|8,0:0|0:0,0:0:0:0:
357,226,240441,1,0,1:0:0:0:
256,101,240574,6,0,P|242:202|231:286,1,180,10|8,0:0|0:0,0:0:0:0:
97,384,240972,2,0,P|91:341|87:288,1,90,2|0,1:2|0:0,0:0:0:0:
357,226,241238,1,10,0:0:0:0:
201,375,241370,1,10,0:0:0:0:
137,167,241503,1,0,1:0:0:0:
345,321,241636,6,0,B|410:315|467:303|467:303|446:326|443:354,1,168.75,12|0,1:2|0:0,0:0:0:0:
256,369,241901,2,0,L|199:375,1,56.25,12|0,0:0|0:0,0:0:0:0:
357,226,242034,2,0,L|363:170,1,56.25,8|0,0:0|0:0,0:0:0:0:
175,284,242167,1,8,0:0:0:0:
175,284,242233,1,8,0:0:0:0:
175,284,242300,2,0,L|247:278,1,56.25,10|0,1:2|0:0,0:0:0:0:
461,197,242432,2,0,L|467:141,1,56.25,10|0,1:2|0:0,0:0:0:0:
445,342,242565,1,2,1:2:0:0:
252,196,242698,6,0,L|70:211,1,180,12|8,0:0|0:0,0:0:0:0:
313,93,243096,2,0,L|430:84,1,90,2|0,1:2|0:0,0:0:0:0:
252,196,243362,1,10,0:0:0:0:
220,21,243494,1,10,0:0:0:0:
424,84,243627,1,0,1:0:0:0:
174,274,243760,6,0,B|138:231|138:231|155:103,1,180,12|8,0:0|0:0,0:0:0:0:
75,321,244158,1,0,1:0:0:0:
251,195,244291,2,0,B|345:188,1,90,2|8,0:0|0:0,0:0:0:0:
309,12,244556,2,0,B|220:21,1,90,10|0,0:0|1:0,0:0:0:0:
0,141,244822,6,0,P|85:159|155:107,1,180,12|8,0:0|0:0,0:0:0:0:
251,195,245220,1,2,1:2:0:0:
70,62,245353,1,0,0:0:0:0:
309,12,245485,5,10,0:0:0:0:
223,283,245618,1,10,0:0:0:0:
309,12,245751,1,0,1:0:0:0:
430,304,245884,5,12,0:0:0:0:
50,185,246149,1,12,0:0:0:0:
436,77,246415,1,12,0:0:0:0:
309,12,247078,6,0,P|300:46|298:76,2,60,6|0|0,0:0|0:0|0:0,0:0:0:0:
202,76,247344,2,0,P|211:112|226:138,2,60,2|0|0,0:0|0:0|0:0,0:0:0:0:
153,199,247609,5,2,0:0:0:0:
153,199,247698,2,0,P|179:220|208:232,1,60
184,322,247875,1,2,0:0:0:0:
184,322,247963,2,0,P|228:323|265:313,1,60
433,285,248140,5,2,0:0:0:0:
405,273,248229,1,0,0:0:0:0:
375,277,248317,1,0,0:0:0:0:
351,295,248406,1,2,0:0:0:0:
337,321,248494,1,0,0:0:0:0:
338,351,248583,1,0,0:0:0:0:
354,376,248671,5,2,0:0:0:0:
390,344,248760,1,0,0:0:0:0:
396,296,248848,1,0,0:0:0:0:
384,249,248937,1,2,0:0:0:0:
357,209,249025,1,0,0:0:0:0:
313,188,249114,1,0,0:0:0:0:
265,186,249202,5,14,1:2:0:0:
