osu file format v14

[General]
AudioFilename: audio.mp3
AudioLeadIn: 0
PreviewTime: 61637
Countdown: 0
SampleSet: Soft
StackLeniency: 0.7
Mode: 0
LetterboxInBreaks: 0
WidescreenStoryboard: 0

[Editor]
DistanceSpacing: 1.1
BeatDivisor: 2
GridSize: 8
TimelineZoom: 0.6999999

[Metadata]
Title:Shoujo to Ougonryuu no Monogatari
TitleUnicode:少女と黄金竜の物語
Artist:Hatsuki Yura
ArtistUnicode:葉月ゆら
Creator:Garden
Version:Normal
Source:
Tags:清風明月 Seifuumeigetsu Drop 竜と炎の物語 ~Dragon and Flame Story~ ryuu to honoo no monogatari Hey lululu schoolboy Komore Misure Len Fast
BeatmapID:1519590
BeatmapSetID:719158

[Difficulty]
HPDrainRate:3
CircleSize:3
OverallDifficulty:3
ApproachRate:5
SliderMultiplier:0.799999999999999
SliderTickRate:1

[Events]
//Background and Video events
0,0,"61015605_p0.jpg",0,0
//Break Periods
2,59846,60569
2,81084,86056
2,138960,139684
2,157875,165170
2,196105,210701
//Storyboard Layer 0 (Background)
//Storyboard Layer 1 (Fail)
//Storyboard Layer 2 (Pass)
//Storyboard Layer 3 (Foreground)
//Storyboard Sound Samples

[TimingPoints]
177,265.486725663717,4,2,1,60,1,0
8539,-100,4,2,1,80,0,0
25663,-100,4,2,1,65,0,0
32566,-100,4,2,1,75,0,0
34159,-100,4,2,1,65,0,0
36681,-100,4,2,1,75,0,0
37212,-100,4,2,1,65,0,0
38141,-100,4,2,1,75,0,0
38407,-100,4,2,1,65,0,0
40530,-100,4,2,1,75,0,0
41460,-100,4,2,1,65,0,0
49292,-100,4,2,1,45,0,0
49424,-100,4,2,1,65,0,0
49955,-100,4,2,1,70,0,0
53274,-100,4,2,1,75,0,0
54203,-100,4,2,1,70,0,0
57522,-100,4,2,1,75,0,0
59646,-100,4,2,2,55,0,0
61769,-100,4,2,1,80,0,1
77566,-100,4,2,1,80,0,0
78761,-100,4,2,1,80,0,1
78794,-100,4,2,1,80,0,0
87256,-100,4,2,1,80,0,1
87289,-100,4,2,1,80,0,0
95752,-100,4,2,1,65,0,0
104778,265.486725663717,4,2,1,70,1,0
111946,-100,4,2,1,75,0,0
113273,-100,4,2,1,70,0,0
115795,-100,4,2,1,75,0,0
116326,-100,4,2,1,70,0,0
119645,-100,4,2,1,75,0,0
121769,-100,4,2,1,65,0,0
128406,-100,4,2,1,45,0,0
128539,-100,4,2,1,65,0,0
130264,-100,4,2,1,70,0,0
132388,-100,4,2,1,75,0,0
133317,-100,4,2,1,70,0,0
136636,-100,4,2,1,75,0,0
138760,-100,4,2,2,55,0,0
140884,-100,4,2,1,80,0,1
156680,-100,4,2,1,80,0,0
157875,-100,4,2,1,50,0,0
166370,-100,4,2,2,55,0,0
182831,-100,4,2,1,60,0,0
183362,-100,4,2,1,75,0,0
196105,-100,4,2,1,95,0,0
196171,-100,4,2,1,50,0,0
211901,-100,4,2,2,80,0,0
212034,-100,4,2,1,80,0,0
213096,-100,4,2,1,80,0,1
228893,-100,4,2,1,80,0,0
229954,-100,4,2,1,80,0,1
229988,-100,4,2,1,80,0,0
247609,-100,4,2,1,70,0,0
248140,-100,4,2,1,60,0,0
248671,-100,4,2,1,50,0,0
249202,-100,4,2,1,80,0,0

[Colours]
Combo1 : 255,66,66
Combo2 : 255,30,255
Combo3 : 255,119,53
Combo4 : 255,128,192

[HitObjects]
38,257,8539,6,0,L|171:246,1,120,12|2,1:2|1:2,0:0:0:0:
212,316,9203,2,0,P|205:257|238:208,2,120,10|10|2,0:0|0:0|1:2,0:0:0:0:
267,384,10265,1,10,0:0:0:0:
380,316,10663,6,0,L|519:310,1,120,10|2,0:0|1:2,0:0:0:0:
492,222,11327,2,0,L|351:230,1,120,10|12,0:0|1:2,0:0:0:0:
300,280,11991,1,12,0:0:0:0:
226,232,12256,2,0,L|222:152,1,79.9999999999999,12|8,1:2|0:0,0:0:0:0:
177,73,12787,6,0,P|232:101|292:92,1,120,12|2,0:0|1:2,0:0:0:0:
351,32,13451,1,10,0:0:0:0:
467,94,13849,2,0,B|487:211|487:211|462:270,1,160,10|2,0:0|0:0,0:0:0:0:
427,326,14646,1,10,0:0:0:0:
348,287,14911,6,0,P|295:272|222:298,1,120,12|2,0:0|1:2,0:0:0:0:
171,351,15575,2,0,P|114:360|41:323,1,120,10|14,0:0|1:2,0:0:0:0:
12,262,16238,1,12,0:0:0:0:
75,200,16504,2,0,P|86:159|81:120,1,79.9999999999999,10|2,0:0|1:2,0:0:0:0:
54,38,17035,6,0,L|185:25,1,120,12|2,1:2|1:2,0:0:0:0:
261,17,17699,2,0,P|296:55|296:134,2,120,10|10|2,0:0|0:0|1:2,0:0:0:0:
173,26,18761,1,10,0:0:0:0:
81,122,19159,6,0,L|80:243,1,120,10|2,0:0|1:2,0:0:0:0:
16,303,19823,2,0,P|75:331|149:297,1,120,10|12,0:0|1:2,0:0:0:0:
194,263,20486,1,12,0:0:0:0:
169,178,20752,2,0,L|167:88,1,79.9999999999999,8|10,0:0|1:2,0:0:0:0:
126,20,21283,6,0,P|184:51|254:35,1,120,12|2,0:0|1:2,0:0:0:0:
314,4,21946,1,10,0:0:0:0:
426,73,22345,2,0,P|470:136|451:230,1,160,12|2,0:0|0:0,0:0:0:0:
402,281,23141,1,10,0:0:0:0:
322,242,23407,6,0,L|184:237,1,120,12|2,0:0|1:2,0:0:0:0:
132,291,24070,2,0,L|37:287,1,79.9999999999999,10|0,0:0|1:0,0:0:0:0:
13,264,24469,5,12,0:0:0:0:
29,177,24734,1,12,0:0:0:0:
48,91,25000,1,12,0:0:0:0:
132,291,25663,6,0,L|216:296,1,79.9999999999999,4|0,0:1|1:0,0:0:0:0:
293,328,26194,2,0,P|346:351|418:329,2,120,10|10|2,0:0|0:0|1:2,0:0:0:0:
282,240,27256,2,0,P|293:206|286:156,1,79.9999999999999,8|2,0:0|1:2,0:0:0:0:
202,142,27787,6,0,L|66:146,1,120,8|2,0:0|0:0,0:0:0:0:
11,92,28451,1,10,0:0:0:0:
71,28,28716,2,0,L|201:24,1,120,10|2,0:0|1:3,0:0:0:0:
262,76,29380,1,8,0:0:0:0:
432,32,29911,6,0,L|427:126,1,79.9999999999999,8|2,0:0|1:2,0:0:0:0:
463,193,30442,2,0,P|486:247|469:312,2,120,10|10|2,0:0|0:0|1:2,0:0:0:0:
375,187,31504,2,0,P|339:201|280:192,1,79.9999999999999,8|2,0:0|1:2,0:0:0:0:
217,162,32035,6,0,P|175:158|123:181,1,79.9999999999999,10|0,0:0|1:0,0:0:0:0:
68,221,32566,2,0,L|60:311,1,79.9999999999999,10|2,0:0|1:2,0:0:0:0:
48,342,32964,2,0,B|136:314|125:381|234:339,1,160,12|4,0:0|1:2,0:0:0:0:
258,278,33761,2,0,L|262:225,1,40,10|2,0:0|1:2,0:0:0:0:
217,162,34159,5,4,0:1:0:0:
377,233,34690,2,0,P|451:244|497:213,2,120,10|10|2,0:0|0:0|1:2,0:0:0:0:
326,160,35752,2,0,L|331:66,1,79.9999999999999,8|2,0:0|1:2,0:0:0:0:
265,20,36283,6,0,B|186:41|186:41|121:29,1,120,10|10,0:0|0:0,0:0:0:0:
77,85,36946,1,2,0:0:0:0:
154,126,37212,2,0,B|185:202|185:202|168:250,1,120,12|2,0:0|1:2,0:0:0:0:
98,285,37876,2,0,L|7:281,1,79.9999999999999,8|2,0:0|1:2,0:0:0:0:
3,368,38407,6,0,L|129:374,1,120,12|2,0:0|0:0,0:0:0:0:
195,323,39070,1,10,0:0:0:0:
267,273,39336,2,0,L|410:282,1,120,12|2,0:0|1:2,0:0:0:0:
472,259,40000,1,10,0:0:0:0:
475,171,40265,1,2,1:2:0:0:
398,129,40530,6,0,B|380:95|380:95|407:57|394:3,1,120,4|4,1:2|1:2,0:0:0:0:
311,40,41194,1,10,0:0:0:0:
228,71,41460,2,0,L|106:64,1,120,12|2,0:0|1:2,0:0:0:0:
31,107,42123,2,0,B|20:145|20:145|29:189,1,79.9999999999999,10|2,0:0|1:2,0:0:0:0:
52,269,42654,5,4,0:1:0:0:
223,230,43185,2,0,L|345:235,2,120,2|10|8,1:2|0:0|0:0,0:0:0:0:
208,317,44247,2,0,L|292:322,1,79.9999999999999,0|0,1:0|0:0,0:0:0:0:
375,317,44778,6,0,P|420:279|422:202,1,120,10|10,0:0|0:0,0:0:0:0:
393,140,45442,1,2,0:0:0:0:
306,155,45707,2,0,P|246:154|189:112,1,120,10|8,0:0|0:0,0:0:0:0:
160,41,46371,1,0,1:0:0:0:
5,125,46902,6,0,L|11:265,1,120,10|8,0:0|0:0,0:0:0:0:
82,295,47566,1,2,0:0:0:0:
166,269,47831,2,0,B|247:262|247:262|286:293,1,120,10|10,0:0|0:0,0:0:0:0:
221,353,48495,2,0,L|141:360,1,79.9999999999999,0|2,1:0|0:0,0:0:0:0:
82,295,49026,5,10,0:0:0:0:
102,209,49292,2,0,B|108:168|108:168|94:128,1,79.9999999999999,4|0,0:0|1:0,0:0:0:0:
43,10,49955,2,0,B|117:37|117:37|183:26,1,120,12|0,0:0|1:0,0:0:0:0:
244,15,50619,2,0,L|249:107,1,79.9999999999999,10|10,1:2|1:2,0:0:0:0:
205,171,51150,6,0,P|269:181|324:142,1,120,12|2,0:0|0:0,0:0:0:0:
365,82,51814,1,10,0:0:0:0:
448,111,52079,2,0,L|455:243,1,120,10|0,0:0|1:0,0:0:0:0:
419,311,52743,1,10,0:0:0:0:
345,262,53008,1,2,1:2:0:0:
310,343,53274,6,0,B|230:329|230:329|169:349,1,120,12|10,0:0|0:0,0:0:0:0:
109,369,53938,1,10,0:0:0:0:
27,335,54203,2,0,L|24:199,1,120,12|0,0:0|1:0,0:0:0:0:
5,128,54867,2,0,P|51:128|87:152,1,79.9999999999999,10|0,0:0|1:0,0:0:0:0:
132,215,55398,6,0,P|229:246|316:186,1,200,12|10,0:0|0:0,0:0:0:0:
359,126,56327,2,0,L|349:1,1,120,10|2,0:0|1:2,0:0:0:0:
261,10,56991,2,0,L|268:109,1,79.9999999999999,10|2,0:0|1:2,0:0:0:0:
214,160,57522,5,12,0:0:0:0:
134,122,57787,2,0,B|77:108|77:108|1:136,1,120,4|10,1:2|0:0,0:0:0:0:
25,217,58451,2,0,B|87:229|87:229|151:206,1,120,4|10,1:2|0:0,0:0:0:0:
214,160,59115,2,0,B|255:151|255:151|304:160,1,79.9999999999999,10|10,0:0|0:0,0:0:0:0:
374,190,59646,5,2,1:2:0:0:
374,190,61769,6,0,L|381:326,1,120,12|2,1:2|0:0,0:0:0:0:
310,364,62433,1,10,0:0:0:0:
231,323,62699,2,0,P|195:309|95:323,1,120,2|2,0:0|1:2,0:0:0:0:
39,358,63362,2,0,P|28:323|36:277,1,79.9999999999999,10|0,0:0|1:0,0:0:0:0:
99,219,63893,5,10,0:0:0:0:
56,141,64159,1,2,1:2:0:0:
115,75,64424,2,0,L|225:85,1,79.9999999999999,10|2,0:0|1:2,0:0:0:0:
267,131,64955,2,0,P|328:102|403:118,2,120,12|12|10,0:0|0:0|1:2,0:0:0:0:
209,197,66017,6,0,L|201:332,1,120,12|2,0:0|0:0,0:0:0:0:
272,370,66681,1,10,0:0:0:0:
342,317,66946,2,0,P|405:289|475:307,1,120,10|0,0:0|1:0,0:0:0:0:
505,224,67610,2,0,P|512:183|494:128,1,79.9999999999999,10|0,0:0|1:0,0:0:0:0:
452,74,68141,5,12,0:0:0:0:
375,117,68407,1,2,1:2:0:0:
306,62,68672,2,0,L|209:62,1,79.9999999999999,10|2,0:0|1:2,0:0:0:0:
153,11,69203,2,0,B|178:86|178:86|164:126,2,120,4|4|0,1:2|1:2|1:0,0:0:0:0:
64,12,70265,6,0,B|86:87|86:87|65:143,1,120,12|2,1:2|0:0,0:0:0:0:
33,205,70929,1,10,0:0:0:0:
68,285,71194,2,0,L|190:274,1,120,2|2,0:0|1:2,0:0:0:0:
271,247,71858,2,0,P|277:204|265:162,1,79.9999999999999,10|0,0:0|1:0,0:0:0:0:
229,90,72389,5,10,0:0:0:0:
290,27,72654,1,2,1:2:0:0:
371,63,72920,2,0,L|478:60,1,79.9999999999999,10|2,0:0|1:2,0:0:0:0:
474,145,73451,2,0,L|347:149,2,120,12|12|10,0:0|0:0|1:2,0:0:0:0:
496,230,74513,6,0,B|504:311|504:311|473:353,1,120,12|10,0:0|1:2,0:0:0:0:
413,285,75177,1,10,1:2:0:0:
355,350,75442,2,0,B|318:355|318:355|271:342,1,79.9999999999999,12|10,0:0|0:0,0:0:0:0:
192,319,75973,2,0,L|55:330,1,120,12|2,0:0|1:2,0:0:0:0:
53,242,76637,6,0,L|186:230,1,120,12|2,0:0|0:0,0:0:0:0:
256,258,77300,1,10,0:0:0:0:
332,214,77566,1,12,0:0:0:0:
256,192,78761,12,10,80884,0:0:0:0:
210,348,87256,6,0,P|281:305|359:326,1,160,12|10,1:2|0:0,0:0:0:0:
431,361,88053,1,2,1:2:0:0:
508,319,88318,2,0,L|513:226,1,79.9999999999999,2|0,0:0|1:0,0:0:0:0:
448,178,88849,1,10,0:0:0:0:
292,260,89380,6,0,L|132:249,1,160,10|10,0:0|0:0,0:0:0:0:
50,283,90177,1,2,1:2:0:0:
6,206,90442,2,0,P|1:165|14:127,1,79.9999999999999,2|0,0:0|1:0,0:0:0:0:
61,54,90973,1,10,0:0:0:0:
210,146,91504,6,0,P|303:151|362:100,1,160,12|10,0:0|0:0,0:0:0:0:
390,32,92300,1,2,1:2:0:0:
472,64,92566,2,0,L|487:159,1,79.9999999999999,2|0,0:0|1:0,0:0:0:0:
418,201,93097,2,0,L|433:293,1,79.9999999999999,10|0,0:0|1:0,0:0:0:0:
497,337,93628,6,0,B|354:272|372:410|221:334,1,280,12|12,0:0|0:0,0:0:0:0:
222,250,94823,1,0,1:0:0:0:
297,204,95088,2,0,P|310:142|284:84,1,120,12|8,0:0|0:0,0:0:0:0:
228,27,95752,5,12,0:0:0:0:
119,165,96283,2,0,L|-14:162,2,120,0|10|8,1:0|0:0|0:0,0:0:0:0:
201,196,97345,2,0,P|186:235|188:283,1,79.9999999999999,0|0,1:0|0:0,0:0:0:0:
203,359,97876,5,8,0:0:0:0:
368,299,98407,2,0,L|491:301,2,120,0|10|8,1:0|0:0|0:0,0:0:0:0:
290,256,99469,2,0,P|303:224|304:174,1,79.9999999999999,0|8,1:0|0:0,0:0:0:0:
278,94,100000,5,12,0:0:0:0:
119,166,100530,2,0,L|-21:163,2,120,0|10|8,1:0|0:0|0:0,0:0:0:0:
197,208,101592,2,0,P|206:166|197:123,1,79.9999999999999,0|0,1:0|0:0,0:0:0:0:
128,77,102123,5,8,0:0:0:0:
299,35,102654,2,0,B|376:35|376:35|413:61,1,120,0|12,1:0|0:0,0:0:0:0:
383,143,103318,1,2,0:0:0:0:
451,198,103584,2,0,P|490:267|446:354,1,160,2|10,0:0|0:0,0:0:0:0:
294,199,104778,6,0,L|214:195,1,79.9999999999999,4|0,0:1|1:0,0:0:0:0:
143,247,105308,2,0,P|164:299|153:368,2,120,10|10|2,0:0|0:0|1:2,0:0:0:0:
56,228,106370,2,0,P|47:192|60:144,1,79.9999999999999,8|2,0:0|1:2,0:0:0:0:
100,74,106901,6,0,L|223:80,1,120,8|2,0:0|0:0,0:0:0:0:
291,28,107565,1,10,0:0:0:0:
371,64,107831,2,0,P|404:106|401:189,1,120,10|2,0:0|1:3,0:0:0:0:
358,243,108494,1,8,0:0:0:0:
203,327,109025,6,0,L|204:237,1,79.9999999999999,8|2,0:0|1:2,0:0:0:0:
117,228,109556,2,0,L|115:357,2,120,10|10|2,0:0|0:0|1:2,0:0:0:0:
174,160,110618,1,8,0:0:0:0:
262,163,110884,1,2,1:2:0:0:
318,231,111149,6,0,P|355:242|395:238,1,79.9999999999999,10|0,0:0|1:0,0:0:0:0:
475,202,111680,2,0,L|472:119,1,79.9999999999999,10|2,0:0|1:2,0:0:0:0:
492,82,112078,2,0,B|416:107|420:53|335:75,1,160,12|4,0:0|1:2,0:0:0:0:
263,125,112875,2,0,P|238:122|207:111,1,40,10|2,0:0|1:2,0:0:0:0:
185,39,113273,5,4,0:1:0:0:
37,135,113804,2,0,P|13:192|32:269,2,120,10|10|2,0:0|0:0|1:2,0:0:0:0:
120,162,114866,2,0,L|108:249,1,79.9999999999999,8|2,0:0|1:2,0:0:0:0:
70,320,115397,6,0,B|101:334|101:334|193:319,1,120,10|10,0:0|0:0,0:0:0:0:
268,351,116061,1,2,0:0:0:0:
347,312,116326,2,0,B|366:276|366:276|352:183,1,120,12|2,0:0|1:2,0:0:0:0:
297,130,116990,2,0,L|190:142,1,79.9999999999999,8|2,0:0|1:2,0:0:0:0:
158,204,117521,6,0,P|105:209|44:167,1,120,12|2,0:0|0:0,0:0:0:0:
15,94,118185,1,10,0:0:0:0:
77,32,118450,2,0,P|141:27|205:77,1,120,12|2,0:0|1:2,0:0:0:0:
217,138,119114,1,10,0:0:0:0:
302,159,119379,1,2,1:2:0:0:
379,116,119645,6,0,B|402:82|402:82|391:2,1,120,4|4,1:2|1:2,0:0:0:0:
488,150,120574,2,0,L|507:277,1,120,12|2,0:0|1:2,0:0:0:0:
473,350,121238,2,0,B|433:358|433:358|395:347,1,79.9999999999999,10|2,0:0|1:2,0:0:0:0:
312,315,121769,5,4,0:1:0:0:
246,152,122300,2,0,P|255:94|235:38,2,120,2|10|8,1:2|0:0|0:0,0:0:0:0:
164,187,123362,2,0,L|81:189,1,79.9999999999999,0|0,1:0|0:0,0:0:0:0:
72,276,123893,6,0,L|212:270,1,120,10|10,0:0|0:0,0:0:0:0:
273,237,124556,1,2,0:0:0:0:
338,296,124822,2,0,P|405:298|451:262,1,120,10|8,0:0|0:0,0:0:0:0:
481,187,125485,1,0,1:0:0:0:
412,24,126016,6,0,L|280:10,1,120,10|8,0:0|0:0,0:0:0:0:
228,71,126680,1,2,0:0:0:0:
279,143,126946,2,0,B|410:155,1,120,10|10,0:0|0:0,0:0:0:0:
481,187,127609,2,0,P|496:226|483:281,1,79.9999999999999,0|2,1:0|0:0,0:0:0:0:
446,339,128140,5,10,0:0:0:0:
370,293,128406,2,0,B|329:287|329:287|289:301,1,79.9999999999999,4|0,0:0|1:0,0:0:0:0:
176,363,129070,2,0,B|28:355,1,120,12|0,0:0|1:0,0:0:0:0:
7,283,129733,2,0,B|2:243|2:243|20:194,1,79.9999999999999,10|10,1:2|1:2,0:0:0:0:
99,179,130264,6,0,L|90:43,1,120,12|2,0:0|0:0,0:0:0:0:
162,7,130928,1,10,0:0:0:0:
226,67,131193,2,0,P|294:81|345:62,1,120,10|0,0:0|1:0,0:0:0:0:
400,0,131857,2,0,P|423:35|425:80,1,79.9999999999999,10|2,0:0|1:2,0:0:0:0:
379,146,132388,6,0,B|373:283,1,120,12|10,0:0|0:0,0:0:0:0:
339,346,133052,1,10,0:0:0:0:
259,308,133317,2,0,B|227:293|227:293|125:296,1,120,12|0,0:0|1:0,0:0:0:0:
56,314,133981,2,0,L|57:226,1,79.9999999999999,10|0,0:0|1:0,0:0:0:0:
4,163,134512,6,0,P|88:189|186:125,1,200,12|10,0:0|0:0,0:0:0:0:
190,47,135441,2,0,P|252:24|330:48,1,120,10|2,0:0|1:2,0:0:0:0:
362,98,136105,2,0,P|350:146|365:193,1,79.9999999999999,10|2,0:0|1:2,0:0:0:0:
424,230,136636,5,12,0:0:0:0:
503,193,136901,2,0,B|505:52,1,120,4|10,1:2|0:0,0:0:0:0:
423,38,137565,2,0,B|298:32,1,120,4|10,1:2|0:0,0:0:0:0:
227,78,138229,2,0,B|215:116|215:116|224:159,1,79.9999999999999,10|10,0:0|0:0,0:0:0:0:
290,211,138760,5,2,1:2:0:0:
290,211,140884,6,0,L|157:217,1,120,12|2,1:2|0:0,0:0:0:0:
95,263,141547,1,10,0:0:0:0:
17,221,141813,2,0,P|2:157|36:92,1,120,2|2,0:0|1:2,0:0:0:0:
45,23,142477,2,0,P|74:37|105:83,1,79.9999999999999,10|0,0:0|1:0,0:0:0:0:
170,130,143008,5,10,0:0:0:0:
236,72,143273,1,2,1:2:0:0:
310,122,143539,2,0,L|423:126,1,79.9999999999999,10|2,0:0|1:2,0:0:0:0:
458,69,144070,2,0,P|438:123|459:179,2,120,12|12|10,0:0|0:0|1:2,0:0:0:0:
384,21,145131,6,0,L|252:17,1,120,12|2,0:0|0:0,0:0:0:0:
215,90,145795,1,10,0:0:0:0:
164,162,146061,2,0,L|14:161,1,120,10|0,0:0|1:0,0:0:0:0:
29,247,146724,2,0,L|119:248,1,79.9999999999999,10|0,0:0|1:0,0:0:0:0:
187,288,147255,5,12,0:0:0:0:
235,214,147521,1,2,1:2:0:0:
164,162,147786,2,0,P|153:121|159:78,1,79.9999999999999,10|2,0:0|1:2,0:0:0:0:
221,24,148317,2,0,B|143:33|143:33|108:14,2,120,4|4|0,1:2|1:2|1:0,0:0:0:0:
310,25,149379,6,0,B|332:100|332:100|311:156,1,120,12|2,1:2|0:0,0:0:0:0:
247,192,150043,1,10,0:0:0:0:
319,241,150308,2,0,L|442:236,1,120,2|2,0:0|1:2,0:0:0:0:
497,301,150972,2,0,P|501:337|486:380,1,79.9999999999999,10|0,0:0|1:0,0:0:0:0:
413,328,151503,5,10,0:0:0:0:
338,374,151769,1,2,1:2:0:0:
263,327,152034,2,0,L|183:329,1,79.9999999999999,10|2,0:0|1:2,0:0:0:0:
112,276,152565,2,0,B|30:277|30:277|0:299,2,120,12|12|10,0:0|0:0|1:2,0:0:0:0:
183,329,153627,6,0,B|204:293|204:293|192:216,1,120,12|10,0:0|1:2,0:0:0:0:
127,155,154291,1,10,1:2:0:0:
162,74,154556,2,0,B|202:67|202:67|246:82,1,79.9999999999999,12|10,0:0|0:0,0:0:0:0:
298,145,155087,2,0,L|417:135,1,120,12|2,0:0|1:2,0:0:0:0:
476,69,155751,6,0,P|504:116|485:192,1,120,12|2,0:0|0:0,0:0:0:0:
419,223,156415,1,10,0:0:0:0:
417,135,156680,1,12,0:0:0:0:
28,363,166370,6,0,L|199:350,1,160,4|2,1:0|1:2,0:0:0:0:
272,374,167167,1,8,0:0:0:0:
347,328,167432,2,0,L|338:245,1,79.9999999999999,10|8,0:0|0:0,0:0:0:0:
256,214,167963,1,2,0:0:0:0:
426,169,168494,6,0,L|443:343,1,160,10|2,0:0|1:2,0:0:0:0:
272,374,169556,2,0,L|256:206,1,160,10|10,0:0|0:0,0:0:0:0:
198,147,170353,1,2,1:2:0:0:
153,222,170618,6,0,B|72:227|72:227|23:228|1:267,1,160,10|2,0:0|1:2,0:0:0:0:
6,349,171415,1,8,0:0:0:0:
91,370,171680,2,0,L|188:360,1,79.9999999999999,10|8,0:0|0:0,0:0:0:0:
228,295,172211,2,0,L|314:304,1,79.9999999999999,2|0,0:0|1:0,0:0:0:0:
362,372,172742,6,0,L|348:205,1,160,10|2,0:0|1:2,0:0:0:0:
496,116,173804,2,0,L|507:275,2,160,10|10|4,0:0|0:0|1:0,0:0:0:0:
466,32,175131,5,0,0:0:0:0:
388,73,175397,2,0,L|291:80,1,79.9999999999999,2|8,1:2|0:0,0:0:0:0:
236,27,175928,2,0,L|142:35,1,79.9999999999999,10|8,0:0|0:0,0:0:0:0:
94,96,176459,1,2,0:0:0:0:
235,200,176990,6,0,L|420:188,1,160,10|2,0:0|1:2,0:0:0:0:
395,15,178052,2,0,L|215:28,1,160,10|10,0:0|0:0,0:0:0:0:
151,0,178848,1,2,1:2:0:0:
70,37,179114,6,0,B|35:82|57:140|57:140|108:152,1,160,10|2,0:0|1:2,0:0:0:0:
181,104,179910,1,0,0:0:0:0:
267,120,180176,2,0,L|271:206,1,79.9999999999999,10|8,0:0|0:0,0:0:0:0:
356,181,180707,2,0,L|352:94,1,79.9999999999999,2|0,0:0|1:0,0:0:0:0:
438,82,181238,6,0,L|445:266,2,160,10|2|10,0:0|1:2|0:0,0:0:0:0:
378,17,182565,1,0,1:0:0:0:
352,101,182831,2,0,L|355:194,1,79.9999999999999,8|0,0:0|1:0,0:0:0:0:
357,269,183362,5,4,1:0:0:0:
226,252,183760,1,4,1:0:0:0:
138,352,184158,2,0,P|50:358|-6:295,1,160,4|2,1:0|1:2,0:0:0:0:
7,224,184954,2,0,L|14:129,1,79.9999999999999,2|2,1:2|1:2,0:0:0:0:
19,56,185485,5,4,1:0:0:0:
131,125,185884,1,4,1:0:0:0:
232,40,186282,2,0,P|330:29|389:81,1,160,4|2,1:0|1:2,0:0:0:0:
402,146,187078,2,0,L|397:208,1,40,2|4,1:2|1:0,0:0:0:0:
280,244,187609,5,4,1:0:0:0:
174,163,188008,1,4,1:0:0:0:
46,194,188406,2,0,P|18:249|52:343,1,160,4|2,1:0|1:2,0:0:0:0:
132,360,189202,2,0,L|233:351,1,79.9999999999999,2|2,1:2|1:2,0:0:0:0:
292,318,189733,6,0,P|277:278|284:223,1,79.9999999999999,4|0,1:2|1:0,0:0:0:0:
300,155,190264,2,0,P|259:197|200:205,2,120,10|10|2,0:0|0:0|1:2,0:0:0:0:
294,66,191326,2,0,P|337:46|391:52,1,79.9999999999999,8|2,0:0|1:2,0:0:0:0:
457,58,191857,5,12,1:2:0:0:
489,139,192123,2,0,L|487:263,1,120,12|8,1:2|0:0,0:0:0:0:
423,319,192786,2,0,L|283:314,1,120,4|2,1:2|1:2,0:0:0:0:
219,287,193450,2,0,B|183:275|183:275|129:293,1,79.9999999999999,2|2,1:2|1:2,0:0:0:0:
62,323,193981,5,4,1:2:0:0:
6,254,194247,2,0,L|14:124,1,120,4|4,1:2|1:2,0:0:0:0:
78,74,194910,1,12,1:2:0:0:
223,142,211901,5,4,0:0:0:0:
223,142,213096,6,0,L|370:129,1,120,12|2,1:2|0:0,0:0:0:0:
404,68,213760,1,10,0:0:0:0:
471,124,214025,2,0,P|499:180|485:243,1,120,2|2,0:0|1:2,0:0:0:0:
435,304,214689,2,0,L|332:314,1,79.9999999999999,10|0,0:0|1:0,0:0:0:0:
283,362,215220,5,10,0:0:0:0:
210,312,215485,1,2,1:2:0:0:
250,233,215751,2,0,P|258:195|246:141,1,79.9999999999999,10|2,0:0|1:2,0:0:0:0:
180,102,216282,2,0,P|236:68|316:93,2,120,12|12|10,0:0|0:0|1:2,0:0:0:0:
167,189,217344,6,0,L|30:186,1,120,12|2,0:0|0:0,0:0:0:0:
1,261,218008,1,10,0:0:0:0:
47,335,218273,2,0,L|181:338,1,120,14|0,0:0|1:0,0:0:0:0:
216,264,218937,2,0,L|299:267,1,79.9999999999999,10|0,0:0|1:0,0:0:0:0:
373,308,219468,5,12,0:0:0:0:
449,265,219733,1,2,1:2:0:0:
415,183,219999,2,0,L|415:94,1,79.9999999999999,10|2,0:0|1:2,0:0:0:0:
350,42,220530,2,0,B|388:55|388:55|463:30,2,120,4|4|0,1:2|1:2|1:0,0:0:0:0:
263,59,221592,6,0,B|260:188,1,120,12|2,1:2|0:0,0:0:0:0:
300,257,222255,1,10,0:0:0:0:
252,331,222521,2,0,P|191:347|131:324,1,120,2|2,0:0|1:2,0:0:0:0:
69,274,223185,2,0,L|73:195,1,79.9999999999999,10|0,0:0|1:0,0:0:0:0:
131,128,223716,5,10,0:0:0:0:
204,176,223981,1,2,1:2:0:0:
263,110,224247,2,0,L|372:100,1,79.9999999999999,10|2,0:0|1:2,0:0:0:0:
354,15,224778,2,0,L|224:26,2,120,12|12|10,0:0|0:0|1:2,0:0:0:0:
423,68,225839,6,0,B|433:149|433:149|406:188,1,120,12|10,0:0|1:2,0:0:0:0:
352,246,226503,1,10,1:2:0:0:
269,215,226769,2,0,B|230:203|230:203|185:214,1,79.9999999999999,12|10,0:0|0:0,0:0:0:0:
109,242,227300,2,0,L|119:382,1,120,12|2,0:0|1:2,0:0:0:0:
29,368,227963,6,0,L|21:240,1,120,12|2,0:0|0:0,0:0:0:0:
62,170,228627,1,10,0:0:0:0:
13,96,228893,1,12,1:2:0:0:
354,11,229954,6,0,L|362:139,1,120,12|2,1:2|1:2,0:0:0:0:
411,203,230618,2,0,P|358:181|274:203,2,120,10|10|2,0:0|0:0|1:2,0:0:0:0:
469,268,231680,1,10,0:0:0:0:
350,325,232078,6,0,L|213:314,1,120,10|2,0:0|1:2,0:0:0:0:
148,348,232742,2,0,P|85:355|26:315,1,120,10|12,0:0|1:2,0:0:0:0:
3,247,233406,1,12,0:0:0:0:
67,187,233671,2,0,L|61:107,1,79.9999999999999,12|8,1:2|0:0,0:0:0:0:
35,22,234202,6,0,P|79:60|138:63,1,120,12|2,0:0|1:2,0:0:0:0:
207,8,234866,1,10,0:0:0:0:
329,55,235264,2,0,L|330:230,1,160,10|2,0:0|0:0,0:0:0:0:
277,286,236061,1,10,0:0:0:0:
333,353,236326,6,0,B|416:354|416:354|450:330,1,120,12|2,0:0|1:2,0:0:0:0:
500,263,236990,2,0,L|501:111,1,120,10|14,0:0|1:2,0:0:0:0:
447,72,237654,1,12,0:0:0:0:
375,123,237919,2,0,P|338:128|291:112,1,79.9999999999999,10|2,0:0|1:2,0:0:0:0:
230,58,238450,6,0,P|168:49|101:89,1,120,12|2,1:2|1:2,0:0:0:0:
60,139,239114,2,0,P|68:78|28:10,2,120,10|10|2,0:0|0:0|1:2,0:0:0:0:
5,208,240176,1,10,0:0:0:0:
70,322,240574,6,0,L|211:310,1,120,10|2,0:0|1:2,0:0:0:0:
233,235,241238,2,0,P|298:226|361:270,1,120,10|12,0:0|1:2,0:0:0:0:
406,312,241901,1,12,0:0:0:0:
485,274,242167,2,0,L|488:182,1,79.9999999999999,8|10,0:0|1:2,0:0:0:0:
443,117,242698,6,0,P|392:127|311:86,1,120,12|2,0:0|1:2,0:0:0:0:
267,41,243362,1,10,0:0:0:0:
196,152,243760,2,0,L|205:313,1,160,12|2,0:0|0:0,0:0:0:0:
129,356,244556,1,10,0:0:0:0:
50,316,244822,6,0,L|45:181,1,120,12|2,0:0|1:2,0:0:0:0:
8,116,245485,2,0,B|50:104|50:104|103:122,1,79.9999999999999,10|0,0:0|1:0,0:0:0:0:
126,130,245884,5,12,0:0:0:0:
212,112,246149,1,12,0:0:0:0:
298,92,246415,1,12,0:0:0:0:
256,192,247078,12,14,249202,1:2:0:0:
