osu file format v14

[General]
AudioFilename: audio.mp3
AudioLeadIn: 0
PreviewTime: 61637
Countdown: 0
SampleSet: Soft
StackLeniency: 0.7
Mode: 0
LetterboxInBreaks: 0
WidescreenStoryboard: 1

[Editor]
Bookmarks: 177,8672,25663,42654,51150,59646,61769,78761,87256,95752,104778,121769,130264,138760,140884,157875,166370,183362,196105,204601,213096,229954
DistanceSpacing: 1.2
BeatDivisor: 4
GridSize: 32
TimelineZoom: 2.1

[Metadata]
Title:Shoujo to Ougonryuu no Monogatari
TitleUnicode:少女と黄金竜の物語
Artist:Hatsuki Yura
ArtistUnicode:葉月ゆら
Creator:Garden
Version:Len's Classic Hyper
Source:
Tags:清風明月 Seifuumeigetsu Drop 竜と炎の物語 ~Dragon and Flame Story~ ryuu to honoo no monogatari Hey lululu schoolboy Komore Misure Len Fast
BeatmapID:1636952
BeatmapSetID:719158

[Difficulty]
HPDrainRate:5.3
CircleSize:3.9
OverallDifficulty:6.7
ApproachRate:8.9
SliderMultiplier:1.48
SliderTickRate:2

[Events]
//Background and Video events
0,0,"61015605_p0.jpg",0,0
//Break Periods
2,78961,86566
2,158075,165680
2,196304,203911
//Storyboard Layer 0 (Background)
//Storyboard Layer 1 (Fail)
//Storyboard Layer 2 (Pass)
//Storyboard Layer 3 (Foreground)
//Storyboard Sound Samples

[TimingPoints]
177,265.486725663717,4,2,1,60,1,0
25663,-111.111111111111,4,2,1,60,0,0
51150,-100,4,2,1,60,0,0
61769,-90.9090909090909,4,2,1,60,0,1
78761,-90.9090909090909,4,2,1,60,0,0
87256,-100,4,2,1,60,0,0
95752,-111.111111111111,4,2,1,60,0,0
104778,265.486725663717,4,2,1,70,1,0
121769,-111.111111111111,4,2,1,70,0,0
130264,-100,4,2,1,70,0,0
140884,-90.9090909090909,4,2,1,70,0,1
157875,-90.9090909090909,4,2,1,70,0,0
194910,-166.666666666667,4,2,1,70,0,0
204601,-125,4,2,1,50,0,0
211901,-125,4,2,1,40,0,0
212698,-125,4,2,1,55,0,0
212831,-83.3333333333333,4,2,1,70,0,0
213096,-90.9090909090909,4,2,1,70,0,1
229954,-100,4,2,1,70,0,0
247078,-55.5555555555556,4,2,1,70,0,0
249202,-66.6666666666667,4,2,1,70,0,0
249269,-66.6666666666667,4,2,1,10,0,0

[Colours]
Combo1 : 255,66,66
Combo2 : 255,30,255
Combo3 : 255,119,53
Combo4 : 255,128,192

[HitObjects]
159,211,7477,6,0,P|180:134|169:49,2,148,14|14|10,0:0|0:0|0:0,0:0:0:0:
110,372,8141,2,0,P|98:336|97:299,1,74,2|2,1:2|1:2,0:0:0:0:
110,285,8539,6,0,L|267:295,1,148,12|8,1:2|0:0,0:0:0:0:
341,348,8938,2,0,P|348:302|360:263,1,74,2|0,1:2|0:0,0:0:0:0:
292,212,9203,1,10,0:0:0:0:
378,190,9336,2,0,P|414:183|450:176,1,74,8|0,0:0|1:0,0:0:0:0:
318,123,9601,6,0,B|312:79|306:10|306:10|267:44,1,148,10|8,0:0|0:0,0:0:0:0:
191,18,10000,2,0,P|185:60|185:98,1,74,2|0,1:2|0:0,0:0:0:0:
107,136,10265,1,10,0:0:0:0:
122,223,10398,2,0,P|79:211|40:208,1,74,8|0,0:0|1:0,0:0:0:0:
203,192,10663,6,0,L|218:347,1,148,10|8,0:0|0:0,0:0:0:0:
304,357,11061,2,0,P|318:311|323:271,1,74,2|0,1:2|0:0,0:0:0:0:
316,195,11327,1,10,0:0:0:0:
396,233,11460,1,10,0:0:0:0:
472,188,11592,2,0,L|480:134,2,37,0|0|12,1:0|0:0|1:2,0:0:0:0:
244,51,11991,6,0,P|253:86|258:123,1,74,12|8,0:0|0:0,0:0:0:0:
203,192,12256,2,0,B|112:202|156:150|47:169,1,148,12|8,1:2|0:0,0:0:0:0:
1,232,12654,1,0,1:0:0:0:
86,254,12787,6,0,B|91:308|52:367|52:367|85:352,1,148,12|8,0:0|0:0,0:0:0:0:
159,322,13185,2,0,P|205:338|239:341,1,74,2|0,1:2|0:0,0:0:0:0:
298,283,13451,1,10,0:0:0:0:
382,311,13584,2,0,P|390:264|402:228,1,74,10|0,0:0|1:0,0:0:0:0:
508,104,13849,6,0,B|437:96|395:143|395:143|428:161,1,148,10|8,0:0|0:0,0:0:0:0:
482,213,14247,1,0,1:0:0:0:
321,188,14380,2,0,P|340:127|341:23,1,148,2|10,0:0|0:0,0:0:0:0:
343,43,14911,6,0,P|278:54|185:56,1,148,12|8,0:0|0:0,0:0:0:0:
109,35,15309,2,0,P|100:85|96:121,1,74,2|0,1:2|0:0,0:0:0:0:
145,183,15575,1,10,0:0:0:0:
91,253,15707,2,0,P|65:218|32:191,1,74,8|0,0:0|1:0,0:0:0:0:
22,332,15973,6,0,P|60:313|174:295,1,148,14|12,1:2|0:0,0:0:0:0:
196,377,16371,1,0,1:0:0:0:
283,362,16504,2,0,L|288:319,2,37,10|8|8,0:0|0:0|0:0,0:0:0:0:
229,177,16769,2,0,L|237:266,1,74,2|0,1:2|0:0,0:0:0:0:
417,303,17035,6,0,B|425:262|425:262|392:227|325:242,1,148,12|8,1:2|0:0,0:0:0:0:
317,153,17433,2,0,P|384:144|413:135,1,74,2|0,1:2|0:0,0:0:0:0:
402,49,17699,1,10,0:0:0:0:
328,1,17831,2,0,P|323:45|314:90,1,74,10|2,0:0|1:2,0:0:0:0:
229,177,18097,6,0,P|233:109|206:21,1,148,10|8,0:0|0:0,0:0:0:0:
123,27,18495,2,0,P|74:21|38:17,1,74,2|0,1:2|0:0,0:0:0:0:
14,100,18761,1,10,0:0:0:0:
100,119,18893,2,0,P|91:168|78:213,1,74,8|0,0:0|1:0,0:0:0:0:
39,359,19159,6,0,B|16:317|22:245|22:245|54:294,1,148,10|8,0:0|0:0,0:0:0:0:
118,310,19557,2,0,P|163:302|199:295,1,74,2|0,1:2|0:0,0:0:0:0:
260,239,19823,1,10,0:0:0:0:
273,326,19955,2,0,P|323:336|356:356,1,74,10|0,0:0|1:0,0:0:0:0:
496,258,20221,6,0,B|450:289|387:278|387:278|367:246,1,148,12|12,1:2|0:0,0:0:0:0:
426,181,20619,1,8,0:0:0:0:
338,167,20752,2,0,L|352:6,1,148,8|10,0:0|1:2,0:0:0:0:
262,7,21150,1,2,1:2:0:0:
173,11,21283,6,0,P|179:60|181:116,1,74,12|0,0:0|0:0,0:0:0:0:
125,154,21548,1,8,0:0:0:0:
38,173,21681,2,0,P|26:224|22:260,1,74,2|0,1:2|0:0,0:0:0:0:
86,307,21946,2,0,P|61:341|54:375,1,74,10|10,0:0|0:0,0:0:0:0:
143,375,22212,1,0,1:0:0:0:
216,324,22345,6,0,P|305:334|381:340,1,148,12|8,0:0|0:0,0:0:0:0:
445,372,22743,1,0,1:0:0:0:
506,206,22876,2,0,P|456:202|436:288,1,148,2|10,0:0|0:0,0:0:0:0:
431,282,23407,6,0,P|426:215|385:131,1,148,12|8,0:0|0:0,0:0:0:0:
336,73,23805,2,0,P|298:90|250:98,1,74,2|0,1:2|0:0,0:0:0:0:
205,32,24070,1,10,0:0:0:0:
182,118,24203,2,0,P|144:101|96:93,1,74,10|0,0:0|1:0,0:0:0:0:
58,165,24469,5,12,0:0:0:0:
264,344,24734,1,12,0:0:0:0:
10,314,25000,6,0,B|144:331|90:252|226:268,1,222,12|2,0:0|0:0,0:0:0:0:
217,253,25663,6,0,P|279:261|363:266,2,133.199995935059,4|0|10,0:1|1:0|0:0,0:0:0:0:
182,180,26327,2,0,L|192:104,1,66.5999979675294,8|0,0:0|1:0,0:0:0:0:
246,56,26592,6,0,P|299:48|349:132,1,133.199995935059,10|8,0:0|0:0,0:0:0:0:
429,88,26991,2,0,P|419:149|413:220,1,133.199995935059,2|8,1:2|0:0,0:0:0:0:
472,368,27522,1,2,1:2:0:0:
472,368,27787,6,0,P|434:335|340:310,1,133.199995935059,8|0,0:0|1:0,0:0:0:0:
309,244,28185,2,0,P|248:264|175:267,1,133.199995935059,2|10,0:0|0:0,0:0:0:0:
119,213,28584,1,0,1:0:0:0:
56,262,28716,6,0,P|77:200|83:58,1,199.799993902588,10|2,0:0|1:3,0:0:0:0:
162,51,29247,2,0,P|165:89|181:145,1,66.5999979675294,0|8,0:0|0:0,0:0:0:0:
235,165,29513,2,0,P|285:154|324:153,2,66.5999979675294,8|0|0,0:0|1:0|0:0,0:0:0:0:
160,193,29911,6,0,P|145:245|131:326,2,133.199995935059,8|2|10,0:0|1:2|0:0,0:0:0:0:
235,165,30575,2,0,P|228:121|217:84,1,66.5999979675294,8|0,0:0|1:0,0:0:0:0:
281,45,30840,6,0,P|338:60|435:64,1,133.199995935059,10|8,0:0|0:0,0:0:0:0:
483,29,31238,2,0,P|496:93|503:189,1,133.199995935059,2|8,1:2|0:0,0:0:0:0:
421,298,31769,1,2,1:2:0:0:
421,298,32035,6,0,P|385:248|297:266,1,133.199995935059,10|0,0:0|1:0,0:0:0:0:
297,325,32433,2,0,P|236:334|147:352,1,133.199995935059,2|10,0:0|0:0,0:0:0:0:
112,288,32831,1,2,1:2:0:0:
39,321,32964,6,0,P|35:257|12:166,1,133.199995935059,12|10,0:0|0:0,0:0:0:0:
58,75,33362,1,10,0:0:0:0:
96,145,33495,2,0,B|183:151|148:118|234:128,1,133.199995935059,4|10,1:2|0:0,0:0:0:0:
280,185,33893,1,2,1:2:0:0:
420,83,34159,6,0,P|374:68|299:119,1,133.199995935059,4|0,0:1|1:0,0:0:0:0:
280,185,34557,1,0,0:0:0:0:
340,237,34690,2,0,P|339:271|335:316,1,66.5999979675294,10|8,0:0|0:0,0:0:0:0:
286,366,34955,1,0,1:0:0:0:
224,314,35088,6,0,P|176:331|77:346,1,133.199995935059,10|8,0:0|0:0,0:0:0:0:
21,314,35486,2,0,P|12:275|19:241,1,66.5999979675294,2|0,1:2|0:0,0:0:0:0:
45,174,35752,2,0,P|94:187|134:190,1,66.5999979675294,8|8,0:0|0:0,0:0:0:0:
177,145,36017,2,0,P|175:102|166:68,1,66.5999979675294,2|0,1:2|0:0,0:0:0:0:
124,12,36283,6,0,P|162:47|247:28,1,133.199995935059,10|0,0:0|1:0,0:0:0:0:
317,8,36681,1,10,0:0:0:0:
70,84,36946,1,2,0:0:0:0:
328,23,37212,6,0,P|317:88|315:183,1,133.199995935059,12|8,0:0|0:0,0:0:0:0:
351,225,37610,1,2,1:2:0:0:
430,214,37743,2,0,P|423:166|421:134,1,66.5999979675294,0|8,0:0|0:0,0:0:0:0:
493,111,38008,2,0,L|503:32,2,66.5999979675294,8|2|0,0:0|1:2|0:0,0:0:0:0:
423,70,38407,6,0,L|288:87,1,133.199995935059,12|0,0:0|1:0,0:0:0:0:
261,161,38805,2,0,L|128:144,1,133.199995935059,2|10,0:0|0:0,0:0:0:0:
49,133,39203,1,0,1:0:0:0:
1,253,39336,6,0,P|28:224|123:229,1,133.199995935059,12|8,0:0|0:0,0:0:0:0:
195,232,39734,2,0,L|188:312,1,66.5999979675294,2|0,1:2|0:0,0:0:0:0:
268,284,40000,2,0,L|261:364,1,66.5999979675294,10|8,0:0|0:0,0:0:0:0:
341,339,40265,2,0,L|424:346,1,66.5999979675294,2|0,1:2|0:0,0:0:0:0:
480,312,40530,6,0,P|487:271|412:220,1,133.199995935059,4|8,1:2|0:0,0:0:0:0:
341,220,40929,2,0,L|335:144,1,66.5999979675294,4|8,1:2|0:0,0:0:0:0:
362,78,41194,1,8,0:0:0:0:
414,138,41327,1,2,1:2:0:0:
279,93,41460,6,0,P|210:99|118:104,1,133.199995935059,12|8,0:0|0:0,0:0:0:0:
115,29,41858,1,2,1:2:0:0:
38,52,41991,2,0,P|46:84|54:125,1,66.5999979675294,2|10,0:0|0:0,0:0:0:0:
21,190,42256,1,10,0:0:0:0:
96,216,42389,2,0,P|88:253|84:288,1,66.5999979675294,2|0,1:2|0:0,0:0:0:0:
12,377,42654,6,0,P|63:320|201:323,1,199.799993902588,4|8,0:1|0:0,0:0:0:0:
231,373,43185,1,2,1:2:0:0:
479,248,43584,6,0,L|474:299,8,33.2999989837647,10|0|0|0|0|0|8|0|0,0:0|0:0|0:0|0:0|0:0|0:0|0:0|0:0|0:0,0:0:0:0:
487,168,44247,1,0,1:0:0:0:
94,68,44778,6,0,P|113:120|128:220,1,133.199995935059,10|0,0:0|0:0,0:0:0:0:
95,270,45177,1,10,0:0:0:0:
198,96,45442,1,2,0:0:0:0:
102,286,45707,6,0,P|145:271|257:275,1,133.199995935059,10|0,0:0|0:0,0:0:0:0:
303,306,46106,2,0,P|300:343|298:372,1,66.5999979675294,8|0,0:0|0:0,0:0:0:0:
377,369,46371,2,0,L|389:208,1,133.199995935059,0|8,1:0|0:0,0:0:0:0:
481,17,46902,6,0,P|492:59|410:82,1,133.199995935059,10|2,0:0|0:0,0:0:0:0:
365,35,47300,2,0,P|310:31|223:23,1,133.199995935059,8|0,0:0|0:0,0:0:0:0:
20,110,47831,6,0,P|59:95|112:172,1,133.199995935059,10|0,0:0|0:0,0:0:0:0:
64,216,48230,2,0,L|53:286,1,66.5999979675294,10|0,0:0|0:0,0:0:0:0:
131,298,48495,2,0,L|141:232,1,66.5999979675294,0|0,1:0|0:0,0:0:0:0:
219,252,48761,2,0,L|208:317,1,66.5999979675294,2|0,0:0|0:0,0:0:0:0:
267,372,49026,6,0,P|303:342|408:337,2,133.199995935059,10|4|0,0:0|0:0|1:0,0:0:0:0:
424,183,49823,1,10,0:0:0:0:
373,252,49955,6,0,L|236:245,1,133.199995935059,12|8,0:0|0:0,0:0:0:0:
163,267,50353,2,0,L|157:180,1,66.5999979675294,0|0,1:0|0:0,0:0:0:0:
77,116,50619,2,0,L|72:182,1,66.5999979675294,10|0,1:2|0:0,0:0:0:0:
229,109,50884,2,0,L|163:115,1,66.5999979675294,10|0,1:2|0:0,0:0:0:0:
38,22,51150,6,0,P|102:29|210:28,1,148,12|0,0:0|1:0,0:0:0:0:
272,9,51548,2,0,P|305:46|316:82,1,74,2|8,0:0|0:0,0:0:0:0:
402,80,51814,2,0,P|381:138|380:177,1,74,10|0,0:0|1:0,0:0:0:0:
489,284,52079,6,0,P|508:214|469:154,1,148,10|8,0:0|0:0,0:0:0:0:
345,238,52477,2,0,L|419:228,1,74,0|0,1:0|0:0,0:0:0:0:
404,316,52743,1,10,0:0:0:0:
334,370,52876,1,8,0:0:0:0:
334,370,53008,2,0,P|312:328|270:302,1,74,2|0,1:2|0:0,0:0:0:0:
211,351,53274,6,0,P|135:341|54:337,1,148,12|0,0:0|1:0,0:0:0:0:
42,250,53672,1,10,0:0:0:0:
292,141,53938,1,10,0:0:0:0:
106,15,54203,6,0,P|119:79|136:180,1,148,12|8,0:0|0:0,0:0:0:0:
65,218,54601,2,0,P|43:277|39:297,1,74,0|2,1:0|0:0,0:0:0:0:
93,360,54867,2,0,P|126:335|172:329,1,74,10|8,0:0|0:0,0:0:0:0:
215,260,55132,2,0,P|255:276|285:320,1,74,0|2,1:0|0:0,0:0:0:0:
443,335,55398,6,0,B|395:334|344:360|344:360|362:343|366:296,1,148,12|0,0:0|1:0,0:0:0:0:
337,234,55796,1,2,0:0:0:0:
425,243,55929,2,0,P|433:195|465:159,1,74,8|10,0:0|0:0,0:0:0:0:
406,94,56194,1,0,1:0:0:0:
329,139,56327,6,0,P|253:129|158:118,1,148,10|8,0:0|0:0,0:0:0:0:
93,129,56725,2,0,L|86:42,1,74,2|0,1:2|0:0,0:0:0:0:
0,49,56991,2,0,L|5:122,1,74,10|8,0:0|0:0,0:0:0:0:
43,203,57256,2,0,L|37:276,1,74,2|0,1:2|0:0,0:0:0:0:
182,326,57522,6,0,B|128:304|107:325|107:325|86:361|26:363,2,148,12|4|10,0:0|1:2|0:0,0:0:0:0:
242,260,58185,1,10,0:0:0:0:
300,326,58318,1,0,1:0:0:0:
383,294,58451,6,0,L|399:122,1,148,4|10,1:2|0:0,0:0:0:0:
306,46,58849,2,0,L|311:120,1,74,10|10,0:0|0:0,0:0:0:0:
242,177,59115,5,10,0:0:0:0:
200,100,59247,1,10,0:0:0:0:
114,76,59380,1,10,0:0:0:0:
29,103,59513,1,10,0:0:0:0:
20,137,59646,6,0,B|32:164|32:164|25:221,10,74,2|0|0|2|0|0|2|0|0|2|0,1:2|0:0|0:0|0:0|0:0|0:0|0:0|0:0|0:0|0:0|0:0,0:0:0:0:
119,163,61106,5,2,0:0:0:0:
119,163,61172,1,2,0:0:0:0:
119,163,61238,2,0,L|248:148,1,111,2|10,1:2|0:0,0:0:0:0:
241,162,61504,2,0,L|246:106,1,37,10|0,1:2|0:0,0:0:0:0:
232,28,61769,6,0,P|305:22|335:115,1,162.800004968262,12|0,1:2|1:0,0:0:0:0:
440,90,62168,2,0,P|419:154|411:251,1,162.800004968262,2|10,0:0|0:0,0:0:0:0:
451,337,62566,1,0,1:0:0:0:
359,370,62699,6,0,B|252:379|311:337|185:345,1,162.800004968262,2|8,0:0|0:0,0:0:0:0:
48,305,63097,2,0,P|108:294|148:268,1,81.4000024841309,2|0,1:2|0:0,0:0:0:0:
177,201,63362,1,10,0:0:0:0:
177,201,63495,1,10,0:0:0:0:
269,233,63628,2,0,P|259:187|262:136,1,81.4000024841309,0|2,1:0|0:0,0:0:0:0:
216,0,63893,6,0,P|209:62|177:129,1,122.100003726196,10|0,0:0|0:0,0:0:0:0:
172,122,64159,2,0,P|123:113|84:107,1,81.4000024841309,2|0,1:2|0:0,0:0:0:0:
44,22,64424,1,10,0:0:0:0:
2,258,64690,2,0,P|55:247|110:244,1,81.4000024841309,2|0,1:2|0:0,0:0:0:0:
184,378,64955,6,0,P|152:322|221:255,1,162.800004968262,12|10,0:0|1:2,0:0:0:0:
297,297,65353,2,0,L|301:349,2,40.7000012420655,12|0|0,0:0|0:0|0:0,0:0:0:0:
183,173,65619,2,0,L|186:132,1,40.7000012420655,8|8,0:0|0:0,0:0:0:0:
269,130,65752,1,10,1:2:0:0:
269,130,66017,6,0,P|354:139|445:147,1,162.800004968262,12|0,0:0|1:0,0:0:0:0:
496,73,66415,2,0,P|468:20|370:42,1,162.800004968262,2|10,0:0|0:0,0:0:0:0:
327,116,66814,1,0,1:0:0:0:
327,116,66946,6,0,P|335:177|341:304,1,162.800004968262,10|8,0:0|0:0,0:0:0:0:
439,277,67345,2,0,P|428:316|426:356,1,81.4000024841309,0|0,1:0|0:0,0:0:0:0:
329,369,67610,2,0,P|284:353|218:345,1,81.4000024841309,10|10,0:0|0:0,0:0:0:0:
212,256,67876,1,0,1:0:0:0:
152,332,68008,1,2,0:0:0:0:
55,349,68141,6,0,P|45:266|23:189,1,162.800004968262,12|2,0:0|1:2,0:0:0:0:
2,94,68539,1,0,0:0:0:0:
94,125,68672,2,0,P|137:110|187:108,1,81.4000024841309,10|8,0:0|0:0,0:0:0:0:
121,22,68938,1,2,1:2:0:0:
121,22,69070,1,0,0:0:0:0:
245,178,69203,6,0,P|266:143|271:103,1,81.4000024841309,4|8,1:2|0:0,0:0:0:0:
223,17,69469,1,8,0:0:0:0:
381,118,69601,6,0,P|375:79|351:46,2,81.4000024841309,4|8|8,1:2|0:0|0:0,0:0:0:0:
512,6,70000,5,0,1:0:0:0:
477,96,70132,1,8,0:0:0:0:
505,189,70265,2,0,P|452:192|332:238,1,162.800004968262,12|0,1:2|1:0,0:0:0:0:
275,292,70663,2,0,P|268:352|263:392,1,81.4000024841309,2|8,0:0|0:0,0:0:0:0:
176,330,70929,2,0,P|134:342|88:364,1,81.4000024841309,10|0,0:0|1:0,0:0:0:0:
29,197,71194,6,0,P|80:222|215:224,1,162.800004968262,2|8,0:0|0:0,0:0:0:0:
270,184,71592,2,0,P|282:138|295:105,1,81.4000024841309,2|0,1:2|0:0,0:0:0:0:
300,7,71858,1,10,0:0:0:0:
212,50,71991,1,10,0:0:0:0:
115,38,72123,2,0,P|130:76|138:115,1,81.4000024841309,0|2,1:0|0:0,0:0:0:0:
43,299,72389,6,0,P|50:255|114:188,1,122.100003726196,10|0,0:0|0:0,0:0:0:0:
113,196,72654,2,0,P|153:206|220:209,1,81.4000024841309,2|0,1:2|0:0,0:0:0:0:
240,123,72920,1,10,0:0:0:0:
495,280,73185,2,0,P|454:283|415:293,1,81.4000024841309,2|0,1:2|0:0,0:0:0:0:
271,368,73451,6,0,P|322:308|288:233,1,162.800004968262,12|10,0:0|1:2,0:0:0:0:
202,272,73849,2,0,L|146:264,2,40.7000012420655,12|0|0,0:0|0:0|0:0,0:0:0:0:
254,117,74115,2,0,L|310:109,1,40.7000012420655,8|8,0:0|0:0,0:0:0:0:
370,163,74247,1,10,1:2:0:0:
370,163,74513,6,0,P|379:120|386:72,2,81.4000024841309,12|8|8,0:0|0:0|0:0,0:0:0:0:
280,201,74911,1,10,1:2:0:0:
472,29,75177,1,10,1:2:0:0:
232,8,75442,6,0,P|243:67|259:197,1,162.800004968262,12|10,0:0|0:0,0:0:0:0:
219,259,75840,1,0,1:0:0:0:
219,259,75973,2,0,P|170:239|127:237,1,81.4000024841309,12|0,0:0|0:0,0:0:0:0:
65,297,76238,1,10,0:0:0:0:
0,223,76371,2,0,P|19:178|25:137,1,81.4000024841309,2|2,1:2|1:2,0:0:0:0:
12,48,76637,6,0,B|57:11|132:32|132:32|102:87,1,162.800004968262,12|0,0:0|1:0,0:0:0:0:
114,161,77035,2,0,L|157:157,7,40.7000012420655,2|2|10|0|10|0|2|0,0:0|0:0|0:0|0:0|0:0|0:0|1:2|0:0,0:0:0:0:
142,236,77566,1,12,0:0:0:0:
256,192,78230,12,12,78761,1:2:0:0:
319,149,87256,6,0,P|320:111|221:69,2,148,12|2|10,1:2|1:2|0:0,0:0:0:0:
260,365,88053,2,0,P|253:324|250:275,1,74,2|8,1:2|0:0,0:0:0:0:
326,245,88318,6,0,P|409:258|488:268,2,148,2|0|10,0:0|1:0|0:0,0:0:0:0:
113,145,89115,2,0,P|120:103|131:48,1,74,0|0,1:0|0:0,0:0:0:0:
53,19,89380,6,0,P|3:48|35:135,2,148,10|2|10,0:0|1:2|0:0,0:0:0:0:
285,97,90177,2,0,P|326:84|372:78,1,74,2|8,1:2|0:0,0:0:0:0:
416,144,90442,6,0,B|468:114|441:29|441:29|406:15,2,148,2|0|10,0:0|1:0|0:0,0:0:0:0:
303,338,91238,2,0,P|252:319|216:318,1,74,0|0,1:0|0:0,0:0:0:0:
196,235,91504,6,0,P|145:259|55:263,2,148,12|2|10,0:0|1:2|0:0,0:0:0:0:
261,18,92300,2,0,P|274:64|279:101,1,74,2|8,1:2|0:0,0:0:0:0:
274,179,92566,6,0,P|303:220|412:196,2,148,2|0|10,0:0|1:0|0:0,0:0:0:0:
37,46,93362,1,0,1:0:0:0:
37,46,93495,1,0,0:0:0:0:
8,130,93628,6,0,B|32:125|32:125|50:131|50:131|93:123,1,74,12|0,0:0|0:0,0:0:0:0:
159,84,93893,2,0,P|163:130|176:166,1,74,12|0,0:3|0:0,0:0:0:0:
139,240,94159,2,0,P|182:244|223:226,2,74,4|0|0,0:3|0:0|0:0,0:0:0:0:
55,211,94557,6,0,L|60:362,1,148,12|0,0:0|1:0,0:0:0:0:
142,326,94955,1,0,1:0:0:0:
219,370,95088,2,0,P|284:336|271:261,1,148,12|8,0:0|0:0,0:0:0:0:
259,182,95486,2,0,P|296:190|334:195,1,74,8|10,0:0|0:0,0:0:0:0:
362,120,95752,1,12,0:0:0:0:
94,73,96283,5,0,1:0:0:0:
94,73,97345,1,0,1:0:0:0:
94,73,98407,1,0,1:0:0:0:
94,73,99469,1,0,1:0:0:0:
363,167,100000,5,12,0:0:0:0:
363,167,100530,1,0,1:0:0:0:
363,167,101592,1,0,1:0:0:0:
363,167,102654,6,0,B|338:145|338:145|346:192,2,66.5999979675294,0|10|0,1:0|0:0|0:0,0:0:0:0:
357,293,103053,1,12,0:0:0:0:
357,293,103318,6,0,P|299:281|270:282,1,66.5999979675294,2|8,0:0|0:0,0:0:0:0:
248,204,103584,2,0,P|204:218|114:225,1,133.199995935059,2|8,0:0|0:0,0:0:0:0:
45,190,103982,2,0,L|53:108,1,66.5999979675294,10|10,0:0|0:0,0:0:0:0:
221,33,104380,6,0,L|225:85,1,33.2999989837647,8|8,0:0|0:0,0:0:0:0:
279,122,104513,2,0,L|409:110,1,99.899996951294,12|0,0:0|0:0,0:0:0:0:
402,94,104778,6,0,P|439:128|386:219,2,148,4|0|10,0:1|1:0|0:0,0:0:0:0:
369,11,105441,1,8,0:0:0:0:
287,48,105574,1,0,1:0:0:0:
287,48,105707,6,0,P|282:85|274:215,1,148,10|8,0:0|0:0,0:0:0:0:
200,245,106105,2,0,P|190:200|175:168,1,74,2|0,1:2|0:0,0:0:0:0:
194,86,106370,2,0,P|152:56|77:124,1,148,8|2,0:0|1:2,0:0:0:0:
0,302,106901,6,0,P|56:310|161:319,1,148,8|0,0:0|1:0,0:0:0:0:
200,245,107300,2,0,P|238:199|323:250,1,148,2|10,0:0|0:0,0:0:0:0:
300,311,107698,1,0,1:0:0:0:
385,333,107831,6,0,P|390:270|448:117,1,222,10|2,0:0|1:3,0:0:0:0:
360,92,108362,2,0,P|354:46|344:15,1,74,0|8,0:0|0:0,0:0:0:0:
261,49,108627,2,0,P|225:34|183:30,2,74,8|0|0,0:0|1:0|0:0,0:0:0:0:
279,135,109025,6,0,P|257:194|244:299,2,148,8|2|10,0:0|1:2|0:0,0:0:0:0:
349,189,109689,2,0,P|357:238|354:278,1,74,8|0,0:0|1:0,0:0:0:0:
309,337,109954,6,0,P|261:291|168:328,1,148,10|8,0:0|0:0,0:0:0:0:
136,379,110353,2,0,P|130:337|109:227,1,148,2|8,1:2|0:0,0:0:0:0:
50,34,110884,1,2,1:2:0:0:
50,34,111149,6,0,P|5:78|54:158,1,148,10|0,0:0|1:0,0:0:0:0:
113,113,111547,2,0,P|172:128|270:137,1,148,2|10,0:0|0:0,0:0:0:0:
332,85,111946,1,2,1:2:0:0:
406,131,112078,6,0,P|394:197|385:297,1,148,12|10,0:0|0:0,0:0:0:0:
247,353,112477,1,10,0:0:0:0:
301,283,112609,2,0,P|267:233|170:257,1,148,4|10,1:2|0:0,0:0:0:0:
164,325,113008,1,2,1:2:0:0:
31,132,113273,6,0,P|77:189|102:259,1,148,4|0,0:1|1:0,0:0:0:0:
164,325,113671,1,0,0:0:0:0:
244,288,113804,2,0,P|249:249|263:204,1,74,10|8,0:0|0:0,0:0:0:0:
235,129,114070,1,0,1:0:0:0:
347,206,114202,6,0,P|371:165|301:93,1,148,10|8,0:0|0:0,0:0:0:0:
246,39,114601,2,0,P|197:50|165:52,1,74,2|0,1:2|0:0,0:0:0:0:
97,4,114866,2,0,P|83:54|67:91,1,74,8|8,0:0|0:0,0:0:0:0:
14,140,115131,2,0,P|34:180|43:235,1,74,2|0,1:2|0:0,0:0:0:0:
6,290,115397,6,0,B|60:277|134:273|134:273|148:300,1,148,10|0,0:0|1:0,0:0:0:0:
181,369,115795,1,10,0:0:0:0:
227,133,116061,1,2,0:0:0:0:
194,352,116326,6,0,P|246:337|367:328,1,148,12|8,0:0|0:0,0:0:0:0:
418,369,116724,2,0,P|426:326|441:293,1,74,2|0,1:2|0:0,0:0:0:0:
497,231,116990,1,8,0:0:0:0:
461,149,117123,2,0,P|414:162|375:167,2,74,8|2|0,0:0|1:2|0:0,0:0:0:0:
497,67,117521,6,0,B|428:53|383:43|383:43|357:66,1,148,12|0,0:0|1:0,0:0:0:0:
285,112,117919,2,0,P|275:76|249:46,1,74,2|8,0:0|0:0,0:0:0:0:
173,91,118185,2,0,P|132:78|72:88,1,74,10|0,0:0|1:0,0:0:0:0:
25,231,118450,6,0,B|87:223|128:167|128:167|133:218,1,148,12|8,0:0|0:0,0:0:0:0:
211,226,118848,2,0,P|201:266|199:306,1,74,2|0,1:2|0:0,0:0:0:0:
154,376,119114,2,0,P|201:344|291:344,1,148,10|2,0:0|1:2,0:0:0:0:
372,375,119512,1,0,0:0:0:0:
508,262,119645,6,0,P|468:276|345:281,1,148,4|8,1:2|0:0,0:0:0:0:
279,253,120043,2,0,P|272:208|266:176,1,74,4|8,1:2|0:0,0:0:0:0:
213,108,120308,1,8,0:0:0:0:
301,95,120441,1,2,1:2:0:0:
180,197,120574,6,0,P|107:183|18:171,1,148,12|8,0:0|0:0,0:0:0:0:
0,260,120972,1,2,1:2:0:0:
38,340,121105,1,2,0:0:0:0:
38,340,121238,2,0,P|86:328|134:328,1,74,10|10,0:0|0:0,0:0:0:0:
182,275,121503,2,0,P|215:317|261:347,1,74,2|0,1:2|0:0,0:0:0:0:
295,377,121769,6,0,P|371:351|474:267,1,199.799993902588,4|8,0:1|0:0,0:0:0:0:
487,201,122300,1,2,1:2:0:0:
197,48,122698,6,0,L|201:11,8,33.2999989837647,10|0|0|0|0|0|8|0|0,0:0|0:0|0:0|0:0|0:0|0:0|0:0|0:0|0:0,0:0:0:0:
186,127,123362,1,0,1:0:0:0:
52,364,123893,6,0,P|49:307|28:209,1,133.199995935059,10|0,0:0|0:0,0:0:0:0:
10,156,124291,1,10,0:0:0:0:
239,258,124556,1,2,0:0:0:0:
25,131,124822,6,0,P|74:149|172:158,1,133.199995935059,10|0,0:0|0:0,0:0:0:0:
233,152,125220,2,0,P|237:114|240:71,1,66.5999979675294,8|0,0:0|0:0,0:0:0:0:
318,75,125485,2,0,L|306:217,1,133.199995935059,0|8,1:0|0:0,0:0:0:0:
498,362,126016,6,0,P|495:302|426:313,1,133.199995935059,10|2,0:0|0:0,0:0:0:0:
372,354,126415,2,0,P|383:302|394:209,1,133.199995935059,8|0,0:0|0:0,0:0:0:0:
279,69,126946,6,0,B|189:60|234:94|134:84,1,133.199995935059,10|0,0:0|0:0,0:0:0:0:
77,48,127344,2,0,P|70:103|64:138,1,66.5999979675294,10|0,0:0|0:0,0:0:0:0:
0,156,127609,2,0,P|13:200|20:239,1,66.5999979675294,0|0,1:0|0:0,0:0:0:0:
7,300,127875,2,0,P|51:288|92:288,1,66.5999979675294,2|0,0:0|0:0,0:0:0:0:
134,337,128140,6,0,P|188:341|276:357,2,133.199995935059,10|4|0,0:0|0:0|1:0,0:0:0:0:
336,213,128937,1,10,0:0:0:0:
283,273,129070,6,0,P|290:228|283:113,1,133.199995935059,12|8,0:0|0:0,0:0:0:0:
221,96,129468,2,0,P|183:89|143:74,1,66.5999979675294,0|0,1:0|0:0,0:0:0:0:
296,61,129733,2,0,P|327:50|360:45,1,66.5999979675294,10|0,1:2|0:0,0:0:0:0:
384,192,129999,2,0,P|380:158|373:126,1,66.5999979675294,10|0,1:2|0:0,0:0:0:0:
484,5,130264,6,0,P|453:57|466:147,1,148,12|0,0:0|1:0,0:0:0:0:
501,221,130662,2,0,P|490:268|485:317,1,74,2|8,0:0|0:0,0:0:0:0:
414,346,130928,2,0,P|406:305|387:260,1,74,10|0,0:0|1:0,0:0:0:0:
276,150,131193,6,0,P|251:186|322:246,1,148,10|8,0:0|0:0,0:0:0:0:
382,192,131592,2,0,P|385:149|395:111,1,74,0|0,1:0|0:0,0:0:0:0:
465,67,131857,1,10,0:0:0:0:
465,67,131990,1,8,0:0:0:0:
383,30,132123,2,0,P|345:55|299:67,1,74,2|0,1:2|0:0,0:0:0:0:
109,58,132388,6,0,P|181:72|241:113,1,148,12|0,0:0|1:0,0:0:0:0:
258,200,132786,1,10,0:0:0:0:
31,289,133052,1,10,0:0:0:0:
18,45,133317,6,0,P|39:82|57:195,1,148,12|8,0:0|0:0,0:0:0:0:
40,272,133716,2,0,P|83:258|145:260,1,74,0|2,1:0|0:0,0:0:0:0:
199,242,133981,2,0,P|190:280|186:330,1,74,10|8,0:0|0:0,0:0:0:0:
142,175,134247,2,0,P|149:129|148:80,1,74,0|2,1:0|0:0,0:0:0:0:
6,66,134512,6,0,B|49:72|49:72|114:44|145:-4,1,148,12|0,0:0|1:0,0:0:0:0:
215,46,134910,1,2,0:0:0:0:
276,110,135043,2,0,L|375:97,1,74,8|10,0:0|0:0,0:0:0:0:
402,28,135308,1,0,1:0:0:0:
488,49,135441,6,0,B|485:122|459:156|459:156|408:118,1,148,10|8,0:0|0:0,0:0:0:0:
348,262,135839,2,0,P|349:225|361:190,1,74,2|0,1:2|0:0,0:0:0:0:
439,234,136105,2,0,P|437:270|426:306,1,74,10|8,0:0|0:0,0:0:0:0:
355,359,136370,2,0,P|301:339|258:340,1,74,2|0,1:2|0:0,0:0:0:0:
114,303,136636,6,0,B|146:306|167:299|167:299|180:268|195:262|195:262|233:252|265:272,2,148,12|4|10,0:0|1:2|0:0,0:0:0:0:
52,238,137300,1,10,0:0:0:0:
91,159,137432,1,0,1:0:0:0:
49,80,137565,6,0,P|120:18|187:48,1,148,4|10,1:2|0:0,0:0:0:0:
235,82,137963,2,0,P|221:135|219:176,1,74,10|10,0:0|0:0,0:0:0:0:
285,214,138229,5,10,0:0:0:0:
327,137,138361,1,10,0:0:0:0:
413,113,138494,1,10,0:0:0:0:
498,140,138627,1,10,0:0:0:0:
507,174,138760,6,0,B|495:201|495:201|502:258,10,74,2|0|0|2|0|0|2|0|0|2|0,1:2|0:0|0:0|0:0|0:0|0:0|0:0|0:0|0:0|0:0|0:0,0:0:0:0:
415,224,140220,5,2,0:0:0:0:
415,224,140286,1,2,0:0:0:0:
415,224,140353,2,0,L|281:211,1,111,2|10,1:2|0:0,0:0:0:0:
292,209,140618,2,0,L|297:249,1,37,10|0,1:2|0:0,0:0:0:0:
309,351,140884,6,0,B|208:357|254:312|147:321,1,162.800004968262,12|0,1:2|1:0,0:0:0:0:
60,353,141282,2,0,P|24:310|74:223,1,162.800004968262,2|10,0:0|0:0,0:0:0:0:
163,207,141680,1,0,1:0:0:0:
22,83,141813,6,0,P|127:115|189:108,1,162.800004968262,2|8,0:0|0:0,0:0:0:0:
272,138,142211,2,0,P|286:84|312:49,1,81.4000024841309,2|0,1:2|0:0,0:0:0:0:
386,109,142477,1,10,0:0:0:0:
386,109,142609,1,10,0:0:0:0:
433,194,142742,2,0,P|419:248|393:283,1,81.4000024841309,0|2,1:0|0:0,0:0:0:0:
200,244,143008,6,0,P|252:215|310:229,1,122.100003726196,10|0,0:0|0:0,0:0:0:0:
320,238,143273,2,0,P|314:287|312:339,1,81.4000024841309,2|0,1:2|0:0,0:0:0:0:
392,376,143539,1,10,0:0:0:0:
499,138,143804,2,0,P|438:149|419:164,1,81.4000024841309,2|0,1:2|0:0,0:0:0:0:
223,102,144070,6,0,P|293:110|379:68,1,162.800004968262,12|10,0:0|1:2,0:0:0:0:
471,55,144468,2,0,L|474:2,2,40.7000012420655,12|0|0,0:0|0:0|0:0,0:0:0:0:
378,185,144733,2,0,L|380:225,1,40.7000012420655,8|8,0:0|0:0,0:0:0:0:
460,258,144866,1,10,1:2:0:0:
460,258,145131,6,0,P|407:245|278:231,1,162.800004968262,12|0,0:0|1:0,0:0:0:0:
235,306,145530,2,0,P|221:255|125:251,1,162.800004968262,2|10,0:0|0:0,0:0:0:0:
88,341,145928,1,0,1:0:0:0:
2,307,146061,6,0,P|21:258|24:136,1,162.800004968262,10|8,0:0|0:0,0:0:0:0:
4,53,146459,1,0,1:0:0:0:
4,53,146592,1,0,0:0:0:0:
97,28,146724,2,0,P|101:75|115:114,1,81.4000024841309,10|10,0:0|0:0,0:0:0:0:
197,156,146990,1,0,1:0:0:0:
289,123,147123,1,2,0:0:0:0:
378,161,147255,6,0,P|368:208|357:331,1,162.800004968262,12|2,0:0|1:2,0:0:0:0:
266,361,147654,1,0,0:0:0:0:
172,335,147786,2,0,P|165:289|146:248,1,81.4000024841309,10|8,0:0|0:0,0:0:0:0:
225,192,148052,1,2,1:2:0:0:
225,192,148185,1,0,0:0:0:0:
78,160,148317,6,0,P|130:127|182:135,1,81.4000024841309,4|8,1:2|0:0,0:0:0:0:
243,99,148583,1,8,0:0:0:0:
390,196,148716,6,0,P|350:187|319:161,2,81.4000024841309,4|8|8,1:2|0:0|0:0,0:0:0:0:
308,24,149114,5,0,1:0:0:0:
243,99,149247,1,8,0:0:0:0:
165,40,149379,2,0,B|67:59|115:8|3:24,1,162.800004968262,12|0,1:2|1:0,0:0:0:0:
42,117,149778,2,0,P|29:171|20:282,1,162.800004968262,2|10,0:0|0:0,0:0:0:0:
64,364,150176,1,0,1:0:0:0:
231,319,150308,6,0,B|184:281|117:284|117:284|160:257,1,162.800004968262,2|8,0:0|0:0,0:0:0:0:
240,220,150707,2,0,P|254:169|260:128,1,81.4000024841309,2|0,1:2|0:0,0:0:0:0:
187,73,150972,1,10,0:0:0:0:
187,73,151105,1,10,0:0:0:0:
266,16,151238,2,0,P|314:38|348:44,1,81.4000024841309,0|2,1:0|0:0,0:0:0:0:
505,144,151503,6,0,P|459:116|363:137,1,122.100003726196,10|0,0:0|0:0,0:0:0:0:
382,128,151769,2,0,P|378:166|368:218,1,81.4000024841309,2|0,1:2|0:0,0:0:0:0:
438,278,152034,1,10,0:0:0:0:
170,197,152300,2,0,P|174:235|184:287,1,81.4000024841309,2|0,1:2|0:0,0:0:0:0:
390,369,152565,6,0,P|346:318|258:331,1,162.800004968262,12|10,0:0|1:2,0:0:0:0:
174,371,152963,2,0,L|112:366,2,40.7000012420655,12|0|0,0:0|0:0|0:0,0:0:0:0:
263,232,153229,2,0,L|309:229,1,40.7000012420655,8|8,0:0|0:0,0:0:0:0:
379,176,153362,1,10,1:2:0:0:
379,176,153627,6,0,P|393:217|398:268,2,81.4000024841309,12|8|8,0:0|0:0|0:0,0:0:0:0:
476,181,154025,1,10,1:2:0:0:
238,17,154291,1,10,1:2:0:0:
488,27,154556,6,0,B|386:23|440:63|313:52,1,162.800004968262,12|10,0:0|0:0,0:0:0:0:
238,17,154954,1,0,1:0:0:0:
151,62,155087,2,0,P|142:113|152:146,1,81.4000024841309,12|0,0:0|0:0,0:0:0:0:
225,203,155353,1,10,0:0:0:0:
184,291,155485,2,0,P|141:301|104:316,1,81.4000024841309,2|2,1:2|1:2,0:0:0:0:
267,356,155751,6,0,B|345:355|391:313|391:313|376:368,1,162.800004968262,12|0,0:0|1:0,0:0:0:0:
328,247,156149,2,0,L|322:199,7,40.7000012420655,2|2|10|0|10|0|2|0,0:0|0:0|0:0|0:0|0:0|0:0|1:2|0:0,0:0:0:0:
409,218,156680,1,12,0:0:0:0:
256,192,157344,12,6,157875,0:0:0:0:
448,96,166370,5,4,1:0:0:0:
448,96,166901,1,2,1:2:0:0:
448,96,167432,1,10,0:0:0:0:
448,96,167963,1,2,0:0:0:0:
448,96,168494,1,10,0:0:0:0:
448,96,169025,1,2,1:2:0:0:
448,96,169556,1,10,0:0:0:0:
448,96,170087,1,10,0:0:0:0:
346,133,170353,5,2,1:2:0:0:
346,133,170485,1,0,0:0:0:0:
346,133,170618,1,10,0:0:0:0:
339,216,171149,5,2,1:2:0:0:
332,299,171680,1,10,0:0:0:0:
357,208,172211,1,2,0:0:0:0:
339,119,172742,1,10,0:0:0:0:
322,223,173273,1,2,1:2:0:0:
348,318,173804,1,10,0:0:0:0:
376,200,174335,1,10,0:0:0:0:
260,235,174601,5,2,1:2:0:0:
260,235,174733,1,0,0:0:0:0:
260,235,174866,1,4,1:0:0:0:
168,214,175397,5,2,1:2:0:0:
168,214,175928,1,10,0:0:0:0:
168,214,176459,1,2,0:0:0:0:
168,214,176990,1,10,0:0:0:0:
168,214,177521,1,2,1:2:0:0:
168,214,178052,1,10,0:0:0:0:
168,214,178583,1,10,0:0:0:0:
199,135,178848,5,2,1:2:0:0:
199,135,178981,1,0,0:0:0:0:
199,135,179114,1,10,0:0:0:0:
105,190,179645,5,2,1:2:0:0:
35,109,180176,1,10,0:0:0:0:
95,214,180707,1,2,0:0:0:0:
48,324,181238,1,10,0:0:0:0:
129,212,181769,1,2,1:2:0:0:
268,261,182300,1,10,0:0:0:0:
268,261,182565,6,0,P|327:251|281:282,1,162.800004968262,0|8,1:0|0:0,0:0:0:0:
208,328,182963,2,0,B|197:327|197:327|186:330|186:330|176:325|176:325|167:334|167:334|147:327|147:327|133:330,2,81.4000024841309,8|0|0,1:2|1:0|1:0,0:0:0:0:
331,355,183362,6,0,P|394:346|497:338,1,162.800004968262,4|0,1:0|1:0,0:0:0:0:
433,109,183760,2,0,B|408:220|408:220|446:252,1,162.800004968262,4|0,1:0|1:0,0:0:0:0:
337,132,184158,2,0,L|327:43,1,81.4000024841309,4|0,1:0|0:0,0:0:0:0:
239,6,184424,5,0,1:0:0:0:
201,95,184556,2,0,P|139:72|99:67,2,81.4000024841309,0|2|0,1:0|1:2|1:0,0:0:0:0:
255,176,184954,1,2,1:2:0:0:
166,218,185087,1,2,1:2:0:0:
212,304,185220,2,0,P|206:344|200:389,1,81.4000024841309,2|2,1:2|1:2,0:0:0:0:
0,286,185485,6,0,B|69:272|116:328|116:328|99:372,1,162.800004968262,4|0,1:0|1:0,0:0:0:0:
59,204,185884,2,0,B|108:208|148:243|148:243|175:212|225:215,1,162.800004968262,4|0,1:0|1:0,0:0:0:0:
336,179,186282,2,0,P|297:166|264:143,1,81.4000024841309,4|0,1:0|0:0,0:0:0:0:
236,49,186547,5,0,1:0:0:0:
138,43,186680,2,0,P|148:92|152:131,2,81.4000024841309,0|2|2,1:0|1:2|1:2,0:0:0:0:
236,49,187078,1,2,1:2:0:0:
328,18,187211,2,0,P|390:52|350:148,1,162.800004968262,4|8,1:0|0:0,0:0:0:0:
486,235,187609,6,0,P|404:222|320:211,1,162.800004968262,4|0,1:0|1:0,0:0:0:0:
424,314,188008,2,0,P|342:301|258:290,1,162.800004968262,4|0,1:0|1:0,0:0:0:0:
165,300,188406,2,0,P|179:342|184:378,1,81.4000024841309,4|0,1:0|0:0,0:0:0:0:
14,199,188671,5,0,1:0:0:0:
109,183,188804,2,0,P|107:224|88:260,2,81.4000024841309,0|2|0,1:0|1:2|1:0,0:0:0:0:
49,106,189202,1,2,1:2:0:0:
127,46,189335,1,2,1:2:0:0:
187,124,189468,2,0,P|257:106|289:104,1,81.4000024841309,2|2,1:2|1:2,0:0:0:0:
458,54,189733,6,0,P|412:49|290:18,2,162.800004968262,4|0|10,1:2|1:0|0:0,0:0:0:0:
397,131,190397,2,0,P|414:200|414:280,1,122.100003726196,8|0,0:0|0:0,0:0:0:0:
425,274,190662,6,0,P|390:302|321:219,1,162.800004968262,10|8,0:0|0:0,0:0:0:0:
246,166,191061,1,2,1:2:0:0:
246,166,191193,1,0,0:0:0:0:
159,210,191326,2,0,B|139:264|165:327|165:327|121:297,1,162.800004968262,8|2,0:0|1:2,0:0:0:0:
32,315,191724,1,0,0:0:0:0:
6,220,191857,6,0,P|8:156|70:128,1,122.100003726196,4|0,1:2|0:0,0:0:0:0:
52,83,192123,2,0,P|101:96|147:102,1,81.4000024841309,12|0,1:2|0:0,0:0:0:0:
225,73,192388,1,8,0:0:0:0:
302,132,192521,2,0,L|319:43,1,81.4000024841309,8|2,0:0|1:2,0:0:0:0:
510,133,192786,6,0,P|457:123|366:159,1,122.100003726196,4|0,1:2|0:0,0:0:0:0:
381,156,193052,2,0,P|387:212|393:260,1,81.4000024841309,0|2,1:0|1:2,0:0:0:0:
367,332,193317,1,2,1:2:0:0:
269,344,193450,2,0,P|273:303|278:263,1,81.4000024841309,2|2,1:2|1:2,0:0:0:0:
187,126,193716,2,0,P|191:166|196:206,1,81.4000024841309,2|2,1:2|1:2,0:0:0:0:
142,364,193981,5,4,1:2:0:0:
221,22,194247,1,4,1:2:0:0:
31,219,194645,5,4,1:2:0:0:
458,255,194910,2,0,B|437:286|441:335|441:335|430:268|389:242|389:242|426:193|426:193|406:129|406:129|427:49,1,399.599987805176,12|2,1:2|0:0,0:0:0:0:
389,197,204601,6,0,P|412:122|335:109,1,177.6,2|2,0:0|0:0,0:0:0:0:
335,110,205264,2,0,P|312:162|308:243,1,118.4,2|0,0:0|0:0,0:0:0:0:
345,295,205662,6,0,P|305:270|165:254,1,177.6,2|0,0:0|0:0,0:0:0:0:
102,285,206193,2,0,P|94:325|93:360,2,59.2,2|0|2,0:0|0:0|0:0,0:0:0:0:
54,33,206724,5,2,0:0:0:0:
54,33,206990,1,0,0:0:0:0:
54,33,207255,2,0,P|108:63|180:57,1,118.4,2|0,0:0|0:0,0:0:0:0:
412,59,207786,6,0,P|353:59|302:88,1,118.4,2|0,0:0|0:0,0:0:0:0:
245,27,208185,2,0,P|274:95|266:222,1,177.6,2|0,0:0|0:0,0:0:0:0:
71,299,208848,6,0,P|60:255|45:227,2,59.2,2|0|0,0:0|0:0|0:0,0:0:0:0:
140,362,209247,1,2,0:0:0:0:
140,362,209512,1,0,0:0:0:0:
140,362,209778,6,0,B|228:373|183:337|268:350,1,118.4,2|0,0:0|0:0,0:0:0:0:
329,310,210176,1,0,0:0:0:0:
400,350,210308,2,0,P|423:311|450:294,2,59.2,2|0|0,0:0|0:0|0:0,0:0:0:0:
479,368,210707,1,0,0:0:0:0:
494,164,210972,6,0,B|406:153|451:189|366:176,1,118.4,2|0,0:0|0:0,0:0:0:0:
308,133,211370,2,0,P|298:94|352:34,1,118.4,2|2,0:0|0:0,0:0:0:0:
342,36,211901,6,0,L|388:43,10,29.6,4|0|0|0|0|0|0|0|0|0|0,0:0|0:0|0:0|0:0|0:0|0:0|0:0|0:0|0:0|0:0|0:0,0:0:0:0:
304,103,212698,6,0,L|308:134,1,29.6,8|8,0:0|0:0,0:0:0:0:
323,209,212831,2,0,L|212:216,1,88.7999972900391,8|0,1:2|0:0,0:0:0:0:
90,273,213096,6,0,P|37:252|73:156,1,162.800004968262,12|0,1:2|1:0,0:0:0:0:
151,168,213494,2,0,B|172:116|172:52|172:52|182:84|221:108,1,162.800004968262,2|10,0:0|0:0,0:0:0:0:
265,19,213893,1,0,1:0:0:0:
451,90,214025,6,0,P|370:98|290:112,1,162.800004968262,2|8,0:0|0:0,0:0:0:0:
266,207,214424,2,0,P|317:214|363:231,1,81.4000024841309,2|0,1:2|0:0,0:0:0:0:
435,185,214689,1,10,0:0:0:0:
435,185,214822,1,10,0:0:0:0:
476,272,214954,2,0,P|456:327|450:377,1,81.4000024841309,0|2,1:0|0:0,0:0:0:0:
296,301,215220,6,0,P|237:300|204:349,1,122.100003726196,10|0,0:0|0:0,0:0:0:0:
206,363,215485,2,0,P|154:352|110:349,1,81.4000024841309,2|0,1:2|0:0,0:0:0:0:
28,363,215751,1,10,0:0:0:0:
60,270,215884,1,8,0:0:0:0:
7,188,216016,2,0,P|3:129|0:88,1,81.4000024841309,2|0,1:2|0:0,0:0:0:0:
144,31,216282,6,0,B|141:95|95:140|95:140|119:127|145:124,1,162.800004968262,12|10,0:0|1:2,0:0:0:0:
117,296,216680,2,0,P|122:255|139:219,1,81.4000024841309,12|0,0:0|0:0,0:0:0:0:
220,163,216946,1,8,0:0:0:0:
420,139,217078,2,0,P|357:132|291:99,1,122.100003726196,10|0,1:2|0:0,0:0:0:0:
291,100,217344,6,0,P|312:146|311:187,1,81.4000024841309,12|0,0:0|0:0,0:0:0:0:
251,252,217609,1,0,1:0:0:0:
406,278,217742,2,0,P|360:290|313:318,1,81.4000024841309,2|8,0:0|0:0,0:0:0:0:
244,354,218008,2,0,P|207:335|168:326,1,81.4000024841309,10|0,0:0|1:0,0:0:0:0:
8,267,218273,6,0,B|73:269|121:215|121:215|104:269,1,162.800004968262,14|8,0:0|0:0,0:0:0:0:
73,337,218671,1,0,1:0:0:0:
73,337,218804,1,0,0:0:0:0:
168,326,218937,2,0,P|207:335|244:354,1,81.4000024841309,10|10,0:0|0:0,0:0:0:0:
330,305,219202,1,0,1:0:0:0:
276,223,219335,1,2,0:0:0:0:
346,154,219468,6,0,P|405:164|521:169,2,162.800004968262,12|2|10,0:0|1:2|0:0,0:0:0:0:
308,63,220131,1,8,0:0:0:0:
210,56,220264,2,0,P|201:110|200:153,1,81.4000024841309,2|0,1:2|0:0,0:0:0:0:
139,323,220530,6,0,P|136:268|105:151,1,162.800004968262,4|8,1:2|0:0,0:0:0:0:
8,332,220928,6,0,P|25:281|71:244,1,81.4000024841309,4|8,1:2|0:0,0:0:0:0:
223,233,221193,1,8,0:0:0:0:
207,363,221326,6,0,P|177:336|139:323,1,81.4000024841309,0|8,1:0|0:0,0:0:0:0:
42,260,221592,2,0,P|69:190|79:86,1,162.800004968262,12|0,1:2|1:0,0:0:0:0:
62,7,221990,2,0,P|112:28|242:23,1,162.800004968262,2|10,0:0|0:0,0:0:0:0:
180,119,222388,1,0,1:0:0:0:
319,33,222521,6,0,P|370:53|352:171,1,162.800004968262,2|8,0:0|0:0,0:0:0:0:
393,246,222919,2,0,P|345:231|303:226,1,81.4000024841309,2|0,1:2|0:0,0:0:0:0:
186,341,223185,1,10,0:0:0:0:
218,249,223317,1,10,0:0:0:0:
131,202,223450,2,0,P|120:141|118:97,1,81.4000024841309,0|2,1:0|0:0,0:0:0:0:
273,0,223716,6,0,P|236:67|214:171,2,162.800004968262,10|2|10,0:0|1:2|0:0,0:0:0:0:
175,12,224379,1,8,0:0:0:0:
346,54,224512,1,2,1:2:0:0:
346,54,224645,1,0,0:0:0:0:
437,18,224778,6,0,P|461:61|396:157,1,162.800004968262,12|10,0:0|1:2,0:0:0:0:
498,312,225176,2,0,P|482:267|445:233,1,81.4000024841309,12|0,0:0|0:0,0:0:0:0:
361,240,225441,1,8,0:0:0:0:
162,315,225574,2,0,P|236:328|275:293,1,122.100003726196,10|0,1:2|0:0,0:0:0:0:
274,289,225839,6,0,P|264:244|258:186,1,81.4000024841309,12|8,0:0|0:0,0:0:0:0:
329,139,226105,1,8,0:0:0:0:
284,52,226238,1,10,1:2:0:0:
508,228,226503,1,10,1:2:0:0:
293,35,226769,6,0,P|236:67|112:49,1,162.800004968262,12|10,0:0|0:0,0:0:0:0:
57,12,227167,1,0,1:0:0:0:
0,190,227300,2,0,P|57:158|181:176,1,162.800004968262,12|10,0:0|0:0,0:0:0:0:
207,242,227698,1,2,1:2:0:0:
207,242,227831,1,2,1:2:0:0:
52,280,227963,6,0,P|92:285|128:304,1,81.4000024841309,12|0,0:0|0:0,0:0:0:0:
194,376,228229,1,0,1:0:0:0:
298,212,228362,6,0,P|319:260|320:310,1,81.4000024841309,2|10,0:0|0:0,0:0:0:0:
194,376,228627,2,0,L|200:330,3,40.7000012420655,10|0|10|0,0:0|0:0|1:2|0:0,0:0:0:0:
285,364,228893,1,12,1:2:0:0:
289,353,229556,5,2,1:2:0:0:
92,318,229689,1,2,1:2:0:0:
85,305,229954,6,0,B|126:273|126:273|114:173,1,148,12|8,1:2|0:0,0:0:0:0:
97,89,230353,1,2,1:2:0:0:
97,89,230485,1,0,0:0:0:0:
183,69,230618,2,0,P|226:83|224:177,1,148,10|0,0:0|1:0,0:0:0:0:
140,188,231016,6,0,P|124:240|122:344,1,148,10|8,0:0|0:0,0:0:0:0:
203,367,231415,2,0,P|238:349|279:346,1,74,2|0,1:2|0:0,0:0:0:0:
357,368,231680,2,0,P|356:294|337:222,1,148,10|0,0:0|1:0,0:0:0:0:
385,149,232078,6,0,P|323:142|228:82,1,148,10|8,0:0|0:0,0:0:0:0:
211,20,232477,1,2,1:2:0:0:
211,20,232609,1,0,0:0:0:0:
126,47,232742,2,0,P|119:95|120:137,1,74,10|10,0:0|0:0,0:0:0:0:
173,191,233008,1,0,1:0:0:0:
115,258,233140,5,12,1:2:0:0:
355,104,233406,2,0,P|359:140|360:186,1,74,12|8,0:0|0:0,0:0:0:0:
378,265,233671,2,0,P|345:214|248:219,1,148,12|8,1:2|0:0,0:0:0:0:
229,284,234070,1,0,1:0:0:0:
266,363,234202,6,0,P|316:353|437:348,1,148,12|8,0:0|0:0,0:0:0:0:
500,364,234601,2,0,P|510:324|530:286,1,74,2|0,1:2|0:0,0:0:0:0:
461,232,234866,1,10,0:0:0:0:
472,143,234999,2,0,P|432:155|389:161,1,74,10|0,0:0|1:0,0:0:0:0:
316,191,235264,6,0,P|330:123|335:29,1,148,10|8,0:0|0:0,0:0:0:0:
256,4,235662,1,0,1:0:0:0:
198,72,235795,2,0,B|101:77|152:29|42:40,1,148,2|10,0:0|0:0,0:0:0:0:
57,38,236326,6,0,P|34:85|107:147,1,148,12|8,0:0|0:0,0:0:0:0:
113,233,236724,2,0,P|157:216|199:217,1,74,2|0,1:2|0:0,0:0:0:0:
240,145,236990,2,0,P|284:160|316:188,1,74,10|8,0:0|0:0,0:0:0:0:
296,264,237255,1,0,1:0:0:0:
382,286,237388,6,0,P|394:233|448:131,1,148,14|12,1:2|0:0,0:0:0:0:
510,102,237786,1,0,1:0:0:0:
468,23,237919,2,0,P|414:39|330:46,1,111,10|0,0:0|0:0,0:0:0:0:
346,63,238185,2,0,P|301:43|262:38,1,74,2|8,1:2|0:0,0:0:0:0:
129,157,238450,6,0,P|115:106|189:64,1,148,12|8,1:2|0:0,0:0:0:0:
251,123,238848,2,0,P|256:164|264:212,1,74,2|0,1:2|0:0,0:0:0:0:
201,263,239114,2,0,P|150:251|33:248,1,148,10|2,0:0|1:2,0:0:0:0:
16,326,239512,6,0,P|29:267|19:165,1,148,10|8,0:0|0:0,0:0:0:0:
1,93,239910,2,0,P|48:109|105:116,1,74,2|0,1:2|0:0,0:0:0:0:
136,51,240176,2,0,P|193:38|288:11,1,148,10|0,0:0|1:0,0:0:0:0:
351,66,240574,6,0,P|309:51|247:131,1,148,10|8,0:0|0:0,0:0:0:0:
299,187,240972,2,0,P|286:233|283:277,1,74,2|0,1:2|0:0,0:0:0:0:
300,346,241238,2,0,P|259:336|212:335,1,74,10|10,0:0|0:0,0:0:0:0:
161,273,241503,1,0,1:0:0:0:
83,315,241636,5,12,1:2:0:0:
22,93,241901,2,0,P|78:88|124:83,1,74,12|8,0:0|0:0,0:0:0:0:
173,41,242167,2,0,P|159:125|173:201,1,148,8|10,0:0|1:2,0:0:0:0:
212,262,242565,1,2,1:2:0:0:
299,247,242698,6,0,P|308:190|337:94,1,148,12|8,0:0|0:0,0:0:0:0:
416,73,243096,2,0,P|427:129|438:155,1,74,2|0,1:2|0:0,0:0:0:0:
499,205,243362,1,10,0:0:0:0:
457,283,243494,2,0,P|420:270|371:267,1,74,10|0,0:0|1:0,0:0:0:0:
341,344,243760,6,0,P|279:357|251:276,1,148,12|8,0:0|0:0,0:0:0:0:
284,211,244158,1,0,1:0:0:0:
224,144,244291,2,0,P|157:151|65:163,1,148,2|10,0:0|0:0,0:0:0:0:
77,161,244822,6,0,P|47:109|110:53,1,148,12|8,0:0|0:0,0:0:0:0:
174,4,245220,2,0,P|212:30|243:38,1,74,2|0,1:2|0:0,0:0:0:0:
325,20,245485,2,0,P|332:71|327:102,1,74,10|10,0:0|0:0,0:0:0:0:
269,159,245751,1,0,1:0:0:0:
312,236,245884,6,0,P|296:287|291:369,1,111,12|0,0:0|0:0,0:0:0:0:
296,360,246149,2,0,P|254:345|200:343,1,74,12|0,0:0|0:0,0:0:0:0:
61,361,246415,1,12,0:0:0:0:
27,76,247078,6,0,B|40:54|35:35|35:35|40:54|70:61,23,88.7999972900391,6|0|0|0|0|0|0|0|0|0|0|0|0|0|0|0|0|0|0|0|0|0|0|0,0:0|0:0|0:0|0:0|0:0|0:0|0:0|0:0|0:0|0:0|0:0|0:0|0:0|0:0|0:0|0:0|0:0|0:0|0:0|0:0|0:0|0:0|0:0|0:0,0:0:0:0:
145,87,249202,2,0,P|148:59|142:33,1,55.5000021171571,14|0,1:2|0:0,0:0:0:0:
