osu file format v14

[General]
AudioFilename: audio.mp3
AudioLeadIn: 0
PreviewTime: 61637
Countdown: 0
SampleSet: Soft
StackLeniency: 0.7
Mode: 0
LetterboxInBreaks: 0
WidescreenStoryboard: 0

[Editor]
Bookmarks: 213096
DistanceSpacing: 1.4
BeatDivisor: 4
GridSize: 8
TimelineZoom: 1.4

[Metadata]
Title:Shoujo to Ougonryuu no Monogatari
TitleUnicode:少女と黄金竜の物語
Artist:Hatsuki Yura
ArtistUnicode:葉月ゆら
Creator:Garden
Version:Hard
Source:
Tags:清風明月 Seifuumeigetsu Drop 竜と炎の物語 ~Dragon and Flame Story~ ryuu to honoo no monogatari Hey lululu schoolboy Komore Misure Len Fast
BeatmapID:1521716
BeatmapSetID:719158

[Difficulty]
HPDrainRate:5
CircleSize:4
OverallDifficulty:6
ApproachRate:8
SliderMultiplier:1.3
SliderTickRate:1

[Events]
//Background and Video events
0,0,"61015605_p0.jpg",0,0
//Break Periods
2,160198,165620
2,196305,211151
//Storyboard Layer 0 (Background)
//Storyboard Layer 1 (Fail)
//Storyboard Layer 2 (Pass)
//Storyboard Layer 3 (Foreground)
//Storyboard Sound Samples

[TimingPoints]
177,265.486725663717,4,2,1,60,1,0
8539,-100,4,2,1,80,0,0
25663,-111.111111111111,4,2,1,65,0,0
32566,-100,4,2,1,75,0,0
34159,-111.111111111111,4,2,1,65,0,0
36681,-100,4,2,1,75,0,0
37212,-111.111111111111,4,2,1,65,0,0
38141,-111.111111111111,4,2,1,75,0,0
38407,-111.111111111111,4,2,1,65,0,0
40530,-100,4,2,1,75,0,0
41460,-100,4,2,1,65,0,0
42654,-111.111111111111,4,2,1,65,0,0
49292,-111.111111111111,4,2,1,45,0,0
49424,-111.111111111111,4,2,1,65,0,0
49955,-100,4,2,1,70,0,0
53274,-100,4,2,1,75,0,0
54203,-100,4,2,1,70,0,0
57522,-100,4,2,1,75,0,0
59646,-111.111111111111,4,2,2,55,0,0
61106,-100,4,2,1,75,0,0
61769,-100,4,2,1,80,0,1
77566,-100,4,2,1,80,0,0
78761,-100,4,2,1,80,0,1
78794,-100,4,2,1,80,0,0
87256,-100,4,2,1,80,0,1
87289,-100,4,2,1,80,0,0
95752,-111.111111111111,4,2,1,65,0,0
104778,265.486725663717,4,2,1,70,1,0
104778,-111.111111111111,4,2,1,70,0,0
111680,-100,4,2,1,75,0,0
113273,-111.111111111111,4,2,1,70,0,0
115795,-100,4,2,1,75,0,0
116326,-111.111111111111,4,2,1,70,0,0
119645,-100,4,2,1,75,0,0
121769,-111.111111111111,4,2,1,65,0,0
128406,-111.111111111111,4,2,1,45,0,0
128539,-111.111111111111,4,2,1,65,0,0
129070,-100,4,2,1,65,0,0
130264,-100,4,2,1,70,0,0
132388,-100,4,2,1,75,0,0
133317,-100,4,2,1,70,0,0
136636,-100,4,2,1,75,0,0
138760,-111.111111111111,4,2,2,55,0,0
140353,-100,4,2,2,55,0,0
140884,-100,4,2,1,80,0,1
156680,-100,4,2,1,80,0,0
157875,-200,4,2,1,50,0,0
166370,-111.111111111111,4,2,2,55,0,0
182831,-100,4,2,1,60,0,0
183362,-100,4,2,1,75,0,0
194910,-133.333333333333,4,2,1,75,0,0
196105,-100,4,2,1,95,0,0
196171,-100,4,2,1,50,0,0
211901,-100,4,2,2,80,0,0
212034,-100,4,2,1,80,0,0
213096,-100,4,2,1,80,0,1
228893,-100,4,2,1,80,0,0
229954,-100,4,2,1,80,0,1
229988,-100,4,2,1,80,0,0
247609,-100,4,2,1,70,0,0
248140,-100,4,2,1,60,0,0
248671,-100,4,2,1,50,0,0
249202,-100,4,2,1,80,0,0

[Colours]
Combo1 : 255,66,66
Combo2 : 255,30,255
Combo3 : 255,119,53
Combo4 : 255,128,192

[HitObjects]
155,306,7477,6,0,P|89:300|32:352,2,130,14|14|10,0:0|0:0|0:0,0:0:0:0:
229,348,8141,1,2,1:2:0:0:
309,313,8274,1,2,1:2:0:0:
309,313,8539,6,0,P|313:258|318:184,1,130,12|8,1:2|0:0,0:0:0:0:
242,144,8938,2,0,L|173:150,1,65,2|0,1:2|0:0,0:0:0:0:
133,77,9203,2,0,P|206:69|271:63,1,130,10|0,0:0|1:0,0:0:0:0:
332,17,9601,6,0,P|401:14|455:58,1,130,10|8,0:0|0:0,0:0:0:0:
488,124,10000,2,0,P|470:156|457:190,1,65,2|0,1:2|0:0,0:0:0:0:
378,206,10265,1,10,0:0:0:0:
448,359,10530,1,0,1:0:0:0:
448,359,10663,6,0,P|387:350|304:343,1,130,10|8,0:0|0:0,0:0:0:0:
235,352,11061,2,0,P|229:316|222:277,1,65,2|0,1:2|0:0,0:0:0:0:
138,289,11327,2,0,P|99:283|71:278,1,65,10|10,0:0|0:0,0:0:0:0:
5,229,11592,1,0,1:0:0:0:
57,162,11725,6,0,B|64:123|59:95|59:95|28:67|29:24,1,130,12|12,1:2|0:0,0:0:0:0:
117,31,12123,1,8,0:0:0:0:
117,31,12256,2,0,P|188:39|249:42,1,130,12|8,1:2|0:0,0:0:0:0:
308,99,12654,1,0,1:0:0:0:
271,175,12787,6,0,P|212:167|138:161,1,130,12|8,0:0|0:0,0:0:0:0:
57,162,13185,2,0,P|62:198|66:240,1,65,2|0,1:2|0:0,0:0:0:0:
145,252,13451,2,0,P|139:294|135:331,1,65,10|10,0:0|0:0,0:0:0:0:
205,365,13716,1,0,1:0:0:0:
262,303,13849,6,0,P|321:274|400:291,1,130,10|8,0:0|0:0,0:0:0:0:
471,281,14247,1,0,1:0:0:0:
471,281,14380,2,0,P|477:244|482:216,1,65,2|8,0:0|0:0,0:0:0:0:
415,163,14646,2,0,P|418:127|421:97,1,65,10|0,0:0|1:0,0:0:0:0:
342,66,14911,6,0,P|335:131|326:218,1,130,12|8,0:0|0:0,0:0:0:0:
265,251,15309,1,2,1:2:0:0:
265,251,15575,2,0,P|235:238|195:239,1,65,10|8,0:0|0:0,0:0:0:0:
130,280,15840,1,0,1:0:0:0:
46,263,15973,6,0,P|20:228|20:140,1,130,14|12,1:2|0:0,0:0:0:0:
79,78,16371,1,0,1:0:0:0:
79,78,16504,2,0,L|74:19,2,32.5,10|8|8,0:0|0:0|0:0,0:0:0:0:
153,117,16769,2,0,P|187:108|229:102,1,65,2|0,1:2|0:0,0:0:0:0:
284,52,17035,6,0,P|355:65|412:75,1,130,12|8,1:2|0:0,0:0:0:0:
423,158,17433,2,0,P|393:153|347:147,1,65,2|0,1:2|0:0,0:0:0:0:
275,169,17699,2,0,P|247:214|268:301,1,130,10|2,0:0|1:2,0:0:0:0:
320,343,18097,6,0,P|267:326|195:349,1,130,10|8,0:0|0:0,0:0:0:0:
117,374,18495,2,0,P|81:369|53:353,1,65,2|0,1:2|0:0,0:0:0:0:
6,286,18761,1,10,0:0:0:0:
163,218,19026,1,0,1:0:0:0:
163,218,19159,6,0,P|231:209|281:155,1,130,10|8,0:0|0:0,0:0:0:0:
300,88,19557,2,0,P|295:55|291:20,1,65,2|0,1:2|0:0,0:0:0:0:
375,11,19823,2,0,P|380:50|385:91,1,65,10|10,0:0|0:0,0:0:0:0:
357,156,20088,1,0,1:0:0:0:
432,194,20221,6,0,P|464:252|442:319,1,130,12|12,1:2|0:0,0:0:0:0:
374,348,20619,1,8,0:0:0:0:
374,348,20752,2,0,P|293:339|218:333,1,130,8|10,0:0|1:2,0:0:0:0:
167,370,21150,1,2,1:2:0:0:
85,347,21283,6,0,B|63:300|63:300|92:201,1,130,12|8,0:0|0:0,0:0:0:0:
168,236,21681,2,0,P|200:231|237:224,1,65,2|0,1:2|0:0,0:0:0:0:
208,143,21946,2,0,P|179:149|143:155,1,65,10|10,0:0|0:0,0:0:0:0:
59,144,22212,1,0,1:0:0:0:
111,77,22345,6,0,P|183:62|256:51,1,130,12|8,0:0|0:0,0:0:0:0:
327,45,22743,1,0,1:0:0:0:
327,45,22876,2,0,P|321:81|319:120,1,65,2|8,0:0|0:0,0:0:0:0:
393,150,23141,2,0,P|389:188|386:231,1,65,10|0,0:0|1:0,0:0:0:0:
454,263,23407,6,0,P|392:255|340:291,1,130,12|8,0:0|0:0,0:0:0:0:
299,366,23805,2,0,L|219:352,1,65,2|0,1:2|0:0,0:0:0:0:
167,303,24070,2,0,L|98:314,1,65,10|10,0:0|0:0,0:0:0:0:
38,367,24336,1,0,1:0:0:0:
38,367,24469,5,12,0:0:0:0:
252,272,24734,1,12,0:0:0:0:
70,123,25000,1,12,0:0:0:0:
70,123,25663,6,0,P|100:73|92:8,2,116.999996429443,4|0|10,0:1|1:0|0:0,0:0:0:0:
14,184,26327,2,0,P|19:211|24:242,1,58.4999982147217,8|0,0:0|1:0,0:0:0:0:
68,310,26592,2,0,P|134:281|195:294,1,116.999996429443,10|8,0:0|0:0,0:0:0:0:
237,342,26991,2,0,L|317:330,1,58.4999982147217,2|0,1:2|0:0,0:0:0:0:
358,281,27256,1,8,0:0:0:0:
358,281,27389,1,8,0:0:0:0:
299,223,27522,2,0,L|226:233,1,58.4999982147217,2|0,1:2|0:0,0:0:0:0:
166,195,27787,6,0,P|147:141|179:75,1,116.999996429443,8|0,0:0|1:0,0:0:0:0:
222,26,28185,2,0,P|254:29|286:36,1,58.4999982147217,2|8,0:0|0:0,0:0:0:0:
347,81,28451,2,0,P|383:74|426:67,1,58.4999982147217,10|0,0:0|1:0,0:0:0:0:
456,6,28716,2,0,P|488:56|468:124,1,116.999996429443,10|8,0:0|0:0,0:0:0:0:
415,164,29115,2,0,P|411:196|408:230,1,58.4999982147217,2|0,1:3|0:0,0:0:0:0:
465,289,29380,1,8,0:0:0:0:
465,289,29513,1,8,0:0:0:0:
404,343,29646,1,0,1:0:0:0:
404,343,29911,6,0,P|353:365|287:347,2,116.999996429443,8|2|10,0:0|1:2|0:0,0:0:0:0:
465,289,30575,2,0,P|470:243|473:209,1,58.4999982147217,8|0,0:0|1:0,0:0:0:0:
393,205,30840,2,0,P|368:158|387:84,1,116.999996429443,10|8,0:0|0:0,0:0:0:0:
411,22,31238,2,0,P|380:17|351:10,1,58.4999982147217,2|0,1:2|0:0,0:0:0:0:
281,51,31504,1,8,0:0:0:0:
281,51,31637,1,8,0:0:0:0:
208,88,31769,2,0,P|173:85|139:81,1,58.4999982147217,2|0,1:2|0:0,0:0:0:0:
100,15,32035,6,0,P|63:68|80:129,1,116.999996429443,10|0,0:0|1:0,0:0:0:0:
140,160,32433,1,2,0:0:0:0:
78,226,32566,2,0,L|73:303,1,65,10|10,0:0|0:0,0:0:0:0:
73,382,32831,1,2,1:2:0:0:
153,339,32964,2,0,L|286:341,1,130,12|10,0:0|0:0,0:0:0:0:
363,298,33362,1,10,0:0:0:0:
289,244,33495,2,0,L|145:242,1,130,4|10,1:2|0:0,0:0:0:0:
73,290,33893,1,2,1:2:0:0:
73,290,34159,6,0,P|44:246|61:171,2,116.999996429443,4|0|10,0:1|1:0|0:0,0:0:0:0:
125,226,34823,2,0,P|158:219|199:214,1,58.4999982147217,8|0,0:0|1:0,0:0:0:0:
254,254,35088,2,0,P|317:266|372:220,1,116.999996429443,10|8,0:0|0:0,0:0:0:0:
378,160,35486,2,0,L|370:86,1,58.4999982147217,2|0,1:2|0:0,0:0:0:0:
432,46,35752,1,8,0:0:0:0:
432,46,35884,1,8,0:0:0:0:
493,100,36017,2,0,L|502:164,1,58.4999982147217,2|0,1:2|0:0,0:0:0:0:
446,219,36283,6,0,L|462:346,1,116.999996429443,10|0,0:0|1:0,0:0:0:0:
379,376,36681,2,0,L|314:371,1,65,10|0,0:0|0:0,0:0:0:0:
284,285,36946,2,0,L|360:290,1,65,2|8,0:0|0:0,0:0:0:0:
363,206,37212,2,0,L|227:197,1,116.999996429443,12|8,0:0|0:0,0:0:0:0:
195,262,37610,2,0,P|164:273|128:272,1,58.4999982147217,2|0,1:2|0:0,0:0:0:0:
67,240,37876,1,8,0:0:0:0:
67,240,38008,1,8,0:0:0:0:
88,160,38141,2,0,L|76:90,1,58.4999982147217,2|0,1:2|0:0,0:0:0:0:
148,58,38407,6,0,L|172:192,1,116.999996429443,12|0,0:0|1:0,0:0:0:0:
246,198,38805,2,0,L|304:184,1,58.4999982147217,2|8,0:0|0:0,0:0:0:0:
373,225,39070,2,0,L|446:209,1,58.4999982147217,10|0,0:0|1:0,0:0:0:0:
500,255,39336,2,0,P|471:198|479:138,1,116.999996429443,12|8,0:0|0:0,0:0:0:0:
489,65,39734,2,0,P|464:64|419:85,1,58.4999982147217,2|0,1:2|0:0,0:0:0:0:
373,132,40000,1,10,0:0:0:0:
373,132,40132,1,8,0:0:0:0:
305,85,40265,1,2,1:2:0:0:
305,85,40530,6,0,L|224:75,1,65,4|8,1:2|0:0,0:0:0:0:
168,20,40796,1,8,0:0:0:0:
86,60,40929,2,0,P|52:118|72:186,1,130,4|8,1:2|0:0,0:0:0:0:
127,242,41327,1,2,1:2:0:0:
208,200,41460,6,0,L|348:188,1,130,12|8,0:0|0:0,0:0:0:0:
359,277,41858,2,0,L|286:284,1,65,2|2,1:2|0:0,0:0:0:0:
228,346,42123,2,0,L|181:351,3,32.5,10|2|10|2,0:0|0:0|0:0|0:0,0:0:0:0:
150,354,42389,1,2,1:2:0:0:
17,257,42654,6,0,P|63:229|131:238,1,116.999996429443,4|2,0:1|0:0,0:0:0:0:
208,257,43053,1,8,0:0:0:0:
208,257,43185,2,0,P|221:226|224:193,1,58.4999982147217,2|0,1:2|0:0,0:0:0:0:
187,134,43451,1,2,0:0:0:0:
187,134,43584,2,0,P|132:133|74:88,1,116.999996429443,10|0,0:0|0:0,0:0:0:0:
92,17,43982,1,8,0:0:0:0:
248,64,44247,1,0,1:0:0:0:
248,64,44380,2,0,P|249:33|253:-5,2,58.4999982147217,2|0|0,0:0|0:0|0:0,0:0:0:0:
310,117,44778,6,0,P|369:91|432:100,1,116.999996429443,10|0,0:0|0:0,0:0:0:0:
502,93,45177,2,0,L|497:156,1,58.4999982147217,10|0,0:0|1:0,0:0:0:0:
434,204,45442,2,0,L|439:269,1,58.4999982147217,2|0,0:0|0:0,0:0:0:0:
490,326,45707,2,0,P|444:301|359:317,1,116.999996429443,10|0,0:0|0:0,0:0:0:0:
316,356,46106,1,8,0:0:0:0:
157,315,46371,2,0,P|151:291|151:246,1,58.4999982147217,0|8,1:0|0:0,0:0:0:0:
177,180,46637,1,8,0:0:0:0:
40,90,46902,6,0,P|67:136|57:205,1,116.999996429443,10|2,0:0|0:0,0:0:0:0:
4,256,47300,2,0,P|10:289|16:313,1,58.4999982147217,8|2,0:0|1:2,0:0:0:0:
99,322,47566,2,0,P|131:316|165:314,1,58.4999982147217,0|0,0:0|0:0,0:0:0:0:
227,356,47831,2,0,P|301:356|338:313,1,116.999996429443,10|0,0:0|0:0,0:0:0:0:
351,249,48230,1,10,0:0:0:0:
491,165,48495,2,0,P|460:161|422:141,1,58.4999982147217,0|0,1:0|0:0,0:0:0:0:
390,80,48761,1,2,0:0:0:0:
226,87,49026,6,0,P|207:150|239:208,1,116.999996429443,10|4,0:0|0:0,0:0:0:0:
308,220,49424,1,8,0:0:0:0:
308,220,49557,2,0,P|303:276|300:340,1,116.999996429443,0|10,1:0|0:0,0:0:0:0:
210,358,49955,2,0,P|144:368|92:335,1,130,12|8,0:0|0:0,0:0:0:0:
39,261,50353,2,0,P|45:226|49:189,1,65,0|0,1:0|0:0,0:0:0:0:
102,122,50619,6,0,P|95:96|88:74,2,43.3333333333333,10|8|8,1:2|0:0|0:0,0:0:0:0:
180,170,50884,2,0,P|187:148|191:123,2,43.3333333333333,10|8|8,1:2|0:0|0:0,0:0:0:0:
165,260,51150,6,0,P|237:249|313:238,1,130,12|0,0:0|1:0,0:0:0:0:
361,301,51548,2,0,P|363:336|368:367,1,65,2|8,0:0|0:0,0:0:0:0:
459,357,51814,2,0,P|453:323|450:290,1,65,10|0,0:0|1:0,0:0:0:0:
493,212,52079,2,0,P|492:141|451:104,1,130,10|8,0:0|0:0,0:0:0:0:
365,135,52477,2,0,P|327:131|297:125,1,65,0|0,1:0|0:0,0:0:0:0:
243,62,52743,1,10,0:0:0:0:
243,62,52876,1,8,0:0:0:0:
173,120,53008,1,2,1:2:0:0:
173,120,53274,6,0,P|115:135|49:96,1,130,12|0,0:0|1:0,0:0:0:0:
125,45,53672,1,10,0:0:0:0:
27,199,53938,1,10,0:0:0:0:
163,317,54203,2,0,P|218:286|281:293,1,130,12|8,0:0|0:0,0:0:0:0:
366,328,54601,2,0,P|368:291|370:261,1,65,0|2,1:0|0:0,0:0:0:0:
298,205,54867,2,0,P|294:172|290:119,1,65,10|8,0:0|0:0,0:0:0:0:
370,95,55132,1,0,1:0:0:0:
370,95,55265,1,2,0:0:0:0:
307,28,55398,6,0,P|247:33|195:86,2,130,12|0|8,0:0|1:0|0:0,0:0:0:0:
370,95,56061,2,0,L|444:88,1,65,10|0,0:0|1:0,0:0:0:0:
474,171,56327,2,0,L|342:182,1,130,10|8,0:0|0:0,0:0:0:0:
257,210,56725,2,0,P|248:245|251:275,1,65,2|0,1:2|0:0,0:0:0:0:
338,318,56991,1,10,0:0:0:0:
338,318,57123,1,8,0:0:0:0:
267,375,57256,2,0,L|180:367,1,65,2|0,1:2|0:0,0:0:0:0:
111,355,57522,6,0,P|135:317|131:266,1,97.5,12|0,0:0|0:0,0:0:0:0:
111,241,57787,2,0,L|39:232,1,65,4|0,1:2|0:0,0:0:0:0:
29,145,58053,1,10,0:0:0:0:
29,145,58185,2,0,L|104:154,1,65,10|0,0:0|1:0,0:0:0:0:
179,186,58451,2,0,L|188:47,1,130,4|10,1:2|0:0,0:0:0:0:
259,0,58849,2,0,P|275:28|279:62,1,65,10|10,0:0|0:0,0:0:0:0:
370,73,59115,2,0,P|357:106|358:137,1,65,10|10,0:0|0:0,0:0:0:0:
267,148,59380,2,0,P|283:184|283:219,1,65,10|10,0:0|0:0,0:0:0:0:
352,255,59646,6,0,L|410:257,2,58.4999982147217,2|0|0,1:2|0:0|0:0,0:0:0:0:
277,290,60044,2,0,L|214:286,2,58.4999982147217,2|0|0,0:0|0:0|0:0,0:0:0:0:
345,335,60442,2,0,L|424:339,2,58.4999982147217,2|0|0,0:0|0:0|0:0,0:0:0:0:
273,373,60840,2,0,L|206:369,1,58.4999982147217,2|0,0:0|0:0,0:0:0:0:
141,331,61106,1,2,0:0:0:0:
141,331,61172,1,2,0:0:0:0:
141,331,61238,2,0,L|0:322,1,130,2|10,1:2|1:2,0:0:0:0:
11,322,61769,6,0,P|46:270|35:197,1,130,12|0,1:2|1:0,0:0:0:0:
8,119,62168,2,0,P|44:114|83:124,1,65,2|8,0:0|0:0,0:0:0:0:
137,55,62433,2,0,P|164:74|187:110,1,65,10|0,0:0|1:0,0:0:0:0:
211,186,62699,1,2,0:0:0:0:
301,177,62831,6,0,P|320:150|330:112,1,65,12|8,0:0|0:0,0:0:0:0:
307,30,63097,1,4,1:2:0:0:
307,30,63362,2,0,P|349:29|384:43,1,65,10|10,0:0|0:0,0:0:0:0:
454,85,63628,1,0,1:0:0:0:
454,85,63893,6,0,L|449:219,2,130,10|2|10,0:0|1:2|0:0,0:0:0:0:
375,40,64557,1,8,0:0:0:0:
375,40,64690,2,0,L|371:113,1,65,2|0,1:2|0:0,0:0:0:0:
314,176,64955,6,0,P|251:181|198:146,1,130,12|10,0:0|1:2,0:0:0:0:
150,67,65353,2,0,P|107:121|118:191,1,130,12|8,0:0|0:0,0:0:0:0:
189,236,65752,1,10,1:2:0:0:
189,236,66017,6,0,P|209:291|171:369,1,130,12|0,0:0|1:0,0:0:0:0:
97,380,66415,2,0,P|64:377|29:376,1,65,2|8,0:0|0:0,0:0:0:0:
53,287,66681,2,0,P|96:290|135:295,1,65,10|0,0:0|1:0,0:0:0:0:
185,355,66946,6,0,P|257:347|329:341,1,130,10|8,0:0|0:0,0:0:0:0:
411,340,67345,1,0,1:0:0:0:
411,340,67610,2,0,P|401:305|394:273,1,65,10|10,0:0|0:0,0:0:0:0:
464,217,67876,1,0,1:0:0:0:
464,217,68008,1,2,0:0:0:0:
400,151,68141,6,0,P|340:155|295:208,2,130,12|2|10,0:0|1:2|0:0,0:0:0:0:
494,135,68805,1,8,0:0:0:0:
494,135,68938,2,0,L|490:61,1,65,2|0,1:2|0:0,0:0:0:0:
414,19,69203,5,4,1:2:0:0:
414,19,69336,2,0,L|346:22,1,65,8|8,0:0|0:0,0:0:0:0:
295,95,69601,1,4,1:2:0:0:
295,95,69734,2,0,L|219:90,1,65,8|8,0:0|0:0,0:0:0:0:
161,33,70000,1,0,1:0:0:0:
161,33,70132,1,8,0:0:0:0:
85,84,70265,6,0,P|57:143|76:204,1,130,12|0,1:2|1:0,0:0:0:0:
150,253,70663,2,0,L|226:245,1,65,2|8,0:0|0:0,0:0:0:0:
268,320,70929,2,0,L|333:325,1,65,10|0,0:0|1:0,0:0:0:0:
406,379,71194,1,2,0:0:0:0:
435,293,71327,6,0,P|438:247|432:210,1,65,12|8,0:0|0:0,0:0:0:0:
418,146,71592,1,4,1:2:0:0:
418,145,71858,2,0,L|341:138,1,65,10|10,0:0|0:0,0:0:0:0:
307,219,72123,1,0,1:0:0:0:
307,219,72389,6,0,L|447:230,2,130,10|2|10,0:0|1:2|0:0,0:0:0:0:
222,255,73053,1,8,0:0:0:0:
222,255,73185,2,0,P|181:256|146:235,1,65,2|0,1:2|0:0,0:0:0:0:
103,173,73451,6,0,L|108:302,1,130,12|10,0:0|1:2,0:0:0:0:
17,306,73849,2,0,L|11:176,1,130,12|8,0:0|0:0,0:0:0:0:
58,100,74247,1,10,1:2:0:0:
58,100,74513,6,0,P|88:91|122:91,1,65,12|8,0:0|0:0,0:0:0:0:
206,123,74778,1,8,0:0:0:0:
206,123,74911,1,10,1:2:0:0:
364,32,75177,1,10,1:2:0:0:
269,188,75442,6,0,P|347:187|391:147,1,130,12|10,0:0|0:0,0:0:0:0:
454,95,75840,1,0,1:0:0:0:
470,184,75973,2,0,P|464:251|460:328,1,130,12|10,0:0|0:0,0:0:0:0:
382,360,76371,1,2,1:2:0:0:
322,290,76504,1,2,1:2:0:0:
246,340,76637,6,0,P|179:343|123:303,1,130,12|0,0:0|1:0,0:0:0:0:
71,238,77035,2,0,P|108:228|145:217,1,65,2|10,0:0|0:0,0:0:0:0:
187,147,77300,2,0,P|224:154|263:160,1,65,10|2,0:0|1:2,0:0:0:0:
331,203,77566,1,12,0:0:0:0:
331,203,78761,6,0,L|419:194,1,65,12|0,1:2|0:0,0:0:0:0:
436,277,79026,2,0,L|360:285,1,65,2|0,1:2|0:0,0:0:0:0:
303,345,79292,2,0,P|253:315|155:328,1,130,10|2,0:0|1:2,0:0:0:0:
100,354,79690,1,8,0:0:0:0:
100,354,79823,6,0,P|92:313|85:200,1,130,0|2,0:0|1:2,0:0:0:0:
35,148,80221,1,0,0:0:0:0:
35,148,80353,2,0,P|71:133|115:136,1,65,8|10,0:0|0:0,0:0:0:0:
184,159,80619,1,2,1:2:0:0:
357,155,80884,6,0,L|354:79,1,65,10|0,0:0|0:0,0:0:0:0:
265,71,81150,2,0,L|269:159,1,65,2|0,1:2|0:0,0:0:0:0:
296,223,81415,2,0,P|361:197|437:222,1,130,10|2,0:0|1:2,0:0:0:0:
454,296,81814,1,0,0:0:0:0:
454,296,81946,6,0,P|491:270|509:229,1,65,8|10,0:0|0:0,0:0:0:0:
493,162,82212,2,0,L|484:17,1,130,2|8,1:2|0:0,0:0:0:0:
396,9,82610,1,10,0:0:0:0:
333,75,82743,1,2,1:2:0:0:
152,65,83008,6,0,L|231:69,1,65,12|0,0:0|0:0,0:0:0:0:
235,158,83274,2,0,L|145:153,1,65,2|0,1:2|0:0,0:0:0:0:
81,130,83539,2,0,P|133:178|133:241,1,130,10|2,0:0|1:2,0:0:0:0:
64,291,83938,1,8,0:0:0:0:
64,291,84070,6,0,L|-23:283,1,65,0|10,0:0|0:0,0:0:0:0:
12,375,84336,2,0,L|101:381,1,65,2|0,1:2|0:0,0:0:0:0:
150,325,84601,2,0,L|221:331,1,65,8|10,0:0|0:0,0:0:0:0:
294,285,84867,1,2,1:2:0:0:
473,314,85132,6,0,P|470:277|468:227,2,65,12|0|2,0:0|0:0|1:2,0:0:0:0:
386,318,85530,1,0,0:0:0:0:
386,318,85663,2,0,P|382:275|381:230,1,65,10|8,0:0|0:0,0:0:0:0:
423,171,85929,1,0,1:0:0:0:
371,96,86061,6,0,P|297:101|243:56,1,130,12|8,0:0|0:0,0:0:0:0:
153,17,86460,2,0,L|162:82,1,65,10|8,0:0|0:0,0:0:0:0:
106,154,86725,2,0,L|119:238,1,65,10|10,0:0|0:0,0:0:0:0:
194,285,86991,1,2,1:2:0:0:
194,285,87123,1,2,0:0:0:0:
134,350,87256,6,0,P|98:360|69:358,1,65,12|0,1:2|0:0,0:0:0:0:
194,285,87522,2,0,P|240:286|275:303,1,65,2|0,1:2|0:0,0:0:0:0:
316,361,87787,2,0,P|393:367|445:322,1,130,10|2,0:0|1:2,0:0:0:0:
462,253,88185,1,8,0:0:0:0:
462,253,88318,6,0,P|453:182|448:111,1,130,2|0,0:0|1:0,0:0:0:0:
454,36,88716,1,0,0:0:0:0:
454,36,88849,2,0,P|415:32|372:31,1,65,10|8,0:0|0:0,0:0:0:0:
299,51,89115,1,0,1:0:0:0:
147,22,89380,6,0,P|181:12|214:15,1,65,10|0,0:0|0:0,0:0:0:0:
223,104,89646,2,0,P|188:114|149:108,1,65,2|0,1:2|0:0,0:0:0:0:
72,84,89911,2,0,P|125:134|120:203,1,130,10|2,0:0|1:2,0:0:0:0:
46,232,90309,1,8,0:0:0:0:
46,232,90442,6,0,L|40:315,1,65,2|0,0:0|0:0,0:0:0:0:
85,376,90707,2,0,P|140:341|208:346,1,130,0|10,1:0|0:0,0:0:0:0:
288,309,91106,1,8,0:0:0:0:
279,222,91238,1,0,1:0:0:0:
279,222,91504,6,0,P|246:207|213:206,1,65,12|0,0:0|0:0,0:0:0:0:
126,207,91769,2,0,P|116:183|113:140,1,65,2|0,1:2|0:0,0:0:0:0:
44,83,92035,2,0,P|105:104|170:77,1,130,10|2,0:0|1:2,0:0:0:0:
218,8,92433,1,8,0:0:0:0:
218,8,92566,6,0,P|254:14|290:40,1,65,2|0,0:0|0:0,0:0:0:0:
266,118,92831,2,0,P|299:118|334:103,1,65,0|0,1:0|0:0,0:0:0:0:
402,52,93097,2,0,P|417:82|419:131,1,65,10|8,0:0|0:0,0:0:0:0:
411,207,93362,1,0,1:0:0:0:
411,207,93628,6,0,L|483:202,2,65,12|0|12,0:0|0:0|0:3,0:0:0:0:
320,198,94026,1,0,0:0:0:0:
320,198,94159,2,0,P|321:234|340:270,1,65,4|0,0:3|0:0,0:0:0:0:
415,297,94424,1,0,1:0:0:0:
339,348,94557,6,0,L|195:343,1,130,12|0,0:0|1:0,0:0:0:0:
123,376,94955,1,0,1:0:0:0:
42,334,95088,2,0,B|25:298|25:298|36:201,1,130,12|8,0:0|0:0,0:0:0:0:
117,168,95486,2,0,L|110:95,1,65,8|10,0:0|0:0,0:0:0:0:
33,57,95752,5,12,0:0:0:0:
191,16,96017,2,0,L|198:91,1,58.4999982147217,2|8,0:0|0:0,0:0:0:0:
255,140,96283,1,0,1:0:0:0:
255,140,96415,2,0,P|290:139|318:123,1,58.4999982147217,2|0,0:0|0:0,0:0:0:0:
362,64,96681,2,0,P|450:65|518:142,1,175.499994644165,10|8,0:0|0:0,0:0:0:0:
443,272,97345,1,0,1:0:0:0:
443,272,97477,2,0,L|439:207,1,58.4999982147217,10|0,0:0|0:0,0:0:0:0:
358,205,97743,1,2,0:0:0:0:
358,205,97876,6,0,B|367:323|367:323|352:353|306:355,1,175.499994644165,8|8,0:0|0:0,0:0:0:0:
258,305,98407,1,0,1:0:0:0:
258,305,98539,2,0,P|232:296|193:299,1,58.4999982147217,2|0,0:0|0:0,0:0:0:0:
126,332,98805,2,0,P|67:342|-3:306,1,116.999996429443,10|0,0:0|0:0,0:0:0:0:
22,240,99203,1,8,0:0:0:0:
22,240,99336,2,0,P|81:230|151:266,1,116.999996429443,2|8,0:0|0:0,0:0:0:0:
201,296,99734,2,0,P|232:299|271:286,1,58.4999982147217,8|8,0:0|0:0,0:0:0:0:
321,238,100000,5,12,0:0:0:0:
454,332,100265,2,0,L|450:272,1,58.4999982147217,2|8,0:0|0:0,0:0:0:0:
510,217,100530,1,0,1:0:0:0:
510,217,100663,2,0,L|505:156,1,58.4999982147217,10|0,0:0|0:0,0:0:0:0:
461,88,100929,2,0,P|385:105|304:30,1,175.499994644165,10|8,0:0|0:0,0:0:0:0:
148,66,101592,1,0,1:0:0:0:
148,66,101725,2,0,L|220:58,1,58.4999982147217,10|0,0:0|0:0,0:0:0:0:
229,136,101991,1,2,0:0:0:0:
229,136,102123,6,0,B|112:149|112:149|86:171|90:211,1,175.499994644165,8|8,0:0|0:0,0:0:0:0:
159,252,102654,1,0,1:0:0:0:
159,252,102787,2,0,P|170:275|172:324,1,58.4999982147217,10|0,0:0|0:0,0:0:0:0:
132,378,103053,2,0,P|181:352|257:360,1,116.999996429443,12|2,0:0|0:0,0:0:0:0:
312,309,103451,1,8,0:0:0:0:
312,309,103584,2,0,P|370:333|433:323,1,116.999996429443,2|8,0:0|0:0,0:0:0:0:
482,270,103982,1,10,0:0:0:0:
450,198,104115,1,10,0:0:0:0:
450,198,104380,6,0,L|453:158,2,29.2499991073609,8|8|12,0:0|0:0|0:0,0:0:0:0:
363,120,104778,6,0,L|355:258,2,116.999996429443,4|0|10,0:1|1:0|0:0,0:0:0:0:
424,65,105441,2,0,P|421:35|414:7,1,58.4999982147217,8|0,0:0|1:0,0:0:0:0:
332,23,105707,2,0,P|280:53|223:46,1,116.999996429443,10|8,0:0|0:0,0:0:0:0:
154,6,106105,2,0,L|87:12,1,58.4999982147217,2|0,1:2|0:0,0:0:0:0:
28,58,106370,1,8,0:0:0:0:
28,58,106503,1,8,0:0:0:0:
87,113,106636,2,0,P|90:136|88:171,1,58.4999982147217,2|0,1:2|0:0,0:0:0:0:
45,241,106901,6,0,P|91:216|161:224,1,116.999996429443,8|0,0:0|1:0,0:0:0:0:
200,289,107300,2,0,L|213:365,1,58.4999982147217,2|8,0:0|0:0,0:0:0:0:
292,341,107565,2,0,L|280:276,1,58.4999982147217,10|0,0:0|1:0,0:0:0:0:
316,208,107831,2,0,P|377:212|433:175,1,116.999996429443,10|8,0:0|0:0,0:0:0:0:
491,138,108229,2,0,P|505:170|506:206,1,58.4999982147217,2|0,1:3|0:0,0:0:0:0:
463,263,108494,1,8,0:0:0:0:
463,263,108627,1,8,0:0:0:0:
498,343,108760,1,0,1:0:0:0:
498,343,109025,6,0,P|445:349|364:360,2,116.999996429443,8|2|10,0:0|1:2|0:0,0:0:0:0:
463,263,109689,2,0,P|432:265|395:271,1,58.4999982147217,8|0,0:0|1:0,0:0:0:0:
326,294,109954,2,0,P|264:304|219:277,1,116.999996429443,10|8,0:0|0:0,0:0:0:0:
181,204,110353,2,0,P|185:171|190:137,1,58.4999982147217,2|0,1:2|0:0,0:0:0:0:
133,85,110618,1,8,0:0:0:0:
133,85,110751,1,8,0:0:0:0:
190,26,110884,2,0,P|220:31|248:31,1,58.4999982147217,2|0,1:2|0:0,0:0:0:0:
316,78,111149,6,0,P|382:72|447:69,1,116.999996429443,10|0,0:0|1:0,0:0:0:0:
494,123,111547,1,2,0:0:0:0:
425,183,111680,2,0,P|419:224|419:255,1,65,10|10,0:0|0:0,0:0:0:0:
492,303,111946,1,2,1:2:0:0:
409,340,112078,2,0,P|347:314|270:331,1,130,12|10,0:0|0:0,0:0:0:0:
230,249,112477,1,10,0:0:0:0:
161,308,112609,2,0,P|90:319|26:286,1,130,4|10,1:2|0:0,0:0:0:0:
2,217,113008,1,2,1:2:0:0:
2,217,113273,6,0,L|11:97,2,116.999996429443,4|0|10,0:1|1:0|0:0,0:0:0:0:
85,224,113937,2,0,L|90:162,1,58.4999982147217,8|0,0:0|1:0,0:0:0:0:
97,83,114202,2,0,P|158:89|210:55,1,116.999996429443,10|8,0:0|0:0,0:0:0:0:
266,6,114601,2,0,P|281:30|288:62,1,58.4999982147217,2|0,1:2|0:0,0:0:0:0:
269,142,114866,1,8,0:0:0:0:
269,142,114999,1,8,0:0:0:0:
331,194,115131,2,0,L|397:186,1,58.4999982147217,2|0,1:2|0:0,0:0:0:0:
416,264,115397,6,0,L|287:282,1,116.999996429443,10|0,0:0|1:0,0:0:0:0:
235,344,115795,2,0,L|170:339,1,65,10|0,0:0|0:0,0:0:0:0:
146,250,116061,2,0,L|221:258,1,65,2|8,0:0|0:0,0:0:0:0:
300,280,116326,2,0,L|422:263,1,116.999996429443,12|8,0:0|0:0,0:0:0:0:
488,226,116724,2,0,P|498:195|496:160,1,58.4999982147217,2|0,1:2|0:0,0:0:0:0:
473,94,116990,1,8,0:0:0:0:
473,94,117123,1,8,0:0:0:0:
406,140,117255,2,0,L|332:149,1,58.4999982147217,2|0,1:2|0:0,0:0:0:0:
288,204,117521,6,0,P|306:149|287:90,1,116.999996429443,12|0,0:0|1:0,0:0:0:0:
251,20,117919,2,0,P|227:37|213:62,1,58.4999982147217,2|8,0:0|0:0,0:0:0:0:
216,147,118185,2,0,L|136:141,1,58.4999982147217,10|0,0:0|1:0,0:0:0:0:
96,87,118450,2,0,P|39:95|2:140,1,116.999996429443,12|8,0:0|0:0,0:0:0:0:
23,219,118848,2,0,P|28:256|29:288,1,58.4999982147217,2|0,1:2|0:0,0:0:0:0:
85,345,119114,1,10,0:0:0:0:
85,345,119247,1,8,0:0:0:0:
153,298,119379,1,2,1:2:0:0:
153,298,119645,6,0,L|220:299,1,65,4|8,1:2|0:0,0:0:0:0:
283,363,119910,1,8,0:0:0:0:
361,316,120043,2,0,L|366:164,1,130,4|8,1:2|0:0,0:0:0:0:
374,60,120441,1,2,1:2:0:0:
431,129,120574,6,0,P|350:145|294:104,1,130,12|8,0:0|0:0,0:0:0:0:
244,61,120972,2,0,L|169:65,1,65,2|2,1:2|0:0,0:0:0:0:
168,157,121238,2,0,L|210:154,3,32.5,10|2|10|2,0:0|0:0|0:0|0:0,0:0:0:0:
225,153,121503,1,2,1:2:0:0:
67,106,121769,6,0,P|49:160|72:224,1,116.999996429443,4|2,0:1|0:0,0:0:0:0:
149,242,122167,1,8,0:0:0:0:
149,242,122300,2,0,P|154:271|156:304,1,58.4999982147217,2|0,1:2|0:0,0:0:0:0:
111,369,122565,1,2,0:0:0:0:
111,369,122698,2,0,P|153:346|238:362,1,116.999996429443,10|0,0:0|0:0,0:0:0:0:
287,304,123096,1,8,0:0:0:0:
444,367,123362,1,0,1:0:0:0:
444,367,123494,2,0,L|437:294,1,58.4999982147217,2|0,0:0|0:0,0:0:0:0:
484,241,123760,1,0,0:0:0:0:
484,241,123893,6,0,P|502:185|483:120,1,116.999996429443,10|0,0:0|0:0,0:0:0:0:
414,95,124291,2,0,P|414:67|416:33,1,58.4999982147217,10|0,0:0|1:0,0:0:0:0:
333,32,124556,2,0,P|330:67|330:97,1,58.4999982147217,2|0,0:0|0:0,0:0:0:0:
365,164,124822,2,0,P|314:135|256:138,1,116.999996429443,10|0,0:0|0:0,0:0:0:0:
185,179,125220,1,8,0:0:0:0:
119,328,125485,2,0,L|197:320,1,58.4999982147217,0|8,1:0|0:0,0:0:0:0:
259,316,125751,1,8,0:0:0:0:
115,237,126016,6,0,P|93:183|108:128,1,116.999996429443,10|2,0:0|0:0,0:0:0:0:
175,79,126415,2,0,P|168:50|162:21,1,58.4999982147217,8|2,0:0|1:2,0:0:0:0:
243,7,126680,2,0,P|250:43|257:77,1,58.4999982147217,0|0,0:0|0:0,0:0:0:0:
300,133,126946,2,0,P|374:133|415:97,1,116.999996429443,10|0,0:0|0:0,0:0:0:0:
451,40,127344,1,10,0:0:0:0:
505,194,127609,2,0,L|509:269,1,58.4999982147217,0|0,1:0|0:0,0:0:0:0:
512,334,127875,1,2,0:0:0:0:
355,380,128140,6,0,L|349:263,1,116.999996429443,10|4,0:0|0:0,0:0:0:0:
313,195,128539,1,8,0:0:0:0:
313,195,128671,2,0,P|252:194|199:241,1,116.999996429443,0|10,1:0|0:0,0:0:0:0:
163,305,129070,2,0,P|97:315|44:282,1,130,12|8,0:0|0:0,0:0:0:0:
5,201,129468,2,0,L|75:189,1,65,0|0,1:0|0:0,0:0:0:0:
148,145,129733,6,0,L|203:151,2,43.3333333333333,10|8|8,1:2|0:0|0:0,0:0:0:0:
69,91,129999,2,0,L|13:98,2,43.3333333333333,10|10|10,1:2|0:0|0:0,0:0:0:0:
147,37,130264,6,0,P|216:46|296:56,1,130,12|0,0:0|1:0,0:0:0:0:
361,84,130662,2,0,P|356:45|355:7,1,65,2|8,0:0|0:0,0:0:0:0:
447,16,130928,2,0,P|450:49|454:86,1,65,10|0,0:0|1:0,0:0:0:0:
409,160,131193,2,0,P|381:221|398:283,1,130,10|8,0:0|0:0,0:0:0:0:
420,367,131592,2,0,P|382:363|352:357,1,65,0|0,1:0|0:0,0:0:0:0:
266,338,131857,1,10,0:0:0:0:
266,338,131990,1,8,0:0:0:0:
304,255,132123,1,2,1:2:0:0:
304,255,132388,6,0,P|315:190|283:135,1,130,12|0,0:0|1:0,0:0:0:0:
229,208,132786,1,10,0:0:0:0:
337,61,133052,1,10,0:0:0:0:
159,22,133317,2,0,P|157:94|156:162,1,130,12|8,0:0|0:0,0:0:0:0:
229,208,133716,2,0,P|237:235|236:272,1,65,0|2,1:0|0:0,0:0:0:0:
172,336,133981,2,0,L|94:321,1,65,10|8,0:0|0:0,0:0:0:0:
25,363,134247,1,0,1:0:0:0:
25,363,134379,1,2,0:0:0:0:
9,273,134512,6,0,P|25:216|-8:144,2,130,12|0|8,0:0|1:0|0:0,0:0:0:0:
25,363,135176,2,0,L|99:356,1,65,10|0,0:0|1:0,0:0:0:0:
151,289,135441,2,0,L|283:301,1,130,10|8,0:0|0:0,0:0:0:0:
359,346,135839,2,0,P|356:313|365:282,1,65,2|0,1:2|0:0,0:0:0:0:
442,233,136105,1,10,0:0:0:0:
442,233,136238,1,8,0:0:0:0:
398,153,136370,2,0,L|311:145,1,65,2|0,1:2|0:0,0:0:0:0:
253,192,136636,6,0,P|240:148|270:80,1,97.5,12|0,0:0|0:0,0:0:0:0:
276,76,136901,2,0,P|287:38|282:4,1,65,4|0,1:2|0:0,0:0:0:0:
195,35,137167,1,10,0:0:0:0:
195,35,137300,2,0,L|121:27,1,65,10|0,0:0|1:0,0:0:0:0:
40,13,137565,2,0,P|43:78|47:147,1,130,4|10,1:2|0:0,0:0:0:0:
38,233,137963,2,0,P|66:249|100:253,1,65,10|10,0:0|0:0,0:0:0:0:
158,321,138229,2,0,P|191:308|222:309,1,65,10|10,0:0|0:0,0:0:0:0:
251,223,138494,2,0,P|287:239|322:239,1,65,10|10,0:0|0:0,0:0:0:0:
358,171,138760,6,0,L|360:113,2,58.4999982147217,2|0|0,1:2|0:0|0:0,0:0:0:0:
393,246,139158,2,0,L|389:309,2,58.4999982147217,2|0|0,0:0|0:0|0:0,0:0:0:0:
438,178,139556,2,0,L|442:99,2,58.4999982147217,2|0|0,0:0|0:0|0:0,0:0:0:0:
477,250,139954,2,0,L|473:317,1,58.4999982147217,2|0,0:0|0:0,0:0:0:0:
432,383,140220,1,2,0:0:0:0:
432,383,140286,1,2,0:0:0:0:
432,383,140353,2,0,L|291:374,1,130,2|10,1:2|1:2,0:0:0:0:
302,374,140884,6,0,P|306:302|312:236,1,130,12|0,1:2|1:0,0:0:0:0:
394,206,141282,2,0,P|398:170|389:126,1,65,2|8,0:0|0:0,0:0:0:0:
433,59,141547,2,0,P|413:33|387:13,1,65,10|0,0:0|1:0,0:0:0:0:
296,28,141813,1,2,0:0:0:0:
255,110,141946,6,0,L|172:102,1,65,12|8,0:0|0:0,0:0:0:0:
99,97,142211,1,4,1:2:0:0:
99,97,142477,2,0,L|106:22,1,65,10|10,0:0|0:0,0:0:0:0:
15,17,142742,1,0,1:0:0:0:
15,17,143008,6,0,L|0:152,2,130,10|2|10,0:0|1:2|0:0,0:0:0:0:
109,36,143671,1,8,0:0:0:0:
109,36,143804,2,0,L|102:110,1,65,2|0,1:2|0:0,0:0:0:0:
169,163,144070,6,0,P|222:129|300:143,1,130,12|10,0:0|1:2,0:0:0:0:
372,104,144468,2,0,P|325:155|340:228,1,130,12|8,0:0|0:0,0:0:0:0:
382,285,144866,1,10,1:2:0:0:
382,285,145131,6,0,L|525:272,1,130,12|0,0:0|1:0,0:0:0:0:
482,186,145530,2,0,L|413:193,1,65,2|8,0:0|0:0,0:0:0:0:
329,211,145795,2,0,P|302:238|291:269,1,65,10|0,0:0|1:0,0:0:0:0:
313,351,146061,6,0,P|258:349|206:287,1,130,10|8,0:0|0:0,0:0:0:0:
181,215,146459,1,0,1:0:0:0:
181,215,146724,2,0,L|183:143,1,65,10|10,0:0|0:0,0:0:0:0:
122,86,146990,1,0,1:0:0:0:
122,86,147123,1,2,0:0:0:0:
183,19,147255,6,0,P|245:25|288:76,2,130,12|2|10,0:0|1:2|0:0,0:0:0:0:
122,86,147919,1,8,0:0:0:0:
122,86,148052,2,0,L|43:83,1,65,2|0,1:2|0:0,0:0:0:0:
1,155,148317,5,4,1:2:0:0:
1,155,148450,2,0,B|-7:188|-7:188|0:224,1,65,8|8,0:0|0:0,0:0:0:0:
96,227,148716,1,4,1:2:0:0:
96,227,148848,2,0,B|104:262|104:262|97:304,1,65,8|8,0:0|0:0,0:0:0:0:
13,319,149114,1,0,1:0:0:0:
13,319,149247,1,8,0:0:0:0:
81,377,149379,6,0,P|148:365|188:298,1,130,12|0,1:2|1:0,0:0:0:0:
198,227,149778,2,0,P|240:234|277:242,1,65,2|8,0:0|0:0,0:0:0:0:
326,303,150043,2,0,P|366:298|396:292,1,65,10|0,0:0|1:0,0:0:0:0:
475,261,150308,1,2,0:0:0:0:
415,191,150441,6,0,L|418:105,1,65,12|8,0:0|0:0,0:0:0:0:
420,38,150707,1,4,1:2:0:0:
420,38,150972,2,0,L|344:33,1,65,10|10,0:0|0:0,0:0:0:0:
285,93,151238,1,0,1:0:0:0:
285,93,151503,6,0,L|156:84,2,130,10|2|10,0:0|1:2|0:0,0:0:0:0:
295,184,152167,1,8,0:0:0:0:
295,184,152300,2,0,L|218:179,1,65,2|0,1:2|0:0,0:0:0:0:
139,174,152565,6,0,P|97:232|109:302,1,130,12|10,0:0|1:2,0:0:0:0:
71,373,152963,2,0,P|124:325|205:336,1,130,12|8,0:0|0:0,0:0:0:0:
265,368,153362,1,10,1:2:0:0:
265,368,153627,6,0,P|299:365|328:350,1,65,12|8,0:0|0:0,0:0:0:0:
405,305,153893,1,8,0:0:0:0:
405,305,154025,1,10,1:2:0:0:
246,213,154291,1,10,1:2:0:0:
438,223,154556,6,0,P|372:219|320:267,1,130,12|10,0:0|0:0,0:0:0:0:
246,213,154954,1,0,1:0:0:0:
233,303,155087,2,0,P|170:295|87:288,1,130,12|10,0:0|0:0,0:0:0:0:
52,213,155485,1,2,1:2:0:0:
117,149,155618,1,2,1:2:0:0:
65,73,155751,6,0,P|119:107|182:103,1,130,12|0,0:0|1:0,0:0:0:0:
252,44,156149,2,0,P|267:73|273:110,1,65,2|10,0:0|0:0,0:0:0:0:
347,158,156415,2,0,P|344:199|327:233,1,65,10|2,0:0|1:2,0:0:0:0:
258,270,156680,1,12,0:0:0:0:
258,270,157875,6,0,P|144:271|210:342,2,260,6|2|2,0:0|0:0|0:0,0:0:0:0:
15,370,166370,5,4,1:0:0:0:
15,370,166636,2,0,L|88:360,1,58.4999982147217,0|8,0:0|0:0,0:0:0:0:
121,296,166901,2,0,P|172:276|242:306,1,116.999996429443,2|8,1:2|0:0,0:0:0:0:
287,352,167300,2,0,L|285:389,2,29.2499991073609,8|8|10,0:0|0:0|0:0,0:0:0:0:
450,335,167698,6,0,L|453:263,1,58.4999982147217,8|0,0:0|0:0,0:0:0:0:
456,251,167897,1,0,0:0:0:0:
456,251,167963,2,0,L|388:248,1,58.4999982147217,2|8,0:0|0:0,0:0:0:0:
325,208,168229,1,0,1:0:0:0:
325,208,168494,6,0,L|208:202,1,116.999996429443,10|0,0:0|0:0,0:0:0:0:
133,238,168893,1,8,0:0:0:0:
133,238,169025,2,0,P|126:276|131:319,1,58.4999982147217,2|0,1:2|0:0,0:0:0:0:
184,355,169291,1,0,0:0:0:0:
251,308,169424,6,0,L|255:274,2,29.2499991073609,8|8|10,0:0|0:0|0:0,0:0:0:0:
312,362,169689,2,0,P|347:368|390:360,1,58.4999982147217,8|2,0:0|0:0,0:0:0:0:
446,335,169954,2,0,L|479:337,2,29.2499991073609,8|8|10,0:0|0:0|0:0,0:0:0:0:
381,283,170220,1,8,0:0:0:0:
381,283,170353,2,0,L|386:213,1,58.4999982147217,2|0,1:2|0:0,0:0:0:0:
346,152,170618,6,0,P|408:145|457:184,1,116.999996429443,10|0,0:0|0:0,0:0:0:0:
490,253,171016,1,8,0:0:0:0:
490,253,171149,1,2,1:2:0:0:
369,365,171415,2,0,L|298:361,1,58.4999982147217,8|8,0:0|0:0,0:0:0:0:
247,308,171680,6,0,P|263:243|241:191,2,116.999996429443,10|8|2,0:0|0:0|0:0,0:0:0:0:
177,350,172344,1,8,0:0:0:0:
177,350,172477,2,0,L|94:344,1,58.4999982147217,0|0,1:0|0:0,0:0:0:0:
40,369,172742,6,0,L|54:244,1,116.999996429443,10|0,0:0|0:0,0:0:0:0:
6,185,173140,1,8,0:0:0:0:
6,185,173273,2,0,P|57:210|122:195,1,116.999996429443,2|0,1:2|0:0,0:0:0:0:
181,152,173671,6,0,L|178:119,2,29.2499991073609,8|8|10,0:0|0:0|0:0,0:0:0:0:
237,212,173937,2,0,L|243:285,1,58.4999982147217,8|2,0:0|0:0,0:0:0:0:
313,309,174202,2,0,L|318:357,2,29.2499991073609,8|8|10,0:0|0:0|0:0,0:0:0:0:
379,259,174468,1,8,0:0:0:0:
379,259,174601,2,0,L|372:189,1,58.4999982147217,2|0,1:2|0:0,0:0:0:0:
308,150,174866,5,4,1:0:0:0:
308,150,175131,2,0,L|301:76,1,58.4999982147217,0|8,0:0|0:0,0:0:0:0:
255,23,175397,2,0,P|310:49|374:36,1,116.999996429443,2|8,1:2|0:0,0:0:0:0:
435,2,175795,2,0,L|472:3,2,29.2499991073609,8|8|10,0:0|0:0|0:0,0:0:0:0:
449,165,176193,6,0,L|370:160,1,58.4999982147217,8|0,0:0|0:0,0:0:0:0:
366,153,176393,1,0,0:0:0:0:
366,153,176459,2,0,L|289:148,1,58.4999982147217,2|8,0:0|0:0,0:0:0:0:
232,181,176724,1,0,1:0:0:0:
232,181,176990,6,0,P|170:188|126:158,1,116.999996429443,10|0,0:0|0:0,0:0:0:0:
126,76,177388,1,8,0:0:0:0:
126,76,177521,2,0,L|53:68,1,58.4999982147217,2|0,1:2|0:0,0:0:0:0:
0,119,177786,1,0,0:0:0:0:
47,186,177919,6,0,L|41:234,2,29.2499991073609,8|8|10,0:0|0:0|0:0,0:0:0:0:
125,158,178185,2,0,L|190:168,1,58.4999982147217,8|2,0:0|0:0,0:0:0:0:
261,141,178450,2,0,L|268:105,2,29.2499991073609,8|8|10,0:0|0:0|0:0,0:0:0:0:
339,182,178716,1,8,0:0:0:0:
339,182,178848,2,0,L|354:108,1,58.4999982147217,2|0,1:2|0:0,0:0:0:0:
322,47,179114,6,0,P|383:47|424:88,1,116.999996429443,10|0,0:0|0:0,0:0:0:0:
429,170,179512,1,8,0:0:0:0:
429,170,179645,1,2,1:2:0:0:
266,112,179910,2,0,L|199:106,1,58.4999982147217,0|8,0:0|0:0,0:0:0:0:
144,53,180176,6,0,P|98:27|30:45,2,116.999996429443,10|8|2,0:0|0:0|0:0,0:0:0:0:
211,111,180839,1,8,0:0:0:0:
211,111,180972,2,0,L|205:191,1,58.4999982147217,0|0,1:0|0:0,0:0:0:0:
134,209,181238,6,0,L|17:202,1,116.999996429443,10|0,0:0|0:0,0:0:0:0:
13,121,181636,1,8,0:0:0:0:
13,121,181769,2,0,L|151:130,1,116.999996429443,2|8,1:2|0:0,0:0:0:0:
211,111,182167,6,0,L|215:56,2,29.2499991073609,8|8|10,0:0|0:0|0:0,0:0:0:0:
267,170,182432,1,0,0:0:0:0:
332,121,182565,2,0,L|339:47,1,58.4999982147217,0|8,1:0|0:0,0:0:0:0:
420,19,182831,1,8,0:0:0:0:
420,19,182963,1,8,1:2:0:0:
484,83,183096,2,0,L|481:115,3,32.5,0|0|0|0,1:0|1:0|1:0|1:0,0:0:0:0:
465,144,183362,6,0,P|495:201|480:263,1,130,4|0,1:0|1:0,0:0:0:0:
338,344,183760,2,0,B|374:349|407:319|407:319|426:341|453:349,1,130,4|0,1:0|1:0,0:0:0:0:
342,253,184158,2,0,P|270:260|197:269,1,130,4|0,1:0|1:0,0:0:0:0:
155,337,184556,5,0,1:0:0:0:
155,337,184689,2,0,P|118:329|81:323,1,65,2|0,1:2|1:0,0:0:0:0:
34,260,184954,1,2,1:2:0:0:
34,260,185087,1,2,1:2:0:0:
93,191,185220,1,2,1:2:0:0:
93,191,185353,1,2,1:2:0:0:
13,147,185485,6,0,P|89:152|137:115,1,130,4|0,1:0|1:0,0:0:0:0:
230,18,185884,2,0,B|236:47|211:80|211:80|225:108|220:142,1,130,4|0,1:0|1:0,0:0:0:0:
360,204,186282,2,0,B|329:206|303:180|303:180|292:210|257:224,1,130,4|0,1:0|1:0,0:0:0:0:
171,220,186680,5,0,1:0:0:0:
171,220,186813,2,0,P|162:258|160:292,1,65,2|2,1:2|1:2,0:0:0:0:
198,366,187078,1,2,1:2:0:0:
276,320,187211,2,0,B|345:300|337:355|411:330,1,130,4|8,1:0|0:0,0:0:0:0:
438,336,187543,1,8,0:0:0:0:
438,336,187609,6,0,P|433:277|429:187,1,130,4|0,1:0|1:0,0:0:0:0:
292,154,188008,2,0,B|317:167|348:160|348:160|367:123|404:118,1,130,4|0,1:0|1:0,0:0:0:0:
497,18,188406,2,0,B|477:58|477:58|504:99|492:139,1,130,4|0,1:0|1:0,0:0:0:0:
434,210,188804,5,0,1:0:0:0:
434,210,188937,2,0,L|437:282,1,65,2|0,1:2|1:0,0:0:0:0:
371,338,189202,1,2,1:2:0:0:
371,338,189335,1,2,1:2:0:0:
297,292,189468,1,2,1:2:0:0:
297,292,189601,1,2,1:2:0:0:
229,352,189733,6,0,P|149:371|99:345,2,130,4|0|10,1:2|1:0|0:0,0:0:0:0:
297,292,190397,2,0,P|300:259|302:227,1,65,8|0,0:0|1:0,0:0:0:0:
385,188,190662,6,0,P|393:124|361:69,1,130,10|8,0:0|0:0,0:0:0:0:
281,24,191061,2,0,P|242:30|216:35,1,65,2|0,1:2|0:0,0:0:0:0:
217,125,191326,2,0,P|259:117|297:111,1,65,8|8,0:0|0:0,0:0:0:0:
361,69,191592,1,2,1:2:0:0:
476,209,191857,6,0,P|472:245|468:281,1,65,12|0,1:2|0:0,0:0:0:0:
422,353,192123,2,0,P|368:323|296:330,1,130,12|8,1:2|0:0,0:0:0:0:
226,378,192521,1,8,0:0:0:0:
226,378,192654,1,2,1:2:0:0:
139,350,192786,6,0,P|136:297|131:220,1,130,4|0,1:2|1:0,0:0:0:0:
59,164,193185,2,0,P|57:134|72:94,1,65,2|2,1:2|1:2,0:0:0:0:
130,34,193450,1,2,1:2:0:0:
130,34,193583,1,2,1:2:0:0:
205,84,193716,1,2,1:2:0:0:
205,84,193848,1,2,1:2:0:0:
281,33,193981,6,0,L|352:22,1,65,4|0,1:2|0:0,0:0:0:0:
426,66,194247,1,4,1:2:0:0:
373,140,194379,2,0,L|326:148,2,32.5,0|0|0,0:0|1:0|1:0,0:0:0:0:
450,190,194645,1,4,1:2:0:0:
256,192,194910,5,12,1:2:0:0:
256,192,194977,12,2,196105,0:0:0:0:
256,192,211901,5,4,0:0:0:0:
256,192,212698,6,0,L|256:141,2,32.5,8|8|8,0:0|0:0|1:2,0:0:0:0:
137,329,213096,6,0,P|191:297|254:306,1,130,12|0,1:2|1:0,0:0:0:0:
327,361,213494,2,0,P|365:355|401:334,1,65,2|8,0:0|0:0,0:0:0:0:
443,269,213760,2,0,P|408:261|374:238,1,65,10|0,0:0|1:0,0:0:0:0:
344,163,214025,1,2,0:0:0:0:
418,110,214158,6,0,L|419:39,1,65,12|8,0:0|0:0,0:0:0:0:
330,21,214424,1,4,1:2:0:0:
330,21,214689,2,0,L|257:20,1,65,10|10,0:0|0:0,0:0:0:0:
189,71,214954,1,0,1:0:0:0:
189,71,215220,6,0,P|125:99|57:78,2,130,10|2|10,0:0|1:2|0:0,0:0:0:0:
265,20,215884,1,8,0:0:0:0:
265,20,216016,2,0,P|278:55|276:98,1,65,2|0,1:2|0:0,0:0:0:0:
222,154,216282,6,0,P|195:216|216:284,1,130,12|10,0:0|1:2,0:0:0:0:
287,320,216680,2,0,P|220:315|165:360,1,130,12|8,0:0|0:0,0:0:0:0:
85,318,217078,1,10,1:2:0:0:
85,318,217344,6,0,P|115:260|104:189,1,130,12|0,0:0|1:0,0:0:0:0:
91,107,217742,2,0,L|26:114,1,65,2|8,0:0|0:0,0:0:0:0:
11,23,218008,2,0,L|91:14,1,65,10|0,0:0|1:0,0:0:0:0:
160,50,218273,6,0,P|221:85|297:63,1,130,14|8,0:0|0:0,0:0:0:0:
351,23,218671,1,0,1:0:0:0:
351,23,218937,2,0,P|366:55|368:90,1,65,10|10,0:0|0:0,0:0:0:0:
318,160,219202,1,0,1:0:0:0:
318,160,219335,1,2,0:0:0:0:
376,229,219468,6,0,L|505:222,2,130,12|2|10,0:0|1:2|0:0,0:0:0:0:
322,302,220131,1,8,0:0:0:0:
322,302,220264,2,0,L|247:304,1,65,2|0,1:2|0:0,0:0:0:0:
187,246,220530,5,4,1:2:0:0:
187,246,220662,2,0,B|179:214|179:214|188:173,1,65,8|8,0:0|0:0,0:0:0:0:
271,150,220928,1,4,1:2:0:0:
271,150,221061,2,0,B|279:118|279:118|272:75,1,65,8|8,0:0|0:0,0:0:0:0:
210,29,221326,1,0,1:0:0:0:
210,29,221459,1,8,0:0:0:0:
130,74,221592,6,0,L|0:64,1,130,12|0,1:2|1:0,0:0:0:0:
27,151,221990,2,0,P|37:191|29:236,1,65,2|8,0:0|0:0,0:0:0:0:
1,298,222255,2,0,L|69:302,1,65,10|0,0:0|1:0,0:0:0:0:
142,352,222521,1,2,0:0:0:0:
225,316,222654,6,0,P|235:283|228:237,1,65,12|8,0:0|0:0,0:0:0:0:
153,208,222919,1,4,1:2:0:0:
153,208,223185,2,0,P|146:176|151:135,1,65,10|10,0:0|0:0,0:0:0:0:
210,76,223450,1,0,1:0:0:0:
210,76,223716,6,0,P|149:53|74:93,2,130,10|2|10,0:0|1:2|0:0,0:0:0:0:
247,163,224379,1,8,0:0:0:0:
247,163,224512,2,0,P|286:171|327:159,1,65,2|0,1:2|0:0,0:0:0:0:
395,131,224778,6,0,L|390:2,1,130,12|10,0:0|1:2,0:0:0:0:
481,0,225176,2,0,L|487:130,1,130,12|8,0:0|0:0,0:0:0:0:
447,213,225574,1,10,1:2:0:0:
447,213,225839,6,0,P|413:217|372:226,1,65,12|8,0:0|0:0,0:0:0:0:
299,261,226105,1,8,0:0:0:0:
299,261,226238,1,10,1:2:0:0:
275,80,226503,1,10,1:2:0:0:
85,168,226769,6,0,P|133:126|197:127,1,130,12|10,0:0|0:0,0:0:0:0:
166,214,227167,1,0,1:0:0:0:
256,199,227300,2,0,P|287:140|267:68,1,130,12|10,0:0|0:0,0:0:0:0:
195,35,227698,1,2,1:2:0:0:
197,127,227831,1,2,1:2:0:0:
275,80,227963,6,0,L|422:71,1,130,12|0,0:0|1:0,0:0:0:0:
491,101,228362,2,0,P|496:140|499:181,1,65,2|10,0:0|0:0,0:0:0:0:
412,195,228627,2,0,P|408:230|406:269,1,65,10|10,0:0|1:2,0:0:0:0:
474,321,228893,1,12,1:2:0:0:
195,35,229556,5,2,1:2:0:0:
195,35,229689,1,2,1:2:0:0:
342,140,229954,6,0,L|198:136,1,130,12|8,1:2|0:0,0:0:0:0:
126,103,230353,2,0,P|118:139|126:175,1,65,2|0,1:2|0:0,0:0:0:0:
192,224,230618,2,0,P|216:286|195:356,1,130,10|0,0:0|1:0,0:0:0:0:
128,292,231016,6,0,L|272:276,1,130,10|8,0:0|0:0,0:0:0:0:
329,334,231415,2,0,L|409:325,1,65,2|0,1:2|0:0,0:0:0:0:
474,367,231680,1,10,0:0:0:0:
506,187,231946,1,0,1:0:0:0:
506,187,232078,6,0,P|445:177|382:219,1,130,10|8,0:0|0:0,0:0:0:0:
299,186,232477,2,0,P|302:148|305:106,1,65,2|0,1:2|0:0,0:0:0:0:
216,97,232742,2,0,P|212:142|210:177,1,65,10|10,0:0|0:0,0:0:0:0:
236,250,233008,1,0,1:0:0:0:
169,311,233140,6,0,B|129:336|80:311|80:311|80:280|66:260,1,130,12|12,1:2|0:0,0:0:0:0:
4,224,233539,1,8,0:0:0:0:
4,224,233671,2,0,P|71:222|121:178,1,130,12|8,1:2|0:0,0:0:0:0:
65,107,234070,1,0,1:0:0:0:
105,25,234202,6,0,L|240:11,1,130,12|8,0:0|0:0,0:0:0:0:
325,19,234601,2,0,L|400:11,1,65,2|0,1:2|0:0,0:0:0:0:
426,95,234866,2,0,L|358:103,1,65,10|10,0:0|0:0,0:0:0:0:
270,95,235131,1,0,1:0:0:0:
309,177,235264,6,0,B|332:238|283:243|311:310,1,130,10|8,0:0|0:0,0:0:0:0:
387,360,235662,1,0,1:0:0:0:
387,360,235795,2,0,L|461:353,1,65,2|8,0:0|0:0,0:0:0:0:
457,262,236061,2,0,L|378:270,1,65,10|0,0:0|1:0,0:0:0:0:
308,303,236326,6,0,B|276:336|276:336|168:349,1,130,12|8,0:0|0:0,0:0:0:0:
172,261,236724,1,2,1:2:0:0:
172,261,236990,2,0,L|253:251,1,65,10|8,0:0|0:0,0:0:0:0:
319,215,237255,1,0,1:0:0:0:
392,268,237388,6,0,P|405:197|366:135,1,130,14|12,1:2|0:0,0:0:0:0:
340,70,237786,1,0,1:0:0:0:
340,70,237919,2,0,L|346:18,2,32.5,10|8|8,0:0|0:0|0:0,0:0:0:0:
273,133,238185,2,0,P|244:128|206:122,1,65,2|8,1:2|0:0,0:0:0:0:
173,38,238450,6,0,P|109:36|62:79,1,130,12|8,1:2|0:0,0:0:0:0:
6,151,238848,2,0,P|23:186|23:221,1,65,2|0,1:2|0:0,0:0:0:0:
7,301,239114,2,0,L|142:294,1,130,10|2,0:0|1:2,0:0:0:0:
212,345,239512,6,0,P|185:289|219:211,1,130,10|8,0:0|0:0,0:0:0:0:
241,142,239910,2,0,P|268:160|286:187,1,65,2|0,1:2|0:0,0:0:0:0:
280,279,240176,1,10,0:0:0:0:
437,369,240441,1,0,1:0:0:0:
437,369,240574,6,0,P|465:298|443:232,1,130,10|8,0:0|0:0,0:0:0:0:
407,169,240972,2,0,L|477:161,1,65,2|0,1:2|0:0,0:0:0:0:
483,70,241238,2,0,L|396:81,1,65,10|10,0:0|0:0,0:0:0:0:
344,24,241503,1,0,1:0:0:0:
332,115,241636,6,0,P|271:127|203:83,1,130,12|12,1:2|0:0,0:0:0:0:
150,38,242034,1,8,0:0:0:0:
150,38,242167,2,0,P|177:99|147:176,1,130,10|10,0:0|1:2,0:0:0:0:
101,226,242565,1,2,1:2:0:0:
125,313,242698,6,0,P|201:318|251:283,1,130,12|8,0:0|0:0,0:0:0:0:
302,219,243096,2,0,L|299:154,1,65,2|0,1:2|0:0,0:0:0:0:
286,63,243362,2,0,P|318:62|347:75,1,65,10|10,0:0|0:0,0:0:0:0:
428,117,243627,1,0,1:0:0:0:
390,200,243760,6,0,L|398:352,1,130,12|8,0:0|0:0,0:0:0:0:
320,379,244158,1,0,1:0:0:0:
320,379,244291,2,0,P|288:368|254:369,1,65,2|8,0:0|0:0,0:0:0:0:
214,288,244556,2,0,P|180:296|146:315,1,65,10|0,0:0|1:0,0:0:0:0:
81,366,244822,6,0,P|111:297|92:229,1,130,12|8,0:0|0:0,0:0:0:0:
74,157,245220,2,0,L|138:164,1,65,2|0,1:2|0:0,0:0:0:0:
178,82,245485,2,0,L|247:93,1,65,10|10,0:0|0:0,0:0:0:0:
321,43,245751,1,0,1:0:0:0:
321,43,245884,5,12,0:0:0:0:
88,28,246149,1,12,0:0:0:0:
256,192,246415,1,12,0:0:0:0:
256,192,247078,5,6,0:0:0:0:
256,192,247167,12,14,249202,1:2:0:0:
