osu file format v14

[General]
AudioFilename: audio.mp3
AudioLeadIn: 0
PreviewTime: 61637
Countdown: 0
SampleSet: Soft
StackLeniency: 0.7
Mode: 0
LetterboxInBreaks: 0
WidescreenStoryboard: 0

[Editor]
Bookmarks: 8539,25663,42654,61769,78761,87256,104778,121769,140884,157875,174866,183362,196105,213096,229954
DistanceSpacing: 1.8
BeatDivisor: 4
GridSize: 4
TimelineZoom: 2

[Metadata]
Title:Shoujo to Ougonryuu no Monogatari
TitleUnicode:少女と黄金竜の物語
Artist:Hatsuki Yura
ArtistUnicode:葉月ゆら
Creator:Garden
Version:Collab Insane
Source:
Tags:清風明月 Seifuumeigetsu Drop 竜と炎の物語 ~Dragon and Flame Story~ ryuu to honoo no monogatari Hey lululu schoolboy Komore Misure Len Fast
BeatmapID:1542952
BeatmapSetID:719158

[Difficulty]
HPDrainRate:6
CircleSize:4
OverallDifficulty:7.7
ApproachRate:9.1
SliderMultiplier:1.45
SliderTickRate:1

[Events]
//Background and Video events
0,0,"61015605_p0.jpg",0,0
//Break Periods
2,158075,165770
2,196304,204001
//Storyboard Layer 0 (Background)
//Storyboard Layer 1 (Fail)
//Storyboard Layer 2 (Pass)
//Storyboard Layer 3 (Foreground)
//Storyboard Sound Samples

[TimingPoints]
177,265.486725663717,4,2,1,60,1,0
177,-125,4,2,1,60,0,0
7477,-100,4,2,1,60,0,0
7677,-100,4,2,1,5,0,0
7743,-100,4,2,1,60,0,0
7942,-100,4,2,1,5,0,0
8008,-100,4,2,1,60,0,0
8274,-125,4,2,1,60,0,0
8473,-125,4,2,1,5,0,0
8539,-100,4,2,1,80,0,0
25663,-111.111111111111,4,2,1,65,0,0
32566,-100,4,2,1,75,0,0
34159,-111.111111111111,4,2,1,65,0,0
36482,-111.111111111111,4,2,1,5,0,0
36548,-111.111111111111,4,2,1,65,0,0
36681,-100,4,2,1,75,0,0
37212,-111.111111111111,4,2,1,65,0,0
38141,-111.111111111111,4,2,1,75,0,0
38340,-111.111111111111,4,2,1,5,0,0
38407,-111.111111111111,4,2,1,65,0,0
40530,-100,4,2,1,75,0,0
41460,-100,4,2,1,65,0,0
42654,-111.111111111111,4,2,1,65,0,0
49225,-111.111111111111,4,2,1,5,0,0
49292,-111.111111111111,4,2,1,45,0,0
49424,-111.111111111111,4,2,1,65,0,0
49955,-100,4,2,1,70,0,0
53274,-83.3333333333333,4,2,1,75,0,0
53473,-83.3333333333333,4,2,1,5,0,0
53539,-83.3333333333333,4,2,1,75,0,0
54203,-100,4,2,1,70,0,0
57522,-83.3333333333333,4,2,1,75,0,0
57721,-83.3333333333333,4,2,1,5,0,0
57787,-83.3333333333333,4,2,1,75,0,0
59646,-111.111111111111,4,2,2,55,0,0
61106,-100,4,2,1,75,0,0
61769,-100,4,2,1,80,0,1
63296,-100,4,2,1,5,0,1
63362,-100,4,2,1,80,0,1
64889,-100,4,2,1,5,0,1
64955,-100,4,2,1,80,0,1
65951,-100,4,2,1,5,0,1
66017,-100,4,2,1,80,0,1
66216,-100,4,2,1,5,0,1
66283,-100,4,2,1,80,0,1
69137,-100,4,2,1,5,0,1
69203,-100,4,2,1,80,0,1
71792,-100,4,2,1,5,0,1
71858,-100,4,2,1,80,0,1
73384,-100,4,2,1,5,0,1
73451,-100,4,2,1,80,0,1
74446,-100,4,2,1,5,0,1
74513,-100,4,2,1,80,0,1
75110,-100,4,2,1,5,0,1
75177,-100,4,2,1,80,0,1
75376,-100,4,2,1,5,0,1
75442,-100,4,2,1,80,0,1
77566,-100,4,2,1,80,0,0
78761,-100,4,2,1,80,0,1
78794,-100,4,2,1,80,0,0
87256,-100,4,2,1,80,0,1
87289,-100,4,2,1,80,0,0
95752,-100,4,2,1,65,0,0
104711,-100,4,2,1,5,0,0
104778,265.486725663717,4,2,1,70,1,0
104778,-111.111111111111,4,2,1,70,0,0
111946,-100,4,2,1,75,0,0
113273,-111.111111111111,4,2,1,70,0,0
115795,-100,4,2,1,75,0,0
116326,-111.111111111111,4,2,1,70,0,0
119114,-100,4,2,1,70,0,0
119578,-100,4,2,1,5,0,0
119645,-100,4,2,1,75,0,0
121769,-111.111111111111,4,2,1,65,0,0
128406,-100,4,2,1,45,0,0
128539,-100,4,2,1,65,0,0
128870,-100,4,2,1,5,0,0
128937,-100,4,2,1,65,0,0
130264,-100,4,2,1,70,0,0
132388,-100,4,2,1,75,0,0
133317,-100,4,2,1,70,0,0
136570,-100,4,2,1,5,0,0
136636,-100,4,2,1,75,0,0
138760,-100,4,2,2,55,0,0
140884,-100,4,2,1,80,0,1
142410,-100,4,2,1,5,0,1
142477,-100,4,2,1,80,0,1
144070,-83.3333333333333,4,2,1,80,0,1
145131,-100,4,2,1,80,0,1
150906,-100,4,2,1,5,0,1
150972,-100,4,2,1,80,0,1
152565,-83.3333333333333,4,2,1,80,0,1
153627,-100,4,2,1,80,0,1
156680,-200,4,2,1,80,0,0
157875,-200,4,2,1,50,0,0
166370,-100,4,2,2,55,0,0
182831,-100,4,2,1,60,0,0
183362,-83.3333333333333,4,2,1,75,0,0
184556,-100,4,2,1,70,0,0
185485,-83.3333333333333,4,2,1,75,0,0
186680,-100,4,2,1,70,0,0
187211,-111.111111111111,4,2,1,70,0,0
187609,-83.3333333333333,4,2,1,75,0,0
188804,-100,4,2,1,70,0,0
189733,-90.9090909090909,4,2,1,75,0,0
194047,-90.9090909090909,4,2,1,5,0,0
194247,-90.9090909090909,4,2,1,75,0,0
194313,-90.9090909090909,4,2,1,5,0,0
194379,-90.9090909090909,4,2,1,75,0,0
194446,-90.9090909090909,4,2,1,5,0,0
194645,-90.9090909090909,4,2,1,75,0,0
194711,-90.9090909090909,4,2,1,5,0,0
194910,-133.333333333333,4,2,1,75,0,0
196105,-133.333333333333,4,2,1,60,0,0
204601,-125,4,2,1,50,0,0
205530,-166.666666666667,4,2,1,50,0,0
206061,-166.666666666667,4,2,1,15,0,0
206193,-125,4,2,1,50,0,0
208185,-166.666666666667,4,2,1,50,0,0
208716,-166.666666666667,4,2,1,20,0,0
208848,-125,4,2,1,50,0,0
210308,-166.666666666667,4,2,1,50,0,0
210839,-166.666666666667,4,2,1,20,0,0
210972,-125,4,2,1,50,0,0
211901,-100,4,2,2,80,0,0
212034,-100,4,2,1,80,0,0
212831,-83.3333333333333,4,2,1,80,0,0
213030,-83.3333333333333,4,2,1,5,0,0
213096,-100,4,2,1,80,0,1
214623,-100,4,2,1,5,0,1
214689,-100,4,2,1,80,0,1
216282,-83.3333333333333,4,2,1,80,0,1
217278,-83.3333333333333,4,2,1,5,0,1
217344,-100,4,2,1,80,0,1
220463,-100,4,2,1,5,0,1
220530,-100,4,2,1,80,0,1
223118,-100,4,2,1,5,0,1
223185,-100,4,2,1,80,0,1
225773,-100,4,2,1,5,0,1
225839,-100,4,2,1,80,0,1
226437,-100,4,2,1,5,0,1
226503,-100,4,2,1,80,0,1
226702,-100,4,2,1,5,0,1
226769,-100,4,2,1,80,0,1
228893,-100,4,2,1,80,0,0
229954,-100,4,2,1,80,0,1
229988,-100,4,2,1,80,0,0
247609,-100,4,2,1,70,0,0
248140,-100,4,2,1,60,0,0
248671,-100,4,2,1,50,0,0
249202,-100,4,2,1,80,0,0

[Colours]
Combo1 : 255,66,66
Combo2 : 255,30,255
Combo3 : 255,119,53
Combo4 : 255,128,192

[HitObjects]
208,32,177,5,4,0:0:0:0:
208,32,310,1,0,0:0:0:0:
104,156,443,2,0,P|93:130|92:101,1,58,2|8,0:0|0:0,0:0:0:0:
200,128,707,2,0,L|187:243,1,116,2|0,1:2|0:0,0:0:0:0:
96,352,1106,6,0,P|57:311|60:254,1,116,8|2,0:0|0:0,0:0:0:0:
200,128,1504,1,8,0:0:0:0:
200,128,1637,1,2,0:0:0:0:
252,224,1769,2,0,L|137:209,1,116,0|0,1:0|0:0,0:0:0:0:
340,84,2300,5,8,0:0:0:0:
340,84,2433,1,0,0:0:0:0:
430,162,2566,2,0,P|435:133|441:105,1,58,10|8,0:0|0:0,0:0:0:0:
349,209,2831,2,0,L|464:194,1,116,2|0,1:2|0:0,0:0:0:0:
428,360,3230,6,0,P|371:363|330:324,1,116,8|10,0:0|0:0,0:0:0:0:
204,201,3627,1,0,0:0:0:0:
204,201,3760,1,10,0:0:0:0:
349,209,3893,1,0,1:0:0:0:
301,133,4026,2,2,L|284:247,1,116,10|0,0:0|0:0,0:0:0:0:
192,352,4424,6,0,P|219:361|248:365,1,58,12|0,0:0|0:0,0:0:0:0:
136,268,4690,2,0,P|107:271|79:281,1,58,10|8,0:0|0:0,0:0:0:0:
204,201,4955,2,0,L|221:86,1,116,2|0,1:2|0:0,0:0:0:0:
80,12,5353,6,0,P|76:68|115:109,1,116,8|2,0:0|0:0,0:0:0:0:
248,180,5751,1,8,0:0:0:0:
248,180,5884,1,2,0:0:0:0:
336,72,6017,2,0,L|220:86,1,116,0|0,1:0|0:0,0:0:0:0:
320,352,6548,5,8,0:0:0:0:
399,268,6681,1,0,0:0:0:0:
284,251,6813,1,10,0:0:0:0:
320,352,6946,1,8,0:0:0:0:
399,268,7079,2,0,L|284:251,1,116,2|0,1:2|0:0,0:0:0:0:
176,336,7477,6,0,P|226:351|277:333,1,108.75,14|0,0:0|0:0,0:0:0:0:
152,212,7743,2,0,P|163:264|204:298,1,108.75,14|0,0:0|0:0,0:0:0:0:
284,251,8008,1,10,0:0:0:0:
232,80,8141,1,2,1:2:0:0:
232,80,8274,6,0,B|254:67|272:68|272:68|296:80|314:79,1,87,2|0,1:2|0:0,0:0:0:0:
330,55,8539,6,0,P|388:41|468:96,1,145,12|8,1:2|0:0,0:0:0:0:
482,288,8938,2,0,P|484:251|489:204,1,72.5,2|0,1:2|0:0,0:0:0:0:
384,134,9203,2,0,P|390:167|395:213,1,72.5,10|8,0:0|0:0,0:0:0:0:
459,81,9469,1,0,1:0:0:0:
297,178,9601,6,0,L|130:166,1,145,10|8,0:0|0:0,0:0:0:0:
112,8,10000,2,0,P|123:47|133:91,1,72.5,2|0,1:2|0:0,0:0:0:0:
79,228,10265,2,0,P|77:265|74:300,1,72.5,10|8,0:0|0:0,0:0:0:0:
0,175,10530,1,0,1:0:0:0:
170,260,10663,6,0,L|326:273,1,145,10|8,0:0|0:0,0:0:0:0:
466,213,11061,2,0,L|380:204,1,72.5,2|0,1:2|0:0,0:0:0:0:
252,346,11327,1,10,0:0:0:0:
405,300,11460,1,10,0:0:0:0:
252,346,11592,1,0,1:0:0:0:
303,183,11725,5,12,1:2:0:0:
303,183,11991,2,0,P|312:141|314:99,1,72.5,12|8,0:0|0:0,0:0:0:0:
228,63,12256,2,0,P|301:67|359:28,1,145,12|8,1:2|0:0,0:0:0:0:
358,29,12654,1,0,1:0:0:0:
201,160,12787,6,0,P|149:153|74:212,1,145,12|8,0:0|0:0,0:0:0:0:
67,384,13185,2,0,P|58:345|44:289,1,72.5,2|0,1:2|0:0,0:0:0:0:
167,247,13451,2,0,P|159:291|155:332,1,72.5,10|10,0:0|0:0,0:0:0:0:
77,204,13716,1,0,1:0:0:0:
261,274,13849,6,0,P|340:267|420:260,1,145,10|8,0:0|0:0,0:0:0:0:
405,261,14247,1,0,1:0:0:0:
507,143,14380,2,0,L|501:220,1,72.5,2|8,0:0|0:0,0:0:0:0:
419,90,14646,2,0,L|426:13,1,72.5,10|0,0:0|1:0,0:0:0:0:
330,190,14911,6,0,L|321:36,1,145,12|8,0:0|0:0,0:0:0:0:
507,143,15309,1,2,1:2:0:0:
507,143,15575,2,0,L|499:215,1,72.5,10|8,0:0|0:0,0:0:0:0:
419,90,15840,1,0,1:0:0:0:
389,268,15973,6,0,P|319:285|255:250,1,145,14|12,1:2|0:0,0:0:0:0:
228,114,16371,1,0,1:0:0:0:
338,199,16504,1,10,0:0:0:0:
338,199,16570,1,8,0:0:0:0:
338,199,16637,1,8,0:0:0:0:
177,309,16769,1,2,1:2:0:0:
177,309,17035,6,0,P|110:285|42:306,1,145,12|8,1:2|0:0,0:0:0:0:
237,384,17433,2,0,P|262:353|274:313,1,72.5,2|0,1:2|0:0,0:0:0:0:
182,146,17699,2,0,L|177:190,3,36.25,10|8|10|8,0:0|0:0|0:0|0:0,0:0:0:0:
174,211,17964,1,2,1:2:0:0:
42,306,18097,6,0,L|59:143,1,145,10|8,0:0|0:0,0:0:0:0:
254,151,18495,2,0,L|182:146,1,72.5,2|0,1:2|0:0,0:0:0:0:
69,52,18761,2,0,L|141:57,1,72.5,10|8,0:0|0:0,0:0:0:0:
339,102,19026,1,0,1:0:0:0:
282,23,19159,6,0,P|241:84|264:164,1,145,10|8,0:0|0:0,0:0:0:0:
429,150,19557,2,0,L|506:147,1,72.5,2|0,1:2|0:0,0:0:0:0:
343,196,19823,1,10,0:0:0:0:
425,53,19955,1,10,0:0:0:0:
343,196,20088,1,0,1:0:0:0:
282,23,20221,5,12,1:2:0:0:
282,23,20486,2,0,L|279:116,1,72.5,12|8,0:0|0:0,0:0:0:0:
190,214,20752,1,8,0:0:0:0:
190,214,20818,1,8,0:0:0:0:
190,214,20884,2,0,L|195:126,1,72.5,10|10,1:2|1:2,0:0:0:0:
272,269,21150,1,2,1:2:0:0:
140,299,21283,6,0,P|213:259|280:273,1,145,12|8,0:0|0:0,0:0:0:0:
93,383,21681,2,0,P|67:360|49:324,1,72.5,2|0,1:2|0:0,0:0:0:0:
102,157,21946,2,0,P|99:198|80:234,1,72.5,10|10,0:0|0:0,0:0:0:0:
0,167,22212,1,0,1:0:0:0:
92,63,22345,6,0,B|177:48|144:117|253:88,1,145,12|8,0:0|0:0,0:0:0:0:
228,93,22743,1,0,1:0:0:0:
363,27,22876,2,0,L|267:19,1,72.5,2|8,0:0|0:0,0:0:0:0:
280,176,23141,2,0,L|366:184,1,72.5,10|0,0:0|1:0,0:0:0:0:
453,83,23407,6,0,B|440:133|440:133|455:176|455:176|441:239,1,145,12|8,0:0|0:0,0:0:0:0:
371,346,23805,2,0,L|362:265,1,72.5,2|0,1:2|0:0,0:0:0:0:
352,182,24070,1,10,0:0:0:0:
454,314,24203,1,10,0:0:0:0:
268,231,24336,1,0,1:0:0:0:
444,222,24469,5,12,0:0:0:0:
362,273,24734,1,12,0:0:0:0:
278,322,25000,1,12,0:0:0:0:
277,322,25663,6,0,P|213:310|148:304,2,130.499996017456,4|0|10,0:1|1:0|0:0,0:0:0:0:
304,192,26327,1,8,0:0:0:0:
304,192,26460,1,0,1:0:0:0:
216,224,26592,6,0,L|197:94,1,130.499996017456,10|8,0:0|0:0,0:0:0:0:
308,28,26991,2,0,P|305:60|294:91,1,65.2499980087281,2|0,1:2|0:0,0:0:0:0:
136,236,27256,1,8,0:0:0:0:
104,136,27389,1,8,0:0:0:0:
151,216,27522,2,0,L|215:223,1,65.2499980087281,2|0,1:2|0:0,0:0:0:0:
140,320,27787,6,0,P|76:309|23:343,1,130.499996017456,8|0,0:0|1:0,0:0:0:0:
244,364,28185,2,0,L|255:300,1,65.2499980087281,2|8,0:0|0:0,0:0:0:0:
152,300,28451,2,0,L|163:364,1,65.2499980087281,10|0,0:0|1:0,0:0:0:0:
348,356,28716,6,0,P|397:316|401:252,1,130.499996017456,10|8,0:0|0:0,0:0:0:0:
312,124,29115,2,0,L|325:187,1,65.2499980087281,2|0,1:3|0:0,0:0:0:0:
480,104,29380,2,0,L|417:122,1,65.2499980087281,8|8,0:0|0:0,0:0:0:0:
348,24,29646,1,0,1:0:0:0:
348,24,29911,6,0,P|307:14|282:18,1,65.2499980087281,8|0,0:0|0:0,0:0:0:0:
187,163,30177,2,0,P|173:135|172:102,1,65.2499980087281,2|0,1:2|0:0,0:0:0:0:
312,124,30442,1,10,0:0:0:0:
280,236,30575,1,8,0:0:0:0:
312,124,30707,1,0,1:0:0:0:
395,231,30840,6,0,L|265:216,1,130.499996017456,10|8,0:0|0:0,0:0:0:0:
296,344,31238,2,0,P|328:345|358:332,1,65.2499980087281,2|0,1:2|0:0,0:0:0:0:
512,220,31504,1,8,0:0:0:0:
452,124,31637,1,8,0:0:0:0:
492,232,31769,2,0,L|478:295,1,65.2499980087281,2|0,1:2|0:0,0:0:0:0:
377,235,32035,6,0,P|325:199|265:216,1,130.499996017456,10|0,0:0|1:0,0:0:0:0:
265,216,32433,1,2,0:0:0:0:
148,148,32566,6,0,L|139:183,3,36.25,10|2|10|2,0:0|0:0|0:0|0:0,0:0:0:0:
159,205,32831,1,2,1:2:0:0:
128,308,32964,6,0,P|57:311|2:265,1,145,12|10,0:0|0:0,0:0:0:0:
159,205,33362,1,10,0:0:0:0:
248,296,33495,2,0,L|238:368,1,72.5,4|0,1:2|0:0,0:0:0:0:
236,272,33761,1,10,0:0:0:0:
340,264,33893,2,0,B|374:283|374:283|407:281,1,72.5,2|0,1:2|0:0,0:0:0:0:
496,216,34159,6,0,L|503:151,1,65.2499980087281,4|0,0:1|0:0,0:0:0:0:
412,28,34424,2,0,L|420:93,1,65.2499980087281,0|0,1:0|0:0,0:0:0:0:
300,184,34690,1,10,0:0:0:0:
320,88,34824,1,8,0:0:0:0:
300,184,34956,1,0,1:0:0:0:
188,68,35088,6,0,P|236:109|300:105,1,130.499996017456,10|8,0:0|0:0,0:0:0:0:
92,0,35486,2,0,L|82:64,1,65.2499980087281,2|0,1:2|0:0,0:0:0:0:
84,252,35752,1,8,0:0:0:0:
136,168,35884,1,8,0:0:0:0:
64,232,36017,2,0,L|1:219,1,65.2499980087281,2|0,1:2|0:0,0:0:0:0:
100,356,36283,6,0,P|138:326|186:326,1,97.8749970130921,10|0,0:0|0:0,0:0:0:0:
208,344,36548,1,0,1:0:0:0:
284,212,36681,6,0,L|298:283,1,72.5,10|0,0:0|0:0,0:0:0:0:
312,112,36946,2,0,L|298:183,1,72.5,2|8,0:0|0:0,0:0:0:0:
96,68,37212,6,0,P|155:91|217:75,1,130.499996017456,12|8,0:0|0:0,0:0:0:0:
384,36,37610,2,0,L|323:12,1,65.2499980087281,2|0,1:2|0:0,0:0:0:0:
297,183,37876,1,8,0:0:0:0:
404,148,38008,1,8,0:0:0:0:
320,199,38141,2,0,L|328:297,1,97.8749970130921,2|0,1:2|0:0,0:0:0:0:
264,352,38407,6,0,P|234:337|202:337,2,65.2499980087281,12|0|0,0:0|0:0|1:0,0:0:0:0:
204,236,38805,1,2,0:0:0:0:
104,296,38938,2,0,L|118:359,1,65.2499980087281,8|10,0:0|0:0,0:0:0:0:
84,276,39203,1,0,1:0:0:0:
128,160,39336,6,0,B|66:180|66:180|6:154,1,130.499996017456,12|8,0:0|0:0,0:0:0:0:
56,8,39734,2,0,P|58:40|68:71,1,65.2499980087281,2|0,1:2|0:0,0:0:0:0:
288,72,40000,1,10,0:0:0:0:
204,4,40132,1,8,0:0:0:0:
264,88,40265,2,0,L|256:152,1,65.2499980087281,2|0,1:2|0:0,0:0:0:0:
324,228,40530,6,0,L|393:207,2,72.5,4|8|8,1:2|0:0|0:0,0:0:0:0:
160,176,40929,1,4,1:2:0:0:
290,314,41061,1,8,0:0:0:0:
186,342,41194,2,0,L|198:270,1,72.5,8|2,0:0|1:2,0:0:0:0:
34,166,41460,6,0,P|99:141|160:176,1,145,12|8,0:0|0:0,0:0:0:0:
196,148,41792,1,2,0:0:0:0:
196,148,41858,2,0,L|186:77,1,72.5,2|2,1:2|0:0,0:0:0:0:
300,92,42123,2,0,L|311:21,1,72.5,10|10,0:0|0:0,0:0:0:0:
409,119,42389,1,2,1:2:0:0:
409,119,42654,6,0,B|424:195|424:195|404:221|402:262,1,130.499996017456,4|2,0:1|0:0,0:0:0:0:
501,259,43053,1,8,0:0:0:0:
386,333,43185,2,0,L|306:327,1,65.2499980087281,2|0,1:2|0:0,0:0:0:0:
150,288,43451,1,2,0:0:0:0:
114,371,43584,2,0,P|192:369|232:328,1,130.499996017456,10|0,0:0|0:0,0:0:0:0:
269,253,43982,1,8,0:0:0:0:
111,145,44247,1,0,1:0:0:0:
111,145,44380,2,0,L|106:221,1,65.2499980087281,2|0,0:0|0:0,0:0:0:0:
26,109,44646,1,0,0:0:0:0:
26,109,44778,6,0,L|15:254,1,130.499996017456,10|0,0:0|0:0,0:0:0:0:
87,296,45177,2,0,P|125:298|156:283,1,65.2499980087281,10|0,0:0|1:0,0:0:0:0:
267,199,45442,2,0,P|234:197|203:207,1,65.2499980087281,2|0,0:0|0:0,0:0:0:0:
198,367,45707,2,0,P|260:374|323:346,1,130.499996017456,10|0,0:0|0:0,0:0:0:0:
359,259,46106,2,0,L|364:194,1,65.2499980087281,8|0,0:0|0:0,0:0:0:0:
417,42,46371,1,0,1:0:0:0:
440,128,46504,1,8,0:0:0:0:
467,218,46637,1,8,0:0:0:0:
467,218,46902,6,0,L|456:357,1,130.499996017456,10|2,0:0|0:0,0:0:0:0:
456,348,47300,1,8,0:0:0:0:
359,259,47433,2,0,P|329:252|287:246,1,65.2499980087281,2|0,1:2|0:0,0:0:0:0:
257,147,47699,1,0,0:0:0:0:
386,168,47831,2,0,P|316:155|249:147,1,130.499996017456,10|0,0:0|0:0,0:0:0:0:
184,17,48230,2,0,P|189:49|194:94,1,65.2499980087281,10|0,0:0|0:0,0:0:0:0:
45,267,48495,2,0,P|29:204|83:184,1,130.499996017456,0|2,1:0|0:0,0:0:0:0:
79,183,48893,1,0,0:0:0:0:
164,241,49026,6,0,P|217:241|257:223,1,97.8749970130921,10|0,0:0|0:0,0:0:0:0:
277,211,49292,2,0,P|270:260|273:284,1,65.2499980087281,4|8,0:0|0:0,0:0:0:0:
386,168,49557,1,0,1:0:0:0:
386,168,49823,1,10,0:0:0:0:
512,271,49955,6,0,P|442:261|351:252,1,145,12|8,0:0|0:0,0:0:0:0:
239,368,50353,2,0,P|198:364|153:360,1,72.5,0|0,1:0|0:0,0:0:0:0:
273,226,50619,5,10,1:2:0:0:
273,226,50707,2,0,L|270:301,1,48.3333333333333,8|8,0:0|0:0,0:0:0:0:
338,384,50884,1,10,1:2:0:0:
338,384,50973,2,0,L|340:313,1,48.3333333333333,8|8,0:0|0:0,0:0:0:0:
315,143,51150,6,0,P|266:183|176:178,1,145,12|0,0:0|1:0,0:0:0:0:
40,124,51548,2,0,L|118:120,1,72.5,2|8,0:0|0:0,0:0:0:0:
118,252,51814,2,0,L|32:261,1,72.5,10|0,0:0|1:0,0:0:0:0:
187,183,52079,2,0,P|218:248|174:334,1,145,10|8,0:0|0:0,0:0:0:0:
116,124,52477,1,0,1:0:0:0:
116,124,52743,2,0,L|119:39,1,72.5,10|8,0:0|0:0,0:0:0:0:
277,152,53008,1,2,1:2:0:0:
277,152,53274,6,0,B|346:143|346:143|366:147|366:147|415:141,1,130.499996017456,12|0,0:0|0:0,0:0:0:0:
435,136,53539,1,0,1:0:0:0:
244,243,53672,2,0,L|144:257,1,86.9999973449708,10|0,0:0|0:0,0:0:0:0:
418,294,53938,2,0,L|503:279,1,86.9999973449708,10|0,0:0|0:0,0:0:0:0:
357,367,54203,6,0,P|325:314|359:218,1,145,12|8,0:0|0:0,0:0:0:0:
418,294,54601,1,0,1:0:0:0:
246,368,54734,2,0,L|210:374,2,36.25,2|2|10,0:0|0:0|0:0,0:0:0:0:
240,242,55000,1,8,0:0:0:0:
240,242,55132,2,0,L|138:257,1,72.5,0|2,1:0|0:0,0:0:0:0:
0,325,55398,6,0,P|71:321|128:362,2,145,12|0|8,0:0|1:0|0:0,0:0:0:0:
0,325,56061,1,10,0:0:0:0:
168,252,56194,1,0,1:0:0:0:
92,141,56327,2,0,P|84:213|77:285,1,145,10|8,0:0|0:0,0:0:0:0:
2,123,56725,2,0,P|7:80|12:50,1,72.5,2|0,1:2|0:0,0:0:0:0:
165,67,56991,1,10,0:0:0:0:
2,123,57123,1,8,0:0:0:0:
189,164,57256,1,2,1:2:0:0:
189,164,57522,6,0,P|255:130|336:145,1,130.499996017456,12|0,0:0|0:0,0:0:0:0:
352,69,57787,2,0,B|305:157|391:160|348:249,1,173.999994689942,4|10,1:2|0:0,0:0:0:0:
353,235,58185,1,10,0:0:0:0:
435,118,58318,1,0,1:0:0:0:
299,313,58451,6,0,P|383:329|445:260,1,173.999994689942,4|10,1:2|0:0,0:0:0:0:
255,228,58849,2,0,P|211:264|197:309,1,86.9999973449708,10|10,0:0|0:0,0:0:0:0:
360,242,59115,5,10,0:0:0:0:
360,242,59247,1,10,0:0:0:0:
318,152,59380,1,10,0:0:0:0:
318,152,59513,1,10,0:0:0:0:
375,67,59646,6,0,L|439:76,1,65.2499980087281,2|0,1:2|0:0,0:0:0:0:
439,76,59911,1,0,0:0:0:0:
288,8,60044,6,0,L|224:0,1,65.2499980087281,2|0,0:0|0:0,0:0:0:0:
224,0,60309,1,0,0:0:0:0:
155,102,60442,6,0,L|244:116,1,65.2499980087281,2|0,0:0|0:0,0:0:0:0:
219,112,60707,1,0,0:0:0:0:
299,236,60840,6,0,P|309:199|301:147,1,65.2499980087281,2|0,0:0|0:0,0:0:0:0:
211,293,61106,6,0,L|216:336,2,36.25,2|2|2,0:0|0:0|1:2,0:0:0:0:
116,240,61371,1,8,0:0:0:0:
98,244,61438,1,10,0:0:0:0:
81,248,61504,1,10,1:2:0:0:
81,251,61769,6,0,P|38:197|50:127,1,145,12|0,1:2|1:0,0:0:0:0:
256,120,62168,1,2,0:0:0:0:
152,104,62300,2,0,L|145:31,1,72.5,8|10,0:0|0:0,0:0:0:0:
275,50,62566,2,0,L|256:120,1,72.5,0|2,1:0|0:0,0:0:0:0:
160,288,62831,5,12,0:0:0:0:
120,176,62964,1,8,0:0:0:0:
171,263,63097,2,0,L|278:244,1,108.75,4|0,1:2|0:0,0:0:0:0:
255,207,63362,1,10,0:0:0:0:
232,344,63495,1,10,0:0:0:0:
376,276,63628,1,0,1:0:0:0:
376,276,63893,6,0,L|383:203,1,72.5,10|0,0:0|0:0,0:0:0:0:
309,47,64159,2,0,L|316:120,1,72.5,2|0,1:2|0:0,0:0:0:0:
460,264,64424,1,10,0:0:0:0:
500,148,64557,1,8,0:0:0:0:
304,238,64690,2,0,P|296:290|324:336,1,108.75,2|0,1:2|0:0,0:0:0:0:
376,276,64955,5,12,0:0:0:0:
316,120,65088,1,2,0:0:0:0:
376,276,65221,1,10,1:2:0:0:
216,340,65353,2,0,L|208:269,1,72.5,12|0,0:0|0:0,0:0:0:0:
132,188,65619,1,8,0:0:0:0:
132,188,65685,1,8,0:0:0:0:
132,188,65752,2,0,P|80:185|43:222,1,108.75,10|0,1:2|0:0,0:0:0:0:
0,300,66017,6,0,L|107:313,1,108.75,12|0,0:0|0:0,0:0:0:0:
148,320,66283,1,0,1:0:0:0:
244,220,66415,2,0,P|251:184|245:148,1,72.5,2|8,0:0|0:0,0:0:0:0:
76,88,66681,1,10,0:0:0:0:
132,188,66814,1,0,1:0:0:0:
321,99,66946,6,0,P|263:58|194:74,1,145,10|8,0:0|0:0,0:0:0:0:
64,16,67345,2,0,L|75:87,1,72.5,0|0,1:0|0:0,0:0:0:0:
148,276,67610,1,10,0:0:0:0:
68,356,67743,1,10,0:0:0:0:
148,276,67876,2,0,L|159:205,1,72.5,0|2,1:0|0:0,0:0:0:0:
328,284,68141,6,0,L|257:299,1,72.5,12|0,0:0|0:0,0:0:0:0:
488,363,68407,2,0,L|417:347,1,72.5,2|0,1:2|0:0,0:0:0:0:
402,110,68672,1,10,0:0:0:0:
448,216,68805,1,8,0:0:0:0:
328,284,68938,2,0,L|222:259,1,108.75,2|0,1:2|0:0,0:0:0:0:
120,216,69203,6,0,P|117:245|132:287,1,72.5,4|8,1:2|0:0,0:0:0:0:
168,100,69469,1,8,0:0:0:0:
54,190,69601,6,0,P|84:208|120:215,1,72.5,4|8,1:2|0:0,0:0:0:0:
272,148,69867,1,8,0:0:0:0:
222,259,70000,5,0,1:0:0:0:
272,148,70133,1,8,0:0:0:0:
392,248,70265,6,0,L|379:103,1,145,12|0,1:2|1:0,0:0:0:0:
224,28,70663,1,2,0:0:0:0:
201,133,70796,2,0,P|235:142|271:147,1,72.5,8|10,0:0|0:0,0:0:0:0:
222,259,71062,2,0,P|186:263|151:274,1,72.5,0|2,1:0|0:0,0:0:0:0:
304,340,71327,5,12,0:0:0:0:
304,340,71460,1,8,0:0:0:0:
412,264,71593,2,0,P|359:255|325:214,1,108.75,4|0,1:2|0:0,0:0:0:0:
348,180,71858,1,10,0:0:0:0:
304,340,71991,1,10,0:0:0:0:
207,205,72123,1,0,1:0:0:0:
207,205,72389,6,0,L|201:133,1,72.5,10|0,0:0|0:0,0:0:0:0:
88,48,72654,2,0,L|81:120,1,72.5,2|0,1:2|0:0,0:0:0:0:
124,320,72920,1,10,0:0:0:0:
32,256,73053,1,8,0:0:0:0:
276,264,73186,2,0,P|283:316|258:364,1,108.75,2|0,1:2|0:0,0:0:0:0:
204,304,73451,5,12,0:0:0:0:
206,138,73584,1,2,0:0:0:0:
204,304,73717,1,10,1:2:0:0:
364,320,73849,2,0,L|377:249,1,72.5,12|0,0:0|0:0,0:0:0:0:
332,128,74115,1,8,0:0:0:0:
332,128,74181,1,8,0:0:0:0:
332,128,74248,2,0,P|384:135|429:166,1,108.75,10|0,1:2|0:0,0:0:0:0:
512,120,74513,6,0,P|479:136|444:141,1,72.5,12|8,0:0|0:0,0:0:0:0:
288,16,74779,1,8,0:0:0:0:
212,95,74911,2,0,L|230:202,1,108.75,10|0,1:2|0:0,0:0:0:0:
185,120,75177,2,0,L|204:228,1,108.75,10|0,1:2|0:0,0:0:0:0:
140,300,75442,6,0,L|212:312,1,72.5,12|0,0:0|0:0,0:0:0:0:
372,156,75707,1,10,0:0:0:0:
300,240,75840,1,0,1:0:0:0:
416,344,75973,2,0,L|429:273,1,72.5,12|0,0:0|0:0,0:0:0:0:
270,141,76238,5,10,0:0:0:0:
300,240,76371,1,2,1:2:0:0:
270,141,76504,1,2,1:2:0:0:
168,204,76637,6,0,P|126:146|142:78,1,145,12|0,0:0|1:0,0:0:0:0:
381,84,77035,1,2,0:0:0:0:
381,84,77101,1,2,0:0:0:0:
381,84,77168,2,0,L|372:155,1,72.5,10|10,0:0|0:0,0:0:0:0:
300,240,77432,1,2,1:2:0:0:
244,29,77566,5,12,0:0:0:0:
244,29,78761,6,0,L|147:24,1,72.5,12|0,1:2|0:0,0:0:0:0:
322,110,79026,2,0,L|417:116,1,72.5,2|0,1:2|0:0,0:0:0:0:
215,142,79292,1,10,0:0:0:0:
215,142,79424,1,8,0:0:0:0:
294,217,79557,2,0,L|368:222,1,72.5,2|8,1:2|0:0,0:0:0:0:
489,172,79823,6,0,P|453:237|481:321,1,145,2|2,0:0|1:2,0:0:0:0:
467,303,80221,1,0,0:0:0:0:
349,367,80353,2,0,L|276:361,1,72.5,8|10,0:0|0:0,0:0:0:0:
164,243,80619,1,2,1:2:0:0:
164,243,80884,6,0,P|178:279|176:325,1,72.5,10|0,0:0|0:0,0:0:0:0:
69,191,81150,2,0,P|90:162|121:144,1,72.5,2|0,1:2|0:0,0:0:0:0:
74,296,81415,2,0,P|37:290|-4:267,1,72.5,10|8,0:0|0:0,0:0:0:0:
164,243,81681,2,0,P|177:279|179:321,1,72.5,2|0,1:2|0:0,0:0:0:0:
73,196,81946,5,8,0:0:0:0:
73,196,82079,1,10,0:0:0:0:
223,164,82212,2,0,L|377:155,1,145,2|8,1:2|0:0,0:0:0:0:
395,0,82610,1,10,0:0:0:0:
502,82,82743,2,0,L|421:87,1,72.5,2|0,1:2|0:0,0:0:0:0:
364,249,83008,6,0,B|400:247|400:247|432:225,1,72.5,12|0,0:0|0:0,0:0:0:0:
270,249,83274,2,0,B|266:287|266:287|281:326,1,72.5,2|0,1:2|0:0,0:0:0:0:
372,159,83539,1,10,0:0:0:0:
372,159,83672,1,8,0:0:0:0:
266,78,83805,2,0,B|277:115|277:115|270:156,1,72.5,2|8,1:2|0:0,0:0:0:0:
181,200,84070,6,0,L|13:191,1,145,2|2,0:0|1:2,0:0:0:0:
36,192,84469,1,0,0:0:0:0:
121,287,84601,2,0,L|193:291,1,72.5,8|10,0:0|0:0,0:0:0:0:
271,148,84867,1,2,1:2:0:0:
271,148,85132,6,0,P|262:119|269:58,1,72.5,12|0,0:0|0:0,0:0:0:0:
418,32,85398,2,0,P|429:67|427:116,1,72.5,2|0,1:2|0:0,0:0:0:0:
331,229,85663,1,10,0:0:0:0:
271,148,85796,1,8,0:0:0:0:
426,202,85929,1,0,1:0:0:0:
296,311,86061,6,0,P|223:291|148:315,1,145,12|8,0:0|0:0,0:0:0:0:
7,384,86460,5,10,0:0:0:0:
7,384,86592,1,8,0:0:0:0:
57,286,86725,5,10,0:0:0:0:
57,286,86858,1,10,0:0:0:0:
10,193,86991,5,2,1:2:0:0:
10,193,87123,1,2,0:0:0:0:
60,100,87256,6,0,L|131:114,1,72.5,12|0,1:2|0:0,0:0:0:0:
204,188,87522,2,0,L|275:173,1,72.5,2|0,1:2|0:0,0:0:0:0:
10,193,87787,2,0,L|81:207,1,72.5,10|8,0:0|0:0,0:0:0:0:
200,280,88053,2,0,L|128:294,1,72.5,2|8,1:2|0:0,0:0:0:0:
276,344,88318,6,0,P|337:312|338:243,1,145,2|0,0:0|1:0,0:0:0:0:
338,243,88716,1,0,0:0:0:0:
275,173,88849,2,0,L|262:101,1,72.5,10|8,0:0|0:0,0:0:0:0:
384,8,89115,1,0,1:0:0:0:
384,8,89380,6,0,P|376:43|356:73,1,72.5,10|0,0:0|0:0,0:0:0:0:
223,41,89646,2,0,P|237:74|262:101,1,72.5,2|0,1:2|0:0,0:0:0:0:
432,136,89911,1,10,0:0:0:0:
432,136,90044,1,8,0:0:0:0:
396,228,90177,2,0,P|361:238|325:237,1,72.5,2|8,1:2|0:0,0:0:0:0:
160,164,90442,5,2,0:0:0:0:
160,164,90575,1,0,0:0:0:0:
224,240,90708,2,0,L|205:383,1,145,0|10,1:0|0:0,0:0:0:0:
92,300,91106,1,8,0:0:0:0:
92,300,91238,2,0,P|127:296|161:308,1,72.5,0|0,1:0|0:0,0:0:0:0:
300,372,91504,5,12,0:0:0:0:
300,372,91637,1,0,0:0:0:0:
368,300,91769,2,0,L|360:227,1,72.5,2|0,1:2|0:0,0:0:0:0:
480,160,92035,2,0,L|474:232,1,72.5,10|8,0:0|0:0,0:0:0:0:
388,316,92300,2,0,L|380:243,1,72.5,2|8,1:2|0:0,0:0:0:0:
512,72,92566,5,2,0:0:0:0:
512,72,92699,1,0,0:0:0:0:
456,152,92831,2,0,P|390:125|368:59,1,145,0|10,1:0|0:0,0:0:0:0:
232,4,93230,1,8,0:0:0:0:
268,108,93362,1,0,1:0:0:0:
268,108,93628,6,0,L|197:124,2,72.5,12|0|12,0:0|0:0|0:3,0:0:0:0:
96,204,94026,2,0,L|166:220,2,72.5,0|4|0,0:0|0:3|0:0,0:0:0:0:
48,116,94424,1,0,1:0:0:0:
12,312,94557,6,0,P|79:332|138:295,1,145,12|0,0:0|1:0,0:0:0:0:
248,196,94955,1,0,1:0:0:0:
300,332,95088,2,0,P|240:294|173:315,1,145,12|8,0:0|0:0,0:0:0:0:
138,294,95420,1,8,0:0:0:0:
138,294,95486,2,0,L|147:365,1,72.5,8|10,0:0|0:0,0:0:0:0:
48,188,95752,5,12,0:0:0:0:
48,188,96017,2,0,P|80:204|116:208,1,72.5,2|8,0:0|0:0,0:0:0:0:
264,248,96283,1,0,1:0:0:0:
264,248,96415,2,0,P|228:253|196:269,1,72.5,2|0,0:0|0:0,0:0:0:0:
192,156,96681,6,0,L|200:12,1,145,10|0,0:0|0:0,0:0:0:0:
312,32,97079,1,8,0:0:0:0:
312,32,97345,2,0,P|314:67|302:101,1,72.5,0|10,1:0|0:0,0:0:0:0:
368,180,97610,2,0,P|404:181|437:169,1,72.5,0|2,0:0|0:0,0:0:0:0:
512,260,97876,5,8,0:0:0:0:
512,260,98141,2,0,L|499:331,1,72.5,2|8,0:0|0:0,0:0:0:0:
348,317,98407,1,0,1:0:0:0:
348,317,98539,2,0,L|419:304,1,72.5,2|0,0:0|0:0,0:0:0:0:
274,381,98805,6,0,P|229:327|159:329,1,145,10|0,0:0|0:0,0:0:0:0:
159,328,99203,1,8,0:0:0:0:
266,225,99336,2,0,L|257:297,1,72.5,2|0,0:0|1:0,0:0:0:0:
177,190,99601,1,8,0:0:0:0:
177,190,99734,2,0,L|169:118,1,72.5,8|8,0:0|0:0,0:0:0:0:
114,9,100000,5,12,0:0:0:0:
114,9,100265,2,0,P|83:28|48:37,1,72.5,2|8,0:0|0:0,0:0:0:0:
0,128,100531,1,0,1:0:0:0:
0,128,100663,2,0,P|30:147|65:156,1,72.5,10|0,0:0|0:0,0:0:0:0:
154,205,100929,6,0,P|85:201|53:262,1,145,10|0,0:0|0:0,0:0:0:0:
150,337,101327,1,8,0:0:0:0:
150,337,101593,2,0,L|205:290,1,72.5,0|10,1:0|0:0,0:0:0:0:
290,337,101858,2,0,L|355:306,1,72.5,0|2,0:0|0:0,0:0:0:0:
446,356,102123,6,0,L|469:212,1,145,8|2,0:0|0:0,0:0:0:0:
422,44,102521,1,8,0:0:0:0:
358,112,102654,2,0,P|361:147|378:179,1,72.5,0|10,1:0|0:0,0:0:0:0:
355,305,102919,1,0,0:0:0:0:
355,305,103052,6,0,L|212:280,1,145,12|2,0:0|0:0,0:0:0:0:
129,260,103384,1,0,0:0:0:0:
129,260,103451,2,0,P|128:295|142:328,1,72.5,8|2,0:0|0:0,0:0:0:0:
201,186,103716,1,8,0:0:0:0:
201,186,103849,2,0,P|215:153|214:117,1,72.5,8|10,0:0|0:0,0:0:0:0:
23,136,104114,1,10,0:0:0:0:
23,136,104380,5,8,0:0:0:0:
23,136,104446,1,8,0:0:0:0:
23,136,104513,2,0,B|45:123|67:123|67:123|99:144|126:137,1,108.75,12|0,0:0|0:0,0:0:0:0:
125,137,104778,6,0,P|121:77|120:0,2,130.499996017456,4|0|10,0:1|1:0|0:0,0:0:0:0:
213,116,105441,1,8,0:0:0:0:
213,116,105574,1,0,1:0:0:0:
313,199,105707,6,0,P|383:209|452:164,1,130.499996017456,10|8,0:0|0:0,0:0:0:0:
213,116,106105,2,0,P|220:183|226:251,1,130.499996017456,2|8,1:2|0:0,0:0:0:0:
314,379,106503,1,8,0:0:0:0:
310,296,106636,2,0,P|306:328|302:360,1,65.2499980087281,2|0,1:2|0:0,0:0:0:0:
80,382,106901,6,0,P|124:335|189:334,1,130.499996017456,8|0,0:0|1:0,0:0:0:0:
237,181,107300,2,0,P|229:217|224:257,1,65.2499980087281,2|8,0:0|0:0,0:0:0:0:
115,298,107565,2,0,P|109:265|103:233,1,65.2499980087281,10|0,0:0|1:0,0:0:0:0:
274,104,107831,6,0,P|222:144|153:142,1,130.499996017456,10|8,0:0|0:0,0:0:0:0:
24,88,108229,2,0,L|92:76,1,65.2499980087281,2|0,1:3|0:0,0:0:0:0:
191,57,108494,1,8,0:0:0:0:
191,57,108627,1,8,0:0:0:0:
71,173,108760,1,0,1:0:0:0:
71,173,109025,6,0,P|63:208|62:240,1,65.2499980087281,8|0,0:0|0:0,0:0:0:0:
202,354,109291,2,0,P|206:290|166:240,1,130.499996017456,2|10,1:2|0:0,0:0:0:0:
117,322,109689,1,8,0:0:0:0:
117,322,109822,1,0,1:0:0:0:
251,274,109954,6,0,B|332:246|308:312|392:283,1,130.499996017456,10|8,0:0|0:0,0:0:0:0:
471,187,110353,2,0,P|463:271|460:330,1,130.499996017456,2|8,1:2|0:0,0:0:0:0:
366,200,110751,1,8,0:0:0:0:
366,200,110884,2,0,P|367:162|373:127,1,65.2499980087281,2|0,1:2|0:0,0:0:0:0:
433,48,111149,6,0,P|375:88|297:74,1,130.499996017456,10|0,0:0|1:0,0:0:0:0:
153,111,111547,1,2,0:0:0:0:
236,191,111680,2,0,L|238:158,3,32.624999004364,10|2|10|2,0:0|0:0|0:0|0:0,0:0:0:0:
240,133,111946,1,2,1:2:0:0:
185,271,112078,6,0,P|265:281|319:238,1,145,12|10,0:0|0:0,0:0:0:0:
236,191,112477,1,10,0:0:0:0:
92,239,112609,2,0,P|85:285|81:318,1,72.5,4|0,1:2|0:0,0:0:0:0:
149,96,112875,1,10,0:0:0:0:
1,168,113008,2,0,P|40:157|76:149,1,72.5,2|0,1:2|0:0,0:0:0:0:
236,191,113273,6,0,P|299:200|364:151,2,130.499996017456,4|0|10,0:1|1:0|0:0,0:0:0:0:
280,108,113937,1,8,0:0:0:0:
280,108,114070,1,0,1:0:0:0:
171,0,114202,6,0,P|163:74|157:149,1,130.499996017456,10|8,0:0|0:0,0:0:0:0:
225,321,114601,2,0,P|229:266|237:178,1,130.499996017456,2|8,1:2|0:0,0:0:0:0:
286,43,114999,1,8,0:0:0:0:
286,43,115131,2,0,L|278:123,1,65.2499980087281,2|0,1:2|0:0,0:0:0:0:
393,222,115397,6,0,P|445:190|523:200,1,130.499996017456,10|0,0:0|1:0,0:0:0:0:
346,311,115795,2,0,P|318:288|302:257,1,72.5,10|0,0:0|0:0,0:0:0:0:
279,107,116061,2,0,P|314:138|328:186,1,72.5,2|8,0:0|0:0,0:0:0:0:
225,321,116326,6,0,B|193:303|193:303|94:318,1,130.499996017456,12|8,0:0|0:0,0:0:0:0:
13,242,116724,2,0,L|58:234,2,32.624999004364,2|0|0,1:2|0:0|0:0,0:0:0:0:
100,317,116990,1,8,0:0:0:0:
194,194,117123,1,8,0:0:0:0:
194,194,117255,2,0,P|188:235|185:273,1,65.2499980087281,2|0,1:2|0:0,0:0:0:0:
16,141,117521,6,0,P|65:98|140:108,1,130.499996017456,12|0,0:0|1:0,0:0:0:0:
321,188,117919,2,0,L|329:118,1,65.2499980087281,2|8,0:0|0:0,0:0:0:0:
238,37,118185,2,0,L|230:112,1,65.2499980087281,10|0,0:0|1:0,0:0:0:0:
357,271,118450,6,0,P|305:230|239:235,1,130.499996017456,12|8,0:0|0:0,0:0:0:0:
278,320,118848,1,2,1:2:0:0:
453,283,118981,1,0,0:0:0:0:
453,283,119047,1,2,0:0:0:0:
453,283,119114,2,0,P|455:240|460:195,1,72.5,10|8,0:0|0:0,0:0:0:0:
458,21,119379,2,0,P|497:49|510:119,1,108.75,2|0,1:2|0:0,0:0:0:0:
509,130,119645,5,4,1:2:0:0:
342,110,119778,2,0,L|415:104,1,72.5,8|8,0:0|0:0,0:0:0:0:
268,42,120043,1,4,1:2:0:0:
283,186,120176,2,0,L|290:258,1,72.5,8|8,0:0|0:0,0:0:0:0:
200,119,120441,1,2,1:2:0:0:
215,329,120574,6,0,P|279:361|368:329,1,145,12|8,0:0|0:0,0:0:0:0:
188,231,120972,2,0,P|166:239|143:252,3,36.25,2|2|2|2,1:2|0:0|0:0|0:0,0:0:0:0:
86,311,121238,2,0,P|83:331|82:349,3,36.25,10|2|10|2,0:0|0:0|0:0|0:0,0:0:0:0:
12,259,121503,2,0,P|10:218|7:186,1,72.5,2|0,1:2|0:0,0:0:0:0:
64,88,121769,6,0,P|126:98|156:153,1,130.499996017456,4|2,0:1|0:0,0:0:0:0:
230,72,122167,2,0,P|234:40|240:8,1,65.2499980087281,8|2,0:0|1:2,0:0:0:0:
292,172,122432,1,0,0:0:0:0:
356,96,122565,1,2,0:0:0:0:
428,164,122698,2,0,P|438:226|400:277,1,130.499996017456,10|0,0:0|0:0,0:0:0:0:
296,336,123096,2,0,P|299:298|304:272,1,65.2499980087281,8|0,0:0|0:0,0:0:0:0:
196,204,123362,1,0,1:0:0:0:
196,204,123494,2,0,P|201:236|204:268,2,65.2499980087281,2|0|0,0:0|0:0|0:0,0:0:0:0:
116,136,123893,6,0,P|57:114|48:52,1,130.499996017456,10|0,0:0|0:0,0:0:0:0:
192,52,124291,2,0,L|256:58,1,65.2499980087281,10|0,0:0|1:0,0:0:0:0:
261,197,124556,2,0,L|196:204,1,65.2499980087281,2|0,0:0|0:0,0:0:0:0:
336,124,124822,2,0,B|388:104|388:104|462:111,1,130.499996017456,10|0,0:0|0:0,0:0:0:0:
512,216,125220,1,8,0:0:0:0:
512,216,125353,1,0,0:0:0:0:
420,264,125485,2,0,P|413:227|410:195,1,65.2499980087281,0|8,1:0|0:0,0:0:0:0:
484,332,125751,1,8,0:0:0:0:
484,332,126016,6,0,P|426:304|364:319,1,130.499996017456,10|2,0:0|0:0,0:0:0:0:
212,360,126415,1,8,0:0:0:0:
300,384,126547,1,2,1:2:0:0:
212,360,126680,2,0,L|201:295,1,65.2499980087281,0|0,0:0|0:0,0:0:0:0:
124,244,126946,2,0,P|186:258|243:230,1,130.499996017456,10|0,0:0|0:0,0:0:0:0:
32,208,127344,2,0,P|26:239|33:271,1,65.2499980087281,10|0,0:0|0:0,0:0:0:0:
176,168,127609,2,0,P|181:136|174:104,1,65.2499980087281,0|0,1:0|0:0,0:0:0:0:
116,16,127875,1,2,0:0:0:0:
116,16,128140,6,0,L|51:6,1,65.2499980087281,10|0,0:0|0:0,0:0:0:0:
4,128,128406,2,0,L|75:117,1,72.5,4|8,0:0|0:0,0:0:0:0:
196,144,128671,2,0,P|208:195|175:236,1,108.75,0|0,1:0|0:0,0:0:0:0:
152,240,128937,1,10,0:0:0:0:
80,328,129070,6,0,L|222:352,1,145,12|8,0:0|0:0,0:0:0:0:
376,256,129468,1,0,1:0:0:0:
376,256,129601,1,0,0:0:0:0:
328,384,129733,5,10,1:2:0:0:
328,384,129822,2,0,L|320:336,1,48.3333333333333,8|8,0:0|0:0,0:0:0:0:
252,244,129999,1,10,1:2:0:0:
252,244,130088,2,0,L|260:196,1,48.3333333333333,10|10,0:0|0:0,0:0:0:0:
332,88,130264,6,0,L|476:70,1,145,12|0,0:0|1:0,0:0:0:0:
416,6,130662,2,0,L|397:149,1,145,2|10,0:0|0:0,0:0:0:0:
468,224,131061,1,0,1:0:0:0:
424,316,131193,2,0,B|348:340|352:280|283:307,1,145,10|8,0:0|0:0,0:0:0:0:
176,360,131592,2,0,L|166:289,1,72.5,0|0,1:0|0:0,0:0:0:0:
296,168,131857,1,10,0:0:0:0:
284,306,131989,1,8,0:0:0:0:
296,168,132123,1,2,1:2:0:0:
296,168,132388,6,0,P|226:159|192:98,1,145,12|0,0:0|1:0,0:0:0:0:
280,20,132786,2,0,L|270:91,1,72.5,10|0,0:0|0:0,0:0:0:0:
444,144,133052,2,0,L|434:72,1,72.5,10|0,0:0|0:0,0:0:0:0:
380,224,133317,6,0,P|440:186|509:199,1,145,12|8,0:0|0:0,0:0:0:0:
444,344,133716,2,0,L|373:325,1,72.5,0|2,1:0|0:0,0:0:0:0:
280,240,133981,1,10,0:0:0:0:
280,240,134114,1,8,0:0:0:0:
212,312,134247,2,0,L|230:382,1,72.5,0|2,1:0|0:0,0:0:0:0:
100,348,134512,6,0,B|67:330|67:330|30:330,2,72.5,12|0|0,0:0|0:0|1:0,0:0:0:0:
156,232,134910,1,2,0:0:0:0:
156,232,135044,1,8,0:0:0:0:
60,224,135176,2,0,L|45:152,1,72.5,10|0,0:0|1:0,0:0:0:0:
112,56,135441,2,0,P|180:67|201:133,1,145,10|8,0:0|0:0,0:0:0:0:
320,24,135839,2,0,L|309:95,1,72.5,2|0,1:2|0:0,0:0:0:0:
332,300,136105,1,10,0:0:0:0:
418,248,136238,1,8,0:0:0:0:
332,300,136370,2,0,P|280:289|253:244,1,108.75,2|0,1:2|0:0,0:0:0:0:
260,221,136636,6,0,L|189:235,1,72.5,12|0,0:0|0:0,0:0:0:0:
72,308,136901,2,0,L|142:322,1,72.5,4|0,1:2|0:0,0:0:0:0:
180,136,137167,1,10,0:0:0:0:
76,140,137300,2,0,L|95:209,1,72.5,10|0,0:0|1:0,0:0:0:0:
252,100,137565,6,0,P|182:100|140:44,1,145,4|10,1:2|0:0,0:0:0:0:
368,16,137963,2,0,L|356:87,1,72.5,10|10,0:0|0:0,0:0:0:0:
432,204,138228,5,10,0:0:0:0:
432,204,138361,1,10,0:0:0:0:
456,104,138494,1,10,0:0:0:0:
456,104,138627,1,10,0:0:0:0:
324,184,138760,6,0,L|340:254,1,72.5,2|0,1:2|0:0,0:0:0:0:
340,254,139025,1,0,0:0:0:0:
468,348,139158,6,0,L|398:332,1,72.5,2|0,0:0|0:0,0:0:0:0:
398,332,139423,1,0,0:0:0:0:
240,260,139556,6,0,L|256:330,1,72.5,2|0,0:0|0:0,0:0:0:0:
256,330,139821,1,0,0:0:0:0:
152,356,139954,6,0,P|119:371|83:370,1,72.5,2|0,0:0|0:0,0:0:0:0:
68,256,140220,6,0,L|39:233,2,36.25,2|2|2,0:0|0:0|1:2,0:0:0:0:
148,188,140485,1,8,0:0:0:0:
152,170,140552,1,10,0:0:0:0:
156,153,140618,1,10,1:2:0:0:
154,156,140884,6,0,P|230:167|297:113,1,145,12|0,1:2|1:0,0:0:0:0:
373,0,141282,1,2,0:0:0:0:
373,0,141415,2,0,P|365:43|361:74,1,72.5,8|10,0:0|0:0,0:0:0:0:
345,203,141680,2,0,P|389:197|426:193,1,72.5,0|2,1:0|0:0,0:0:0:0:
425,289,141946,5,12,0:0:0:0:
497,142,142078,1,8,0:0:0:0:
425,289,142211,2,0,P|374:294|315:301,1,108.75,4|0,1:2|0:0,0:0:0:0:
288,321,142477,2,0,P|253:318|202:315,1,72.5,10|10,0:0|0:0,0:0:0:0:
66,313,142742,1,0,1:0:0:0:
66,313,143008,6,0,P|72:354|76:389,1,72.5,10|0,0:0|0:0,0:0:0:0:
146,242,143273,2,0,P|163:179|122:112,1,145,2|10,1:2|0:0,0:0:0:0:
124,113,143671,1,8,0:0:0:0:
0,55,143804,2,0,L|83:37,1,72.5,2|0,1:2|0:0,0:0:0:0:
218,1,144070,6,0,B|230:44|230:44|220:95|220:95|221:135|221:135|204:169,1,173.999994689942,12|10,0:0|1:2,0:0:0:0:
8,275,144468,2,0,P|68:216|155:255,1,173.999994689942,12|8,0:0|0:0,0:0:0:0:
172,262,144800,1,8,0:0:0:0:
172,262,144866,2,0,L|282:249,1,86.9999973449708,10|0,1:2|0:0,0:0:0:0:
453,197,145131,6,0,P|380:207|320:170,1,145,12|0,0:0|1:0,0:0:0:0:
278,13,145530,2,0,P|269:47|261:88,1,72.5,2|8,0:0|0:0,0:0:0:0:
403,114,145795,1,10,0:0:0:0:
403,114,145928,1,0,1:0:0:0:
177,187,146061,6,0,L|321:171,1,145,10|8,0:0|0:0,0:0:0:0:
469,197,146459,1,0,1:0:0:0:
469,197,146724,1,10,0:0:0:0:
403,114,146857,1,10,0:0:0:0:
319,269,146990,2,0,L|391:261,1,72.5,0|2,1:0|0:0,0:0:0:0:
491,64,147255,6,0,P|435:20|362:24,1,145,12|2,0:0|1:2,0:0:0:0:
364,23,147654,1,0,0:0:0:0:
224,62,147786,2,0,P|187:61|151:57,1,72.5,10|8,0:0|0:0,0:0:0:0:
301,177,148052,1,2,1:2:0:0:
301,177,148317,5,4,1:2:0:0:
204,311,148450,2,0,L|213:238,1,72.5,8|8,0:0|0:0,0:0:0:0:
372,256,148716,5,4,1:2:0:0:
310,105,148848,2,0,L|297:201,1,72.5,8|8,0:0|0:0,0:0:0:0:
460,209,149114,5,0,1:0:0:0:
460,209,149247,1,8,0:0:0:0:
321,332,149379,6,0,P|385:299|456:308,1,145,12|0,1:2|1:0,0:0:0:0:
251,264,149778,1,2,0:0:0:0:
251,264,149910,2,0,P|212:271|176:273,1,72.5,8|10,0:0|0:0,0:0:0:0:
300,176,150176,2,0,P|304:141|312:88,1,72.5,0|2,1:0|0:0,0:0:0:0:
152,33,150441,5,12,0:0:0:0:
309,104,150574,1,8,0:0:0:0:
152,33,150707,2,0,L|266:26,1,108.75,4|0,1:2|0:0,0:0:0:0:
286,13,150972,2,0,P|331:14|360:24,1,72.5,10|10,0:0|0:0,0:0:0:0:
206,133,151238,1,0,1:0:0:0:
206,133,151503,6,0,P|169:133|108:137,1,72.5,10|0,0:0|0:0,0:0:0:0:
0,231,151769,2,0,P|65:214|136:260,1,145,2|10,1:2|0:0,0:0:0:0:
129,250,152167,1,8,0:0:0:0:
315,328,152300,2,0,L|417:320,1,72.5,2|0,1:2|0:0,0:0:0:0:
228,376,152565,6,0,B|185:290|258:302|220:203,1,173.999994689942,12|10,0:0|1:2,0:0:0:0:
154,47,152963,2,0,B|112:15|112:15|135:144,1,173.999994689942,12|8,0:0|0:0,0:0:0:0:
164,137,153295,1,8,0:0:0:0:
164,137,153362,2,0,P|208:119|260:125,1,86.9999973449708,10|0,1:2|0:0,0:0:0:0:
387,170,153627,5,12,0:0:0:0:
387,170,153760,1,8,0:0:0:0:
222,208,153893,1,8,0:0:0:0:
269,35,154025,1,10,1:2:0:0:
442,247,154291,1,10,1:2:0:0:
163,136,154556,6,0,P|227:114|293:148,1,145,12|10,0:0|0:0,0:0:0:0:
292,147,154954,1,0,1:0:0:0:
432,102,155087,2,0,P|436:171|443:263,1,145,12|10,0:0|0:0,0:0:0:0:
383,382,155485,1,2,1:2:0:0:
511,312,155618,1,2,1:2:0:0:
351,219,155751,6,0,B|282:191|283:259|193:230,1,145,12|0,0:0|1:0,0:0:0:0:
71,189,156149,1,2,0:0:0:0:
71,189,156216,1,2,0:0:0:0:
71,189,156282,2,0,P|104:173|153:175,1,72.5,10|10,0:0|0:0,0:0:0:0:
324,304,156547,1,2,1:2:0:0:
233,147,156680,5,12,0:0:0:0:
233,147,157278,2,0,B|239:214|239:214|226:251|226:251|233:318,1,163.125,2|6,0:0|0:0,0:0:0:0:
364,16,166370,6,0,P|354:86|393:145,1,145,4|0,1:0|0:0,0:0:0:0:
445,65,166769,1,8,0:0:0:0:
476,172,166901,2,0,P|405:162|346:201,1,145,2|8,1:2|0:0,0:0:0:0:
307,351,167300,1,8,0:0:0:0:
307,351,167366,1,8,0:0:0:0:
307,350,167432,6,0,L|291:279,1,72.5,10|0,0:0|0:0,0:0:0:0:
232,208,167698,1,8,0:0:0:0:
156,288,167832,2,0,L|191:295,2,36.25,0|0|2,0:0|0:0|0:0,0:0:0:0:
96,360,168096,1,8,0:0:0:0:
12,228,168229,1,0,1:0:0:0:
12,228,168494,6,0,P|70:267|141:257,1,145,10|0,0:0|0:0,0:0:0:0:
85,104,168893,1,8,0:0:0:0:
85,104,169025,2,0,L|93:177,1,72.5,2|0,1:2|0:0,0:0:0:0:
256,176,169291,1,0,0:0:0:0:
184,112,169424,1,8,0:0:0:0:
184,112,169490,1,8,0:0:0:0:
184,112,169556,6,0,L|192:39,2,72.5,10|8|2,0:0|0:0|0:0,0:0:0:0:
304,76,169954,1,8,0:0:0:0:
326,70,170021,1,8,0:0:0:0:
348,64,170088,1,10,0:0:0:0:
420,136,170220,1,8,0:0:0:0:
344,259,170353,1,2,1:2:0:0:
344,259,170618,6,0,P|405:225|474:241,1,145,10|0,0:0|0:0,0:0:0:0:
420,317,171017,1,8,0:0:0:0:
316,344,171149,2,0,L|299:199,1,145,2|8,1:2|0:0,0:0:0:0:
157,208,171548,1,8,0:0:0:0:
157,208,171614,1,8,0:0:0:0:
157,208,171680,6,0,P|182:234|216:249,1,72.5,10|0,0:0|0:0,0:0:0:0:
196,120,171946,1,8,0:0:0:0:
100,104,172079,2,0,L|88:138,2,36.25,0|0|2,0:0|0:0|0:0,0:0:0:0:
16,60,172344,1,8,0:0:0:0:
60,224,172477,1,0,1:0:0:0:
60,224,172742,6,0,P|118:185|189:195,1,145,10|0,0:0|0:0,0:0:0:0:
149,348,173141,1,8,0:0:0:0:
149,348,173273,2,0,L|141:275,1,72.5,2|0,1:2|0:0,0:0:0:0:
304,240,173539,1,0,0:0:0:0:
320,336,173672,1,8,0:0:0:0:
320,336,173738,1,8,0:0:0:0:
320,336,173804,6,0,L|248:325,1,72.5,10|8,0:0|0:0,0:0:0:0:
85,190,174070,1,2,0:0:0:0:
69,286,174203,1,8,0:0:0:0:
69,286,174269,1,8,0:0:0:0:
69,286,174335,2,0,L|141:275,1,72.5,10|8,0:0|0:0,0:0:0:0:
231,181,174601,1,2,1:2:0:0:
231,181,174866,6,0,L|250:344,1,145,4|0,1:0|0:0,0:0:0:0:
247,325,175264,1,8,0:0:0:0:
450,259,175397,2,0,P|385:209|316:227,1,145,2|8,1:2|0:0,0:0:0:0:
346,384,175795,1,8,0:0:0:0:
346,384,175862,1,8,0:0:0:0:
346,383,175928,6,0,L|337:311,1,72.5,10|0,0:0|0:0,0:0:0:0:
317,130,176193,1,8,0:0:0:0:
399,229,176326,1,0,0:0:0:0:
399,229,176393,1,0,0:0:0:0:
399,229,176459,2,0,L|322:219,1,72.5,2|8,0:0|0:0,0:0:0:0:
176,202,176724,1,0,1:0:0:0:
176,202,176990,6,0,P|215:264|190:347,1,145,10|0,0:0|0:0,0:0:0:0:
202,331,177388,1,8,0:0:0:0:
48,286,177521,2,0,L|121:281,1,72.5,2|0,1:2|0:0,0:0:0:0:
261,253,177786,1,0,0:0:0:0:
184,130,177919,1,8,0:0:0:0:
184,130,177985,1,8,0:0:0:0:
184,130,178052,6,0,P|178:171|175:209,2,72.5,10|8|2,0:0|0:0|0:0,0:0:0:0:
102,32,178450,1,8,0:0:0:0:
99,53,178516,1,8,0:0:0:0:
98,74,178583,1,10,0:0:0:0:
286,77,178716,1,8,0:0:0:0:
197,1,178848,1,2,1:2:0:0:
197,1,179114,6,0,L|182:148,1,145,10|0,0:0|0:0,0:0:0:0:
182,145,179512,1,8,0:0:0:0:
286,77,179645,2,0,P|357:46|444:80,1,145,2|0,1:2|0:0,0:0:0:0:
512,157,180043,1,8,0:0:0:0:
512,157,180109,1,8,0:0:0:0:
512,157,180176,6,0,L|438:153,1,72.5,10|0,0:0|0:0,0:0:0:0:
286,77,180441,1,8,0:0:0:0:
336,198,180574,2,0,L|340:162,2,36.25,0|0|2,0:0|0:0|0:0,0:0:0:0:
439,153,180839,1,8,0:0:0:0:
290,81,180972,1,0,1:0:0:0:
289,80,181238,6,0,P|218:69|159:108,1,145,10|0,0:0|0:0,0:0:0:0:
159,108,181636,1,8,0:0:0:0:
72,72,181769,2,0,L|66:-7,1,72.5,2|0,1:2|0:0,0:0:0:0:
240,164,182034,1,8,0:0:0:0:
89,241,182167,1,8,0:0:0:0:
89,241,182233,1,8,0:0:0:0:
89,241,182300,6,0,L|83:162,1,72.5,10|0,0:0|0:0,0:0:0:0:
258,324,182565,1,0,1:0:0:0:
240,164,182698,1,8,0:0:0:0:
238,142,182764,1,8,0:0:0:0:
237,120,182831,1,8,0:0:0:0:
89,241,182963,1,8,1:2:0:0:
258,324,183096,1,0,1:0:0:0:
279,321,183162,1,0,1:0:0:0:
300,319,183229,1,0,1:0:0:0:
321,316,183295,1,0,1:0:0:0:
342,313,183362,6,0,P|277:313|333:345,1,173.999994689942,4|0,1:0|1:0,0:0:0:0:
436,212,183760,2,0,P|495:233|430:232,1,173.999994689942,4|0,1:0|1:0,0:0:0:0:
332,96,184158,2,0,P|300:152|356:118,1,173.999994689942,4|0,1:0|1:0,0:0:0:0:
236,4,184556,5,0,1:0:0:0:
84,64,184689,1,2,1:2:0:0:
196,124,184822,1,0,1:0:0:0:
56,80,184954,2,0,L|45:8,1,72.5,2|2,1:2|1:2,0:0:0:0:
104,236,185220,2,0,L|114:164,1,72.5,2|2,1:2|1:2,0:0:0:0:
0,348,185485,6,0,B|32:344|56:328|56:328|100:364|162:363,1,173.999994689942,4|0,1:0|1:0,0:0:0:0:
265,251,185884,2,0,B|233:255|209:271|209:271|165:235|102:235,1,173.999994689942,4|0,1:0|1:0,0:0:0:0:
272,348,186282,2,0,B|304:344|328:328|328:328|372:364|434:363,1,173.999994689942,4|0,1:0|1:0,0:0:0:0:
500,144,186680,5,0,1:0:0:0:
408,208,186813,2,0,B|373:206|373:206|339:190,1,72.5,2|2,1:2|1:2,0:0:0:0:
284,72,187078,1,2,1:2:0:0:
284,72,187211,6,0,P|344:81|377:29,1,130.499996017456,4|8,1:0|0:0,0:0:0:0:
360,18,187543,1,8,0:0:0:0:
360,18,187609,6,0,L|340:190,1,173.999994689942,4|0,1:0|1:0,0:0:0:0:
456,204,188008,2,0,L|436:376,1,173.999994689942,4|0,1:0|1:0,0:0:0:0:
236,308,188406,2,0,L|408:288,1,173.999994689942,4|0,1:0|1:0,0:0:0:0:
444,88,188803,5,0,1:0:0:0:
312,4,188936,1,2,1:2:0:0:
360,172,189069,1,0,1:0:0:0:
468,60,189202,2,0,L|396:72,1,72.5,2|2,1:2|1:2,0:0:0:0:
276,184,189468,2,0,L|347:196,1,72.5,2|2,1:2|1:2,0:0:0:0:
468,287,189733,5,4,1:2:0:0:
359,364,189866,1,0,0:0:0:0:
428,275,189999,2,0,L|410:116,1,159.500004867554,0|10,1:0|0:0,0:0:0:0:
236,72,190397,1,8,0:0:0:0:
276,184,190530,1,0,1:0:0:0:
196,292,190662,6,0,P|134:244|58:258,1,159.500004867554,10|8,0:0|0:0,0:0:0:0:
276,184,191061,2,0,L|289:262,1,79.7500024337769,2|0,1:2|0:0,0:0:0:0:
388,72,191326,2,0,L|379:151,1,79.7500024337769,8|8,0:0|0:0,0:0:0:0:
488,276,191592,2,0,L|408:266,1,79.7500024337769,2|0,1:2|0:0,0:0:0:0:
148,148,191857,5,12,1:2:0:0:
236,72,191990,1,2,0:0:0:0:
252,240,192123,2,0,P|175:226|114:273,1,159.500004867554,12|8,1:2|0:0,0:0:0:0:
280,344,192521,1,8,0:0:0:0:
416,160,192654,1,2,1:2:0:0:
388,304,192786,6,0,L|399:382,1,79.7500024337769,4|0,1:2|0:0,0:0:0:0:
280,236,193052,1,0,1:0:0:0:
280,236,193185,2,0,L|291:157,1,79.7500024337769,2|2,1:2|1:2,0:0:0:0:
240,56,193450,2,0,L|251:134,1,79.7500024337769,2|2,1:2|1:2,0:0:0:0:
196,240,193716,1,2,1:2:0:0:
144,0,193848,1,2,1:2:0:0:
4,192,193981,6,0,L|44:184,1,39.8750012168885,4|0,1:2|0:0,0:0:0:0:
184,348,194247,2,0,L|224:340,1,39.8750012168885,4|0,1:2|0:0,0:0:0:0:
204,320,194379,2,0,L|244:312,1,39.8750012168885,0|0,1:0|1:0,0:0:0:0:
460,320,194645,2,0,L|500:312,1,39.8750012168885,4|0,1:2|0:0,0:0:0:0:
488,183,194910,6,0,P|306:265|344:70,1,489.375018668175,12|2,1:2|0:0,0:0:0:0:
436,310,204601,6,0,P|397:287|324:294,1,116,2|0,0:0|0:0,0:0:0:0:
196,351,204999,1,2,0:0:0:0:
216,352,205264,1,2,0:0:0:0:
236,353,205530,6,0,B|248:227|248:227|223:179,1,173.999994689942,2|0,0:0|0:0,0:0:0:0:
96,243,206193,2,0,L|175:246,1,58,2|0,0:0|0:0,0:0:0:0:
315,160,206459,1,0,0:0:0:0:
315,160,206724,6,0,P|367:135|436:147,1,116,2|0,0:0|0:0,0:0:0:0:
313,11,207255,2,0,P|261:36|192:24,1,116,2|0,0:0|0:0,0:0:0:0:
99,258,207786,6,0,L|92:126,1,116,2|0,0:0|0:0,0:0:0:0:
3,81,208185,2,0,B|86:56|83:136|179:104,1,173.999994689942,2|0,0:0|0:0,0:0:0:0:
249,0,208848,6,0,L|243:81,1,58,2|0,0:0|0:0,0:0:0:0:
238,164,209114,1,0,0:0:0:0:
315,114,209247,1,2,0:0:0:0:
398,267,209512,1,0,0:0:0:0:
398,267,209778,6,0,L|405:135,1,116,2|0,0:0|0:0,0:0:0:0:
351,32,210176,1,0,0:0:0:0:
482,96,210308,2,0,B|402:66|395:149|304:109,1,173.999994689942,2|0,0:0|0:0,0:0:0:0:
141,101,210972,6,0,P|182:59|258:75,1,116,2|0,0:0|0:0,0:0:0:0:
315,113,211370,2,0,L|310:231,2,116,2|2|4,0:0|0:0|0:0,0:0:0:0:
315,113,212698,6,0,L|368:115,1,36.25,8|8,0:0|0:0,0:0:0:0:
236,60,212831,2,0,L|231:197,1,130.499996017456,8|0,1:2|0:0,0:0:0:0:
188,256,213096,6,0,B|227:277|265:260|265:260|296:247|331:262,1,145,12|0,1:2|1:0,0:0:0:0:
368,348,213495,1,2,0:0:0:0:
260,384,213627,2,0,P|250:349|254:313,1,72.5,8|10,0:0|0:0,0:0:0:0:
440,354,213893,2,0,L|367:347,1,72.5,0|2,1:0|0:0,0:0:0:0:
188,256,214158,5,12,0:0:0:0:
188,256,214291,1,8,0:0:0:0:
248,168,214424,2,0,P|294:194|346:184,1,108.75,4|0,1:2|0:0,0:0:0:0:
360,148,214689,1,10,0:0:0:0:
268,60,214822,1,10,0:0:0:0:
456,88,214954,2,0,L|448:160,1,72.5,0|2,1:0|0:0,0:0:0:0:
512,280,215220,6,0,P|445:252|374:262,1,145,10|2,0:0|1:2,0:0:0:0:
364,368,215618,1,0,0:0:0:0:
260,312,215751,2,0,L|253:384,1,72.5,10|8,0:0|0:0,0:0:0:0:
152,280,216016,2,0,L|159:352,1,72.5,2|0,1:2|0:0,0:0:0:0:
24,204,216282,6,0,P|91:253|169:223,1,173.999994689942,12|10,0:0|1:2,0:0:0:0:
344,116,216680,2,0,B|271:96|222:115|222:115|248:132|267:135,1,173.999994689942,12|8,0:0|0:0,0:0:0:0:
252,164,217012,1,8,0:0:0:0:
252,164,217079,2,0,L|260:28,1,130.499996017456,10|0,1:2|0:0,0:0:0:0:
164,4,217344,6,0,P|213:53|282:44,1,145,12|0,0:0|1:0,0:0:0:0:
404,84,217742,2,0,L|396:12,1,72.5,2|8,0:0|0:0,0:0:0:0:
267,135,218008,1,10,0:0:0:0:
332,216,218141,1,0,1:0:0:0:
264,336,218273,6,0,L|120:312,1,145,14|8,0:0|0:0,0:0:0:0:
148,204,218671,2,0,P|182:193|218:195,1,72.5,0|0,1:0|0:0,0:0:0:0:
348,308,218937,1,10,0:0:0:0:
389,197,219070,1,10,0:0:0:0:
348,308,219202,2,0,L|277:320,1,72.5,0|2,1:0|0:0,0:0:0:0:
480,264,219468,6,0,L|468:335,1,72.5,12|0,0:0|0:0,0:0:0:0:
377,125,219733,2,0,L|388:196,1,72.5,2|0,1:2|0:0,0:0:0:0:
452,40,219999,1,10,0:0:0:0:
452,40,220132,1,8,0:0:0:0:
377,125,220265,2,0,L|271:100,1,108.75,2|0,1:2|0:0,0:0:0:0:
248,132,220530,5,4,1:2:0:0:
160,0,220662,1,8,0:0:0:0:
116,204,220795,1,8,0:0:0:0:
271,100,220928,6,0,B|307:96|307:96|355:116,2,72.5,4|8|8,1:2|0:0|0:0,0:0:0:0:
116,204,221327,5,0,1:0:0:0:
292,208,221460,1,8,0:0:0:0:
208,368,221592,6,0,P|151:326|82:338,1,145,12|0,1:2|1:0,0:0:0:0:
312,364,221990,1,2,0:0:0:0:
312,364,222123,2,0,P|312:324|318:291,1,72.5,8|10,0:0|0:0,0:0:0:0:
488,332,222389,2,0,P|452:344|417:347,1,72.5,0|2,1:0|0:0,0:0:0:0:
264,180,222654,5,12,0:0:0:0:
264,180,222787,1,8,0:0:0:0:
125,226,222920,2,0,P|159:266|211:275,1,108.75,4|0,1:2|0:0,0:0:0:0:
240,308,223185,1,10,0:0:0:0:
168,384,223318,1,10,0:0:0:0:
48,348,223450,2,0,L|36:276,1,72.5,0|2,1:0|0:0,0:0:0:0:
141,104,223716,6,0,P|166:170|125:226,1,145,10|2,0:0|1:2,0:0:0:0:
264,272,224115,1,0,0:0:0:0:
276,160,224248,2,0,L|206:175,1,72.5,10|8,0:0|0:0,0:0:0:0:
248,44,224512,2,0,L|319:59,1,72.5,2|0,1:2|0:0,0:0:0:0:
205,175,224778,5,12,0:0:0:0:
112,180,224910,1,2,0:0:0:0:
64,44,225044,1,10,1:2:0:0:
48,296,225176,2,0,L|119:283,1,72.5,12|0,0:0|0:0,0:0:0:0:
223,219,225442,1,8,0:0:0:0:
223,219,225508,1,8,0:0:0:0:
223,219,225575,2,0,P|275:226|309:267,1,108.75,10|0,1:2|0:0,0:0:0:0:
316,376,225840,6,0,L|326:304,1,72.5,12|8,0:0|0:0,0:0:0:0:
380,136,226106,1,8,0:0:0:0:
508,232,226238,2,0,P|455:241|406:217,1,108.75,10|0,1:2|0:0,0:0:0:0:
310,268,226503,2,0,P|363:277|412:253,1,108.75,10|0,1:2|0:0,0:0:0:0:
468,148,226769,6,0,L|457:76,1,72.5,12|0,0:0|0:0,0:0:0:0:
344,0,227034,1,10,0:0:0:0:
380,136,227167,1,0,1:0:0:0:
212,124,227300,2,0,P|243:107|279:103,1,72.5,12|0,0:0|0:0,0:0:0:0:
232,264,227565,5,10,0:0:0:0:
124,216,227698,1,2,1:2:0:0:
232,264,227831,1,2,1:2:0:0:
72,298,227964,6,0,P|30:240|38:170,1,145,12|0,0:0|1:0,0:0:0:0:
195,204,228362,1,2,0:0:0:0:
195,204,228428,1,10,0:0:0:0:
195,204,228495,2,0,L|123:216,1,72.5,10|10,0:0|0:0,0:0:0:0:
260,284,228759,1,10,1:2:0:0:
312,100,228893,5,12,1:2:0:0:
312,100,229556,5,2,1:2:0:0:
355,253,229689,1,2,1:2:0:0:
355,253,229954,6,0,P|438:245|515:241,1,145,12|8,1:2|0:0,0:0:0:0:
428,78,230353,2,0,P|415:123|407:159,1,72.5,2|0,1:2|0:0,0:0:0:0:
265,312,230618,2,0,P|256:274|246:232,1,72.5,10|8,0:0|0:0,0:0:0:0:
251,62,230884,1,0,1:0:0:0:
312,142,231016,6,0,P|247:159|171:120,1,145,10|8,0:0|0:0,0:0:0:0:
51,64,231415,2,0,P|101:58|128:57,1,72.5,2|0,1:2|0:0,0:0:0:0:
137,217,231680,2,0,P|102:220|60:224,1,72.5,10|8,0:0|0:0,0:0:0:0:
178,128,231946,1,0,1:0:0:0:
202,293,232078,6,0,P|291:302|342:261,1,145,10|8,0:0|0:0,0:0:0:0:
344,104,232477,2,0,L|352:189,1,72.5,2|0,1:2|0:0,0:0:0:0:
434,246,232742,1,10,0:0:0:0:
256,215,232875,1,10,0:0:0:0:
434,246,233008,1,0,1:0:0:0:
493,100,233140,5,12,1:2:0:0:
493,100,233406,2,0,L|500:196,1,72.5,12|8,0:0|0:0,0:0:0:0:
411,35,233671,2,0,P|352:8|267:40,1,145,12|8,1:2|0:0,0:0:0:0:
232,171,234070,1,0,1:0:0:0:
50,94,234202,6,0,P|138:88|208:85,1,145,12|8,0:0|0:0,0:0:0:0:
345,107,234601,2,0,P|339:144|336:182,1,72.5,2|0,1:2|0:0,0:0:0:0:
144,264,234866,2,0,P|138:224|132:188,1,72.5,10|10,0:0|0:0,0:0:0:0:
346,272,235131,1,0,1:0:0:0:
251,314,235264,6,0,P|240:235|231:166,1,145,10|8,0:0|0:0,0:0:0:0:
231,170,235662,1,0,1:0:0:0:
345,271,235795,2,0,P|383:266|417:263,1,72.5,2|8,0:0|0:0,0:0:0:0:
143,264,236061,2,0,P|104:270|72:278,1,72.5,10|0,0:0|1:0,0:0:0:0:
231,170,236326,6,0,P|241:249|253:344,1,145,12|8,0:0|0:0,0:0:0:0:
315,108,236724,1,2,1:2:0:0:
315,108,236990,2,0,P|310:69|303:20,1,72.5,10|8,0:0|0:0,0:0:0:0:
330,215,237255,1,0,1:0:0:0:
92,173,237388,6,0,B|134:152|134:152|233:170,1,145,14|12,1:2|0:0,0:0:0:0:
414,156,237786,1,0,1:0:0:0:
338,222,237919,1,10,0:0:0:0:
338,222,237985,1,8,0:0:0:0:
338,222,238052,1,8,0:0:0:0:
315,108,238185,2,0,L|304:27,1,72.5,2|8,1:2|0:0,0:0:0:0:
489,95,238450,6,0,P|511:166|476:233,1,145,12|8,1:2|0:0,0:0:0:0:
397,371,238848,2,0,P|400:341|408:277,1,72.5,2|0,1:2|0:0,0:0:0:0:
318,152,239114,2,0,P|329:191|340:233,1,72.5,10|10,0:0|0:0,0:0:0:0:
222,374,239379,1,2,1:2:0:0:
132,335,239512,6,0,P|183:285|254:282,1,145,10|8,0:0|0:0,0:0:0:0:
149,178,239910,2,0,P|159:216|169:261,1,72.5,2|0,1:2|0:0,0:0:0:0:
31,377,240176,2,0,P|36:340|40:294,1,72.5,10|8,0:0|0:0,0:0:0:0:
25,212,240441,1,0,1:0:0:0:
222,374,240574,6,0,P|287:376|350:313,1,145,10|8,0:0|0:0,0:0:0:0:
478,253,240972,2,0,P|447:250|405:249,1,72.5,2|0,1:2|0:0,0:0:0:0:
254,282,241238,1,10,0:0:0:0:
437,343,241370,1,10,0:0:0:0:
254,282,241503,1,0,1:0:0:0:
378,158,241636,5,12,1:2:0:0:
378,158,241901,2,0,L|480:166,1,72.5,12|8,0:0|0:0,0:0:0:0:
249,25,242167,2,0,L|276:64,3,36.25,8|8|10|0,0:0|0:0|1:2|0:0,0:0:0:0:
284,77,242432,2,0,P|279:118|277:158,1,72.5,10|2,1:2|1:2,0:0:0:0:
254,282,242698,6,0,P|184:293|110:248,1,145,12|8,0:0|0:0,0:0:0:0:
75,94,243096,2,0,P|76:130|79:166,1,72.5,2|0,1:2|0:0,0:0:0:0:
35,384,243362,2,0,P|33:348|31:312,1,72.5,10|10,0:0|0:0,0:0:0:0:
198,196,243627,1,0,1:0:0:0:
254,282,243760,6,0,P|179:294|112:250,1,145,12|8,0:0|0:0,0:0:0:0:
121,261,244158,1,0,1:0:0:0:
343,203,244291,2,0,P|348:235|353:281,1,72.5,2|8,0:0|0:0,0:0:0:0:
198,196,244556,2,0,P|194:159|190:123,1,72.5,10|0,0:0|1:0,0:0:0:0:
308,363,244822,6,0,P|383:364|442:312,1,145,12|8,0:0|0:0,0:0:0:0:
343,203,245220,2,0,P|348:242|355:289,1,72.5,2|0,1:2|0:0,0:0:0:0:
511,269,245485,1,10,0:0:0:0:
420,135,245618,1,10,0:0:0:0:
435,322,245751,1,0,1:0:0:0:
503,176,245884,5,12,0:0:0:0:
352,274,246149,1,12,0:0:0:0:
256,122,246415,1,12,0:0:0:0:
256,122,247078,5,6,0:0:0:0:
256,192,247167,12,14,249202,1:2:0:0:
