osu file format v14

[General]
AudioFilename: audio.mp3
AudioLeadIn: 0
PreviewTime: 61637
Countdown: 0
SampleSet: Soft
StackLeniency: 0.6
Mode: 0
LetterboxInBreaks: 0
WidescreenStoryboard: 0

[Editor]
DistanceSpacing: 1
BeatDivisor: 2
GridSize: 8
TimelineZoom: 0.9

[Metadata]
Title:Shoujo to Ougonryuu no Monogatari
TitleUnicode:少女と黄金竜の物語
Artist:Hatsuki Yura
ArtistUnicode:葉月ゆら
Creator:Garden
Version:Advanced
Source:
Tags:清風明月 Seifuumeigetsu Drop 竜と炎の物語 ~Dragon and Flame Story~ ryuu to honoo no monogatari Hey lululu schoolboy Komore Misure Len Fast
BeatmapID:1520376
BeatmapSetID:719158

[Difficulty]
HPDrainRate:4.4
CircleSize:3.3
OverallDifficulty:4.4
ApproachRate:6.6
SliderMultiplier:0.999999999999999
SliderTickRate:1

[Events]
//Background and Video events
0,0,"61015605_p0.jpg",0,0
//Break Periods
2,59846,60809
2,81084,85101
2,138960,139924
2,160198,165410
2,196304,210941
//Storyboard Layer 0 (Background)
//Storyboard Layer 1 (Fail)
//Storyboard Layer 2 (Pass)
//Storyboard Layer 3 (Foreground)
//Storyboard Sound Samples

[TimingPoints]
177,265.486725663717,4,2,1,60,1,0
8539,-100,4,2,1,80,0,0
25663,-100,4,2,1,65,0,0
32566,-100,4,2,1,75,0,0
34159,-100,4,2,1,65,0,0
36681,-100,4,2,1,75,0,0
37212,-100,4,2,1,65,0,0
38141,-100,4,2,1,75,0,0
38407,-100,4,2,1,65,0,0
40530,-100,4,2,1,75,0,0
41460,-100,4,2,1,65,0,0
49292,-100,4,2,1,45,0,0
49424,-100,4,2,1,65,0,0
49955,-100,4,2,1,70,0,0
53274,-100,4,2,1,75,0,0
54203,-100,4,2,1,70,0,0
57522,-100,4,2,1,75,0,0
59646,-100,4,2,2,55,0,0
61769,-100,4,2,1,80,0,1
77566,-100,4,2,1,80,0,0
78761,-100,4,2,1,80,0,1
78794,-100,4,2,1,80,0,0
87256,-100,4,2,1,80,0,1
87289,-100,4,2,1,80,0,0
95752,-100,4,2,1,65,0,0
104778,265.486725663717,4,2,1,70,1,0
111946,-100,4,2,1,75,0,0
113273,-100,4,2,1,70,0,0
115795,-100,4,2,1,75,0,0
116326,-100,4,2,1,70,0,0
119645,-100,4,2,1,75,0,0
121769,-100,4,2,1,65,0,0
128406,-100,4,2,1,45,0,0
128539,-100,4,2,1,65,0,0
130264,-100,4,2,1,70,0,0
132388,-100,4,2,1,75,0,0
133317,-100,4,2,1,70,0,0
136636,-100,4,2,1,75,0,0
138760,-100,4,2,2,55,0,0
140884,-100,4,2,1,80,0,1
156680,-100,4,2,1,80,0,0
157875,-200,4,2,1,50,0,0
166370,-100,4,2,2,55,0,0
182831,-100,4,2,1,60,0,0
183362,-100,4,2,1,75,0,0
194910,-133.333333333333,4,2,1,75,0,0
196105,-100,4,2,1,95,0,0
196171,-100,4,2,1,50,0,0
211901,-100,4,2,2,80,0,0
212034,-100,4,2,1,80,0,0
213096,-100,4,2,1,80,0,1
228893,-100,4,2,1,80,0,0
229954,-100,4,2,1,80,0,1
229988,-100,4,2,1,80,0,0
247609,-100,4,2,1,70,0,0
248140,-100,4,2,1,60,0,0
248671,-100,4,2,1,50,0,0
249202,-100,4,2,1,80,0,0

[Colours]
Combo1 : 255,66,66
Combo2 : 255,30,255
Combo3 : 255,119,53
Combo4 : 255,128,192

[HitObjects]
104,170,8539,6,0,L|116:321,1,150,12|2,1:2|1:2,0:0:0:0:
205,363,9203,2,0,P|256:340|301:344,1,99.9999999999999,10|0,0:0|1:0,0:0:0:0:
342,368,9601,2,0,P|413:377|476:326,1,150,10|2,0:0|1:2,0:0:0:0:
512,239,10265,1,10,0:0:0:0:
449,169,10530,1,0,1:0:0:0:
449,169,10663,6,0,L|455:7,1,150,10|2,0:0|1:2,0:0:0:0:
354,24,11327,2,0,L|350:138,1,99.9999999999999,10|0,0:0|1:0,0:0:0:0:
356,173,11725,2,0,P|311:153|246:158,1,99.9999999999999,12|12,1:2|0:0,0:0:0:0:
231,194,12123,1,8,0:0:0:0:
231,194,12256,2,0,L|126:192,1,99.9999999999999,12|8,1:2|0:0,0:0:0:0:
69,271,12787,6,0,P|28:211|60:119,1,150,12|2,0:0|1:2,0:0:0:0:
87,49,13451,2,0,L|151:52,1,50,10|10,0:0|0:0,0:0:0:0:
185,79,13716,1,0,1:0:0:0:
185,79,13849,2,0,L|341:70,1,150,10|0,0:0|1:0,0:0:0:0:
384,67,14380,1,2,0:0:0:0:
363,164,14646,1,10,0:0:0:0:
456,197,14911,6,0,P|484:260|452:340,1,150,12|2,0:0|1:2,0:0:0:0:
359,344,15575,2,0,L|295:344,1,50,10|8,0:0|0:0,0:0:0:0:
272,318,15840,1,0,1:0:0:0:
272,318,15973,2,0,L|149:314,1,99.9999999999999,14|12,1:2|0:0,0:0:0:0:
127,329,16371,1,0,1:0:0:0:
127,329,16504,2,0,B|139:281|139:281|123:221,1,99.9999999999999,10|2,0:0|1:2,0:0:0:0:
39,182,17035,6,0,L|46:29,1,150,12|2,1:2|1:2,0:0:0:0:
145,27,17699,2,0,L|142:139,1,99.9999999999999,10|2,0:0|1:2,0:0:0:0:
175,164,18097,2,0,P|236:138|322:156,1,150,10|2,0:0|1:2,0:0:0:0:
398,209,18761,1,10,0:0:0:0:
491,173,19026,1,0,1:0:0:0:
491,173,19159,6,0,L|495:3,1,150,10|2,0:0|1:2,0:0:0:0:
402,63,19823,1,10,0:0:0:0:
313,30,20088,1,0,1:0:0:0:
313,30,20221,2,0,P|254:20|206:43,1,99.9999999999999,12|12,1:2|0:0,0:0:0:0:
180,66,20619,1,8,0:0:0:0:
180,66,20752,2,0,L|184:171,1,99.9999999999999,8|10,0:0|1:2,0:0:0:0:
280,193,21283,6,0,P|316:256|296:334,1,150,12|2,0:0|1:2,0:0:0:0:
207,365,21946,2,0,L|108:360,1,99.9999999999999,10|0,0:0|1:0,0:0:0:0:
58,374,22345,2,0,B|67:275|67:275|43:208,1,150,12|0,0:0|1:0,0:0:0:0:
29,181,22876,1,2,0:0:0:0:
87,100,23141,1,10,0:0:0:0:
166,160,23407,6,0,L|268:149,1,99.9999999999999,12|8,0:0|0:0,0:0:0:0:
299,112,23805,2,0,L|359:107,1,50,2|0,1:2|0:0,0:0:0:0:
391,134,24070,2,0,B|418:180|418:180|411:234,1,99.9999999999999,10|0,0:0|1:0,0:0:0:0:
402,275,24469,5,12,0:0:0:0:
316,325,24734,1,12,0:0:0:0:
236,263,25000,1,12,0:0:0:0:
236,263,25663,6,0,L|119:256,1,99.9999999999999,4|0,0:1|1:0,0:0:0:0:
39,283,26194,2,0,P|31:308|33:343,1,50,10|8,0:0|0:0,0:0:0:0:
79,359,26460,1,0,1:0:0:0:
79,359,26592,2,0,L|240:370,1,150,10|2,0:0|1:2,0:0:0:0:
316,325,27256,1,8,0:0:0:0:
236,263,27522,1,2,1:2:0:0:
326,219,27787,6,0,P|344:167|334:112,1,99.9999999999999,8|0,0:0|1:0,0:0:0:0:
305,85,28185,1,2,0:0:0:0:
234,155,28451,1,10,0:0:0:0:
163,83,28716,2,0,L|3:80,1,150,10|2,0:0|1:3,0:0:0:0:
46,174,29380,2,0,L|110:175,2,50,8|8|0,0:0|0:0|1:0,0:0:0:0:
1,264,29911,5,8,0:0:0:0:
56,347,30177,2,0,L|170:348,1,99.9999999999999,2|10,1:2|0:0,0:0:0:0:
228,279,30707,1,0,1:0:0:0:
228,279,30840,2,0,P|303:256|370:280,1,150,10|2,0:0|1:2,0:0:0:0:
441,346,31504,1,8,0:0:0:0:
498,264,31769,1,2,1:2:0:0:
425,195,32035,6,0,P|412:145|422:85,1,99.9999999999999,10|0,0:0|1:0,0:0:0:0:
447,59,32433,1,2,0:0:0:0:
447,59,32566,2,0,L|324:50,1,99.9999999999999,10|2,0:0|1:2,0:0:0:0:
309,84,32964,2,0,B|208:77|208:77|163:47,1,150,12|10,0:0|0:0,0:0:0:0:
124,25,33495,1,4,1:2:0:0:
40,80,33761,2,0,L|35:143,1,50,10|2,0:0|1:2,0:0:0:0:
99,207,34159,6,0,P|147:185|217:195,1,99.9999999999999,4|0,0:1|1:0,0:0:0:0:
279,236,34690,2,0,L|283:302,1,50,10|8,0:0|0:0,0:0:0:0:
251,326,34955,1,0,1:0:0:0:
251,326,35088,2,0,P|178:367|96:352,1,150,10|2,0:0|1:2,0:0:0:0:
44,289,35752,1,8,0:0:0:0:
99,207,36017,1,2,1:2:0:0:
22,142,36283,6,0,L|29:34,1,99.9999999999999,10|0,0:0|1:0,0:0:0:0:
63,6,36681,1,10,0:0:0:0:
138,71,36946,1,2,0:0:0:0:
232,37,37212,2,0,L|382:29,1,150,12|2,0:0|1:2,0:0:0:0:
455,97,37876,2,0,P|461:123|455:157,2,50,8|8|2,0:0|0:0|1:2,0:0:0:0:
359,126,38407,6,0,L|239:133,1,99.9999999999999,12|0,0:0|1:0,0:0:0:0:
210,138,38805,1,2,0:0:0:0:
138,71,39070,1,10,0:0:0:0:
74,148,39336,2,0,P|51:217|76:287,1,150,12|2,0:0|1:2,0:0:0:0:
164,335,40000,1,10,0:0:0:0:
240,271,40265,1,2,1:2:0:0:
329,314,40530,6,0,B|430:316|430:316|470:269,2,150,4|4|2,1:2|1:2|1:2,0:0:0:0:
288,344,41460,2,0,L|292:181,1,150,12|2,0:0|1:2,0:0:0:0:
331,102,42123,1,10,0:0:0:0:
428,125,42389,1,2,1:2:0:0:
393,218,42654,6,0,L|390:334,1,99.9999999999999,4|2,0:1|0:0,0:0:0:0:
344,339,43053,1,8,0:0:0:0:
297,356,43185,2,0,P|217:347|146:376,2,150,2|10|8,1:2|0:0|0:0,0:0:0:0:
390,317,44247,1,0,1:0:0:0:
305,263,44513,1,2,0:0:0:0:
393,218,44778,6,0,P|413:169|406:119,1,99.9999999999999,10|0,0:0|0:0,0:0:0:0:
390,76,45177,1,10,0:0:0:0:
298,36,45442,1,2,0:0:0:0:
231,110,45707,2,0,P|166:120|98:68,1,150,10|8,0:0|0:0,0:0:0:0:
5,105,46371,2,0,L|3:180,2,50,0|8|8,1:0|0:0|0:0,0:0:0:0:
101,73,46902,6,0,L|99:188,1,99.9999999999999,10|2,0:0|0:0,0:0:0:0:
137,205,47300,1,8,0:0:0:0:
178,234,47433,2,0,P|243:234|309:178,2,150,2|10|10,1:2|0:0|0:0,0:0:0:0:
99,172,48495,1,0,1:0:0:0:
28,243,48761,1,2,0:0:0:0:
63,336,49026,6,0,P|114:345|164:323,1,99.9999999999999,10|4,0:0|0:0,0:0:0:0:
180,283,49424,2,0,L|176:216,1,50,8|0,0:0|1:0,0:0:0:0:
273,196,49823,1,10,0:0:0:0:
273,196,49955,2,0,B|277:297|277:297|314:332,1,150,12|0,0:0|1:0,0:0:0:0:
371,249,50619,1,10,1:2:0:0:
452,306,50884,1,10,1:2:0:0:
508,223,51150,6,0,P|520:173|500:107,1,99.9999999999999,12|0,0:0|1:0,0:0:0:0:
481,86,51548,1,2,0:0:0:0:
425,170,51814,1,10,0:0:0:0:
336,123,52079,2,0,L|164:117,1,150,10|0,0:0|1:0,0:0:0:0:
112,49,52743,1,10,0:0:0:0:
33,111,53008,1,2,1:2:0:0:
106,179,53274,6,0,P|120:222|106:278,1,99.9999999999999,12|0,0:0|1:0,0:0:0:0:
77,313,53672,1,10,0:0:0:0:
157,372,53938,1,10,0:0:0:0:
236,311,54203,2,0,P|295:285|385:304,1,150,12|0,0:0|1:0,0:0:0:0:
460,244,54867,1,10,0:0:0:0:
381,182,55132,2,0,L|380:129,1,50,0|2,1:0|0:0,0:0:0:0:
378,81,55398,5,12,0:0:0:0:
280,60,55663,2,0,L|281:200,1,99.9999999999999,0|8,1:0|0:0,0:0:0:0:
257,204,56061,2,0,L|258:260,1,50,10|0,0:0|1:0,0:0:0:0:
289,293,56327,2,0,P|222:263|137:291,1,150,10|2,0:0|1:2,0:0:0:0:
74,346,56991,2,0,P|53:310|55:250,1,99.9999999999999,10|2,0:0|1:2,0:0:0:0:
88,158,57522,5,12,0:0:0:0:
169,99,57787,2,0,L|272:107,1,99.9999999999999,4|10,1:2|0:0,0:0:0:0:
309,77,58185,2,0,L|375:83,1,50,10|0,0:0|1:0,0:0:0:0:
407,67,58451,2,0,B|377:162|377:162|385:217,1,150,4|10,1:2|0:0,0:0:0:0:
462,277,59115,2,0,L|515:280,2,50,10|10|10,0:0|0:0|0:0,0:0:0:0:
367,311,59646,5,2,1:2:0:0:
367,311,61769,6,0,L|259:305,1,99.9999999999999,12|0,1:2|1:0,0:0:0:0:
217,299,62168,1,2,0:0:0:0:
137,359,62433,1,10,0:0:0:0:
46,318,62699,2,0,P|17:251|55:172,1,150,2|2,0:0|1:2,0:0:0:0:
113,111,63362,2,0,L|107:52,2,50,10|10|0,0:0|0:0|1:0,0:0:0:0:
190,174,63893,5,10,0:0:0:0:
265,108,64159,1,2,1:2:0:0:
347,164,64424,2,0,L|358:271,1,99.9999999999999,10|2,0:0|1:2,0:0:0:0:
457,272,64955,2,0,L|444:158,1,99.9999999999999,12|10,0:0|1:2,0:0:0:0:
482,138,65353,2,0,P|496:94|481:37,1,99.9999999999999,12|8,0:0|0:0,0:0:0:0:
441,16,65752,1,10,1:2:0:0:
349,56,66017,6,0,L|245:50,1,99.9999999999999,12|0,0:0|1:0,0:0:0:0:
199,49,66415,1,2,0:0:0:0:
122,113,66681,1,10,0:0:0:0:
199,175,66946,2,0,P|234:243|202:324,1,150,10|0,0:0|1:0,0:0:0:0:
138,375,67610,2,0,L|80:378,2,50,10|10|0,0:0|0:0|1:0,0:0:0:0:
215,310,68141,5,12,0:0:0:0:
133,251,68407,1,2,1:2:0:0:
199,175,68672,1,10,0:0:0:0:
119,114,68938,1,2,1:2:0:0:
188,42,69203,2,0,B|237:32|237:32|288:47,1,99.9999999999999,4|8,1:2|0:0,0:0:0:0:
319,82,69601,2,0,B|370:93|370:93|433:75,1,99.9999999999999,4|8,1:2|0:0,0:0:0:0:
464,64,70000,1,0,1:0:0:0:
506,154,70265,6,0,L|406:186,1,99.9999999999999,12|0,1:2|1:0,0:0:0:0:
362,199,70663,1,2,0:0:0:0:
421,279,70929,1,10,0:0:0:0:
345,343,71194,2,0,P|264:358|198:306,1,150,2|2,0:0|1:2,0:0:0:0:
155,239,71858,2,0,L|97:245,2,50,10|10|0,0:0|0:0|1:0,0:0:0:0:
228,170,72389,5,10,0:0:0:0:
282,253,72654,1,2,1:2:0:0:
209,323,72920,2,0,L|83:335,1,99.9999999999999,10|2,0:0|1:2,0:0:0:0:
24,384,73451,2,0,P|8:346|23:283,1,99.9999999999999,12|10,0:0|1:2,0:0:0:0:
52,253,73849,2,0,L|40:149,1,99.9999999999999,12|8,0:0|0:0,0:0:0:0:
34,103,74247,1,10,1:2:0:0:
78,13,74513,6,0,P|101:26|124:57,1,50,12|8,0:0|0:0,0:0:0:0:
141,93,74778,1,8,0:0:0:0:
141,93,74911,2,0,L|251:84,1,99.9999999999999,10|10,1:2|1:2,0:0:0:0:
254,184,75442,2,0,L|143:192,1,99.9999999999999,12|10,0:0|0:0,0:0:0:0:
109,201,75840,1,0,1:0:0:0:
109,201,75973,2,0,P|75:276|96:341,1,150,12|2,0:0|1:2,0:0:0:0:
191,359,76637,6,0,L|305:353,1,99.9999999999999,12|0,0:0|1:0,0:0:0:0:
340,349,77035,1,2,0:0:0:0:
338,249,77300,1,10,0:0:0:0:
256,192,77566,1,12,0:0:0:0:
256,192,78761,5,12,1:2:0:0:
256,192,78893,12,10,80884,0:0:0:0:
397,186,86061,6,0,B|428:281|428:281|407:340,1,150,12|10,0:0|0:0,0:0:0:0:
320,370,86725,1,10,0:0:0:0:
246,301,86991,1,2,1:2:0:0:
161,354,87256,6,0,L|59:351,1,99.9999999999999,12|2,1:2|1:2,0:0:0:0:
59,250,87787,2,0,L|162:254,1,99.9999999999999,10|2,0:0|1:2,0:0:0:0:
246,301,88318,1,2,0:0:0:0:
336,257,88584,1,0,1:0:0:0:
419,312,88849,2,0,L|417:371,2,50,10|8|0,0:0|0:0|1:0,0:0:0:0:
336,257,89380,6,0,P|319:208|330:151,1,99.9999999999999,10|2,0:0|1:2,0:0:0:0:
425,149,89911,2,0,P|437:101|426:53,1,99.9999999999999,10|2,0:0|1:2,0:0:0:0:
340,1,90442,1,2,0:0:0:0:
270,72,90707,1,0,1:0:0:0:
181,25,90973,2,0,L|125:23,2,50,10|8|0,0:0|0:0|1:0,0:0:0:0:
185,125,91504,6,0,L|81:123,1,99.9999999999999,12|2,0:0|1:2,0:0:0:0:
83,223,92035,2,0,L|184:225,1,99.9999999999999,10|2,0:0|1:2,0:0:0:0:
271,177,92566,1,2,0:0:0:0:
185,125,92831,1,0,1:0:0:0:
270,72,93097,2,0,L|270:12,2,50,10|8|0,0:0|0:0|1:0,0:0:0:0:
355,123,93628,5,12,0:0:0:0:
271,177,93893,1,12,0:3:0:0:
358,225,94159,2,0,P|378:275|373:321,1,99.9999999999999,4|0,0:3|1:0,0:0:0:0:
340,357,94557,2,0,L|240:349,1,99.9999999999999,12|0,0:0|1:0,0:0:0:0:
196,368,94955,1,0,1:0:0:0:
196,368,95088,2,0,L|78:355,1,99.9999999999999,12|8,0:0|0:0,0:0:0:0:
52,334,95486,2,0,L|45:277,1,50,8|10,0:0|0:0,0:0:0:0:
17,242,95752,6,0,P|101:240|154:191,1,150,12|8,0:0|0:0,0:0:0:0:
169,153,96283,2,0,P|145:143|117:131,1,50,0|2,1:0|0:0,0:0:0:0:
140,34,96681,2,0,P|198:62|289:106,1,150,10|8,0:0|0:0,0:0:0:0:
367,61,97345,2,0,P|397:54|428:51,2,50,0|10|0,1:0|0:0|0:0,0:0:0:0:
275,99,97876,6,0,P|248:181|280:247,1,150,8|8,0:0|0:0,0:0:0:0:
311,265,98407,2,0,P|342:259|380:254,1,50,0|2,1:0|0:0,0:0:0:0:
422,335,98805,2,0,P|341:348|253:364,1,150,10|8,0:0|0:0,0:0:0:0:
178,329,99469,2,0,L|181:279,1,50,0|8,1:0|0:0,0:0:0:0:
141,248,99734,2,0,L|146:188,1,50,8|8,0:0|0:0,0:0:0:0:
176,158,100000,6,0,P|111:158|46:93,1,150,12|8,0:0|0:0,0:0:0:0:
46,54,100530,2,0,L|50:4,1,50,0|10,1:0|0:0,0:0:0:0:
147,32,100929,2,0,P|231:38|317:42,1,150,10|8,0:0|0:0,0:0:0:0:
371,107,101592,2,0,L|368:163,2,50,0|10|0,1:0|0:0|0:0,0:0:0:0:
469,88,102123,6,0,L|459:246,1,150,8|8,0:0|0:0,0:0:0:0:
422,271,102654,2,0,P|423:307|427:324,1,50,0|10,1:0|0:0,0:0:0:0:
334,360,103053,2,0,P|281:366|239:348,1,99.9999999999999,12|2,0:0|0:0,0:0:0:0:
207,316,103451,1,8,0:0:0:0:
207,316,103584,2,0,L|200:193,1,99.9999999999999,2|8,0:0|0:0,0:0:0:0:
230,175,103982,2,0,L|226:113,1,50,10|10,0:0|0:0,0:0:0:0:
81,164,104513,1,10,0:0:0:0:
81,164,104778,6,0,L|94:58,1,99.9999999999999,4|0,0:1|1:0,0:0:0:0:
179,14,105308,2,0,L|244:19,1,50,10|8,0:0|0:0,0:0:0:0:
281,37,105574,1,0,1:0:0:0:
281,37,105707,2,0,P|239:104|257:181,1,150,10|2,0:0|1:2,0:0:0:0:
315,246,106370,1,8,0:0:0:0:
381,171,106636,1,2,1:2:0:0:
472,218,106901,6,0,P|498:261|480:342,1,99.9999999999999,8|0,0:0|1:0,0:0:0:0:
475,355,107300,1,2,0:0:0:0:
401,287,107565,1,10,0:0:0:0:
317,341,107831,2,0,L|157:347,1,150,10|2,0:0|1:3,0:0:0:0:
71,318,108494,2,0,P|64:350|68:378,2,50,8|8|0,0:0|0:0|1:0,0:0:0:0:
144,250,109025,5,8,0:0:0:0:
99,160,109291,2,0,L|0:153,1,99.9999999999999,2|10,1:2|0:0,0:0:0:0:
10,56,109822,1,0,1:0:0:0:
10,56,109954,2,0,L|165:66,1,150,10|2,0:0|1:2,0:0:0:0:
245,13,110618,1,8,0:0:0:0:
321,77,110884,1,2,1:2:0:0:
238,133,111149,6,0,P|226:187|241:231,1,99.9999999999999,10|0,0:0|1:0,0:0:0:0:
290,249,111547,1,2,0:0:0:0:
290,249,111680,2,0,P|304:293|293:349,1,99.9999999999999,10|2,0:0|1:2,0:0:0:0:
255,376,112078,2,0,B|219:351|219:351|105:365,1,150,12|10,0:0|0:0,0:0:0:0:
64,370,112609,1,4,1:2:0:0:
30,275,112875,2,0,L|102:264,1,50,10|2,0:0|1:2,0:0:0:0:
124,178,113273,6,0,L|247:160,1,99.9999999999999,4|0,0:1|1:0,0:0:0:0:
318,192,113804,2,0,L|327:267,1,50,10|8,0:0|0:0,0:0:0:0:
360,284,114070,1,0,1:0:0:0:
360,284,114202,2,0,P|438:284|493:222,1,150,10|2,0:0|1:2,0:0:0:0:
506,138,114866,1,8,0:0:0:0:
440,62,115131,1,2,1:2:0:0:
341,80,115397,6,0,P|294:84|236:57,1,99.9999999999999,10|0,0:0|1:0,0:0:0:0:
208,30,115795,1,10,0:0:0:0:
131,94,116061,1,2,0:0:0:0:
206,158,116326,2,0,L|205:308,1,150,12|2,0:0|1:2,0:0:0:0:
283,369,116990,2,0,L|355:371,2,50,8|8|2,0:0|0:0|1:2,0:0:0:0:
205,307,117521,6,0,L|86:304,1,99.9999999999999,12|0,0:0|1:0,0:0:0:0:
59,325,117919,1,2,0:0:0:0:
3,241,118185,1,10,0:0:0:0:
64,162,118450,2,0,L|226:167,1,150,12|2,0:0|1:2,0:0:0:0:
291,230,119114,1,10,0:0:0:0:
370,170,119379,1,2,1:2:0:0:
442,239,119645,6,0,B|440:340|440:340|477:371,2,150,4|4|2,1:2|1:2|1:2,0:0:0:0:
477,203,120574,2,0,B|480:102|480:102|445:67,1,150,12|2,0:0|1:2,0:0:0:0:
362,10,121238,1,10,0:0:0:0:
289,79,121503,1,2,1:2:0:0:
370,140,121769,6,0,L|367:256,1,99.9999999999999,4|2,0:1|0:0,0:0:0:0:
331,274,122167,1,8,0:0:0:0:
298,312,122300,2,0,P|368:286|442:312,2,150,2|10|8,1:2|0:0|0:0,0:0:0:0:
211,260,123362,1,0,1:0:0:0:
133,322,123627,1,2,0:0:0:0:
53,260,123893,6,0,P|30:217|42:147,1,99.9999999999999,10|0,0:0|0:0,0:0:0:0:
58,124,124291,1,10,0:0:0:0:
130,193,124556,1,2,0:0:0:0:
205,127,124822,2,0,P|286:98|366:130,1,150,10|8,0:0|0:0,0:0:0:0:
404,194,125485,2,0,L|403:272,2,50,0|8|8,1:0|0:0|0:0,0:0:0:0:
499,163,126016,6,0,L|500:63,1,99.9999999999999,10|2,0:0|0:0,0:0:0:0:
456,38,126415,1,8,0:0:0:0:
412,15,126547,2,0,P|340:44|260:10,2,150,2|10|10,1:2|0:0|0:0,0:0:0:0:
500,63,127609,1,0,1:0:0:0:
413,113,127875,1,2,0:0:0:0:
499,163,128140,6,0,L|497:273,1,99.9999999999999,10|4,0:0|0:0,0:0:0:0:
459,296,128539,2,0,L|457:360,1,50,8|0,0:0|1:0,0:0:0:0:
360,356,128937,1,10,0:0:0:0:
360,356,129070,2,0,B|266:325|266:325|209:344,1,150,12|0,0:0|1:0,0:0:0:0:
123,375,129733,1,10,1:2:0:0:
46,310,129999,1,10,1:2:0:0:
89,220,130264,6,0,P|95:170|74:116,1,99.9999999999999,12|0,0:0|1:0,0:0:0:0:
45,88,130662,1,2,0:0:0:0:
104,7,130928,1,10,0:0:0:0:
178,73,131193,2,0,L|331:59,1,150,10|0,0:0|1:0,0:0:0:0:
363,152,131857,1,10,0:0:0:0:
263,165,132123,1,2,1:2:0:0:
164,177,132388,6,0,L|175:277,1,99.9999999999999,12|0,0:0|1:0,0:0:0:0:
183,325,132786,1,10,0:0:0:0:
280,302,133052,1,10,0:0:0:0:
361,360,133317,2,0,P|445:352|489:301,1,150,12|0,0:0|1:0,0:0:0:0:
480,206,133981,1,10,0:0:0:0:
383,178,134247,2,0,L|385:129,1,50,0|2,1:0|0:0,0:0:0:0:
386,78,134512,5,12,0:0:0:0:
299,27,134778,2,0,P|250:15|193:34,1,99.9999999999999,0|8,1:0|0:0,0:0:0:0:
173,68,135176,2,0,L|171:134,1,50,10|0,0:0|1:0,0:0:0:0:
215,142,135441,2,0,P|230:216|189:287,1,150,10|2,0:0|1:2,0:0:0:0:
134,201,136105,2,0,P|89:197|35:221,1,99.9999999999999,10|2,0:0|1:2,0:0:0:0:
12,314,136636,5,12,0:0:0:0:
94,369,136901,2,0,L|206:362,1,99.9999999999999,4|10,1:2|0:0,0:0:0:0:
234,332,137300,2,0,L|303:327,1,50,10|0,0:0|1:0,0:0:0:0:
329,349,137565,2,0,B|313:298|313:298|340:204,1,150,4|10,1:2|0:0,0:0:0:0:
439,213,138229,2,0,L|420:281,2,50,10|10|10,0:0|0:0|0:0,0:0:0:0:
394,123,138760,5,2,1:2:0:0:
394,123,140884,6,0,L|388:234,1,99.9999999999999,12|0,1:2|1:0,0:0:0:0:
383,272,141282,1,2,0:0:0:0:
298,325,141547,1,10,0:0:0:0:
208,279,141813,2,0,P|145:252|49:272,1,150,2|2,0:0|1:2,0:0:0:0:
5,182,142477,2,0,L|-1:123,2,50,10|10|0,0:0|0:0|1:0,0:0:0:0:
66,262,143008,5,10,0:0:0:0:
146,202,143273,1,2,1:2:0:0:
208,279,143539,2,0,L|323:266,1,99.9999999999999,10|2,0:0|1:2,0:0:0:0:
393,318,144070,2,0,P|406:268|380:204,1,99.9999999999999,12|10,0:0|1:2,0:0:0:0:
361,183,144468,2,0,L|465:172,1,99.9999999999999,12|8,0:0|0:0,0:0:0:0:
498,139,144866,1,10,1:2:0:0:
448,52,145131,6,0,L|345:62,1,99.9999999999999,12|0,0:0|1:0,0:0:0:0:
308,92,145530,1,2,0:0:0:0:
223,38,145795,1,10,0:0:0:0:
146,102,146061,2,0,P|112:179|144:252,1,150,10|0,0:0|1:0,0:0:0:0:
200,310,146724,2,0,L|251:315,2,50,10|10|0,0:0|0:0|1:0,0:0:0:0:
131,238,147255,5,12,0:0:0:0:
211,178,147521,1,2,1:2:0:0:
146,102,147786,1,10,0:0:0:0:
65,162,148052,1,2,1:2:0:0:
131,238,148317,2,0,B|121:341,1,99.9999999999999,4|8,1:2|0:0,0:0:0:0:
167,358,148716,2,0,B|208:340|208:340|280:346,1,99.9999999999999,4|8,1:2|0:0,0:0:0:0:
312,349,149114,1,0,1:0:0:0:
411,355,149379,6,0,L|420:253,1,99.9999999999999,12|0,1:2|1:0,0:0:0:0:
425,205,149778,1,2,0:0:0:0:
492,131,150043,1,10,0:0:0:0:
438,46,150308,2,0,P|361:47|304:101,1,150,2|2,0:0|1:2,0:0:0:0:
284,189,150972,2,0,P|309:191|334:189,2,50,10|10|0,0:0|0:0|1:0,0:0:0:0:
211,120,151503,5,10,0:0:0:0:
308,92,151769,1,2,1:2:0:0:
236,21,152034,2,0,P|185:20|123:59,1,99.9999999999999,10|2,0:0|1:2,0:0:0:0:
76,117,152565,2,0,L|89:227,1,99.9999999999999,12|10,0:0|1:2,0:0:0:0:
49,248,152963,2,0,L|60:350,1,99.9999999999999,12|8,0:0|0:0,0:0:0:0:
108,361,153362,1,10,1:2:0:0:
195,312,153627,6,0,P|222:304|264:307,1,50,12|8,0:0|0:0,0:0:0:0:
296,323,153893,1,8,0:0:0:0:
296,323,154025,2,0,P|354:326|402:295,1,99.9999999999999,10|10,1:2|1:2,0:0:0:0:
450,226,154556,2,0,L|441:116,1,99.9999999999999,12|10,0:0|0:0,0:0:0:0:
475,89,154954,1,0,1:0:0:0:
475,89,155087,2,0,P|407:98|328:41,1,150,12|2,0:0|1:2,0:0:0:0:
246,20,155751,6,0,P|239:67|234:124,1,99.9999999999999,12|0,0:0|1:0,0:0:0:0:
234,169,156149,1,2,0:0:0:0:
314,228,156415,1,10,0:0:0:0:
266,315,156680,1,12,0:0:0:0:
266,315,157875,6,0,P|186:290|87:357,2,200,6|2|2,0:0|0:0|0:0,0:0:0:0:
266,315,166370,6,0,L|375:304,1,99.9999999999999,4|0,1:0|0:0,0:0:0:0:
412,335,166769,1,8,0:0:0:0:
412,335,166901,2,0,L|540:325,1,99.9999999999999,2|8,1:2|0:0,0:0:0:0:
476,233,167432,2,0,L|462:33,1,200,10|2,0:0|0:0,0:0:0:0:
366,2,168229,1,0,1:0:0:0:
278,50,168494,6,0,L|284:155,1,99.9999999999999,10|0,0:0|0:0,0:0:0:0:
334,172,168893,1,8,0:0:0:0:
334,172,169025,2,0,L|340:290,1,99.9999999999999,2|0,1:2|0:0,0:0:0:0:
268,342,169556,2,0,P|367:368|435:296,1,200,10|10,0:0|0:0,0:0:0:0:
511,246,170353,2,0,L|508:193,1,50,2|0,1:2|0:0,0:0:0:0:
474,159,170618,6,0,L|358:163,1,99.9999999999999,10|0,0:0|0:0,0:0:0:0:
331,136,171016,2,0,L|328:86,1,50,8|2,0:0|1:2,0:0:0:0:
265,7,171415,1,8,0:0:0:0:
209,91,171680,2,0,L|213:201,1,99.9999999999999,10|8,0:0|0:0,0:0:0:0:
283,262,172211,2,0,L|285:331,2,50,2|8|0,0:0|0:0|1:0,0:0:0:0:
351,188,172742,6,0,L|458:185,1,99.9999999999999,10|0,0:0|0:0,0:0:0:0:
501,209,173140,1,8,0:0:0:0:
501,209,173273,2,0,L|505:316,1,99.9999999999999,2|0,1:2|0:0,0:0:0:0:
421,364,173804,2,0,L|212:370,1,200,10|10,0:0|0:0,0:0:0:0:
133,319,174601,1,2,1:2:0:0:
218,268,174866,6,0,L|214:157,1,99.9999999999999,4|0,1:0|0:0,0:0:0:0:
175,147,175264,1,8,0:0:0:0:
175,147,175397,2,0,L|171:36,1,99.9999999999999,2|8,1:2|0:0,0:0:0:0:
73,23,175928,2,0,L|81:231,1,200,10|2,0:0|0:0,0:0:0:0:
2,285,176724,1,0,1:0:0:0:
43,376,176990,6,0,L|154:366,1,99.9999999999999,10|0,0:0|0:0,0:0:0:0:
195,379,177388,1,8,0:0:0:0:
195,379,177521,2,0,L|186:273,1,99.9999999999999,2|0,1:2|0:0,0:0:0:0:
258,209,178052,2,0,P|166:181|92:242,1,200,10|10,0:0|0:0,0:0:0:0:
25,316,178848,2,0,P|10:297|0:275,1,50,2|0,1:2|0:0,0:0:0:0:
0,224,179114,6,0,L|6:116,1,99.9999999999999,10|0,0:0|0:0,0:0:0:0:
31,81,179512,2,0,L|93:86,1,50,8|2,0:0|1:2,0:0:0:0:
152,15,179910,1,0,0:0:0:0:
211,95,180176,2,0,L|205:202,1,99.9999999999999,10|8,0:0|0:0,0:0:0:0:
256,280,180707,2,0,L|323:283,2,50,2|8|0,0:0|0:0|1:0,0:0:0:0:
191,356,181238,6,0,L|64:347,1,99.9999999999999,10|0,0:0|0:0,0:0:0:0:
45,356,181636,1,8,0:0:0:0:
45,356,181769,2,0,L|55:250,1,99.9999999999999,2|8,1:2|0:0,0:0:0:0:
125,185,182300,2,0,L|188:191,2,50,10|0|0,0:0|0:0|1:0,0:0:0:0:
70,101,182831,2,0,L|3:96,2,50,8|8|0,0:0|1:2|1:0,0:0:0:0:
143,32,183362,6,0,L|253:43,1,99.9999999999999,4|0,1:0|1:0,0:0:0:0:
284,69,183760,2,0,P|342:75|388:51,1,99.9999999999999,4|0,1:0|1:0,0:0:0:0:
413,22,184158,2,0,P|399:95|452:177,1,150,4|0,1:0|1:0,0:0:0:0:
473,187,184689,1,2,1:2:0:0:
402,258,184954,2,0,L|326:253,2,50,2|2|2,1:2|1:2|1:2,0:0:0:0:
426,355,185485,6,0,L|326:350,1,99.9999999999999,4|0,1:0|1:0,0:0:0:0:
283,323,185884,2,0,P|228:313|178:334,1,99.9999999999999,4|0,1:0|1:0,0:0:0:0:
148,358,186282,2,0,P|156:280|111:219,1,150,4|0,1:0|1:0,0:0:0:0:
71,203,186813,1,2,1:2:0:0:
96,107,187078,1,2,1:2:0:0:
96,107,187211,2,0,L|202:101,1,99.9999999999999,4|8,1:0|0:0,0:0:0:0:
244,89,187609,6,0,P|223:136|231:191,1,99.9999999999999,4|0,1:0|1:0,0:0:0:0:
269,210,188008,2,0,L|275:325,1,99.9999999999999,4|0,1:0|1:0,0:0:0:0:
254,355,188406,2,0,P|335:322|414:345,1,150,4|0,1:0|1:0,0:0:0:0:
440,352,188937,1,2,1:2:0:0:
508,279,189202,2,0,L|512:215,2,50,2|2|2,1:2|1:2|1:2,0:0:0:0:
413,246,189733,6,0,L|418:144,1,99.9999999999999,4|0,1:2|1:0,0:0:0:0:
394,48,190264,2,0,L|332:44,1,50,10|8,0:0|0:0,0:0:0:0:
302,68,190530,1,0,1:0:0:0:
302,68,190662,2,0,P|240:108|163:95,1,150,10|2,0:0|1:2,0:0:0:0:
73,64,191326,2,0,L|75:14,2,50,8|8|2,0:0|0:0|1:2,0:0:0:0:
22,150,191857,5,12,1:2:0:0:
119,182,192123,2,0,L|115:289,1,99.9999999999999,12|8,1:2|0:0,0:0:0:0:
146,321,192521,2,0,L|215:323,1,50,8|2,0:0|1:2,0:0:0:0:
238,348,192786,2,0,P|304:351|348:318,1,99.9999999999999,4|0,1:2|1:0,0:0:0:0:
367,298,193185,1,2,1:2:0:0:
305,219,193450,2,0,L|308:163,1,50,2|2,1:2|1:2,0:0:0:0:
347,138,193716,2,0,L|350:80,1,50,2|2,1:2|1:2,0:0:0:0:
313,53,193981,5,4,1:2:0:0:
218,84,194247,2,0,L|114:77,1,99.9999999999999,4|0,1:2|1:0,0:0:0:0:
80,110,194645,1,4,1:2:0:0:
141,189,194910,6,0,P|100:315|36:199,1,337.500012874603,12|2,1:2|0:0,0:0:0:0:
223,142,211901,5,4,0:0:0:0:
223,142,213096,6,0,L|338:132,1,99.9999999999999,12|0,1:2|1:0,0:0:0:0:
370,147,213494,1,2,0:0:0:0:
435,71,213760,1,10,0:0:0:0:
499,147,214025,2,0,L|509:316,1,150,2|2,0:0|1:2,0:0:0:0:
421,346,214689,2,0,L|371:350,2,50,10|10|0,0:0|0:0|1:0,0:0:0:0:
507,296,215220,5,10,0:0:0:0:
418,249,215485,1,2,1:2:0:0:
502,196,215751,2,0,L|499:147,1,50,10|8,0:0|0:0,0:0:0:0:
494,97,216016,1,2,1:2:0:0:
430,19,216282,2,0,B|382:8|382:8|327:32,1,99.9999999999999,12|10,0:0|1:2,0:0:0:0:
292,53,216680,2,0,L|300:152,1,99.9999999999999,12|8,0:0|0:0,0:0:0:0:
345,173,217078,1,10,1:2:0:0:
303,264,217344,6,0,L|200:270,1,99.9999999999999,12|0,0:0|1:0,0:0:0:0:
157,250,217742,1,2,0:0:0:0:
81,315,218008,1,10,0:0:0:0:
5,249,218273,2,0,L|-2:86,1,150,14|0,0:0|1:0,0:0:0:0:
98,97,218937,2,0,L|100:158,2,50,10|10|0,0:0|0:0|1:0,0:0:0:0:
46,10,219468,5,12,0:0:0:0:
145,10,219733,1,2,1:2:0:0:
98,97,219999,1,10,0:0:0:0:
0,99,220264,1,2,1:2:0:0:
46,10,220530,2,0,B|173:8,1,99.9999999999999,4|8,1:2|0:0,0:0:0:0:
186,37,220928,2,0,B|204:85|204:85|195:134,1,99.9999999999999,4|8,1:2|0:0,0:0:0:0:
166,173,221326,2,0,L|171:234,1,50,0|8,1:0|0:0,0:0:0:0:
158,271,221592,6,0,L|262:261,1,99.9999999999999,12|0,1:2|1:0,0:0:0:0:
307,258,221990,1,2,0:0:0:0:
263,347,222255,1,10,0:0:0:0:
361,366,222521,2,0,L|510:349,1,150,2|2,0:0|1:2,0:0:0:0:
459,262,223185,2,0,L|401:268,2,50,10|10|0,0:0|0:0|1:0,0:0:0:0:
508,175,223716,5,10,0:0:0:0:
436,105,223981,1,2,1:2:0:0:
346,149,224247,2,0,L|284:155,1,50,10|8,0:0|0:0,0:0:0:0:
247,159,224512,1,2,1:2:0:0:
189,240,224778,2,0,L|78:247,1,99.9999999999999,12|10,0:0|1:2,0:0:0:0:
43,266,225176,2,0,B|59:215|59:215|50:163,1,99.9999999999999,12|8,0:0|0:0,0:0:0:0:
41,119,225574,1,10,1:2:0:0:
130,75,225839,6,0,L|189:89,1,50,12|8,0:0|0:0,0:0:0:0:
194,140,226105,1,8,0:0:0:0:
194,140,226238,2,0,L|188:256,1,99.9999999999999,10|10,1:2|1:2,0:0:0:0:
285,265,226769,2,0,L|290:146,1,99.9999999999999,12|10,0:0|0:0,0:0:0:0:
315,124,227167,1,0,1:0:0:0:
315,124,227300,2,0,B|362:137|362:137|426:123,1,99.9999999999999,12|10,0:0|0:0,0:0:0:0:
456,103,227698,2,0,L|457:51,1,50,2|2,1:2|1:2,0:0:0:0:
415,24,227963,6,0,B|367:9|367:9|313:20,1,99.9999999999999,12|0,0:0|1:0,0:0:0:0:
270,34,228362,1,2,0:0:0:0:
315,124,228627,1,10,0:0:0:0:
267,212,228893,1,12,1:2:0:0:
267,212,229556,6,0,L|272:288,1,50,2|2,1:2|1:2,0:0:0:0:
270,362,229954,6,0,P|225:341|164:347,1,99.9999999999999,12|8,1:2|0:0,0:0:0:0:
129,363,230353,1,2,1:2:0:0:
33,333,230618,2,0,L|28:219,1,99.9999999999999,10|0,0:0|1:0,0:0:0:0:
1,190,231016,2,0,P|72:199|135:148,1,150,10|2,0:0|1:2,0:0:0:0:
150,55,231680,1,10,0:0:0:0:
244,100,231946,1,0,1:0:0:0:
244,100,232078,6,0,L|247:211,1,99.9999999999999,10|8,0:0|0:0,0:0:0:0:
248,250,232477,1,2,1:2:0:0:
346,263,232742,2,0,L|343:163,1,99.9999999999999,10|0,0:0|1:0,0:0:0:0:
344,112,233140,2,0,P|392:135|439:131,1,99.9999999999999,12|12,1:2|0:0,0:0:0:0:
481,104,233539,1,8,0:0:0:0:
481,104,233671,2,0,L|477:5,1,99.9999999999999,12|8,1:2|0:0,0:0:0:0:
377,17,234202,6,0,L|254:22,1,99.9999999999999,12|8,0:0|0:0,0:0:0:0:
226,24,234601,1,2,1:2:0:0:
146,83,234866,2,0,L|149:154,1,50,10|10,0:0|0:0,0:0:0:0:
192,167,235131,1,0,1:0:0:0:
192,167,235264,2,0,P|232:222|212:316,1,150,10|0,0:0|1:0,0:0:0:0:
190,338,235795,1,2,0:0:0:0:
89,337,236061,1,10,0:0:0:0:
138,250,236326,6,0,L|306:217,1,150,12|2,0:0|1:2,0:0:0:0:
339,136,236990,2,0,L|336:85,1,50,10|8,0:0|0:0,0:0:0:0:
337,40,237255,1,0,1:0:0:0:
337,40,237388,2,0,B|389:22|389:22|449:38,1,99.9999999999999,14|12,1:2|0:0,0:0:0:0:
481,60,237786,1,0,1:0:0:0:
481,60,237919,2,0,B|486:172,1,99.9999999999999,10|2,0:0|1:2,0:0:0:0:
454,199,238317,1,8,0:0:0:0:
454,199,238450,6,0,P|425:251|428:308,1,99.9999999999999,12|8,1:2|0:0,0:0:0:0:
447,334,238848,1,2,1:2:0:0:
354,372,239114,2,0,L|250:365,1,99.9999999999999,10|2,0:0|1:2,0:0:0:0:
205,378,239512,2,0,P|245:322|237:234,1,150,10|2,0:0|1:2,0:0:0:0:
182,162,240176,1,10,0:0:0:0:
96,213,240441,1,0,1:0:0:0:
96,213,240574,6,0,P|62:262|64:310,1,99.9999999999999,10|8,0:0|0:0,0:0:0:0:
80,347,240972,1,2,1:2:0:0:
159,286,241238,1,10,0:0:0:0:
245,344,241503,1,0,1:0:0:0:
245,344,241636,2,0,L|355:338,1,99.9999999999999,12|12,1:2|0:0,0:0:0:0:
397,356,242034,1,8,0:0:0:0:
397,356,242167,2,0,B|386:303|386:303|401:251,1,99.9999999999999,10|10,0:0|1:2,0:0:0:0:
427,162,242698,6,0,L|321:167,1,99.9999999999999,12|8,0:0|0:0,0:0:0:0:
277,171,243096,1,2,1:2:0:0:
190,221,243362,2,0,P|176:175|194:114,1,99.9999999999999,10|0,0:0|1:0,0:0:0:0:
212,82,243760,2,0,B|162:103|162:103|64:96,1,150,12|0,0:0|1:0,0:0:0:0:
16,92,244291,1,2,0:0:0:0:
48,186,244556,1,10,0:0:0:0:
9,278,244822,6,0,L|123:289,1,99.9999999999999,12|8,0:0|0:0,0:0:0:0:
144,322,245220,2,0,L|206:329,1,50,2|0,1:2|0:0,0:0:0:0:
234,356,245485,2,0,B|303:362,1,50,10|10,0:0|0:0,0:0:0:0:
335,344,245751,1,0,1:0:0:0:
335,344,245884,5,12,0:0:0:0:
342,244,246149,1,12,0:0:0:0:
256,192,246415,1,12,0:0:0:0:
256,192,247078,5,6,0:0:0:0:
256,192,247167,12,14,249202,1:2:0:0:
