osu file format v14

[General]
AudioFilename: audio.mp3
AudioLeadIn: 0
PreviewTime: 111531
Countdown: 0
SampleSet: Soft
StackLeniency: 0.7
Mode: 0
LetterboxInBreaks: 0
WidescreenStoryboard: 0

[Editor]
Bookmarks: 41761,81428,147588,153257,155147,160816,164596,172155,175935,179714
DistanceSpacing: 1.2
BeatDivisor: 4
GridSize: 8
TimelineZoom: 1.9

[Metadata]
Title:Salamandra no Odoriko
TitleUnicode:サラマンドラの踊り子
Artist:Hatsuki Yura
ArtistUnicode:葉月ゆら
Creator:Sakurauchi Riko
Version:Advanced
Source:
Tags:Dancer of Saramandora Drop 清風明月 seifuu meigetsu GothikaIII 竜と炎の物語 ~Dragon and Flame Story~ ryuu to honou no monogatari c85
BeatmapID:1129586
BeatmapSetID:526428

[Difficulty]
HPDrainRate:4
CircleSize:3.5
OverallDifficulty:5
ApproachRate:5
SliderMultiplier:1.4
SliderTickRate:1

[Events]
//Background and Video events
0,0,"bg.png",0,0
//Break Periods
2,164307,170939
//Storyboard Layer 0 (Background)
//Storyboard Layer 1 (Fail)
//Storyboard Layer 2 (Pass)
//Storyboard Layer 3 (Foreground)
//Storyboard Sound Samples

[TimingPoints]
171,472.44094488189,4,1,1,50,1,0
15289,-100,4,2,1,50,0,0
45525,-100,4,2,1,50,0,1
64422,-100,4,2,2,50,0,1
65367,-100,4,2,2,50,0,0
66312,-100,4,1,1,50,0,0
81430,-100,4,2,1,50,0,0
88045,-100,4,2,1,50,0,0
88753,-100,4,2,1,50,0,0
88989,-100,4,2,1,50,0,0
89226,-100,4,2,1,50,0,0
111667,-100,4,2,1,50,0,1
130564,-100,4,2,2,50,0,1
131509,-100,4,2,2,50,0,0
132454,-100,4,2,1,50,0,0
145682,-100,4,2,1,50,0,0
147572,-100,4,2,1,50,0,0
153478,-100,4,2,1,50,0,0
153596,-100,4,2,1,50,0,0
153714,-100,4,2,1,50,0,0
153950,-100,4,2,1,50,0,0
154422,-100,4,2,1,50,0,0
154541,-100,4,2,1,50,0,0
154659,-100,4,2,1,50,0,0
154895,-100,4,2,1,50,0,0
161745,-100,4,2,1,50,0,0
162808,-100,4,2,1,50,0,0
163635,-100,4,2,2,50,0,0
172139,-100,4,2,1,50,0,0
179698,-100,4,2,1,50,0,1
198596,-100,4,2,2,50,0,1
199541,-100,4,2,2,50,0,0
200485,-100,4,1,1,50,0,0
215616,472.44094488189,4,1,1,50,1,0
217062,472.44094488189,4,1,1,50,1,0
217386,472.44094488189,4,1,1,50,1,0
217700,472.44094488189,4,1,1,50,1,0
217818,-100,4,1,1,40,0,0
218172,-100,4,1,1,30,0,0
219117,-100,4,1,1,20,0,0
219353,-100,4,1,1,10,0,0
219589,-100,4,2,1,5,0,0

[Colours]
Combo1 : 226,224,228
Combo2 : 117,37,165
Combo3 : 192,192,192
Combo4 : 204,181,201
Combo5 : 158,29,119
Combo6 : 196,100,159

[HitObjects]
359,65,171,5,4,0:3:0:0:
310,181,525,2,0,B|257:138|257:138|244:103,1,105,0|0,0:0|0:0,0:0:0:0:
160,104,1115,2,0,L|187:185,1,70,6|0,0:0|0:0,0:0:0:0:
195,210,1470,1,8,0:0:0:0:
160,331,1824,1,0,0:0:0:0:
231,287,2060,2,0,B|265:283|265:283|343:302,2,105,6|0|0,0:0|0:0|0:0,0:0:0:0:
195,210,3005,2,0,B|240:204|240:204|291:163,1,105,6|8,0:0|0:0,0:0:0:0:
385,88,3714,1,0,0:0:0:0:
301,84,3950,6,0,B|268:71|248:39|248:39|209:47|192:91,1,140,6|2,0:0|0:0,0:0:0:0:
132,236,4895,2,0,P|131:187|100:130,1,105,6|10,0:0|0:0,0:0:0:0:
8,216,5604,1,0,0:0:0:0:
60,281,5840,2,0,L|46:361,1,70
126,380,6312,2,0,B|162:375|162:375|201:361,2,70,4|4|4,0:0|0:0|0:0,0:0:0:0:
142,290,7021,1,0,0:0:0:0:
187,211,7257,2,0,P|201:170|231:142,1,70,4|0,0:0|0:0,0:0:0:0:
286,90,7730,5,4,0:3:0:0:
284,225,8084,2,0,B|304:275|304:275|331:228,1,105,0|0,0:0|0:0,0:0:0:0:
411,249,8674,2,0,L|372:318,1,70,6|0,0:0|0:0,0:0:0:0:
356,347,9029,1,8,0:0:0:0:
232,324,9383,1,2,0:0:0:0:
149,307,9619,2,0,B|110:299|110:299|35:327,2,105,6|8|0,0:0|0:0|0:0,0:0:0:0:
193,236,10564,2,0,L|81:212,1,105,6|8,0:0|0:0,0:0:0:0:
163,111,11273,1,2,0:0:0:0:
239,75,11509,6,0,B|258:119|231:161|231:161|257:172|271:203,1,140,6|2,0:0|0:0,0:0:0:0:
431,159,12454,2,0,B|384:136|384:136|322:134,2,105,6|10|2,0:0|0:0|0:0,0:0:0:0:
485,223,13399,1,4,0:3:0:0:
405,320,13753,1,4,0:0:0:0:
279,337,14108,1,4,0:0:0:0:
195,345,14344,2,0,P|214:281|279:251,1,140,4|4,0:0|0:0,0:0:0:0:
111,216,15289,5,4,0:3:0:0:
53,155,15525,2,0,P|33:184|31:240,2,70,0|8|0,0:0|0:0|0:0,0:0:0:0:
134,134,16233,1,6,0:0:0:0:
162,10,16588,2,0,P|213:30|274:37,1,105,2|8,0:0|0:0,0:0:0:0:
345,24,17178,1,6,0:0:0:0:
455,85,17533,1,2,0:0:0:0:
405,199,17887,1,10,0:0:0:0:
321,209,18123,2,0,P|331:241|366:275,1,70,6|0,0:0|0:0,0:0:0:0:
394,283,18478,2,0,P|350:295|295:355,1,105,0|10,0:0|0:0,0:0:0:0:
223,345,19068,6,0,P|168:357|114:343,1,105,6|2,0:0|0:0,0:0:0:0:
167,227,19777,1,8,0:0:0:0:
181,144,20013,2,0,L|196:33,1,105,6|0,0:0|0:0,0:0:0:0:
317,69,20722,1,8,0:0:0:0:
383,120,20958,2,0,P|406:148|430:218,1,105,6|2,0:0|0:0,0:0:0:0:
303,221,21667,1,2,0:0:0:0:
230,177,21903,2,0,B|205:215|217:265|251:290|251:290|232:329|232:329|193:353,1,210,0|10,0:0|0:0,0:0:0:0:
113,349,22848,5,4,0:3:0:0:
46,298,23084,2,0,L|33:217,2,70,2|0|10,0:0|0:0|0:0,0:0:0:0:
113,349,23793,2,0,B|133:303|133:303|123:237,1,105,6|2,0:0|0:0,0:0:0:0:
94,126,24501,1,10,0:0:0:0:
158,74,24737,2,0,P|176:123|162:173,1,105,6|2,0:0|0:0,0:0:0:0:
253,260,25446,1,10,0:0:0:0:
329,226,25682,2,0,L|403:256,1,70,6|0,0:0|0:0,0:0:0:0:
432,269,26037,2,0,P|455:229|456:159,1,105,0|10,0:0|0:0,0:0:0:0:
422,95,26627,5,6,0:0:0:0:
298,68,26982,2,0,B|241:57|241:57|191:29,1,105,2|10,0:0|0:0,0:0:0:0:
175,114,27572,2,0,L|117:217,1,105,6|2,0:0|0:0,0:0:0:0:
36,296,28281,1,8,0:0:0:0:
110,333,28517,2,0,P|144:337|200:325,1,70,4|0,0:3|0:0,0:0:0:0:
259,306,28989,2,0,P|310:297|361:307,1,105,6|2,0:0|0:0,0:0:0:0:
417,245,29580,2,0,L|432:164,1,70,2|2,0:0|0:0,0:0:0:0:
400,97,30052,2,0,P|367:119|348:159,1,70,2|0,0:0|0:0,0:0:0:0:
340,185,30407,5,4,0:3:0:0:
261,214,30643,2,0,P|219:223|183:238,2,70,2|2|0,0:0|0:0|0:0,0:0:0:0:
270,130,31352,2,0,P|200:144|131:172,1,140,6|2,0:0|0:0,0:0:0:0:
78,229,32060,1,2,0:0:0:0:
42,308,32296,1,6,0:0:0:0:
125,299,32533,1,0,0:0:0:0:
203,336,32769,2,0,L|274:287,1,70,2|2,0:0|0:0,0:0:0:0:
342,279,33241,2,0,L|414:304,2,70,2|2|2,0:0|0:0|0:0,0:0:0:0:
215,168,34186,6,0,B|280:190|280:190|337:142,1,140,6|2,0:0|0:0,0:0:0:0:
499,108,35131,2,0,L|441:160,1,70,6|2,0:0|0:0,0:0:0:0:
414,76,35604,2,0,L|351:17,1,70,2|0,0:0|0:0,0:0:0:0:
280,11,36076,1,6,0:0:0:0:
113,28,36548,2,0,P|99:66|75:100,1,70,0|2,0:0|0:0,0:0:0:0:
35,160,37021,2,0,P|45:210|55:233,1,70,6|8,0:0|2:0,0:0:0:0:
87,250,37375,2,0,B|120:254|120:254|146:242|146:242|149:195|183:164|226:160,1,175,8|4,0:0|0:3,0:0:0:0:
229,244,38202,5,2,0:0:0:0:
187,317,38438,2,0,P|228:328|266:319,1,70,2|0,0:0|0:0,0:0:0:0:
312,261,38911,2,0,P|361:295|374:376,1,140,6|2,0:0|0:0,0:0:0:0:
458,383,39619,1,2,0:0:0:0:
456,298,39856,2,0,P|459:270|481:227,1,70,6|2,0:0|0:0,0:0:0:0:
485,152,40328,2,0,P|473:121|472:83,1,70,2|2,0:0|0:0,0:0:0:0:
416,21,40800,2,0,P|372:15|338:22,2,70,6|0|0,0:0|0:0|0:0,0:0:0:0:
273,106,41745,6,0,B|234:104|207:83|207:83|173:101|134:97,1,140,4|0,0:3|0:0,0:0:0:0:
155,265,42690,2,0,B|197:207|197:207|227:275,1,140,4|0,0:3|0:0,0:0:0:0:
388,307,43635,2,0,B|365:255|365:255|374:204|374:204|435:157|413:77,1,245,4|0,3:0|0:0,0:0:0:0:
396,44,44580,2,0,B|329:55|329:55|268:96|268:96|195:111,1,210,2|2,1:0|1:0,0:0:0:0:
118,93,45525,6,0,P|104:132|81:162,1,70,12|0,0:3|0:3,0:0:0:0:
29,216,45997,1,10,0:0:0:0:
104,253,46233,1,2,0:0:0:0:
178,290,46470,2,0,P|202:322|215:357,2,70,8|8|8,0:0|0:0|0:0,0:0:0:0:
334,227,47415,2,0,P|343:193|361:164,1,70,8|0,0:0|0:3,0:0:0:0:
435,123,47887,2,0,L|468:145,2,35,2|0|2,0:0|0:0|0:0,0:0:0:0:
363,79,48359,1,10,0:0:0:0:
288,39,48596,1,10,0:0:0:0:
213,0,48832,2,0,P|179:16|138:24,1,70,0|0,3:0|3:0,0:0:0:0:
120,102,49304,6,0,L|117:142,2,35,8|0|0,0:0|0:0|0:3,0:0:0:0:
36,110,49777,2,0,L|39:69,2,35,8|0|0,0:0|0:0|0:3,0:0:0:0:
52,192,50249,1,10,0:0:0:0:
109,252,50485,1,2,0:0:0:0:
191,271,50722,2,0,P|236:272|269:285,1,70,8|8,0:0|0:0,0:0:0:0:
331,323,51194,2,0,L|323:373,2,35,8|0|0,0:0|0:0|0:3,0:0:0:0:
411,298,51667,2,0,L|419:248,2,35,8|0|0,0:0|0:0|0:3,0:0:0:0:
484,338,52139,2,0,L|499:254,1,70,8|10,0:0|0:0,0:0:0:0:
462,192,52611,1,10,0:0:0:0:
297,158,53084,6,0,P|316:128|326:79,1,70,4|0,0:3|0:0,0:0:0:0:
320,11,53556,1,0,0:0:0:0:
246,52,53793,1,0,0:0:0:0:
172,92,54029,2,0,P|134:91|94:75,2,70,10|10|8,0:0|0:0|0:0,0:0:0:0:
105,246,54974,2,0,L|121:172,1,70,2|0,0:0|3:0,0:0:0:0:
203,169,55446,1,10,0:0:0:0:
271,217,55682,1,10,0:0:0:0:
283,300,55919,2,0,B|340:289|354:231|354:231|368:172|424:161,1,210,8|0,0:0|0:0,0:0:0:0:
436,243,56863,6,0,P|459:272|488:293,1,70,4|0,0:3|0:0,0:0:0:0:
430,355,57336,1,8,0:0:0:0:
346,358,57572,1,8,0:0:0:0:
283,300,57808,2,0,P|262:266|226:237,1,70,4|0,0:3|0:0,0:0:0:0:
259,163,58281,1,8,0:0:0:0:
318,103,58517,1,8,0:0:0:0:
291,23,58753,2,0,P|252:28|212:21,1,70,4|0,0:3|0:0,0:0:0:0:
193,103,59226,2,0,B|173:125|169:153|169:153|158:127|134:112,1,105,4|4,0:3|0:3,0:0:0:0:
32,47,59934,1,2,0:0:0:0:
54,128,60171,1,2,0:0:0:0:
38,210,60407,1,2,0:0:0:0:
61,290,60643,6,0,P|91:273|114:244,1,70,4|0,0:3|0:0,0:0:0:0:
179,194,61115,1,8,0:0:0:0:
194,276,61352,1,8,0:0:0:0:
181,358,61588,2,0,P|217:356|256:331,1,70,4|0,0:3|0:0,0:0:0:0:
309,284,62060,1,8,0:0:0:0:
376,334,62296,1,8,0:0:0:0:
432,270,62533,6,0,B|453:248|455:214|455:214|439:173|439:173|490:133|472:71,1,210,4|0,0:3|3:0,0:0:0:0:
390,100,63478,2,0,P|333:95|281:68,1,105,2|2,0:0|0:0,0:0:0:0:
181,138,64186,1,2,0:0:0:0:
130,204,64422,2,0,P|116:230|112:256,2,46.6666666666667,8|8|8,0:0|0:0|0:0,0:0:0:0:
192,255,64895,2,0,P|213:269|253:272,2,46.6666666666667,8|8|8,0:0|0:0|0:0,0:0:0:0:
244,190,65367,1,8,0:0:0:0:
509,118,66312,5,4,0:3:0:0:
386,150,66667,2,0,P|345:125|316:68,1,105,8|2,0:0|0:0,0:0:0:0:
237,66,67257,2,0,B|204:72|204:72|160:64,1,70,6|0,0:0|0:0,0:0:0:0:
127,53,67611,1,8,0:0:0:0:
86,172,67966,1,2,0:0:0:0:
100,254,68202,2,0,P|145:230|170:172,2,105,6|8|0,0:0|0:0|0:0,0:0:0:0:
74,334,69147,2,0,P|126:356|181:358,1,105,6|8,0:0|0:0,0:0:0:0:
290,310,69856,1,2,0:0:0:0:
321,232,70092,6,0,B|356:246|368:281|368:281|376:244|412:218,1,140,6|2,0:0|0:0,0:0:0:0:
363,55,71037,2,0,B|347:120|347:120|356:161,2,105,6|2|2,0:0|0:0|0:0,0:0:0:0:
447,50,71982,2,0,L|430:122,1,70,4|0,0:0|0:0,0:0:0:0:
430,202,72454,2,0,L|451:277,2,70,4|4|4,0:0|0:0|0:0,0:0:0:0:
355,157,73163,2,0,L|273:152,2,70,0|0|0,0:0|0:0|0:0,0:0:0:0:
430,118,73871,5,4,0:3:0:0:
312,73,74226,2,0,L|191:64,1,105,8|0,0:0|0:0,0:0:0:0:
131,102,74816,2,0,P|119:135|115:179,1,70,6|0,0:0|0:0,0:0:0:0:
119,211,75171,1,8,0:0:0:0:
234,260,75525,1,2,0:0:0:0:
302,211,75761,2,0,P|316:265|297:313,2,105,6|8|2,0:0|0:0|0:0,0:0:0:0:
314,127,76706,2,0,P|357:102|418:98,1,105,6|8,0:0|0:0,0:0:0:0:
301,35,77415,1,2,0:0:0:0:
236,88,77651,6,0,P|169:88|102:52,1,140,4|2,0:3|0:0,0:0:0:0:
83,221,78596,2,0,P|68:272|34:318,2,105,4|10|2,0:3|0:0|0:0,0:0:0:0:
72,137,79541,1,4,0:0:0:0:
170,215,79895,1,4,0:0:0:0:
293,238,80249,1,4,0:0:0:0:
363,192,80485,2,0,P|375:254|328:314,1,140,4|4,0:0|0:0,0:0:0:0:
167,272,81430,5,4,0:3:0:0:
111,208,81667,2,0,P|78:221|25:217,2,70,0|0|8,0:0|0:0|0:0,0:0:0:0:
171,149,82375,1,6,0:0:0:0:
235,41,82730,2,0,P|270:72|294:127,1,105,2|8,0:0|0:0,0:0:0:0:
362,171,83320,1,6,0:0:0:0:
479,124,83674,1,2,0:0:0:0:
466,249,84029,1,8,0:0:0:0:
382,251,84265,2,0,L|370:334,1,70,6|0,0:0|0:0,0:0:0:0:
348,355,84619,2,0,L|241:336,1,105,0|10,0:0|0:0,0:0:0:0:
167,301,85210,6,0,L|146:185,1,105,6|2,0:0|0:0,0:0:0:0:
223,95,85919,1,8,0:0:0:0:
304,115,86155,2,0,P|275:161|218:178,1,105,6|2,0:0|0:0,0:0:0:0:
316,268,86863,1,8,0:0:0:0:
396,293,87100,2,0,P|438:293|503:266,1,105,6|2,0:0|0:0,0:0:0:0:
422,168,87808,1,8,0:0:0:0:
368,102,88045,2,0,B|331:83|331:83|292:96|292:96|233:52|168:63,1,210,2|8,0:0|0:0,0:0:0:0:
92,90,88989,5,4,0:3:0:0:
45,160,89226,2,0,P|34:194|31:231,2,70,2|2|8,0:0|0:0|0:0,0:0:0:0:
92,90,89934,2,0,P|133:128|150:184,1,105,6|2,0:0|0:0,0:0:0:0:
194,291,90643,1,8,0:0:0:0:
276,304,90879,2,0,P|326:298|375:267,1,105,6|2,0:0|0:0,0:0:0:0:
433,159,91588,1,8,0:0:0:0:
367,106,91824,2,0,P|335:127|314:159,1,70,6|0,0:0|0:0,0:0:0:0:
289,183,92178,2,0,P|236:169|191:126,1,105,2|8,0:0|0:0,0:0:0:0:
172,56,92769,5,6,0:0:0:0:
70,130,93123,2,0,P|56:178|60:235,1,105,2|8,0:0|0:0,0:0:0:0:
110,299,93714,2,0,B|154:269|154:269|207:257,1,105,6|2,0:0|0:0,0:0:0:0:
322,300,94422,1,8,0:0:0:0:
403,279,94659,2,0,L|432:186,1,70,4|0,0:3|0:0,0:0:0:0:
486,156,95131,2,0,P|428:160|378:129,1,105,2|2,0:0|0:0,0:0:0:0:
305,118,95722,2,0,L|320:192,1,70,2|2,0:0|0:0,0:0:0:0:
244,225,96194,2,0,L|229:151,1,70,2|0,0:0|0:0,0:0:0:0:
221,115,96548,5,4,0:3:0:0:
146,75,96785,2,0,P|104:84|75:98,2,70,2|2|2,0:0|0:0|0:0,0:0:0:0:
221,115,97493,2,0,P|302:107|361:85,1,140,6|2,0:0|0:0,0:0:0:0:
436,59,98202,1,2,0:0:0:0:
496,116,98438,1,6,0:0:0:0:
450,186,98674,1,0,0:0:0:0:
455,272,98911,2,0,P|417:263|384:233,1,70,2|2,0:0|0:0,0:0:0:0:
311,223,99383,2,0,P|280:237|249:267,2,70,2|2|2,0:0|0:0|0:0,0:0:0:0:
207,90,100328,6,0,P|183:77|182:113,1,70,2|0,0:0|0:0,0:0:0:0:
178,194,100800,2,0,P|177:224|148:215,1,70,2|0,0:0|0:0,0:0:0:0:
96,148,101273,2,0,P|69:182|63:211,1,70,2|2,0:0|0:0,0:0:0:0:
93,285,101745,2,0,P|79:320|55:343,1,70,2|2,0:0|0:0,0:0:0:0:
9,272,102218,1,6,0:0:0:0:
174,298,102690,2,0,P|209:292|252:272,1,70,0|2,0:0|0:0,0:0:0:0:
318,247,103163,2,0,P|353:247|400:259,1,70,6|8,0:0|0:0,0:0:0:0:
423,278,103517,2,0,B|449:246|449:246|445:208|445:208|491:179|485:118,1,175,8|4,0:0|0:3,0:0:0:0:
401,135,104344,5,2,0:0:0:0:
317,141,104580,2,0,P|280:134|249:117,1,70,2|0,0:0|0:0,0:0:0:0:
199,53,105052,2,0,B|142:119|142:119|89:137,1,140,6|2,0:0|0:0,0:0:0:0:
10,156,105761,1,2,0:0:0:0:
68,216,105997,2,0,L|88:289,1,70,6|2,0:0|0:0,0:0:0:0:
132,353,106470,1,2,0:0:0:0:
258,242,106942,2,0,P|296:249|334:268,2,70,6|0|0,0:0|0:0|0:0,0:0:0:0:
200,84,107887,6,0,B|106:120|106:120|91:160,1,140,4|0,0:3|0:0,0:0:0:0:
183,300,108832,2,0,B|225:356|225:356|220:284,1,140,4|0,0:3|0:0,0:0:0:0:
374,219,109777,2,0,B|434:188|435:120|435:120|359:101|318:161,1,245,4|0,3:0|0:0,0:0:0:0:
284,167,110722,2,0,B|248:159|248:159|228:130|228:130|253:81|228:27|182:11,1,210,2|2,1:0|1:0,0:0:0:0:
152,91,111667,6,0,P|122:92|82:103,1,70,12|0,0:3|0:3,0:0:0:0:
17,153,112139,1,10,0:0:0:0:
91,187,112375,1,2,0:0:0:0:
146,252,112611,2,0,P|142:294|127:332,2,70,10|10|8,0:0|0:0|0:0,0:0:0:0:
312,228,113556,2,0,P|345:241|375:261,1,70,10|0,0:0|0:3,0:0:0:0:
457,259,114029,2,0,L|457:300,2,35,2|0|2,0:0|0:0|0:0,0:0:0:0:
415,186,114501,1,10,0:0:0:0:
405,102,114737,1,10,0:0:0:0:
433,22,114974,2,0,P|392:19|356:34,1,70,0|0,3:0|3:0,0:0:0:0:
297,78,115446,6,0,L|324:111,2,35,10|0|0,0:0|0:0|0:3,0:0:0:0:
213,87,115919,2,0,L|186:54,2,35,10|0|0,0:0|0:0|0:3,0:0:0:0:
158,150,116391,1,10,0:0:0:0:
161,233,116627,1,10,0:0:0:0:
230,280,116863,2,0,P|270:290|305:312,1,70,10|8,0:0|0:0,0:0:0:0:
378,312,117336,2,0,L|383:277,2,35,10|0|0,0:0|0:0|0:3,0:0:0:0:
457,338,117808,2,0,L|452:373,2,35,10|0|0,0:0|0:0|0:3,0:0:0:0:
465,254,118281,2,0,P|448:223|411:198,1,70,8|10,0:0|0:0,0:0:0:0:
337,205,118753,1,10,0:0:0:0:
182,139,119226,6,0,P|201:109|211:60,1,70,4|0,0:3|0:0,0:0:0:0:
276,25,119698,1,8,0:0:0:0:
359,36,119934,1,0,0:0:0:0:
419,93,120171,2,0,P|458:83|492:64,2,70,10|10|8,0:0|0:0|0:0,0:0:0:0:
271,173,121115,2,0,P|275:211|289:245,1,70,8|0,0:0|3:0,0:0:0:0:
280,324,121588,1,10,0:0:0:0:
212,374,121824,1,10,0:0:0:0:
130,354,122060,2,0,B|104:325|104:325|102:287|102:287|140:256|154:209|125:160,1,210,8|8,0:0|0:0,0:0:0:0:
81,98,123005,6,0,P|113:86|147:56,1,70,4|0,0:3|0:0,0:0:0:0:
219,92,123478,1,8,0:0:0:0:
222,175,123714,1,8,0:0:0:0:
269,244,123950,2,0,B|297:221|297:221|321:178,1,70,4|0,0:3|0:0,0:0:0:0:
369,129,124422,1,8,0:0:0:0:
450,149,124659,1,8,0:0:0:0:
460,232,124895,2,0,B|456:267|456:267|467:303,1,70,4|0,0:3|0:0,0:0:0:0:
418,369,125367,2,0,L|348:290,1,105,4|4,0:3|0:3,0:0:0:0:
228,250,126076,1,2,0:0:0:0:
216,333,126312,1,2,0:0:0:0:
130,361,126548,1,2,0:0:0:0:
46,368,126785,6,0,P|53:329|75:298,1,70,4|0,0:3|0:0,0:0:0:0:
149,280,127257,1,8,0:0:0:0:
87,223,127493,1,8,0:0:0:0:
64,141,127730,2,0,P|81:111|87:76,1,70,4|0,0:3|0:0,0:0:0:0:
152,24,128202,1,8,0:0:0:0:
206,87,128438,1,8,0:0:0:0:
278,41,128674,6,0,B|301:61|305:88|305:88|298:115|282:134|282:134|287:167|317:194|370:187,1,210,4|0,0:3|0:0,0:0:0:0:
429,142,129619,2,0,P|442:192|418:247,1,105,2|2,0:0|0:0,0:0:0:0:
321,313,130328,1,2,0:0:0:0:
238,299,130564,2,0,P|201:309|178:325,2,46.6666666666667,8|8|8,0:0|0:0|0:0,0:0:0:0:
290,239,131037,2,0,P|298:201|294:173,2,46.6666666666667,8|8|8,0:0|0:0|0:0,0:0:0:0:
218,201,131509,1,8,0:0:0:0:
469,58,132454,6,0,L|458:167,1,105,6|4,0:3|0:0,0:0:0:0:
421,283,133163,1,2,0:0:0:0:
350,237,133399,2,0,L|340:144,1,70,2|0,0:0|0:0,0:0:0:0:
291,100,133871,2,0,L|217:78,1,70,2|0,0:0|0:0,0:0:0:0:
155,128,134344,6,0,P|148:182|159:240,1,105,6|4,0:0|0:0,0:0:0:0:
238,327,135052,1,0,0:0:0:0:
272,249,135289,2,0,P|279:212|269:160,1,70
298,145,135643,1,0,0:0:0:0:
331,119,135761,2,0,P|370:120|416:138,1,70
467,178,136233,6,0,B|479:229|479:229|434:203,1,105,6|4,0:0|0:0,0:0:0:0:
392,322,136942,1,4,0:0:0:0:
313,350,137178,2,0,L|238:342,1,70,2|0,0:0|0:0,0:0:0:0:
212,313,137533,1,2,0:0:0:0:
183,281,137651,2,0,L|107:289,1,70,0|2,0:0|0:0,0:0:0:0:
54,228,138123,6,0,B|62:192|62:192|37:158|43:113,1,105,6|4,0:0|0:0,0:0:0:0:
167,121,138832,1,4,0:0:0:0:
186,202,139068,2,0,P|219:187|245:153,1,70,2|0,0:0|0:0,0:0:0:0:
242,79,139541,2,0,P|287:74|324:83,1,70,0|2,0:0|0:0,0:0:0:0:
340,108,139895,1,2,0:0:0:0:
361,144,140013,6,0,P|408:165|471:156,1,105,4|4,0:3|0:0,0:0:0:0:
488,283,140722,1,4,0:0:0:0:
377,339,141076,2,0,L|297:361,1,70,2|2,0:0|0:0,0:0:0:0:
229,333,141548,2,0,L|191:366,1,35,2|2,0:0|0:0,0:0:0:0:
123,327,141903,6,0,L|97:222,1,105,6|4,0:0|0:0,0:0:0:0:
131,103,142611,1,4,0:0:0:0:
214,112,142848,2,0,L|238:195,1,70
251,217,143202,1,0,0:0:0:0:
288,236,143320,2,0,P|319:225|362:226,1,70
439,233,143793,6,0,P|460:199|469:131,1,105,6|4,0:0|0:0,0:0:0:0:
378,48,144501,1,4,0:0:0:0:
252,24,144856,2,0,L|168:39,1,70,2|2,0:0|0:0,0:0:0:0:
153,65,145210,1,0,0:0:0:0:
125,97,145328,2,0,L|132:137,1,35,2|2,0:0|0:0,0:0:0:0:
148,213,145682,6,0,L|260:226,2,105,4|4|0,0:3|0:0|0:0,0:0:0:0:
65,230,146627,2,0,L|0:313,1,105,2|0,0:0|0:0,0:0:0:0:
30,342,147100,2,0,P|69:352|138:343,1,105,2|0,0:0|0:0,0:0:0:0:
169,324,147572,5,4,0:3:0:0:
251,229,147926,2,0,B|279:256|289:289|289:289|289:327,1,105,0|8,0:0|0:0,0:0:0:0:
370,344,148517,2,0,L|370:234,1,105,4|0,0:0|0:0,0:0:0:0:
404,117,149226,1,8,0:0:0:0:
330,158,149462,2,0,P|279:144|236:102,1,105,4|0,0:0|0:0,0:0:0:0:
340,31,150171,1,8,0:0:0:0:
422,14,150407,2,0,P|474:40|503:86,2,105,4|0|8,0:0|0:0|0:0,0:0:0:0:
340,31,151352,6,0,B|285:37|285:37|233:30,1,105,4|0,0:0|0:0,0:0:0:0:
122,86,152060,1,8,0:0:0:0:
127,169,152296,2,0,L|131:281,1,105,4|0,0:0|0:0,0:0:0:0:
248,227,153005,1,8,0:0:0:0:
290,300,153241,2,0,L|329:369,1,70,6|2,0:0|0:0,0:0:0:0:
365,374,153596,1,2,0:0:0:0:
405,364,153714,2,0,L|439:304,1,70,2|10,0:0|0:0,0:0:0:0:
476,227,154186,2,0,P|441:218|400:228,1,70,6|2,0:0|0:0,0:0:0:0:
372,200,154541,1,2,0:0:0:0:
353,162,154659,2,0,P|342:136|345:94,1,70,2|10,0:0|0:0,0:0:0:0:
271,54,155131,6,0,P|224:85|161:83,1,105,4|0,3:0|0:0,0:0:0:0:
179,213,155840,1,8,0:0:0:0:
232,277,156076,2,0,L|208:380,1,105,4|0,0:0|0:0,0:0:0:0:
90,332,156785,1,8,0:0:0:0:
83,251,157021,2,0,B|68:132,1,105,4|0,0:0|0:0,0:0:0:0:
123,38,157730,1,8,0:0:0:0:
188,90,157966,2,0,B|210:99|239:98|239:98|258:125|258:125|289:120|318:134,1,140,4|0,0:0|0:0,0:0:0:0:
276,207,158674,1,8,0:0:0:0:
245,285,158911,6,0,B|255:319|283:342|283:342|311:317|315:279,1,140,4|4,0:0|0:3,0:0:0:0:
422,152,159856,2,0,L|435:268,1,105,4|0,0:0|0:0,0:0:0:0:
458,289,160328,2,0,L|476:221,1,70,4|8,0:3|0:0,0:0:0:0:
503,142,160800,2,0,B|486:36|486:36|465:68,1,140,6|4,0:0|0:3,0:0:0:0:
386,85,161509,1,10,0:0:0:0:
304,64,161745,2,0,B|286:36|286:36|269:142,1,140,2|4,0:0|0:3,0:0:0:0:
258,226,162454,1,10,0:0:0:0:
192,333,162808,6,0,P|163:309|144:278,1,70
104,273,163163,2,0,P|127:214|112:146,1,105
91,145,163635,2,0,L|112:77,3,46.6666666666667,8|8|0|0,0:0|0:0|0:0|0:0,0:0:0:0:
233,72,172139,6,0,L|225:148,1,70,4|0,0:3|0:0,0:0:0:0:
181,212,172611,2,0,P|217:225|256:220,1,70,0|0,0:0|0:0,0:0:0:0:
308,163,173084,1,2,0:0:0:0:
375,213,173320,1,2,0:0:0:0:
394,294,173556,2,0,P|395:332|377:371,1,70,0|0,0:0|0:0,0:0:0:0:
311,317,174029,2,0,P|274:323|238:345,1,70
161,339,174501,1,2,0:0:0:0:
89,295,174737,1,2,0:0:0:0:
54,218,174974,2,0,P|54:177|65:142,2,70,6|6|6,0:0|0:0|0:0,0:0:0:0:
220,197,175919,6,0,P|272:181|315:137,1,105,4|0,0:3|0:0,0:0:0:0:
347,132,176391,2,0,P|385:140|418:159,1,70,2|2,0:0|0:0,0:0:0:0:
433,235,176863,2,0,P|381:251|338:295,1,105,4|0,0:3|0:0,0:0:0:0:
306,300,177336,2,0,P|268:292|235:273,1,70,2|2,0:0|0:0,0:0:0:0:
158,257,177808,2,0,B|122:298|122:298|98:241,1,105,4|8,0:3|0:0,0:0:0:0:
146,133,178517,1,8,0:0:0:0:
210,79,178753,2,0,B|264:92|286:147|286:147|322:100|379:95,1,210,2|2,1:0|1:0,0:0:0:0:
444,139,179698,6,0,P|432:176|435:213,1,70,12|0,0:3|0:3,0:0:0:0:
407,286,180171,1,10,0:0:0:0:
330,319,180407,1,2,0:0:0:0:
248,298,180643,2,0,P|211:300|174:309,2,70,8|8|8,0:0|0:0|0:0,0:0:0:0:
350,164,181588,2,0,P|348:122|330:87,1,70,8|0,0:0|0:3,0:0:0:0:
282,32,182060,2,0,P|269:21|252:11,2,35,2|0|2,0:0|0:0|0:0,0:0:0:0:
221,90,182533,1,8,0:0:0:0:
138,107,182769,1,8,0:0:0:0:
56,88,183005,2,0,P|54:120|70:158,1,70,0|0,3:0|3:0,0:0:0:0:
120,220,183478,6,0,L|110:260,2,35,8|0|0,0:0|0:0|0:3,0:0:0:0:
204,206,183950,2,0,L|200:159,2,35,8|0|0,0:0|0:0|0:3,0:0:0:0:
267,261,184422,1,10,0:0:0:0:
349,247,184659,1,10,0:0:0:0:
411,303,184895,2,0,P|428:271|431:238,1,70,8|8,0:0|0:0,0:0:0:0:
452,156,185367,2,0,L|493:148,2,35,8|0|0,0:0|0:0|0:3,0:0:0:0:
407,84,185840,2,0,L|372:89,2,35,8|0|0,0:0|0:0|0:3,0:0:0:0:
418,0,186312,2,0,L|340:11,1,70,8|10,0:0|0:0,0:0:0:0:
290,70,186785,1,10,0:0:0:0:
316,236,187257,6,0,P|306:269|287:299,1,70,4|0,0:3|0:0,0:0:0:0:
212,336,187730,1,8,0:0:0:0:
128,323,187966,1,0,0:0:0:0:
49,352,188202,2,0,P|46:309|58:276,2,70,10|10|8,0:0|0:0|0:0,0:0:0:0:
137,209,189147,2,0,L|114:136,1,70,8|0,0:0|3:0,0:0:0:0:
186,96,189619,1,10,0:0:0:0:
267,75,189856,1,10,0:0:0:0:
335,26,190092,2,0,B|355:54|349:92|349:92|379:40|439:32|480:62,1,210,8|8,0:0|0:0,0:0:0:0:
426,127,191037,6,0,P|418:162|420:207,1,70,4|0,0:3|3:0,0:0:0:0:
457,269,191509,1,8,0:0:0:0:
373,278,191745,1,8,0:0:0:0:
325,207,191982,2,0,L|236:245,1,70,4|0,0:3|0:0,0:0:0:0:
180,260,192454,1,8,0:0:0:0:
97,239,192690,1,8,0:0:0:0:
40,177,192926,2,0,P|17:208|12:252,1,70,4|0,0:3|0:0,0:0:0:0:
97,239,193399,2,0,P|124:188|112:132,1,105,4|4,0:3|0:3,0:0:0:0:
33,48,194108,1,2,0:0:0:0:
113,21,194344,1,2,0:0:0:0:
192,47,194580,1,2,0:0:0:0:
269,79,194816,6,0,P|296:61|320:29,1,70,4|0,0:3|0:0,0:0:0:0:
395,66,195289,1,8,0:0:0:0:
447,131,195525,1,8,0:0:0:0:
456,215,195761,2,0,P|425:231|390:232,1,70,4|0,0:3|0:0,0:0:0:0:
309,254,196233,1,8,0:0:0:0:
341,331,196470,1,8,0:0:0:0:
270,378,196706,6,0,B|235:383|201:376|201:376|174:353|165:317|165:317|138:290|86:294,1,210,4|0,0:3|0:0,0:0:0:0:
26,333,197651,2,0,P|17:288|46:230,1,105,2|2,0:0|0:0,0:0:0:0:
150,174,198359,1,2,0:0:0:0:
139,92,198596,2,0,P|110:79|75:78,2,46.6666666666667,8|8|8,0:0|0:0|0:0,0:0:0:0:
216,121,199068,2,0,P|233:95|240:65,2,46.6666666666667,8|8|8,0:0|0:0|0:0,0:0:0:0:
150,174,199541,1,8,0:0:0:0:
0,166,200485,5,4,0:3:0:0:
86,258,200840,2,0,B|105:298|105:298|161:341,1,105,8|2,0:0|0:0,0:0:0:0:
223,288,201430,2,0,B|164:241,1,70,6|0,0:0|0:0,0:0:0:0:
152,205,201785,1,8,0:0:0:0:
117,83,202139,1,2,0:0:0:0:
199,96,202375,2,0,B|230:94|264:72|264:72|286:73|305:89,2,105,6|8|2,0:0|0:0|0:0,0:0:0:0:
117,83,203320,2,0,P|130:143|164:172,1,105,6|8,0:0|0:0,0:0:0:0:
242,267,204029,1,2,0:0:0:0:
163,296,204265,6,0,B|135:323|126:353|126:353|95:341|77:291,1,140,6|2,0:0|0:0,0:0:0:0:
32,139,205210,2,0,P|22:85|0:34,2,105,6|10|2,0:0|0:0|0:0,0:0:0:0:
41,222,206155,2,0,P|74:212|101:188,1,70,4|0,0:0|0:0,0:0:0:0:
149,121,206627,2,0,P|168:104|220:89,2,70,4|4|4,0:0|0:0|0:0,0:0:0:0:
215,172,207336,2,0,P|234:201|241:242,2,70,0|0|0,0:0|0:0|0:0,0:0:0:0:
155,231,208045,5,4,0:3:0:0:
244,319,208399,2,0,P|295:301|325:251,1,105,8|0,0:0|0:0,0:0:0:0:
391,213,208989,2,0,P|407:243|437:276,1,70,6|0,0:0|0:0,0:0:0:0:
467,291,209344,1,8,0:0:0:0:
511,173,209698,1,2,0:0:0:0:
433,141,209934,2,0,B|412:107|412:107|403:27,2,105,6|8|2,0:0|0:0|0:0,0:0:0:0:
391,213,210879,2,0,P|347:238|288:245,1,105,6|8,0:0|0:0,0:0:0:0:
183,183,211588,1,2,0:0:0:0:
170,99,211824,6,0,P|119:129|100:203,1,140,4|2,0:3|0:0,0:0:0:0:
186,347,212769,2,0,B|221:355|255:338|255:338|292:320|324:328,1,140,4|2,0:3|0:0,0:0:0:0:
402,351,213478,1,0,0:0:0:0:
481,379,213714,1,4,0:0:0:0:
495,252,214068,1,4,0:0:0:0:
511,127,214422,1,4,0:0:0:0:
459,61,214659,2,0,B|414:95|414:95|391:185,1,140,4|4,0:0|0:0,0:0:0:0:
195,249,215616,5,0,2:0:0:0:
195,249,215773,2,0,L|171:153,2,93.3333333333333,0|4|4,2:0|2:0|2:0,0:0:0:0:
173,298,216560,2,0,P|147:303|117:318,2,46.6666666666667,4|4|4,2:0|2:0|2:0,0:0:0:0:
173,298,217062,1,4,2:0:0:0:
287,314,217386,2,0,P|337:321|391:307,1,93.3333333333333,0|0,2:0|2:0,0:0:0:0:
256,192,217818,12,0,219589,3:0:0:0:
