osu file format v14

[General]
AudioFilename: Ryu to sakura miko.mp3
AudioLeadIn: 2000
PreviewTime: 10190
Countdown: 0
SampleSet: None
StackLeniency: 0.7
Mode: 0
LetterboxInBreaks: 0
WidescreenStoryboard: 1

[Editor]
DistanceSpacing: 1.2
BeatDivisor: 2
GridSize: 4
TimelineZoom: 1.4

[Metadata]
Title:Ryuu to sakura miko
TitleUnicode:龍と桜巫女
Artist:Hatsuki Yura
ArtistUnicode:葉月ゆら
Creator:Narcissu
Version:Insane
Source:
Tags:
BeatmapID:1877124
BeatmapSetID:898594

[Difficulty]
HPDrainRate:6
CircleSize:4
OverallDifficulty:7.5
ApproachRate:9
SliderMultiplier:1
SliderTickRate:1

[Events]
//Background and Video events
0,0,"BG.jpg",0,0
//Break Periods
2,166253,173829
//Storyboard Layer 0 (Background)
//Storyboard Layer 1 (Fail)
//Storyboard Layer 2 (Pass)
//Storyboard Layer 3 (Foreground)
//Storyboard Sound Samples

[TimingPoints]
-850,304.568527918782,4,2,1,60,1,0
63,-74.0740740740741,4,2,1,60,0,0
10114,-66.6666666666667,4,2,1,60,0,0
29606,-74.0740740740741,4,2,1,60,0,0
67982,-71.4285714285714,4,2,1,60,0,0
68287,-68.9655172413793,4,2,1,60,0,0
68591,-66.6666666666667,4,2,1,60,0,1
87170,-71.4285714285714,4,2,1,60,0,0
145952,-68.9655172413793,4,2,1,60,0,0
146256,-66.6666666666667,4,2,1,60,0,0
146561,-64.5161290322581,4,2,1,60,0,1
165139,-100,4,2,1,60,0,0
174429,-71.4285714285714,4,2,1,60,0,0
187373,-68.9655172413793,4,2,1,60,0,0
187677,-66.6666666666667,4,2,1,60,0,0
187982,-62.5,4,2,1,60,0,1
207474,-58.8235294117647,4,2,1,60,0,1
226967,-58.8235294117647,4,2,1,60,0,0

[Colours]
Combo1 : 255,128,255
Combo2 : 128,255,255
Combo3 : 255,255,128
Combo4 : 128,128,255

[HitObjects]
432,92,368,5,2,0:0:0:0:
432,92,520,2,0,L|288:84,1,135.000000514984,2|0,0:0|0:0,0:0:0:0:
235,31,977,2,0,B|203:55|203:55|103:63,1,135.000000514984,8|0,0:0|0:0,0:0:0:0:
109,63,1434,6,0,P|150:114|143:179,1,135.000000514984,2|2,0:0|0:0,0:0:0:0:
72,136,1891,1,2,0:0:0:0:
232,168,2195,1,8,0:0:0:0:
92,252,2500,1,0,0:0:0:0:
204,300,2804,5,2,0:0:0:0:
204,300,2957,1,2,0:0:0:0:
143,179,3261,1,0,0:0:0:0:
143,179,3413,2,0,B|191:171|191:171|243:179|243:179|299:171,1,135.000000514984,8|0,0:0|0:0,0:0:0:0:
323,107,3870,6,0,P|388:103|434:150,1,135.000000514984,2|2,0:0|0:0,0:0:0:0:
359,178,4327,1,2,0:0:0:0:
404,332,4632,1,8,0:0:0:0:
468,140,4936,1,8,0:0:0:0:
472,284,5241,5,2,0:0:0:0:
472,284,5393,2,0,B|332:277,1,135.000000514984,2|0,0:0|0:0,0:0:0:0:
256,260,5850,2,0,B|276:220|276:220|264:116,1,135.000000514984,8|0,0:0|0:0,0:0:0:0:
265,130,6307,6,0,P|204:152|128:136,1,135.000000514984,2|2,0:0|0:0,0:0:0:0:
68,100,6764,1,2,0:0:0:0:
124,308,7068,1,8,0:0:0:0:
4,192,7373,2,0,L|104:184,1,67.5000002574921,2|2,0:0|0:0,0:0:0:0:
152,180,7677,5,2,0:0:0:0:
152,180,7830,1,2,0:0:0:0:
312,164,8134,1,2,0:0:0:0:
312,163,8287,2,0,P|249:145|220:86,1,135.000000514984,8|0,0:0|0:0,0:0:0:0:
375,115,8743,6,0,P|391:179|354:234,1,135.000000514984,6|2,0:0|0:0,0:0:0:0:
324,248,9124,1,8,0:0:0:0:
324,248,9200,2,0,L|240:244,1,67.5000002574921,8|8,0:0|0:0,0:0:0:0:
136,192,9505,1,8,0:0:0:0:
152,300,9658,1,8,0:0:0:0:
136,192,9810,1,8,0:0:0:0:
152,300,9962,1,8,0:0:0:0:
20,232,10114,6,0,P|4:192|4:132,1,75.0000028610231,6|0,0:1|0:0,0:0:0:0:
52,84,10419,2,0,P|89:79|123:64,1,75.0000028610231,8|2,0:0|0:0,0:0:0:0:
200,16,10723,1,0,0:0:0:0:
288,24,10875,1,2,0:0:0:0:
324,108,11028,1,8,0:0:0:0:
412,100,11180,6,0,B|440:136|440:136|452:252,1,150.000005722046,8|2,0:0|0:0,0:0:0:0:
460,328,11637,1,8,0:0:0:0:
460,328,11789,1,0,0:0:0:0:
356,224,11941,2,0,P|320:212|272:212,1,75.0000028610231,2|0,0:0|0:0,0:0:0:0:
296,332,12246,2,0,P|224:360|140:352,1,150.000005722046,8|2,0:0|0:0,0:0:0:0:
72,316,12703,6,0,L|64:232,2,75.0000028610231,0|8|2,0:0|0:0|0:0,0:0:0:0:
200,192,13160,1,0,0:0:0:0:
200,192,13312,2,0,L|193:266,1,75.0000028610231,2|8,0:0|0:0,0:0:0:0:
116,160,13617,6,0,P|184:104|256:124,1,150.000005722046,8|2,0:0|0:0,0:0:0:0:
300,180,14073,2,0,P|332:192|388:192,1,75.0000028610231,8|0,0:0|0:0,0:0:0:0:
512,176,14378,1,2,0:0:0:0:
436,128,14530,1,0,0:0:0:0:
512,176,14682,2,0,L|524:340,1,150.000005722046,8|6,0:0|0:0,0:0:0:0:
416,344,15139,6,0,L|424:244,2,75.0000028610231,0|8|2,0:0|0:0|0:0,0:0:0:0:
328,308,15596,2,0,L|240:312,1,75.0000028610231,0|2,0:0|0:0,0:0:0:0:
164,316,15901,1,8,0:0:0:0:
76,320,16053,6,0,P|40:252|60:156,1,150.000005722046,8|2,0:0|0:0,0:0:0:0:
179,116,16510,2,0,P|162:149|136:176,1,75.0000028610231,8|0,0:0|0:0,0:0:0:0:
88,100,16814,1,2,0:0:0:0:
88,100,16967,1,0,0:0:0:0:
152,36,17119,2,0,P|189:34|225:43,1,75.0000028610231,8|0,0:0|0:0,0:0:0:0:
272,120,17424,5,2,0:0:0:0:
360,112,17576,1,2,0:0:0:0:
409,36,17728,1,8,0:0:0:0:
496,59,17880,1,2,0:0:0:0:
501,149,18033,1,8,0:0:0:0:
417,181,18185,2,0,P|400:220|396:268,1,75.0000028610231,2|8,0:0|0:0,0:0:0:0:
280,152,18490,6,0,B|256:140|256:140|232:144|232:144|188:124|116:140,1,150.000005722046,12|8,0:0|0:0,0:0:0:0:
48,164,18946,2,0,P|23:194|2:255,1,75.0000028610231,8|0,0:0|0:0,0:0:0:0:
100,240,19251,2,0,P|93:278|106:341,1,75.0000028610231,2|0,0:0|0:0,0:0:0:0:
184,284,19556,1,8,0:0:0:0:
184,284,19632,1,8,0:0:0:0:
184,284,19708,1,8,0:0:0:0:
256,336,19860,6,0,L|340:340,1,75.0000028610231,6|0,0:1|0:0,0:0:0:0:
420,340,20165,2,0,L|408:256,1,75.0000028610231,8|2,0:0|0:0,0:0:0:0:
348,120,20469,1,0,0:0:0:0:
340,208,20621,1,2,0:0:0:0:
428,80,20774,1,8,0:0:0:0:
348,120,20926,6,0,B|300:116|300:116|200:56,1,150.000005722046,8|2,0:0|0:0,0:0:0:0:
136,16,21383,1,8,0:0:0:0:
136,16,21535,1,0,0:0:0:0:
2,90,21687,2,0,P|39:91|75:83,1,75.0000028610231,2|0,0:0|0:0,0:0:0:0:
176,164,21992,2,0,P|112:164|28:232,1,150.000005722046,8|2,0:0|0:0,0:0:0:0:
76,292,22449,6,0,P|76:332|60:376,2,75.0000028610231,0|8|2,0:0|0:0|0:0,0:0:0:0:
160,204,22906,1,0,0:0:0:0:
160,204,23058,2,0,P|160:244|176:288,1,75.0000028610231,2|8,0:0|0:0,0:0:0:0:
284,320,23363,6,0,L|448:300,1,150.000005722046,8|2,0:0|0:0,0:0:0:0:
488,212,23820,2,0,L|413:201,1,75.0000028610231,8|0,0:0|0:0,0:0:0:0:
288,112,24124,1,2,0:0:0:0:
376,120,24276,1,0,0:0:0:0:
324,192,24428,2,0,P|248:216|156:200,1,150.000005722046,8|2,0:0|0:0,0:0:0:0:
92,188,24886,6,0,P|54:192|20:206,2,75.0000028610231,0|8|2,0:0|0:0|0:0,0:0:0:0:
152,120,25342,2,0,L|156:28,1,75.0000028610231,0|2,0:0|0:0,0:0:0:0:
244,40,25647,1,8,0:0:0:0:
332,32,25799,6,0,B|356:76|356:76|368:176,1,150.000005722046,12|2,0:0|0:0,0:0:0:0:
450,287,26256,2,0,P|416:270|380:264,1,75.0000028610231,8|0,0:0|0:0,0:0:0:0:
300,304,26560,1,2,0:0:0:0:
300,304,26713,1,0,0:0:0:0:
212,284,26865,2,0,P|178:301|142:307,1,75.0000028610231,8|0,0:0|0:0,0:0:0:0:
64,264,27170,5,2,0:0:0:0:
76,175,27322,1,2,0:0:0:0:
15,109,27474,1,8,0:0:0:0:
60,30,27626,1,2,0:0:0:0:
148,50,27779,1,8,0:0:0:0:
159,137,27931,2,0,P|192:163|237:179,1,75.0000028610231,2|8,0:0|0:0,0:0:0:0:
352,128,28236,6,0,B|396:136|396:136|444:176|424:248,1,150.000005722046,12|8,0:0|0:0,0:0:0:0:
396,336,28692,2,0,P|430:320|466:314,1,75.0000028610231,8|0,0:0|0:0,0:0:0:0:
316,295,28997,2,0,P|277:291|220:263,1,75.0000028610231,2|0,0:0|0:0,0:0:0:0:
180,212,29302,1,8,0:0:0:0:
180,212,29378,1,8,0:0:0:0:
180,212,29454,1,8,0:0:0:0:
260,200,29606,6,0,P|296:140|288:64,1,135.000000514984,6|8,0:1|0:0,0:0:0:0:
224,36,30063,1,0,0:0:0:0:
224,36,30215,2,0,L|132:28,1,67.5000002574921
76,24,30520,1,8,0:0:0:0:
112,96,30672,6,0,P|96:160|32:200,1,135.000000514984
84,272,31129,2,0,P|70:302|66:336,1,67.5000002574921,8|0,0:0|0:0,0:0:0:0:
148,324,31434,2,0,P|168:350|195:370,1,67.5000002574921
224,296,31738,2,0,P|270:287|297:271,1,67.5000002574921,8|0,0:0|0:0,0:0:0:0:
340,216,32043,6,0,L|474:204,2,135.000000514984,0|8|0,0:0|0:0|0:0,0:0:0:0:
488,124,32957,1,8,0:0:0:0:
452,52,33109,6,0,P|388:76|312:44,1,135.000000514984
248,72,33566,2,0,P|232:104|224:152,1,67.5000002574921,8|0,0:0|0:0,0:0:0:0:
284,192,33870,2,0,L|288:336,1,135.000000514984,0|8,0:0|0:0,0:0:0:0:
287,326,34479,6,0,B|248:356|248:356|144:364,1,135.000000514984,0|8,0:0|0:0,0:0:0:0:
88,332,34936,2,0,B|108:268|108:268|100:196,1,135.000000514984
40,144,35393,1,8,0:0:0:0:
80,76,35545,6,0,L|236:60,1,135.000000514984
296,52,36002,1,8,0:0:0:0:
296,52,36307,2,0,P|320:88|336:132,1,67.5000002574921
404,80,36611,2,0,P|406:123|398:169,1,67.5000002574921,8|0,0:0|0:0,0:0:0:0:
460,208,36916,6,0,P|416:264|408:352,1,135.000000514984,0|8,0:0|0:0,0:0:0:0:
332,276,37373,2,0,L|256:268,1,67.5000002574921
208,324,37677,2,0,L|132:332,1,67.5000002574921,0|8,0:0|0:0,0:0:0:0:
68,296,37982,6,0,P|44:240|60:152,1,135.000000514984
116,120,38439,2,0,L|128:28,1,67.5000002574921,8|0,0:0|0:0,0:0:0:0:
200,100,38743,2,0,L|228:28,1,67.5000002574921
284,104,39048,2,0,L|340:36,1,67.5000002574921,8|0,0:0|0:0,0:0:0:0:
372,128,39353,6,0,P|404:192|392:276,1,135.000000514984,0|8,0:0|0:0,0:0:0:0:
316,208,39809,1,0,0:0:0:0:
316,208,39961,2,0,L|224:200,1,67.5000002574921
192,264,40266,1,8,0:0:0:0:
112,260,40418,6,0,B|84:228|84:228|72:128,1,135.000000514984
120,68,40875,2,0,L|192:60,1,67.5000002574921,8|0,0:0|0:0,0:0:0:0:
240,124,41180,2,0,L|320:132,1,67.5000002574921
348,60,41484,2,0,L|436:48,1,67.5000002574921,8|0,0:0|0:0,0:0:0:0:
396,144,41789,6,0,L|392:292,1,135.000000514984,0|8,0:0|0:0,0:0:0:0:
392,278,42398,2,0,P|428:296|448:328,1,67.5000002574921
372,356,42703,1,8,0:0:0:0:
312,304,42855,6,0,L|300:156,1,135.000000514984
368,124,43312,2,0,P|384:92|388:56,1,67.5000002574921,8|0,0:0|0:0,0:0:0:0:
308,72,43616,2,0,P|244:104|164:92,1,135.000000514984,0|8,0:0|0:0,0:0:0:0:
182,99,44225,6,0,B|140:92|140:92|36:112,1,135.000000514984,0|8,0:0|0:0,0:0:0:0:
84,184,44682,2,0,B|72:344,1,135.000000514984
156,292,45139,1,8,0:0:0:0:
216,348,45291,6,0,B|284:352|284:352|368:324,1,135.000000514984
392,264,45748,1,8,0:0:0:0:
392,264,46053,2,0,L|384:196,1,67.5000002574921
488,216,46358,2,0,L|496:148,1,67.5000002574921,8|0,0:0|0:0,0:0:0:0:
424,68,46662,6,0,P|384:44|292:52,1,135.000000514984,0|8,0:0|0:0,0:0:0:0:
264,124,47119,2,0,P|235:134|196:140,1,67.5000002574921
128,96,47424,1,0,0:0:0:0:
128,96,47576,1,8,0:0:0:0:
40,160,47728,6,0,B|28:208|28:208|36:248|36:248|28:316,1,135.000000514984
96,340,48185,2,0,L|184:332,1,67.5000002574921,8|0,0:0|0:0,0:0:0:0:
136,248,48490,2,0,L|224:256,1,67.5000002574921
248,360,48794,2,0,L|336:352,1,67.5000002574921,8|0,0:0|0:0,0:0:0:0:
336,276,49099,6,0,P|400:244|484:256,1,135.000000514984,0|8,0:0|0:0,0:0:0:0:
488,136,49556,1,0,0:0:0:0:
488,136,49708,2,0,P|452:152|412:156,1,67.5000002574921
344,136,50012,1,8,0:0:0:0:
316,60,50164,6,0,P|272:28|180:56,1,135.000000514984
248,104,50621,2,0,P|244:148|232:180,1,67.5000002574921,8|0,0:0|0:0,0:0:0:0:
168,124,50926,2,0,P|142:160|116:181,1,67.5000002574921
88,104,51231,2,0,P|47:122|14:128,1,67.5000002574921,8|0,0:0|0:0,0:0:0:0:
52,220,51535,6,0,P|48:292|-4:356,2,135.000000514984,0|8|0,0:0|0:0|0:0,0:0:0:0:
52,220,52449,1,8,0:0:0:0:
136,264,52601,6,0,P|202:266|272:240,1,135.000000514984
339,279,53058,2,0,P|354:310|360:343,1,67.5000002574921,8|0,0:0|0:0,0:0:0:0:
412,244,53363,2,0,P|417:210|432:180,1,67.5000002574921
496,132,53667,1,8,0:0:0:0:
496,132,53820,1,0,0:0:0:0:
480,52,53971,6,0,B|441:22|441:22|337:14,1,135.000000514984,0|8,0:0|0:0,0:0:0:0:
300,76,54429,1,0,0:0:0:0:
300,76,54581,2,0,L|308:164,1,67.5000002574921
240,188,54885,1,8,0:0:0:0:
216,68,55037,6,0,L|82:51,1,135.000000514984
11,110,55495,2,0,L|0:44,1,67.5000002574921,8|0,0:0|0:0,0:0:0:0:
128,172,55799,2,0,L|139:105,1,67.5000002574921
12,260,56104,2,0,L|0:193,1,67.5000002574921,8|0,0:0|0:0,0:0:0:0:
108,272,56408,6,0,P|184:248|256:272,1,135.000000514984,0|8,0:0|0:0,0:0:0:0:
284,328,56865,1,0,0:0:0:0:
364,328,57018,2,0,P|422:274|438:199,1,135.000000514984,0|8,0:0|0:0,0:0:0:0:
328,103,57474,6,0,P|319:170|344:232,1,135.000000514984
408,96,57931,2,0,P|396:60|376:36,1,67.5000002574921,8|0,0:0|0:0,0:0:0:0:
296,24,58236,1,0,0:0:0:0:
296,24,58388,1,0,0:0:0:0:
248,88,58540,1,8,0:0:0:0:
248,88,58693,1,0,0:0:0:0:
172,56,58845,6,0,B|72:60|72:60|36:84,1,135.000000514984,0|8,0:0|0:0,0:0:0:0:
96,140,59301,1,0,0:0:0:0:
96,140,59453,2,0,L|84:224,1,67.5000002574921
24,260,59758,1,8,0:0:0:0:
68,328,59910,6,0,P|124:352|216:336,1,135.000000514984
268,308,60367,2,0,L|276:240,1,67.5000002574921,8|0,0:0|0:0,0:0:0:0:
348,300,60672,2,0,L|356:232,1,67.5000002574921
428,292,60977,2,0,L|436:224,1,67.5000002574921,8|0,0:0|0:0,0:0:0:0:
500,136,61281,6,0,L|365:147,2,135.000000514984,0|8|0,0:0|0:0|0:0,0:0:0:0:
324,80,62195,1,8,0:0:0:0:
260,128,62347,6,0,P|192:128|132:68,1,135.000000514984
64,64,62804,2,0,P|59:97|43:127,1,67.5000002574921,8|0,0:0|0:0,0:0:0:0:
76,200,63108,2,0,P|72:280|104:328,1,135.000000514984,0|8,0:0|0:0,0:0:0:0:
100,324,63717,6,0,B|190:306|190:306|232:313,1,135.000000514984,0|8,0:0|0:0,0:0:0:0:
312,356,64175,1,0,0:0:0:0:
312,356,64327,2,0,L|320:268,1,67.5000002574921
324,208,64631,1,8,0:0:0:0:
428,276,64783,6,0,B|424:228|424:228|412:192|412:192|412:136,1,135.000000514984
482,50,65241,2,0,L|416:60,1,67.5000002574921,8|0,0:0|0:0,0:0:0:0:
348,16,65545,2,0,L|281:25,1,67.5000002574921
224,84,65850,1,8,0:0:0:0:
224,84,65926,1,8,0:0:0:0:
224,84,66002,1,8,0:0:0:0:
144,92,66155,6,0,P|124:68|112:12,2,67.5000002574921,8|0|0,0:0|0:0|0:0,0:0:0:0:
275,148,66611,2,0,P|297:121|307:90,2,67.5000002574921,8|0|0,0:0|0:0|0:0,0:0:0:0:
156,172,67068,2,0,P|122:168|92:153,2,67.5000002574921,8|0|0,0:0|0:0|0:0,0:0:0:0:
268,228,67524,2,0,P|301:224|331:209,2,67.5000002574921,8|0|0,0:0|0:0|0:0,0:0:0:0:
112,252,67982,6,0,P|96:292|88:336,1,69.9999978637696,8|0,0:0|0:0,0:0:0:0:
268,228,68287,2,0,P|259:195|244:160,1,72.5000022125245,8|0,0:0|0:0,0:0:0:0:
104,92,68591,6,0,P|184:96|252:44,1,150.000005722046,0|8,0:0|0:0,0:0:0:0:
240,59,69048,2,0,B|336:48|336:48|400:68,1,150.000005722046
444,136,69505,1,8,0:0:0:0:
384,204,69657,1,0,0:0:0:0:
472,224,69809,6,0,P|492:260|500:300,1,75.0000028610231
408,292,70114,2,0,P|407:333|394:371,1,75.0000028610231
161,322,70419,2,0,P|179:289|207:264,1,75.0000028610231
251,343,70724,2,0,P|283:324|320:316,1,75.0000028610231
472,224,71028,6,0,L|392:236,1,75.0000028610231
408,136,71333,2,0,L|334:125,1,75.0000028610231
208,56,71637,2,0,L|139:28,1,75.0000028610231
112,132,71942,2,0,L|37:139,1,75.0000028610231
224,184,72246,6,0,P|236:268|208:340,1,150.000005722046
64,344,72703,1,0,0:0:0:0:
132,288,72855,1,0,0:0:0:0:
84,212,73007,1,0,0:0:0:0:
84,212,73084,1,0,0:0:0:0:
84,212,73160,2,0,L|76:108,1,75.0000028610231
4,88,73464,6,0,L|168:92,1,150.000005722046
228,40,73921,2,0,P|264:60|300:68,1,75.0000028610231
364,128,74226,2,0,P|400:108|436:100,1,75.0000028610231
296,67,74530,6,0,P|276:147|328:212,1,150.000005722046
396,228,74987,1,0,0:0:0:0:
396,228,75139,2,0,L|408:324,1,75.0000028610231
244,352,75444,1,0,0:0:0:0:
244,352,75596,2,0,L|252:264,1,75.0000028610231
309,200,75901,6,0,P|252:236|157:228,1,150.000005722046
84,252,76358,2,0,L|93:326,1,75.0000028610231
14,134,76662,2,0,L|4:208,1,75.0000028610231
64,56,76967,6,0,P|128:88|224:72,1,150.000005722046
272,20,77424,1,0,0:0:0:0:
288,108,77576,1,0,0:0:0:0:
376,52,77728,1,0,0:0:0:0:
368,140,77880,1,0,0:0:0:0:
480,36,78033,1,0,0:0:0:0:
480,36,78109,1,0,0:0:0:0:
480,36,78185,1,0,0:0:0:0:
452,120,78337,6,0,B|456:224|456:224|484:292,1,150.000005722046
473,266,78794,2,0,P|412:242|316:266,1,150.000005722046
280,332,79251,1,0,0:0:0:0:
192,320,79403,1,0,0:0:0:0:
136,248,79555,6,0,L|60:240,1,75.0000028610231
96,332,79860,2,0,L|12:340,1,75.0000028610231
108,160,80165,2,0,L|100:80,1,75.0000028610231
20,136,80470,2,0,L|-4:52,1,75.0000028610231
200,124,80774,6,0,L|284:132,1,75.0000028610231
248,44,81079,2,0,L|322:40,1,75.0000028610231
488,72,81383,2,0,L|472:148,1,75.0000028610231
400,88,81688,2,0,L|368:164,1,75.0000028610231
444,264,81992,6,0,P|384:296|272:296,1,150.000005722046
192,264,82449,1,0,0:0:0:0:
160,348,82601,1,0,0:0:0:0:
284,272,82754,1,0,0:0:0:0:
192,264,82906,2,0,P|172:240|148:176,1,75.0000028610231
68,232,83210,6,0,P|68:164|144:112,1,150.000005722046
195,51,83667,2,0,P|226:73|262:83,1,75.0000028610231
424,104,83972,1,0,0:0:0:0:
348,56,84124,1,0,0:0:0:0:
424,104,84276,6,0,B|444:180|444:180|448:260,1,150.000005722046
436,340,84733,1,0,0:0:0:0:
436,340,84886,1,0,0:0:0:0:
320,360,85038,2,0,L|328:268,1,75.0000028610231
454,176,85342,2,0,L|447:250,1,75.0000028610231
336,196,85647,5,0,0:0:0:0:
344,106,85800,1,0,0:0:0:0:
262,69,85952,1,0,0:0:0:0:
202,136,86104,1,0,0:0:0:0:
247,214,86256,2,0,P|240:256|216:304,1,75.0000028610231
108,160,86561,5,0,0:0:0:0:
132,340,86713,1,0,0:0:0:0:
12,184,87017,1,0,0:0:0:0:
12,184,87170,1,0,0:0:0:0:
72,256,88084,6,0,L|232:248,1,139.999995727539
260,316,88540,1,0,0:0:0:0:
260,316,88693,2,0,P|340:320|396:264,1,139.999995727539
388,200,89150,1,0,0:0:0:0:
392,116,89302,6,0,L|396:40,2,69.9999978637696
388,200,89759,1,0,0:0:0:0:
468,228,89911,2,0,L|471:297,1,69.9999978637696
504,152,90215,1,0,0:0:0:0:
424,120,90368,1,0,0:0:0:0:
424,120,90444,1,0,0:0:0:0:
424,120,90520,6,0,P|364:156|280:148,1,139.999995727539
240,88,90977,1,0,0:0:0:0:
240,88,91129,2,0,L|88:84,1,139.999995727539
28,128,91586,6,0,P|-4:200|20:284,1,139.999995727539
88,272,92043,1,0,0:0:0:0:
172,288,92195,1,0,0:0:0:0:
248,248,92347,2,0,L|254:178,2,69.9999978637696
320,312,92804,1,0,0:0:0:0:
320,312,92880,1,0,0:0:0:0:
320,312,92957,6,0,P|400:312|456:276,1,139.999995727539
496,212,93413,1,0,0:0:0:0:
496,212,93566,2,0,B|488:116|488:116|452:60,1,139.999995727539
380,68,94023,1,0,0:0:0:0:
296,56,94175,6,0,L|216:44,2,69.9999978637696
380,68,94632,1,0,0:0:0:0:
464,79,94784,2,0,L|472:148,1,69.9999978637696
380,68,95088,1,0,0:0:0:0:
408,216,95241,1,0,0:0:0:0:
408,216,95317,1,0,0:0:0:0:
408,216,95393,6,0,L|401:285,1,69.9999978637696
308,220,95698,2,0,L|132:228,1,139.999995727539
100,176,96155,1,0,0:0:0:0:
32,224,96307,1,0,0:0:0:0:
168,225,96459,6,0,P|183:159|140:100,1,139.999995727539
0,68,96916,2,0,P|26:89|60:100,1,69.9999978637696
145,103,97221,2,0,P|179:98|210:82,1,69.9999978637696
276,28,97525,1,0,0:0:0:0:
276,28,97601,1,0,0:0:0:0:
276,28,97677,1,0,0:0:0:0:
408,72,97830,6,0,B|404:116|404:116|416:168|416:168|416:240,1,139.999995727539
492,248,98286,1,0,0:0:0:0:
492,248,98439,2,0,B|344:264,1,139.999995727539
268,272,98896,1,0,0:0:0:0:
184,284,99048,6,0,P|157:262|125:204,2,69.9999978637696
268,272,99505,1,0,0:0:0:0:
220,204,99657,2,0,P|207:171|209:105,1,69.9999978637696
256,72,99962,1,0,0:0:0:0:
140,84,100114,1,0,0:0:0:0:
140,84,100190,1,0,0:0:0:0:
140,84,100266,6,0,L|-16:72,1,139.999995727539
40,208,100723,1,0,0:0:0:0:
40,208,100875,2,0,L|124:200,1,69.9999978637696
184,160,101180,1,0,0:0:0:0:
264,184,101332,6,0,P|296:244|280:340,1,139.999995727539
392,308,101789,2,0,L|404:224,1,69.9999978637696
411,156,102094,2,0,P|445:145|472:124,1,69.9999978637696
336,124,102398,1,0,0:0:0:0:
392,44,102551,1,0,0:0:0:0:
392,44,102627,1,0,0:0:0:0:
392,44,102703,6,0,P|324:72|252:60,1,139.999995727539
184,28,103160,1,0,0:0:0:0:
184,28,103312,2,0,B|152:64|152:64|140:168,1,139.999995727539
60,180,103769,1,0,0:0:0:0:
72,264,103921,6,0,L|80:344,1,69.9999978637696
212,216,104226,1,0,0:0:0:0:
212,216,104378,1,0,0:0:0:0:
156,280,104530,2,0,L|164:360,1,69.9999978637696
308,296,104835,1,0,0:0:0:0:
308,296,104911,1,0,0:0:0:0:
308,296,104987,1,0,0:0:0:0:
404,352,105139,6,0,B|436:312|436:312|444:212,1,139.999995727539
324,144,105596,2,0,B|301:83|301:83|301:7,1,139.999995727539
408,136,106053,2,0,L|496:124,2,69.9999978637696
268,80,106510,2,0,L|180:68,2,69.9999978637696
324,144,106967,6,0,P|336:184|332:240,1,69.9999978637696
212,364,107271,2,0,P|214:329|224:295,1,69.9999978637696
252,200,107576,6,0,P|182:220|95:198,1,139.999995727539
56,152,108033,1,0,0:0:0:0:
116,208,108185,2,0,P|124:248|120:292,1,69.9999978637696
56,152,108490,1,0,0:0:0:0:
180,132,108642,6,0,P|204:76|192:0,1,139.999995727539
288,80,109099,2,0,P|316:48|356:24,1,69.9999978637696
435,95,109403,2,0,P|400:99|368:111,1,69.9999978637696
420,180,109708,2,0,P|454:185|486:199,1,69.9999978637696
432,264,110012,6,0,B|400:296|400:296|276:308,1,139.999995727539
305,305,110622,1,0,0:0:0:0:
192,252,110774,1,0,0:0:0:0:
176,336,110927,1,0,0:0:0:0:
272,228,111079,6,0,P|224:176|152:180,1,139.999995727539
40,248,111535,1,0,0:0:0:0:
40,248,111840,2,0,P|64:216|72:176,1,69.9999978637696
17,50,112144,2,0,L|24:120,1,69.9999978637696
158,176,112449,6,0,B|297:179,1,139.999995727539
340,108,112906,2,0,L|488:92,1,139.999995727539
476,204,113363,1,0,0:0:0:0:
415,144,113515,6,0,P|390:207|420:269,1,139.999995727539
504,288,113972,1,0,0:0:0:0:
504,288,114124,1,0,0:0:0:0:
448,352,114276,2,0,L|364:348,1,69.9999978637696
312,300,114581,2,0,L|228:296,1,69.9999978637696
128,352,114886,6,0,B|152:288|152:288|145:213,1,139.999995727539
52,184,115343,2,0,L|48:264,1,69.9999978637696
236,184,115647,2,0,L|232:104,1,69.9999978637696
56,92,115952,6,0,P|128:84|180:28,1,139.999995727539
248,76,116409,2,0,P|284:76|320:60,1,69.9999978637696
388,104,116713,2,0,P|424:104|460:120,1,69.9999978637696
408,184,117018,1,0,0:0:0:0:
408,184,117094,1,0,0:0:0:0:
408,184,117170,1,0,0:0:0:0:
284,208,117323,6,0,P|268:272|292:360,1,139.999995727539
140,336,117779,1,0,0:0:0:0:
180,260,117931,2,0,L|168:176,1,69.9999978637696
140,336,118236,1,0,0:0:0:0:
24,292,118388,6,0,B|32:148,1,139.999995727539
40,68,118845,2,0,L|109:60,1,69.9999978637696
229,134,119150,2,0,L|160:128,1,69.9999978637696
284,68,119454,2,0,L|372:56,1,69.9999978637696
476,136,119759,6,0,B|432:156|432:156|324:148,1,139.999995727539
340,149,120368,1,0,0:0:0:0:
356,232,120520,1,0,0:0:0:0:
372,316,120673,1,0,0:0:0:0:
272,240,120825,6,0,B|176:248|176:248|132:272,1,139.999995727539
6,208,121281,1,0,0:0:0:0:
6,208,121586,2,0,L|76:212,1,69.9999978637696
116,308,121891,2,0,L|46:311,1,69.9999978637696
44,124,122195,6,0,P|116:128|184:84,1,139.999995727539
256,116,122652,2,0,B|304:96|304:96|404:92,1,139.999995727539
476,92,123109,1,0,0:0:0:0:
380,176,123261,6,0,P|356:252|376:315,1,139.999995727539
452,248,123718,1,0,0:0:0:0:
452,248,123870,1,0,0:0:0:0:
371,308,124023,2,0,L|291:304,1,69.9999978637696
340,188,124327,2,0,L|260:164,1,69.9999978637696
204,300,124632,6,0,P|144:324|68:300,1,139.999995727539
142,158,125089,2,0,L|136:228,1,69.9999978637696
8,124,125394,1,0,0:0:0:0:
16,208,125545,1,0,0:0:0:0:
96,68,125698,6,0,B|168:52|168:52|260:56,1,139.999995727539
376,112,126155,2,0,P|410:103|441:89,1,69.9999978637696
292,124,126459,2,0,P|276:160|268:204,1,69.9999978637696
352,28,126764,1,0,0:0:0:0:
352,28,126840,1,0,0:0:0:0:
352,28,126916,1,0,0:0:0:0:
441,89,127069,6,0,P|464:160|472:236,1,139.999995727539
364,348,127526,1,0,0:0:0:0:
435,304,127678,2,0,P|469:306|502:319,1,69.9999978637696
364,348,127982,1,0,0:0:0:0:
292,304,128134,6,0,P|228:296|156:336,1,139.999995727539
115,256,128591,2,0,P|92:282|76:313,1,69.9999978637696
52,200,128896,2,0,P|81:181|114:169,1,69.9999978637696
153,97,129200,2,0,P|118:90|84:92,1,69.9999978637696
224,144,129505,6,0,P|300:132|352:72,1,139.999995727539
343,89,130114,1,0,0:0:0:0:
464,64,130266,1,0,0:0:0:0:
392,20,130419,1,0,0:0:0:0:
460,148,130571,6,0,L|476:292,1,139.999995727539
376,211,131028,2,0,L|392:280,1,69.9999978637696
300,268,131332,2,0,L|322:334,1,69.9999978637696
184,280,131637,1,0,0:0:0:0:
232,348,131790,1,0,0:0:0:0:
104,308,131941,6,0,P|72:256|80:176,1,139.999995727539
180,80,132399,1,0,0:0:0:0:
180,80,132551,2,0,L|173:149,1,69.9999978637696
104,36,132855,1,0,0:0:0:0:
264,36,133007,6,0,L|280:188,1,139.999995727539
440,112,133465,2,0,L|356:104,1,69.9999978637696
408,220,133769,2,0,L|492:212,1,69.9999978637696
304,260,134074,2,0,L|307:190,1,69.9999978637696
184,80,134378,6,0,P|155:142|183:208,1,139.999995727539
239,144,134835,1,0,0:0:0:0:
181,205,134987,2,0,B|80:208|80:208|36:236,1,139.999995727539
192,328,135444,6,0,P|236:276|320:272,1,139.999995727539
380,304,135901,2,0,P|420:296|464:268,1,69.9999978637696
400,128,136205,1,0,0:0:0:0:
392,212,136358,1,0,0:0:0:0:
496,176,136510,1,0,0:0:0:0:
488,92,136663,1,0,0:0:0:0:
400,128,136814,6,0,P|328:120|264:88,1,139.999995727539
112,80,137271,1,0,0:0:0:0:
188,120,137424,2,0,P|196:152|200:192,1,69.9999978637696
112,80,137728,1,0,0:0:0:0:
16,160,137880,6,0,P|0:236|16:312,1,139.999995727539
128,328,138337,2,0,L|121:258,1,69.9999978637696
212,276,138642,2,0,L|218:345,1,69.9999978637696
308,360,138946,2,0,L|301:290,1,69.9999978637696
452,188,139251,6,0,L|436:340,1,139.999995727539
437,327,139860,1,0,0:0:0:0:
400,252,140012,1,0,0:0:0:0:
332,204,140165,1,0,0:0:0:0:
436,104,140317,6,0,P|368:120|276:84,1,139.999995727539
232,52,140774,1,0,0:0:0:0:
232,52,141078,2,0,P|192:52|148:64,1,69.9999978637696
100,112,141383,2,0,P|88:145|70:175,1,69.9999978637696
16,112,141688,6,0,P|-16:176|16:240,1,139.999995727539
164,244,142144,1,0,0:0:0:0:
84,276,142297,2,0,L|80:364,1,69.9999978637696
164,244,142601,1,0,0:0:0:0:
272,312,142754,6,0,B|376:304|376:304|416:280,1,139.999995727539
476,236,143210,2,0,L|482:166,1,69.9999978637696
396,112,143515,2,0,L|389:42,1,69.9999978637696
332,164,143820,1,0,0:0:0:0:
332,164,143896,1,0,0:0:0:0:
332,164,143972,1,0,0:0:0:0:
224,72,144124,6,0,L|136:64,1,69.9999978637696
18,122,144429,1,0,0:0:0:0:
18,122,144581,2,0,L|88:116,1,69.9999978637696
205,190,144886,1,0,0:0:0:0:
205,190,145038,2,0,L|136:184,1,69.9999978637696
55,274,145342,1,0,0:0:0:0:
54,274,145494,2,0,L|124:268,1,69.9999978637696
184,324,145799,1,0,0:0:0:0:
270,317,145952,6,0,P|290:287|299:252,1,72.5000022125245
472,192,146256,2,0,P|480:225|504:260,1,75.0000028610231
375,195,146561,6,0,P|310:159|237:179,1,155.000001182556
235,179,147018,2,0,B|124:176|124:176|72:140,1,155.000001182556
20,64,147475,1,0,0:0:0:0:
156,84,147627,1,0,0:0:0:0:
52,168,147779,6,0,P|32:204|24:256,1,77.5000005912781
168,280,148084,2,0,P|188:316|196:368,1,77.5000005912781
76,340,148388,2,0,P|36:328|-12:332,1,77.5000005912781
144,192,148693,2,0,P|184:180|232:184,1,77.5000005912781
332,232,148998,6,0,L|340:136,1,77.5000005912781
484,104,149302,2,0,L|477:181,1,77.5000005912781
400,368,149606,2,0,L|406:290,1,77.5000005912781
364,128,149910,2,0,L|356:224,1,77.5000005912781
160,212,150216,6,0,P|144:140|204:72,1,155.000001182556
276,236,150673,1,0,0:0:0:0:
156,304,150825,1,0,0:0:0:0:
236,168,150977,1,0,0:0:0:0:
236,168,151054,1,0,0:0:0:0:
236,168,151129,1,0,0:0:0:0:
116,180,151281,1,0,0:0:0:0:
268,272,151434,6,0,P|356:272|424:224,1,155.000001182556
504,216,151891,2,0,P|488:176|480:136,1,77.5000005912781
376,104,152195,2,0,P|392:64|400:24,1,77.5000005912781
411,238,152500,6,0,P|344:275|268:272,1,155.000001182556
184,232,152957,1,0,0:0:0:0:
140,312,153109,1,0,0:0:0:0:
140,312,153261,1,0,0:0:0:0:
268,272,153413,1,0,0:0:0:0:
184,232,153566,2,0,P|172:192|168:136,1,77.5000005912781
24,176,153871,6,0,P|62:112|59:38,1,150.000005722046
228,116,154327,2,0,P|190:125|152:124,1,77.5000005912781
370,120,154632,2,0,P|342:145|308:164,1,77.5000005912781
401,30,154936,6,0,P|456:80|453:155,1,155.000001182556
336,272,155393,1,0,0:0:0:0:
370,120,155545,1,0,0:0:0:0:
464,296,155698,1,0,0:0:0:0:
360,256,155850,1,0,0:0:0:0:
488,152,156002,1,0,0:0:0:0:
488,152,156078,1,0,0:0:0:0:
488,152,156155,1,0,0:0:0:0:
348,152,156307,6,0,P|276:104|252:24,1,155.000001182556
252,42,156764,2,0,B|208:24|208:24|80:28,1,155.000001182556
0,160,157221,1,0,0:0:0:0:
84,116,157373,1,0,0:0:0:0:
172,148,157525,6,0,P|196:184|212:228,1,77.5000005912781
113,308,157830,2,0,P|118:270|116:232,1,77.5000005912781
300,320,158134,2,0,P|338:324|376:322,1,77.5000005912781
411,199,158439,2,0,P|379:220|343:235,1,77.5000005912781
400,104,158743,6,0,L|393:26,1,77.5000005912781
280,80,159048,2,0,L|273:2,1,77.5000005912781
40,56,159353,2,0,L|33:133,1,77.5000005912781
156,108,159657,2,0,L|149:185,1,77.5000005912781
72,284,159962,6,0,L|248:268,1,155.000001182556
320,260,160419,1,0,0:0:0:0:
372,336,160571,1,0,0:0:0:0:
226,269,160724,1,0,0:0:0:0:
328,168,160876,2,0,L|333:90,1,77.5000005912781
120,12,161180,6,0,B|104:56|104:56|116:176,1,155.000001182556
188,224,161637,2,0,L|180:308,1,77.5000005912781
40,252,161942,1,0,0:0:0:0:
48,344,162094,1,0,0:0:0:0:
114,163,162246,6,0,P|192:128|268:176,1,155.000001182556
344,312,162703,1,0,0:0:0:0:
344,312,162856,1,0,0:0:0:0:
396,236,163008,2,0,L|480:224,1,77.5000005912781
472,225,163236,1,0,0:0:0:0:
472,225,163312,2,0,L|484:141,1,77.5000005912781
344,156,163617,5,0,0:0:0:0:
274,218,163769,1,0,0:0:0:0:
213,80,163921,1,0,0:0:0:0:
305,71,164073,1,0,0:0:0:0:
193,172,164226,1,0,0:0:0:0:
193,172,164302,1,0,0:0:0:0:
193,172,164378,1,0,0:0:0:0:
132,34,164529,5,0,0:0:0:0:
101,181,164682,1,0,0:0:0:0:
62,96,164987,1,0,0:0:0:0:
62,96,165139,1,0,0:0:0:0:
72,316,166053,5,0,0:0:0:0:
56,260,174429,6,0,P|120:240|184:296,1,139.999995727539
176,278,174810,1,0,0:0:0:0:
176,278,174886,2,0,L|268:274,1,69.9999978637696
376,220,175191,1,0,0:0:0:0:
360,332,175344,1,0,0:0:0:0:
376,220,175496,1,0,0:0:0:0:
360,332,175648,1,0,0:0:0:0:
448,180,175799,6,0,L|292:168,2,139.999995727539
488,108,176561,1,0,0:0:0:0:
436,44,176713,1,0,0:0:0:0:
356,72,176865,6,0,P|272:68|212:20,1,139.999995727539
152,76,177322,2,0,P|116:64|60:64,1,69.9999978637696
72,208,177627,2,0,P|88:176|100:144,1,69.9999978637696
226,38,177931,2,0,P|237:70|253:102,1,69.9999978637696
172,224,178236,6,0,P|236:192|324:216,1,139.999995727539
444,140,178693,2,0,P|400:196|396:288,1,139.999995727539
456,316,179150,1,0,0:0:0:0:
364,284,179302,6,0,B|324:308|324:308|212:300,1,139.999995727539
148,296,179759,2,0,P|132:268|116:216,1,69.9999978637696
40,256,180063,2,0,P|40:223|52:170,1,69.9999978637696
20,108,180368,1,0,0:0:0:0:
96,72,180520,6,0,P|160:96|252:72,1,139.999995727539
376,76,180977,2,0,L|369:145,1,69.9999978637696
300,40,181281,1,0,0:0:0:0:
300,40,181434,1,0,0:0:0:0:
336,160,181586,1,0,0:0:0:0:
456,120,181738,6,0,B|476:164|476:164|480:276,1,139.999995727539
320,348,182195,2,0,L|328:260,1,69.9999978637696
444,228,182500,2,0,L|452:316,1,69.9999978637696
336,160,182804,1,0,0:0:0:0:
248,232,182957,6,0,L|84:240,1,139.999995727539
28,212,183413,1,0,0:0:0:0:
92,156,183566,1,0,0:0:0:0:
12,132,183718,1,0,0:0:0:0:
28,212,183870,1,0,0:0:0:0:
92,156,184023,1,0,0:0:0:0:
80,72,184175,6,0,L|248:64,1,139.999995727539
364,144,184632,1,0,0:0:0:0:
376,60,184784,1,0,0:0:0:0:
264,176,184936,1,0,0:0:0:0:
248,92,185089,1,0,0:0:0:0:
376,180,185241,1,0,0:0:0:0:
376,180,185317,1,0,0:0:0:0:
376,180,185393,1,0,0:0:0:0:
480,84,185545,6,0,L|492:176,1,69.9999978637696
312,264,185850,1,0,0:0:0:0:
312,264,186002,2,0,L|300:356,1,69.9999978637696
440,256,186307,1,0,0:0:0:0:
440,256,186459,2,0,L|532:268,1,69.9999978637696
264,176,186764,1,0,0:0:0:0:
264,176,186916,2,0,L|172:188,1,69.9999978637696
388,60,187221,1,0,0:0:0:0:
464,100,187373,6,0,P|474:135|478:171,1,72.5000022125245
312,344,187677,2,0,P|316:308|330:269,1,75.0000028610231
384,156,187982,6,0,P|292:148|232:80,1,160
14,143,188439,2,0,B|58:167|58:167|168:164,1,160
196,24,188896,1,0,0:0:0:0:
88,76,189048,1,0,0:0:0:0:
168,164,189200,6,0,P|176:208|172:256,1,80
0,328,189505,2,0,P|9:289|26:253,1,80,0|0,0:3|0:3,0:3:0:0:
200,188,189809,2,0,P|196:232|180:277,1,80
24,320,190114,2,0,P|42:284|68:254,1,80,0|0,0:3|0:3,0:3:0:0:
256,324,190419,6,0,P|296:316|340:296,1,80
512,288,190723,2,0,P|475:306|438:336,1,80
232,312,191028,2,0,P|268:293|305:263,1,80
512,248,191332,2,0,P|480:274|452:313,1,80
400,192,191637,6,0,P|404:104|356:40,1,160
184,72,192094,1,0,0:0:0:0:
300,140,192246,1,0,0:0:0:0:
160,192,192398,1,0,0:0:0:0:
160,192,192474,1,0,0:0:0:0:
160,192,192551,1,0,0:0:0:0:
204,88,192703,1,0,0:0:0:0:
240,236,192855,6,0,B|188:236|188:236|164:232|164:232|140:240|140:240|48:252,1,160
136,344,193312,2,0,L|36:336,1,80
80,156,193617,2,0,L|-20:164,1,80
208,48,193921,6,0,B|192:100|192:100|208:224,1,160
288,308,194378,1,0,0:0:0:0:
156,288,194530,1,0,0:0:0:0:
156,288,194682,1,0,0:0:0:0:
296,204,194834,1,0,0:0:0:0:
184,160,194987,2,0,L|172:68,1,80
424,48,195292,6,0,B|396:84|396:84|344:116|268:76,1,160
408,228,195748,2,0,P|370:216|332:191,1,80
396,376,196053,2,0,P|369:347|348:306,1,80
84,272,196357,6,0,B|156:264|156:264|172:268|172:268|268:260,1,160
68,168,196814,1,0,0:0:0:0:
152,72,196966,1,0,0:0:0:0:
188,184,197119,1,0,0:0:0:0:
80,144,197271,1,0,0:0:0:0:
276,124,197423,1,0,0:0:0:0:
276,124,197499,1,0,0:0:0:0:
276,124,197576,1,0,0:0:0:0:
304,215,197728,6,0,P|363:164|366:87,1,160
512,128,198185,2,0,B|404:124|404:124|366:89,1,160
304,16,198642,1,0,0:0:0:0:
220,60,198794,1,0,0:0:0:0:
136,104,198946,6,0,L|56:95,1,80
192,180,199251,2,0,L|300:168,1,80
100,232,199556,2,0,L|20:223,1,80
216,296,199861,2,0,L|324:284,1,80
100,232,200164,6,0,P|84:192|84:144,1,80
276,64,200469,2,0,P|273:103|258:140,1,80
24,84,200774,2,0,P|50:50|92:26,1,80
175,209,201079,2,0,P|139:226|99:231,1,80
176,80,201383,6,0,P|248:92|328:56,1,160
472,116,201840,1,0,0:0:0:0:
324,164,201992,1,0,0:0:0:0:
448,24,202145,1,0,0:0:0:0:
500,124,202297,2,0,L|496:208,1,80
376,344,202601,6,0,B|352:304|352:304|348:232|348:232|328:172,1,160
248,232,203058,2,0,L|240:316,1,80
48,292,203363,1,0,0:0:0:0:
144,280,203515,1,0,0:0:0:0:
28,188,203667,6,0,B|100:212|152:172|152:172|168:124,1,160
104,64,204124,1,0,0:0:0:0:
104,64,204277,1,0,0:0:0:0:
256,88,204429,2,0,L|264:172,1,80
263,167,204657,1,0,0:0:0:0:
263,167,204733,2,0,L|367:175,1,80
493,157,205038,5,0,0:0:0:0:
362,81,205190,1,0,0:0:0:0:
423,219,205342,1,0,0:0:0:0:
454,72,205494,1,0,0:0:0:0:
342,173,205647,1,0,0:0:0:0:
342,173,205723,1,0,0:0:0:0:
342,173,205799,1,0,0:0:0:0:
211,97,205952,5,0,0:0:0:0:
304,264,206103,1,0,0:0:0:0:
104,228,206408,1,0,0:0:0:0:
104,228,206560,1,0,0:0:0:0:
96,264,207474,5,0,0:0:0:0:
208,176,207627,1,0,0:0:0:0:
200,260,207779,1,0,0:0:0:0:
192,344,207931,1,0,0:0:0:0:
200,260,208084,2,0,L|296:256,1,85.0000016212464
356,208,208388,1,0,0:0:0:0:
396,286,208540,6,0,B|440:252|440:252|456:116,1,170.000003242493
340,8,208997,1,0,0:0:0:0:
348,112,209150,1,0,0:0:0:0:
168,64,209302,2,0,P|212:51|272:52,1,85.0000016212464
420,200,209606,2,0,P|348:216|244:172,1,170.000003242493
124,244,210063,5,0,0:0:0:0:
44,184,210215,1,0,0:0:0:0:
124,244,210368,1,0,0:0:0:0:
232,152,210520,1,0,0:0:0:0:
44,184,210672,2,0,P|28:228|24:272,1,85.0000016212464
280,347,210977,6,0,B|284:315|284:315|272:291|272:291|292:224|248:167,1,170.000003242493
176,248,211434,2,0,P|168:296|184:348,1,85.0000016212464
372,268,211738,1,0,0:0:0:0:
288,88,211891,1,0,0:0:0:0:
437,56,212043,2,0,B|456:120|408:160|408:160|353:166,1,170.000003242493
104,104,212500,6,0,L|220:112,1,85.0000016212464
284,240,212804,1,0,0:0:0:0:
104,212,212957,2,0,L|-12:220,1,85.0000016212464
204,140,213261,1,0,0:0:0:0:
196,316,213413,6,0,P|268:352|380:312,1,170.000003242493
480,232,213870,1,0,0:0:0:0:
480,232,214023,1,0,0:0:0:0:
388,164,214175,1,0,0:0:0:0:
336,308,214328,1,0,0:0:0:0:
388,164,214480,2,0,L|380:76,1,85.0000016212464
144,76,214784,5,0,0:0:0:0:
300,133,214936,1,0,0:0:0:0:
140,179,215088,1,0,0:0:0:0:
243,50,215241,1,0,0:0:0:0:
236,214,215393,1,0,0:0:0:0:
144,76,215545,1,0,0:0:0:0:
300,133,215698,1,0,0:0:0:0:
140,179,215851,6,0,B|96:216|96:216|76:280|128:336,1,170.000003242493
300,320,216307,2,0,P|272:280|236:256,1,85.0000016212464
460,240,216611,2,0,P|415:219|372:216,1,85.0000016212464
512,76,216916,2,0,P|462:80|423:99,1,85.0000016212464
300,133,217221,5,0,0:0:0:0:
240,36,217373,1,0,0:0:0:0:
324,48,217525,1,0,0:0:0:0:
408,60,217677,1,0,0:0:0:0:
300,132,217830,2,0,P|295:175|301:217,1,85.0000016212464
200,156,218134,1,0,0:0:0:0:
158,62,218287,6,0,B|96:44|44:80|44:80|24:148,1,170.000003242493
176,268,218744,1,0,0:0:0:0:
166,164,218897,1,0,0:0:0:0:
88,323,219049,2,0,P|48:339|6:344,1,85.0000016212464
276,296,219353,2,0,P|368:300|452:352,1,170.000003242493
496,160,219809,5,0,0:0:0:0:
432,308,219961,1,0,0:0:0:0:
384,200,220114,1,0,0:0:0:0:
496,160,220266,1,0,0:0:0:0:
384,200,220418,2,0,P|340:188|288:160,1,85.0000016212464
200,44,220723,6,0,B|164:48|164:48|136:36|136:36|72:28|20:76,1,170.000003242493
108,136,221180,2,0,P|104:180|84:232,1,85.0000016212464
32,336,221484,1,0,0:0:0:0:
8,160,221637,1,0,0:0:0:0:
104,256,221789,2,0,P|186:274|280:264,1,170.000003242493
464,268,222246,6,0,L|480:351,1,85.0000016212464
512,180,222550,1,0,0:0:0:0:
368,224,222703,2,0,L|362:308,1,85.0000016212464
300,148,223007,1,0,0:0:0:0:
432,0,223160,6,0,B|468:40|468:40|484:172,1,170.000003242493
376,88,223617,1,0,0:0:0:0:
376,88,223770,1,0,0:0:0:0:
348,256,223922,1,0,0:0:0:0:
452,152,224075,1,0,0:0:0:0:
348,256,224227,2,0,L|252:264,1,85.0000016212464
80,184,224531,5,0,0:0:0:0:
168,43,224683,1,0,0:0:0:0:
179,209,224835,1,0,0:0:0:0:
75,81,224988,1,0,0:0:0:0:
234,122,225140,1,0,0:0:0:0:
80,184,225292,1,0,0:0:0:0:
168,43,225445,1,0,0:0:0:0:
179,209,225596,6,0,B|188:256|188:256|188:284|176:320|176:320|184:352|184:352|180:384,1,170.000003242493
88,264,226053,2,0,P|44:248|-8:256,1,85.0000016212464
280,308,226358,2,0,P|324:292|376:300,1,85.0000016212464
208,200,226662,1,0,0:0:0:0:
208,200,226738,1,0,0:0:0:0:
208,200,226814,1,0,0:0:0:0:
168,352,226967,5,0,0:0:0:0:
163,71,229403,6,0,P|177:111|203:144,1,85.0000016212464
402,235,229708,1,0,0:0:0:0:
402,235,229860,2,0,P|367:211|327:199,1,85.0000016212464
112,243,230165,1,0,0:0:0:0:
112,243,230317,2,0,P|154:242|193:227,1,85.0000016212464
342,66,230622,1,0,0:0:0:0:
342,66,230774,2,0,P|308:91|285:126,1,85.0000016212464
260,344,231078,1,0,0:0:0:0:
260,344,231231,2,0,P|272:303|270:261,1,85.0000016212464
136,148,231535,5,0,0:0:0:0:
368,208,231688,1,0,0:0:0:0:
