osu file format v14

[General]
AudioFilename: audio.mp3
AudioLeadIn: 0
PreviewTime: 68591
Countdown: 0
SampleSet: Soft
StackLeniency: 0.7
Mode: 0
LetterboxInBreaks: 0
WidescreenStoryboard: 0

[Editor]
Bookmarks: 217,10116,29608,34481,39354,44227,49100,68593,88085,97832,107578,112451,117324,122197,127070,146562,166055,175801,187984,207476,226968,231689
DistanceSpacing: 3.4
BeatDivisor: 8
GridSize: 4
TimelineZoom: 2.2

[Metadata]
Title:Ryuu to Sakura Miko
TitleUnicode:龍と桜巫女
Artist:Hatsuki Yura
ArtistUnicode:葉月ゆら
Creator:KKipalt
Version:Bloom
Source:
Tags:yoiyami rensou kitan 宵闇恋想奇譚 drop どろっぷ seifuumeigatsu 清風明月 hanazawa_kana kana 1112deng suzuki_1112 1112 otosaka-yu narcissu AIR tomadoi agatsu 和風民族音楽 japanese folk pop
BeatmapID:2014634
BeatmapSetID:962172

[Difficulty]
HPDrainRate:4.8
CircleSize:4.6
OverallDifficulty:9.2
ApproachRate:9.6
SliderMultiplier:1.8
SliderTickRate:1

[Events]
//Background and Video events
0,0,"BGme.jpg",0,0
//Break Periods
//Storyboard Layer 0 (Background)
//Storyboard Layer 1 (Fail)
//Storyboard Layer 2 (Pass)
//Storyboard Layer 3 (Foreground)
//Storyboard Layer 4 (Overlay)
//Storyboard Sound Samples

[TimingPoints]
-850,304.568527918782,4,2,1,70,1,0
368,-166.666666666667,4,2,1,70,0,0
2652,-100,4,2,1,70,0,0
2804,-166.666666666667,4,2,1,70,0,0
5089,-100,4,2,1,70,0,0
5241,-166.666666666667,4,2,1,70,0,0
8743,-125,4,2,1,70,0,0
10114,-100,4,2,2,70,0,0
29454,-66.6666666666667,4,2,2,70,0,0
29606,-142.857142857143,4,2,1,70,0,0
34479,-90.9090909090909,4,2,3,70,0,0
38896,-90.9090909090909,4,2,2,70,0,0
39200,-90.9090909090909,4,2,1,70,0,0
39353,-142.857142857143,4,2,1,70,0,0
44226,-90.9090909090909,4,2,3,70,0,0
48642,-90.9090909090909,4,2,2,70,0,0
48946,-90.9090909090909,4,2,1,70,0,0
49099,-83.3333333333333,4,3,4,70,0,0
53667,-83.3333333333333,4,2,1,70,0,0
53972,-83.3333333333333,4,3,5,70,0,0
55038,-83.3333333333333,4,2,1,70,0,0
55190,-83.3333333333333,4,3,5,70,0,0
56408,-83.3333333333333,4,2,3,70,0,0
57474,-83.3333333333333,4,2,1,70,0,0
57779,-83.3333333333333,4,2,2,70,0,0
58693,-83.3333333333333,4,3,4,70,0,0
63413,-83.3333333333333,4,2,1,70,0,0
63718,-83.3333333333333,4,2,3,70,0,0
66155,-83.3333333333333,4,2,1,70,0,0
67068,-66.6666666666667,4,2,1,70,0,0
67982,-83.3333333333333,4,2,1,70,0,0
68287,-55.5555555555556,4,2,1,70,0,0
68591,-71.4285714285714,4,2,3,80,0,1
72094,-71.4285714285714,4,2,2,80,0,1
72246,-71.4285714285714,4,2,3,80,0,1
72601,-71.4285714285714,4,2,3,80,0,1
72855,-71.4285714285714,4,2,3,80,0,1
73007,-71.4285714285714,4,2,1,80,0,1
73464,-71.4285714285714,4,2,2,80,0,1
73921,-71.4285714285714,4,2,1,80,0,1
74834,-71.4285714285714,4,2,2,80,0,1
74835,-71.4285714285714,4,2,2,80,0,1
75596,-71.4285714285714,4,2,1,80,0,1
76205,-71.4285714285714,4,2,2,80,0,1
76358,-71.4285714285714,4,2,1,80,0,1
78033,-71.4285714285714,4,2,1,80,0,0
78337,-71.4285714285714,4,2,3,80,0,1
81840,-71.4285714285714,4,2,2,80,0,1
81992,-71.4285714285714,4,2,3,80,0,1
82347,-71.4285714285714,4,2,3,80,0,1
82601,-71.4285714285714,4,2,3,80,0,1
82906,-71.4285714285714,4,2,1,80,0,1
83210,-71.4285714285714,4,2,2,80,0,1
83667,-71.4285714285714,4,2,1,80,0,1
84580,-71.4285714285714,4,2,2,80,0,1
84581,-71.4285714285714,4,2,2,80,0,1
85342,-71.4285714285714,4,2,1,80,0,1
88084,-100,4,2,2,70,0,0
107271,-71.4285714285714,4,2,2,70,0,0
107576,-142.857142857143,4,2,1,70,0,0
112449,-90.9090909090909,4,2,3,70,0,0
116865,-90.9090909090909,4,2,2,70,0,0
117170,-90.9090909090909,4,2,1,70,0,0
117322,-142.857142857143,4,2,1,70,0,0
122195,-90.9090909090909,4,2,3,70,0,0
126611,-90.9090909090909,4,2,2,70,0,0
126916,-90.9090909090909,4,2,1,70,0,0
127068,-83.3333333333333,4,3,4,70,0,0
131637,-83.3333333333333,4,2,1,70,0,0
131941,-83.3333333333333,4,3,5,70,0,0
133007,-83.3333333333333,4,2,1,70,0,0
133160,-83.3333333333333,4,3,5,70,0,0
134378,-83.3333333333333,4,2,3,70,0,0
135444,-83.3333333333333,4,2,1,70,0,0
135672,-83.3333333333333,4,2,2,70,0,0
136662,-83.3333333333333,4,3,4,70,0,0
141383,-83.3333333333333,4,2,1,70,0,0
141688,-83.3333333333333,4,2,3,70,0,0
144124,-83.3333333333333,4,2,1,70,0,0
145038,-66.6666666666667,4,2,1,70,0,0
145952,-83.3333333333333,4,2,1,70,0,0
146256,-55.5555555555556,4,2,1,70,0,0
146561,-68.9655172413793,4,2,3,80,0,1
150063,-68.9655172413793,4,2,2,80,0,1
150215,-68.9655172413793,4,2,3,80,0,1
150571,-68.9655172413793,4,2,3,80,0,1
150825,-68.9655172413793,4,2,3,80,0,1
150977,-68.9655172413793,4,2,1,80,0,1
151434,-68.9655172413793,4,2,2,80,0,1
151891,-68.9655172413793,4,2,1,80,0,1
152804,-68.9655172413793,4,2,2,80,0,1
153566,-68.9655172413793,4,2,1,80,0,1
154175,-68.9655172413793,4,2,2,80,0,1
154327,-68.9655172413793,4,2,1,80,0,1
156002,-68.9655172413793,4,2,1,80,0,0
156307,-68.9655172413793,4,2,3,80,0,1
160317,-68.9655172413793,4,2,3,80,0,1
160571,-68.9655172413793,4,2,3,80,0,1
160723,-68.9655172413793,4,2,1,80,0,1
161180,-68.9655172413793,4,2,2,80,0,1
161637,-68.9655172413793,4,2,1,80,0,1
162550,-68.9655172413793,4,2,2,80,0,1
162551,-68.9655172413793,4,2,2,80,0,1
163312,-68.9655172413793,4,2,1,80,0,1
166053,-142.857142857143,4,2,2,60,0,0
167119,-142.857142857143,4,2,3,60,0,0
167576,-142.857142857143,4,2,2,60,0,0
167880,-142.857142857143,4,2,3,60,0,0
168185,-142.857142857143,4,2,2,60,0,0
168490,-142.857142857143,4,2,3,60,0,0
169098,-142.857142857143,4,2,2,60,0,0
169556,-142.857142857143,4,2,3,60,0,0
169860,-142.857142857143,4,2,2,60,0,0
170012,-142.857142857143,4,2,3,60,0,0
170317,-142.857142857143,4,2,2,60,0,0
170622,-142.857142857143,4,2,3,60,0,0
170773,-142.857142857143,4,2,2,60,0,0
170926,-142.857142857143,4,2,3,60,0,0
171230,-142.857142857143,4,2,2,60,0,0
171992,-142.857142857143,4,2,3,60,0,0
172296,-142.857142857143,4,2,2,60,0,0
172297,-142.857142857143,4,2,2,60,0,0
172449,-142.857142857143,4,2,3,60,0,0
172753,-142.857142857143,4,2,2,60,0,0
172754,-142.857142857143,4,2,2,60,0,0
174733,-142.857142857143,4,2,1,60,0,0
175495,-83.3333333333333,4,2,1,60,0,0
175799,-83.3333333333333,4,2,2,70,0,0
185545,-83.3333333333333,4,2,1,70,0,0
186459,-66.6666666666667,4,2,1,70,0,0
187373,-83.3333333333333,4,2,1,70,0,0
187677,-55.5555555555556,4,2,1,70,0,0
187982,-66.6666666666667,4,2,3,80,0,1
191485,-66.6666666666667,4,2,2,80,0,1
191637,-66.6666666666667,4,2,3,80,0,1
191992,-66.6666666666667,4,2,3,80,0,1
192246,-66.6666666666667,4,2,3,80,0,1
192551,-66.6666666666667,4,2,1,80,0,1
192855,-66.6666666666667,4,2,2,80,0,1
193312,-66.6666666666667,4,2,1,80,0,1
194225,-66.6666666666667,4,2,2,80,0,1
194226,-66.6666666666667,4,2,2,80,0,1
194987,-66.6666666666667,4,2,1,80,0,1
195596,-66.6666666666667,4,2,2,80,0,1
195748,-66.6666666666667,4,2,1,80,0,1
197424,-66.6666666666667,4,2,1,80,0,0
197728,-66.6666666666667,4,2,3,80,0,1
201231,-66.6666666666667,4,2,2,80,0,1
201383,-66.6666666666667,4,2,3,80,0,1
201738,-66.6666666666667,4,2,3,80,0,1
201992,-66.6666666666667,4,2,3,80,0,1
202297,-66.6666666666667,4,2,1,80,0,1
202601,-66.6666666666667,4,2,2,80,0,1
203058,-66.6666666666667,4,2,1,80,0,1
203061,-66.6666666666667,4,2,1,80,0,1
203971,-66.6666666666667,4,2,2,80,0,1
203972,-66.6666666666667,4,2,2,80,0,1
204733,-66.6666666666667,4,2,1,80,0,1
207474,-100,4,2,2,70,0,0
226814,-66.6666666666667,4,2,2,70,0,0
226967,-125,4,2,3,70,0,0
227271,-125,4,2,2,70,0,0
227576,-125,4,2,1,70,0,0
228337,-125,4,2,2,70,0,0
228490,-125,4,2,1,70,0,0
228642,-125,4,2,2,70,0,0
228794,-125,4,2,1,70,0,0
228946,-125,4,2,2,70,0,0
229099,-83.3333333333333,4,2,1,70,0,0
229403,-83.3333333333333,4,2,1,70,0,0
231688,-83.3333333333333,4,1,3,70,0,0

[Colours]
Combo1 : 225,157,89
Combo2 : 255,170,170
Combo3 : 181,125,204
Combo4 : 212,212,212

[HitObjects]
42,322,215,6,0,L|-5:313,2,30,8|8|8,0:0|0:0|0:0,0:0:0:0:
47,331,368,1,4,3:2:0:0:
117,341,520,2,0,B|163:317|163:317|237:328,1,107.999996704102,2|2,0:3|0:3,0:0:0:0:
322,198,977,2,0,P|276:201|216:174,1,107.999996704102,8|2,0:3|0:3,0:0:0:0:
180,39,1434,6,0,L|170:119,1,80.9999975280763,0|0,3:0|0:0,0:0:0:0:
161,133,1738,1,8,0:3:0:0:
95,100,1891,1,2,0:3:0:0:
52,157,2043,1,0,3:0:0:0:
272,12,2195,2,0,L|286:122,1,107.999996704102,8|2,0:3|0:3,0:0:0:0:
405,96,2652,6,0,L|414:49,2,30,8|8|8,0:0|0:0|0:0,0:0:0:0:
392,102,2804,2,0,L|383:162,1,53.9999983520508,0|2,3:0|0:3,0:0:0:0:
330,251,3109,2,0,L|321:197,1,53.9999983520508,0|2,0:0|0:3,0:0:0:0:
512,243,3413,2,0,P|466:239|399:261,1,107.999996704102,8|2,0:3|0:3,0:0:0:0:
303,356,3870,6,0,P|258:360|224:348,1,80.9999975280763,0|0,3:0|0:0,0:0:0:0:
204,310,4175,2,0,L|216:243,2,53.9999983520508,8|2|0,0:3|0:3|3:0,0:0:0:0:
90,378,4632,2,0,L|69:271,1,107.999996704102,8|2,0:3|0:3,0:0:0:0:
85,182,5089,6,0,L|94:135,2,30,8|8|8,0:0|0:0|0:0,0:0:0:0:
93,187,5241,1,4,3:1:0:0:
10,214,5393,2,0,B|-15:186|-15:186|0:115,1,107.999996704102,2|2,0:3|0:3,0:0:0:0:
193,148,5850,2,0,P|248:151|297:129,1,107.999996704102,8|2,0:3|0:3,0:0:0:0:
22,33,6307,1,0,3:0:0:0:
24,48,6459,5,0,0:0:0:0:
71,100,6611,1,8,0:3:0:0:
140,84,6764,1,2,0:3:0:0:
164,13,6916,1,0,3:0:0:0:
297,131,7068,2,0,L|311:21,1,107.999996704102,8|2,0:3|0:3,0:0:0:0:
360,187,7525,2,0,L|331:192,2,17.9999994506836,8|0|0,0:3|0:0|0:0,0:0:0:0:
364,175,7677,6,0,P|390:171|417:171,2,53.9999983520508,4|2|0,3:2|0:3|0:0,0:0:0:0:
277,231,8134,1,2,0:3:0:0:
445,325,8287,2,0,P|445:274|402:245,1,107.999996704102,8|2,0:3|0:3,0:0:0:0:
252,304,8743,6,0,P|207:308|116:274,1,144,4|8,3:1|0:3,0:0:0:0:
115,273,9124,1,8,0:3:0:0:
115,273,9200,1,8,0:3:0:0:
131,202,9353,1,0,3:0:0:0:
36,281,9505,1,8,0:3:0:0:
0,103,9657,1,8,0:1:0:0:
170,339,9809,1,8,0:3:0:0:
288,149,9962,2,0,L|324:145,2,24,8|8|8,0:0|0:0|0:0,0:0:0:0:
140,106,10114,6,0,P|191:40|267:75,2,180,4|10|0,1:0|0:0|1:0,0:0:0:0:
411,110,10875,1,0,0:0:0:0:
340,92,11028,1,12,0:0:0:0:
102,200,11180,6,0,B|109:238|180:261|226:233|226:233|236:195,1,180,4|0,1:2|1:0,0:0:0:0:
340,92,11637,1,10,0:0:0:0:
268,76,11789,1,0,0:0:0:0:
471,199,11941,2,0,P|390:187|332:216,1,135,0|0,1:0|0:0,0:0:0:0:
330,201,12246,1,12,0:0:0:0:
495,330,12398,1,0,0:0:0:0:
504,333,12474,1,0,0:0:0:0:
512,336,12551,6,0,P|437:313|387:348,1,135,0|0,1:0|0:0,0:0:0:0:
315,359,12855,2,0,P|240:382|184:351,1,135,10|0,0:0|0:0,0:0:0:0:
188,334,13160,1,0,1:0:0:0:
255,287,13312,1,0,0:0:0:0:
219,156,13464,1,12,0:0:0:0:
17,106,13617,6,0,P|34:180|16:281,1,180,4|0,1:2|1:0,0:0:0:0:
141,384,14073,2,0,P|119:348|122:286,1,90,10|0,0:0|0:0,0:0:0:0:
284,210,14378,1,0,1:0:0:0:
163,241,14530,1,0,0:0:0:0:
16,29,14682,2,0,P|60:40|88:136,1,135,10|0,0:0|0:0,0:0:0:0:
43,177,14987,6,0,P|109:159|230:157,2,180,4|12|0,1:0|0:0|1:0,0:0:0:0:
163,68,15748,1,0,0:0:0:0:
164,142,15901,1,8,3:2:0:0:
370,106,16053,6,0,P|438:58|501:112,1,180,4|0,1:2|1:0,0:0:0:0:
378,258,16510,1,12,0:0:0:0:
305,249,16662,1,0,0:0:0:0:
501,114,16814,1,0,1:0:0:0:
350,184,16966,1,0,0:0:0:0:
163,68,17119,1,8,3:2:0:0:
216,157,17271,5,0,0:0:0:0:
216,157,17322,1,0,0:0:0:0:
216,157,17373,1,0,0:0:0:0:
216,157,17424,2,0,L|194:261,1,90,0|0,1:0|0:0,0:0:0:0:
18,244,17728,2,0,L|36:351,1,90,4|0,1:0|0:0,0:0:0:0:
0,162,18033,1,0,1:0:0:0:
81,182,18185,1,0,0:0:0:0:
56,95,18337,1,10,0:0:0:0:
224,332,18490,6,0,P|287:363|385:305,1,180,4|0,1:3|0:0,0:0:0:0:
341,235,18946,1,8,0:0:0:0:
336,252,19099,1,0,0:0:0:0:
459,138,19251,1,2,1:3:0:0:
491,241,19404,1,0,0:0:0:0:
219,19,19556,2,0,P|239:8|260:3,2,45,8|0|0,0:0|0:0|0:0,0:0:0:0:
411,80,19784,5,0,0:0:0:0:
411,80,19822,5,0,0:0:0:0:
411,80,19860,6,0,P|376:114|259:75,1,180,4|10,1:0|0:0,0:0:0:0:
219,19,20317,1,0,0:0:0:0:
87,209,20469,2,0,P|17:224|-22:218,2,90,0|0|12,1:0|0:0|0:0,0:0:0:0:
144,11,20926,6,0,P|135:81|164:193,1,180,4|0,1:2|1:0,0:0:0:0:
145,257,21383,1,10,0:0:0:0:
145,257,21535,1,0,0:0:0:0:
325,218,21687,2,0,P|273:196|211:202,1,90,0|0,1:0|0:0,0:0:0:0:
201,384,21992,1,12,0:0:0:0:
407,169,22144,1,0,0:0:0:0:
402,174,22221,1,0,0:0:0:0:
398,179,22297,6,0,B|400:228|400:228|381:294,1,90,0|0,1:0|0:0,0:0:0:0:
331,319,22601,1,10,0:0:0:0:
331,319,22754,1,0,0:0:0:0:
484,362,22906,1,0,1:0:0:0:
462,291,23058,1,0,0:0:0:0:
512,185,23210,1,12,0:0:0:0:
272,25,23363,6,0,P|255:99|356:137,1,180,4|0,1:2|1:0,0:0:0:0:
445,102,23819,2,0,P|430:63|440:0,1,90,10|0,0:0|0:0,0:0:0:0:
334,144,24124,1,0,1:0:0:0:
330,73,24276,1,0,0:0:0:0:
157,197,24428,2,0,P|114:204|77:129,1,135,10|0,0:0|0:0,0:0:0:0:
11,97,24733,6,0,P|25:44|28:5,1,90,4|0,1:0|0:0,0:0:0:0:
226,161,25038,2,0,P|212:108|209:69,1,90,12|0,0:0|0:0,0:0:0:0:
0,280,25342,1,0,1:0:0:0:
72,224,25494,1,0,0:0:0:0:
188,326,25647,1,8,3:2:0:0:
413,199,25799,6,0,P|344:160|282:235,1,180,4|0,1:0|1:0,0:0:0:0:
275,299,26256,1,12,0:0:0:0:
275,299,26408,1,0,0:0:0:0:
486,192,26560,1,0,1:0:0:0:
350,293,26712,1,0,0:0:0:0:
202,98,26865,1,8,3:2:0:0:
255,38,27017,5,0,0:0:0:0:
255,38,27068,1,0,0:0:0:0:
255,38,27119,1,0,0:0:0:0:
255,38,27170,2,0,L|238:139,1,90,4|0,1:0|0:0,0:0:0:0:
395,198,27474,2,0,L|379:99,1,90,4|0,1:3|0:0,0:0:0:0:
166,184,27779,1,4,1:0:0:0:
314,155,27931,1,0,0:0:0:0:
77,54,28083,1,10,0:0:0:0:
221,336,28236,6,0,P|214:269|259:216,1,135,4|0,1:3|0:0,0:0:0:0:
269,221,28540,1,0,0:0:0:0:
27,320,28692,1,4,1:0:0:0:
110,347,28845,1,0,0:0:0:0:
110,347,28921,1,0,0:0:0:0:
110,347,28997,1,6,1:3:0:0:
6,89,29150,1,8,1:3:0:0:
269,221,29302,1,8,0:0:0:0:
153,232,29454,2,0,B|142:213|142:213|137:118,1,67.5000025749208,8|0,1:3|0:0,0:0:0:0:
171,100,29606,6,0,P|205:65|283:68,1,125.999996154785,4|8,3:2|0:3,0:0:0:0:
373,149,30063,1,8,0:0:0:0:
373,149,30215,2,0,P|427:156|461:152,1,62.9999980773926,0|0,3:0|0:0,0:0:0:0:
498,65,30520,2,0,P|455:69|446:73,1,31.4999990386963,8|0,0:3|0:0,0:0:0:0:
373,149,30672,6,0,L|388:292,1,125.999996154785,0|2,3:0|3:0,0:0:0:0:
512,333,31129,2,0,P|462:320|426:328,1,62.9999980773926,8|0,0:3|0:0,0:0:0:0:
345,384,31434,2,0,P|340:353|325:325,1,62.9999980773926,0|0,3:0|3:0,0:0:0:0:
157,307,31738,2,0,P|189:306|218:294,1,62.9999980773926,8|0,0:3|0:0,0:0:0:0:
110,367,32043,6,0,P|64:328|2:333,2,125.999996154785,0|8|0,3:0|0:3|3:0,0:0:0:0:
110,367,32804,1,8,0:0:0:0:
158,308,32957,1,8,0:3:0:0:
95,199,33109,6,0,P|135:159|122:90,1,125.999996154785,0|2,3:0|3:0,0:0:0:0:
51,3,33566,2,0,P|50:34|58:65,1,62.9999980773926,8|8,0:3|0:0,0:0:0:0:
170,188,33870,1,0,3:0:0:0:
301,67,34023,5,0,3:0:0:0:
247,25,34099,1,0,3:0:0:0:
181,51,34175,2,0,P|251:64|283:44,1,94.499997116089,12|0,0:1|0:0,0:0:0:0:
291,137,34479,6,0,B|338:94|385:133|385:133|428:168|482:134,1,198.000006042481,4|10,1:2|0:0,0:0:0:0:
478,0,34936,2,0,P|431:43|436:87,2,99.0000030212403,0|4|0,0:0|0:3|0:0,0:0:0:0:
471,140,35393,1,10,0:1:0:0:
265,331,35545,6,0,L|281:128,1,198.000006042481,8|8,0:3|0:3,0:0:0:0:
456,358,36002,2,0,P|381:367|332:314,1,148.50000453186,8|0,0:0|0:0,0:0:0:0:
288,259,36307,2,0,P|230:254|217:325,1,99.0000030212403,0|0,1:0|0:0,0:0:0:0:
49,335,36535,1,0,0:0:0:0:
49,335,36611,1,10,0:0:0:0:
49,335,36916,6,0,B|86:328|92:274|92:274|95:326|145:345,1,148.50000453186,4|0,1:0|0:0,0:0:0:0:
193,352,37221,2,0,P|196:327|171:272,1,49.5000015106202,10|0,0:1|0:0,0:0:0:0:
33,223,37373,2,0,P|39:163|70:105,1,99.0000030212403,0|4,0:0|0:3,0:0:0:0:
348,51,37677,1,0,0:0:0:0:
205,148,37830,1,10,0:0:0:0:
27,53,37982,6,0,P|105:66|110:184,1,198.000006042481,4|0,1:2|1:0,0:0:0:0:
216,257,38439,2,0,P|195:205|215:158,1,99.0000030212403,8|0,0:0|0:0,0:0:0:0:
489,162,38743,5,8,0:3:0:0:
278,208,38896,1,0,3:0:0:0:
477,250,39048,5,2,3:0:0:0:
199,72,39200,5,2,0:3:0:0:
199,72,39276,1,2,0:3:0:0:
199,72,39353,2,0,P|233:107|311:104,1,125.999996154785,4|8,3:2|0:3,0:0:0:0:
409,41,39810,1,8,0:0:0:0:
409,41,39962,2,0,P|378:47|346:48,1,62.9999980773926,0|0,3:0|0:0,0:0:0:0:
496,108,40267,2,0,P|453:112|444:116,1,31.4999990386963,8|0,0:3|0:0,0:0:0:0:
348,163,40419,6,0,P|338:226|366:282,1,125.999996154785,0|2,3:0|3:0,0:0:0:0:
448,384,40876,2,0,P|447:332|430:299,1,62.9999980773926,8|0,0:3|0:0,0:0:0:0:
489,224,41180,2,0,P|461:238|430:243,1,62.9999980773926,0|0,3:0|3:0,0:0:0:0:
366,355,41485,2,0,P|338:340|307:335,1,62.9999980773926,8|0,0:3|0:0,0:0:0:0:
191,217,41790,6,0,P|143:177|82:183,2,125.999996154785,0|8|0,3:0|0:3|3:0,0:0:0:0:
179,291,42551,1,8,0:0:0:0:
246,267,42704,1,8,0:3:0:0:
121,249,42856,6,0,L|148:116,1,125.999996154785,0|2,3:0|3:0,0:0:0:0:
78,12,43313,2,0,P|77:43|85:74,1,62.9999980773926,8|8,0:3|0:0,0:0:0:0:
26,155,43617,1,0,3:0:0:0:
210,79,43770,5,0,3:0:0:0:
263,125,43846,1,0,3:0:0:0:
328,97,43922,2,0,P|398:84|430:104,1,94.499997116089,12|0,0:1|0:0,0:0:0:0:
263,125,44226,6,0,P|346:130|313:245,1,198.000006042481,4|10,1:2|0:0,0:0:0:0:
419,355,44683,2,0,P|425:307|465:280,2,99.0000030212403,0|4|0,0:0|0:3|0:0,0:0:0:0:
497,350,45140,1,10,0:1:0:0:
269,200,45292,6,0,P|141:186|95:130,1,198.000006042481,8|8,0:3|0:3,0:0:0:0:
0,357,45749,2,0,P|71:378|146:333,1,148.50000453186,8|0,0:0|0:0,0:0:0:0:
113,253,46053,2,0,P|135:350|158:376,1,99.0000030212403,0|0,1:0|0:0,0:0:0:0:
206,366,46282,1,0,0:0:0:0:
268,317,46358,2,0,P|246:220|223:194,1,99.0000030212403,10|0,0:0|0:0,0:0:0:0:
40,84,46662,6,0,P|126:67|166:140,1,148.50000453186,4|0,1:0|0:0,0:0:0:0:
145,177,46968,2,0,P|170:180|225:155,1,49.5000015106202,10|0,0:1|0:0,0:0:0:0:
510,21,47120,2,0,P|464:3|414:0,1,99.0000030212403,0|4,0:0|0:3,0:0:0:0:
512,107,47424,1,0,0:0:0:0:
236,108,47577,1,10,0:0:0:0:
489,339,47729,6,0,P|493:246|419:142,1,198.000006042481,4|0,1:2|1:0,0:0:0:0:
249,318,48185,2,0,P|203:335|153:339,1,99.0000030212403,8|0,0:0|0:0,0:0:0:0:
378,115,48490,6,0,P|367:169|371:189,1,49.5000015106202,0|0,1:0|0:0,0:0:0:0:
297,216,48642,2,0,P|294:191|285:168,1,49.5000015106202,0|0,3:0|0:0,0:0:0:0:
236,108,48795,5,2,3:0:0:0:
422,374,48947,5,2,0:3:0:0:
422,374,49023,1,2,0:3:0:0:
422,374,49099,2,0,B|379:340|379:340|215:364,1,215.999993408203,4|2,0:2|0:0,0:0:0:0:
110,263,49556,1,0,0:0:0:0:
119,185,49708,2,0,P|189:258|162:326,1,161.999995056153,4|0,0:0|0:0,0:0:0:0:
140,334,50012,1,2,0:0:0:0:
173,123,50165,1,2,0:0:0:0:
0,84,50317,6,0,P|33:105|134:100,1,107.999996704102,4|0,0:0|0:0,0:0:0:0:
328,76,50622,2,0,P|233:42|173:122,1,215.999993408203,2|4,0:0|0:0,0:0:0:0:
193,198,51078,1,4,0:0:0:0:
357,229,51231,1,2,0:0:0:0:
400,62,51383,1,0,0:0:0:0:
320,164,51535,6,0,P|387:159|416:278,1,161.999995056153,4|0,0:0|0:0,0:0:0:0:
501,273,51840,2,0,B|468:297|468:297|488:396,1,107.999996704102,2|0,0:0|0:0,0:0:0:0:
492,131,52144,1,4,0:0:0:0:
492,131,52297,1,4,0:0:0:0:
253,211,52449,1,2,0:0:0:0:
502,276,52601,1,2,0:0:0:0:
247,132,52754,6,0,P|249:66|289:35,1,107.999996704102,4|0,0:0|0:0,0:0:0:0:
502,276,53058,2,0,B|529:227|529:227|492:57,1,215.999993408203,2|2,0:0|0:0,0:0:0:0:
314,168,53515,5,4,0:0:0:0:
253,211,53591,1,4,0:0:0:0:
188,180,53667,1,4,1:0:0:0:
188,180,53972,6,0,P|124:147|61:160,2,107.999996704102,6|0|8,0:0|0:0|0:0,0:0:0:0:
310,333,54429,1,2,0:2:0:0:
77,382,54581,2,0,P|133:344|145:252,1,161.999995056153,2|0,0:0|0:0,0:0:0:0:
74,222,54886,1,8,0:0:0:0:
394,12,55038,6,0,P|334:83|366:205,1,215.999993408203,4|0,1:0|0:0,0:0:0:0:
505,37,55495,5,8,0:0:0:0:
471,48,55647,1,2,0:2:0:0:
512,212,55799,5,2,0:0:0:0:
418,235,55952,1,2,0:0:0:0:
512,384,56104,5,8,0:0:0:0:
180,209,56256,1,2,0:2:0:0:
382,318,56408,6,0,P|435:320|482:295,2,107.999996704102,4|2|10,1:2|0:2|0:1,0:0:0:0:
312,371,56865,1,2,0:0:0:0:
380,143,57018,1,8,0:3:0:0:
105,151,57170,1,0,0:0:0:0:
319,208,57322,1,8,0:0:0:0:
0,17,57474,6,0,P|-11:69|82:133,1,179.999994506836,4|0,1:2|0:0,0:0:0:0:
105,151,57779,5,0,3:0:0:0:
129,149,57830,1,0,0:0:0:0:
153,152,57880,1,0,0:0:0:0:
175,160,57931,1,8,0:0:0:0:
23,289,58084,1,2,0:0:0:0:
51,218,58236,1,0,1:0:0:0:
46,204,58388,1,0,1:0:0:0:
364,286,58541,5,8,0:0:0:0:
241,200,58693,1,0,0:3:0:0:
241,200,58769,1,0,0:3:0:0:
241,200,58845,6,0,L|265:45,1,107.999996704102,4|0,0:2|0:0,0:0:0:0:
92,0,59150,1,2,0:0:0:0:
92,0,59302,1,0,0:0:0:0:
128,66,59454,2,0,P|205:70|251:8,1,161.999995056153,4|0,0:0|0:0,0:0:0:0:
257,93,59758,1,2,0:0:0:0:
412,127,59911,1,2,0:0:0:0:
512,0,60063,6,0,P|491:33|496:134,1,107.999996704102,4|0,0:0|0:0,0:0:0:0:
512,265,60368,2,0,P|509:211|370:237,1,215.999993408203,2|4,0:0|0:0,0:0:0:0:
377,285,60824,1,4,0:0:0:0:
162,334,60977,2,0,P|189:288|180:225,1,107.999996704102,2|0,0:0|0:0,0:0:0:0:
0,200,61281,6,0,P|36:267|114:267,1,161.999995056153,4|0,0:0|0:0,0:0:0:0:
131,193,61586,2,0,B|98:169|98:169|118:70,1,107.999996704102,2|0,0:0|0:0,0:0:0:0:
20,52,61890,1,4,0:0:0:0:
20,52,62043,1,4,0:0:0:0:
59,140,62195,1,2,0:0:0:0:
332,18,62347,1,2,0:0:0:0:
154,64,62500,6,0,P|220:66|251:106,1,107.999996704102,4|0,0:0|0:0,0:0:0:0:
496,176,62804,2,0,P|451:199|355:81,1,215.999993408203,2|2,0:0|0:0,0:0:0:0:
216,256,63261,5,4,0:0:0:0:
282,285,63337,1,4,0:0:0:0:
344,250,63413,1,4,1:0:0:0:
344,250,63718,6,0,P|311:314|324:377,2,107.999996704102,4|0|10,1:0|0:0|0:0,0:0:0:0:
402,210,64175,1,0,0:0:0:0:
14,357,64327,2,0,L|175:367,1,161.999995056153,0|0,1:0|0:0,0:0:0:0:
231,319,64632,1,8,0:0:0:0:
452,90,64784,6,0,P|381:150|259:118,1,215.999993408203,4|0,1:2|0:0,0:0:0:0:
240,40,65241,5,8,0:0:0:0:
229,63,65393,1,0,0:0:0:0:
109,7,65545,5,8,0:3:0:0:
239,239,65698,1,2,0:1:0:0:
0,208,65850,6,0,L|61:218,1,53.9999983520508,8|0,0:0|0:0,0:0:0:0:
340,99,66002,2,0,L|286:107,1,53.9999983520508,2|0,0:0|0:0,0:0:0:0:
165,308,66155,6,0,P|153:225|153:198,2,107.999996704102,4|0|0,1:0|3:0|3:0,0:0:0:0:
370,133,66611,2,0,P|382:216|382:243,2,107.999996704102,4|0|0,1:2|3:0|3:0,0:0:0:0:
54,377,67068,6,0,B|71:282|71:282|18:111,1,270.000010299683,4|0,1:0|3:0,0:0:0:0:
478,48,67525,6,0,B|460:142|460:142|514:314,1,270.000010299683,4|0,1:2|3:0,0:0:0:0:
257,37,67982,5,4,1:0:0:0:
257,37,68134,2,0,L|257:113,1,53.9999983520508,0|0,3:0|3:0,0:0:0:0:
256,346,68287,2,0,P|257:239|152:257,1,242.999992584229,4|0,1:2|0:0,0:0:0:0:
152,256,68591,6,0,P|244:255|315:183,1,188.999994232178,4|0,1:2|0:0,0:0:0:0:
344,123,68896,2,0,P|304:117|258:135,1,62.9999980773926,10|0,0:1|0:0,0:0:0:0:
121,369,69048,2,0,B|61:389|61:389|-15:375,2,125.999996154785,0|0|0,0:0|3:0|0:0,0:0:0:0:
152,256,69504,1,8,0:0:0:0:
67,189,69656,1,2,0:0:0:0:
399,188,69809,6,0,L|415:45,1,125.999996154785,0|0,1:0|0:0,0:0:0:0:
67,189,70114,2,0,P|97:105|219:131,1,188.999994232178,8|0,0:0|0:0,0:0:0:0:
237,156,70419,1,8,0:3:0:0:
20,71,70571,1,2,0:1:0:0:
281,346,70723,2,0,B|379:314|379:314|496:320,1,188.999994232178,8|0,0:1|0:0,0:0:0:0:
512,384,71028,6,0,P|503:321|500:258,1,125.999996154785,0|0,3:0|0:0,0:0:0:0:
290,17,71332,2,0,P|280:92|360:181,1,188.999994232178,10|0,0:0|0:0,0:0:0:0:
430,171,71637,1,4,0:3:0:0:
447,98,71789,1,0,0:0:0:0:
165,219,71941,1,8,0:0:0:0:
512,251,72094,1,0,3:0:0:0:
150,7,72246,5,0,1:0:0:0:
249,231,72398,1,2,0:0:0:0:
102,384,72551,1,8,0:0:0:0:
102,384,72601,1,8,0:0:0:0:
102,384,72652,1,8,0:0:0:0:
102,384,72703,2,0,P|151:363|202:359,1,62.9999980773926,8|0,0:0|0:0,0:0:0:0:
241,384,72855,1,0,1:0:0:0:
142,206,73007,5,0,3:0:0:0:
61,202,73083,1,0,3:0:0:0:
0,245,73160,2,0,P|43:286|100:266,1,125.999996154785,12|0,1:0|0:0,0:0:0:0:
410,309,73464,6,0,B|366:257|412:169|412:169|437:167|464:159,1,188.999994232178,4|0,1:0|0:0,0:0:0:0:
512,124,73769,1,10,0:0:0:0:
360,47,73921,5,8,0:0:0:0:
343,131,74073,1,2,1:3:0:0:
1,8,74226,5,2,0:3:0:0:
234,180,74378,1,8,0:3:0:0:
8,366,74530,6,0,B|2:298|64:254|64:254|136:274|162:355,1,251.999992309571,4|2,1:0|0:0,0:0:0:0:
215,377,74987,2,0,P|225:327|216:289,1,62.9999980773926,8|0,0:0|0:0,0:0:0:0:
303,297,75139,2,0,P|274:254|241:234,1,62.9999980773926,4|0,0:0|0:0,0:0:0:0:
191,246,75292,1,0,1:0:0:0:
191,246,75444,1,2,0:0:0:0:
448,150,75596,1,4,1:2:0:0:
302,70,75748,5,0,0:0:0:0:
302,70,75799,1,0,0:0:0:0:
302,70,75850,1,0,0:0:0:0:
302,70,75901,6,0,B|367:82|367:82|469:63,1,125.999996154785,4|0,1:0|0:0,0:0:0:0:
104,10,76205,5,12,0:0:0:0:
302,70,76358,1,8,0:0:0:0:
8,136,76510,5,2,3:0:0:0:
219,99,76662,1,2,0:3:0:0:
290,384,76814,1,10,0:3:0:0:
30,54,76967,6,0,B|67:75|85:112|85:112|72:192|44:289,1,251.999992309571,4|2,1:2|0:3,0:0:0:0:
273,178,77424,1,8,0:3:0:0:
188,315,77576,1,4,1:0:0:0:
2,133,77728,5,2,0:3:0:0:
250,260,77880,1,2,0:3:0:0:
459,72,78033,1,4,1:2:0:0:
443,70,78109,1,8,0:3:0:0:
427,69,78185,1,8,0:3:0:0:
411,67,78261,1,8,0:3:0:0:
397,67,78337,6,0,B|269:55|269:55|239:80|234:140,1,188.999994232178,4|0,1:2|0:0,0:0:0:0:
211,178,78642,2,0,P|242:183|273:177,1,62.9999980773926,10|0,0:1|0:0,0:0:0:0:
512,230,78794,2,0,B|451:219|451:219|391:239,2,125.999996154785,0|0|0,0:0|3:0|0:0,0:0:0:0:
301,349,79251,2,0,L|370:336,1,62.9999980773926,8|0,0:0|0:0,0:0:0:0:
444,355,79402,1,2,0:0:0:0:
90,299,79555,6,0,L|74:156,1,125.999996154785,0|0,1:0|0:0,0:0:0:0:
437,83,79860,2,0,P|386:156|275:99,1,188.999994232178,8|0,0:0|0:0,0:0:0:0:
263,61,80165,1,8,0:3:0:0:
281,147,80317,1,2,0:1:0:0:
23,348,80469,2,0,B|121:316|121:316|238:322,1,188.999994232178,8|0,0:1|0:0,0:0:0:0:
280,348,80774,6,0,P|217:350|154:359,1,125.999996154785,0|0,3:0|0:0,0:0:0:0:
23,37,81078,2,0,B|83:18|123:61|123:61|132:155,1,188.999994232178,10|0,0:0|0:0,0:0:0:0:
94,212,81383,1,4,0:3:0:0:
48,139,81535,1,0,0:0:0:0:
294,243,81688,5,8,0:0:0:0:
416,66,81840,1,0,3:0:0:0:
133,283,81992,5,0,1:0:0:0:
193,188,82144,1,2,0:0:0:0:
501,320,82297,1,8,0:0:0:0:
501,320,82347,1,8,0:0:0:0:
501,320,82398,1,8,0:0:0:0:
501,320,82449,2,0,L|522:210,1,62.9999980773926,8|0,0:0|0:0,0:0:0:0:
481,188,82601,1,0,1:0:0:0:
333,373,82753,5,0,3:0:0:0:
251,377,82829,1,0,3:0:0:0:
199,306,82906,2,0,P|250:283|316:304,1,125.999996154785,12|0,1:0|0:0,0:0:0:0:
199,310,83210,6,0,P|147:238|194:163,1,188.999994232178,4|0,1:0|0:0,0:0:0:0:
275,177,83515,1,10,0:0:0:0:
59,68,83667,1,8,0:0:0:0:
59,68,83819,1,2,1:3:0:0:
468,27,83972,5,2,0:3:0:0:
196,176,84124,1,8,0:3:0:0:
512,243,84276,6,0,B|495:187|423:167|423:167|361:211|367:277,1,251.999992309571,4|2,1:0|0:0,0:0:0:0:
421,342,84733,2,0,P|351:320|289:321,1,125.999996154785,8|4,0:0|0:0,0:0:0:0:
146,27,85038,2,0,P|145:110|125:159,1,125.999996154785,0|2,1:0|0:0,0:0:0:0:
0,299,85342,2,0,P|44:229|151:266,1,188.999994232178,4|0,1:0|0:0,0:0:0:0:
166,319,85647,5,4,1:2:0:0:
227,360,85799,1,8,0:0:0:0:
61,116,85951,5,12,1:0:0:0:
413,134,86104,1,8,0:0:0:0:
143,149,86256,5,8,1:0:0:0:
163,123,86332,1,8,0:3:0:0:
205,117,86408,1,8,1:0:0:0:
240,159,86484,1,8,0:3:0:0:
242,224,86561,1,8,1:0:0:0:
303,270,86637,1,8,0:3:0:0:
387,244,86713,5,4,1:2:0:0:
0,299,87018,5,8,1:0:0:0:
413,134,87170,1,8,1:0:0:0:
324,181,87627,6,0,L|390:167,1,62.9999980773926,0|0,3:0|3:0,0:0:0:0:
512,230,87779,2,0,P|415:239|348:256,1,125.999996154785,12|8,1:0|0:0,0:0:0:0:
324,181,88007,1,8,0:0:0:0:
292,212,88084,6,0,P|276:305|345:392,2,180,4|10|0,1:0|0:0|1:0,0:0:0:0:
257,136,88845,1,0,0:0:0:0:
109,125,88997,1,12,0:0:0:0:
185,95,89150,1,4,1:2:0:0:
0,243,89302,6,0,P|44:237|89:239,1,90,0|0,0:0|1:0,0:0:0:0:
109,125,89606,2,0,P|150:75|127:16,1,135,10|0,0:0|0:0,0:0:0:0:
99,14,89911,2,0,P|219:35|291:35,1,180,0|12,1:0|0:0,0:0:0:0:
483,95,90368,2,0,L|512:91,2,30
431,147,90520,6,0,P|497:98|457:25,2,180,0|10|0,1:0|0:0|1:0,0:0:0:0:
367,190,91281,1,0,0:0:0:0:
277,146,91434,2,0,P|294:187|300:231,1,90,12|4,0:0|1:2,0:0:0:0:
421,304,91738,6,0,P|438:262|444:218,1,90,0|0,0:0|1:0,0:0:0:0:
252,294,92043,2,0,P|195:305|162:244,1,135,10|0,0:0|0:0,0:0:0:0:
176,222,92347,2,0,P|56:243|-12:231,1,180,0|10,1:0|0:0,0:0:0:0:
61,135,92804,1,0,0:0:0:0:
61,135,92855,1,0,0:0:0:0:
61,135,92906,1,0,0:0:0:0:
61,135,92957,6,0,B|107:131|107:131|153:147,1,90,0|0,1:0|0:0,0:0:0:0:
340,129,93261,2,0,P|295:164|211:147,1,135,12|0,0:0|0:0,0:0:0:0:
193,89,93566,2,0,P|206:47|201:-8,2,90,0|0|8,1:0|0:0|3:2,0:0:0:0:
129,39,94023,1,0,1:0:0:0:
305,202,94175,6,0,B|351:206|351:206|397:190,1,90,0|0,0:0|1:0,0:0:0:0:
504,8,94479,2,0,L|497:169,1,135,12|0,0:0|0:0,0:0:0:0:
512,128,94784,2,0,P|456:120|403:136,2,90,0|0|8,1:0|0:0|3:2,0:0:0:0:
510,214,95241,1,0,0:0:0:0:
410,286,95393,5,0,1:0:0:0:
422,370,95545,1,0,0:0:0:0:
195,358,95698,2,0,B|312:347|312:347|352:313,1,135,4|0,1:0|0:0,0:0:0:0:
336,241,96002,1,0,1:0:0:0:
262,273,96155,1,0,0:0:0:0:
171,179,96307,1,10,0:0:0:0:
0,176,96459,6,0,P|88:186|173:217,1,180,4|0,1:3|0:0,0:0:0:0:
73,341,96916,2,0,P|86:272|124:253,1,90,8|0,0:0|0:0,0:0:0:0:
99,263,97221,1,2,1:3:0:0:
192,358,97373,1,0,0:0:0:0:
384,161,97525,1,8,0:0:0:0:
351,130,97601,1,0,0:0:0:0:
307,129,97677,1,8,0:0:0:0:
274,157,97753,1,0,0:0:0:0:
267,200,97830,6,0,P|278:103|204:40,2,180,4|10|0,1:0|0:0|1:0,0:0:0:0:
201,253,98591,1,0,0:0:0:0:
96,202,98743,1,12,0:0:0:0:
0,273,98896,1,4,1:2:0:0:
99,107,99048,6,0,P|105:151|103:196,1,90,0|0,0:0|1:0,0:0:0:0:
47,338,99353,2,0,P|97:379|156:356,1,135,10|0,0:0|0:0,0:0:0:0:
156,336,99657,2,0,P|276:357|348:357,1,180,0|12,1:0|0:0,0:0:0:0:
483,291,100114,2,0,L|512:287,2,30
449,370,100266,6,0,P|409:297|475:248,2,180,0|10|0,1:0|0:0|1:0,0:0:0:0:
409,231,101027,1,0,0:0:0:0:
512,189,101180,2,0,P|506:144|488:103,1,90,12|4,0:0|1:2,0:0:0:0:
337,152,101484,2,0,P|330:196|313:238,1,90,0|0,0:0|1:0,0:0:0:0:
512,27,101789,2,0,P|455:16|422:77,1,135,10|0,0:0|0:0,0:0:0:0:
404,77,102093,2,0,P|284:56|216:68,1,180,0|10,1:0|0:0,0:0:0:0:
153,14,102550,1,0,0:0:0:0:
153,14,102601,1,0,0:0:0:0:
153,14,102652,1,0,0:0:0:0:
153,14,102703,6,0,B|157:60|157:60|141:106,1,90,4|0,1:0|0:0,0:0:0:0:
0,201,103007,2,0,P|45:166|129:183,1,135,12|0,0:0|0:0,0:0:0:0:
147,241,103312,2,0,P|134:283|139:338,2,90,0|0|8,1:0|0:0|3:2,0:0:0:0:
191,176,103769,1,0,1:0:0:0:
203,367,103921,6,0,B|249:371|249:371|295:355,1,90,0|0,0:0|1:0,0:0:0:0:
431,241,104225,2,0,L|421:52,1,180,12|0,0:0|1:0,0:0:0:0:
325,36,104682,1,0,0:0:0:0:
449,130,104835,2,0,P|471:132|493:129,1,45,8|0,3:2|0:0,0:0:0:0:
325,36,104987,1,0,0:0:0:0:
328,60,105063,1,0,0:0:0:0:
320,84,105139,6,0,P|287:102|118:83,1,180,4|2,1:0|0:0,0:0:0:0:
0,233,105596,1,4,1:3:0:0:
19,164,105748,2,0,P|52:145|109:166,1,90
286,257,106053,5,4,1:0:0:0:
219,218,106205,2,0,P|166:233|110:233,1,90,0|0,1:0|0:0,0:0:0:0:
91,356,106510,5,4,1:3:0:0:
18,335,106662,1,0,1:0:0:0:
286,257,106814,1,0,1:0:0:0:
74,279,106967,1,4,1:0:0:0:
248,380,107119,1,8,1:3:0:0:
229,377,107271,6,0,P|219:350|230:312,1,62.9999980773926,4|0,1:3|0:0,0:0:0:0:
369,212,107424,2,0,P|379:239|368:277,1,62.9999980773926,8|0,1:3|0:0,0:0:0:0:
356,263,107576,6,0,P|438:232|476:254,1,125.999996154785,4|8,3:2|0:3,0:0:0:0:
502,127,108033,1,8,0:0:0:0:
502,127,108185,2,0,P|502:95|508:64,1,62.9999980773926,0|0,3:0|0:0,0:0:0:0:
321,61,108490,2,0,P|278:65|269:69,1,31.4999990386963,8|0,0:3|0:0,0:0:0:0:
196,177,108642,6,0,L|216:52,1,125.999996154785,0|2,3:0|3:0,0:0:0:0:
154,13,109099,2,0,P|125:25|94:26,1,62.9999980773926,8|0,0:3|0:0,0:0:0:0:
0,126,109403,1,0,3:0:0:0:
0,126,109556,1,0,3:0:0:0:
66,271,109708,1,8,0:3:0:0:
66,271,109860,1,0,0:0:0:0:
25,202,110013,6,0,P|71:163|133:168,2,125.999996154785,0|8|0,3:0|0:3|3:0,0:0:0:0:
63,266,110774,1,8,0:0:0:0:
33,329,110927,1,8,0:3:0:0:
180,221,111079,6,0,P|239:210|284:251,1,125.999996154785,0|2,3:0|3:0,0:0:0:0:
409,248,111536,2,0,P|410:279|403:310,1,62.9999980773926,8|8,0:3|0:0,0:0:0:0:
253,370,111840,1,0,3:0:0:0:
383,121,111993,5,0,3:0:0:0:
329,163,112069,1,0,3:0:0:0:
263,137,112145,2,0,P|314:112|367:126,1,94.499997116089,12|0,0:1|0:0,0:0:0:0:
454,147,112449,6,0,B|410:175|367:140|367:140|320:101|273:144,1,198.000006042481,4|10,1:2|0:0,0:0:0:0:
196,311,112906,2,0,P|156:284|149:237,2,99.0000030212403,0|4|0,0:0|0:3|0:0,0:0:0:0:
225,238,113363,1,10,0:1:0:0:
63,384,113515,6,0,L|79:181,1,198.000006042481,8|8,0:3|0:3,0:0:0:0:
0,58,113972,2,0,P|51:107|122:97,1,148.50000453186,8|0,0:0|0:0,0:0:0:0:
153,12,114277,2,0,P|95:7|82:78,1,99.0000030212403,0|0,1:0|0:0,0:0:0:0:
158,164,114505,1,0,0:0:0:0:
158,164,114581,1,10,0:0:0:0:
158,164,114886,6,0,B|195:157|201:103|201:103|204:155|254:174,1,148.50000453186,4|0,1:0|0:0,0:0:0:0:
278,100,115191,2,0,P|303:103|358:78,1,49.5000015106202,12|0,0:0|0:0,0:0:0:0:
485,246,115343,2,0,P|439:228|389:224,1,99.0000030212403,0|4,0:0|0:3,0:0:0:0:
216,305,115647,1,0,0:0:0:0:
417,306,115800,1,10,0:0:0:0:
425,53,115952,6,0,P|347:66|342:184,1,198.000006042481,4|0,1:2|1:0,0:0:0:0:
281,266,116409,2,0,P|293:312|272:356,1,99.0000030212403,8|0,0:0|0:0,0:0:0:0:
138,373,116713,5,8,0:3:0:0:
417,306,116866,1,0,3:0:0:0:
215,222,117018,5,2,3:0:0:0:
453,382,117170,1,2,0:3:0:0:
453,382,117246,1,2,0:3:0:0:
453,382,117323,2,0,P|482:344|494:313,2,62.9999980773926,4|0|8,3:2|0:0|0:3,0:0:0:0:
482,199,117780,1,8,0:0:0:0:
482,199,117932,2,0,P|476:230|477:262,1,62.9999980773926,0|0,3:0|0:0,0:0:0:0:
505,48,118237,2,0,P|462:52|453:56,1,31.4999990386963,8|0,0:3|0:0,0:0:0:0:
415,165,118389,6,0,P|352:175|299:140,1,125.999996154785,0|2,3:0|3:0,0:0:0:0:
178,198,118846,2,0,P|228:185|264:193,1,62.9999980773926,8|0,0:3|0:0,0:0:0:0:
306,72,119150,1,0,3:0:0:0:
306,72,119302,1,0,3:0:0:0:
156,103,119454,1,8,0:3:0:0:
156,103,119606,1,0,0:0:0:0:
0,7,119760,6,0,P|61:1|108:41,2,125.999996154785,0|8|0,3:0|0:3|3:0,0:0:0:0:
40,73,120521,1,8,0:0:0:0:
0,139,120672,1,8,0:3:0:0:
156,103,120826,6,0,L|151:229,1,125.999996154785,0|2,3:0|3:0,0:0:0:0:
100,336,121281,2,0,P|92:306|94:275,1,62.9999980773926,8|8,0:3|0:0,0:0:0:0:
0,384,121587,1,0,3:0:0:0:
230,253,121738,5,0,3:0:0:0:
220,327,121814,1,0,3:0:0:0:
279,371,121891,2,0,P|349:365|375:337,1,94.499997116089,12|0,0:1|0:0,0:0:0:0:
223,330,122196,6,0,P|306:325|273:210,1,198.000006042481,4|10,1:2|0:0,0:0:0:0:
151,75,122653,2,0,P|157:27|197:0,2,99.0000030212403,0|4|0,0:0|0:3|0:0,0:0:0:0:
226,67,123110,1,10,0:1:0:0:
0,225,123262,6,0,P|73:161|169:163,1,198.000006042481,8|8,0:3|0:3,0:0:0:0:
429,187,123719,2,0,P|378:238|308:228,1,148.50000453186,8|0,0:0|0:0,0:0:0:0:
210,246,124023,2,0,P|228:291|230:340,1,99.0000030212403,0|0,1:0|0:0,0:0:0:0:
156,367,124251,1,0,0:0:0:0:
83,338,124328,2,0,P|84:288|103:243,1,99.0000030212403,10|0,0:0|0:0,0:0:0:0:
323,133,124632,6,0,P|255:156|277:83,1,148.50000453186,4|0,1:0|0:0,0:0:0:0:
236,27,124936,2,0,P|260:23|284:28,1,49.5000015106202,10|0,0:0|0:0,0:0:0:0:
512,328,125090,2,0,P|462:324|416:306,1,99.0000030212403,0|4,0:0|0:3,0:0:0:0:
512,149,125394,1,0,0:0:0:0:
272,240,125545,1,10,0:0:0:0:
69,51,125699,6,0,P|162:47|266:121,1,198.000006042481,4|0,1:2|1:0,0:0:0:0:
223,302,126155,2,0,P|177:319|127:323,1,99.0000030212403,8|0,0:0|0:0,0:0:0:0:
271,120,126460,6,0,P|273:144|282:167,1,49.5000015106202,0|0,1:0|0:0,0:0:0:0:
346,226,126612,2,0,P|354:202|357:178,1,49.5000015106202,0|0,3:0|0:0,0:0:0:0:
417,134,126765,5,2,3:0:0:0:
512,373,126917,1,2,0:3:0:0:
512,373,126993,1,2,0:3:0:0:
512,373,127069,2,0,B|469:339|469:339|305:363,1,215.999993408203,4|2,0:2|0:0,0:0:0:0:
175,312,127526,1,0,0:0:0:0:
241,357,127678,2,0,P|245:279|183:233,1,161.999995056153,4|0,0:0|0:0,0:0:0:0:
142,242,127982,1,2,0:0:0:0:
24,365,128135,1,2,0:0:0:0:
190,157,128287,6,0,P|136:154|90:129,1,107.999996704102,4|0,0:0|0:0,0:0:0:0:
4,294,128592,2,0,P|98:328|141:240,1,215.999993408203,2|4,0:0|0:0,0:0:0:0:
190,157,129048,1,4,0:0:0:0:
67,262,129201,1,2,0:0:0:0:
1,33,129353,1,0,0:0:0:0:
244,100,129505,6,0,P|311:105|340:-14,1,161.999995056153,4|0,0:0|0:0,0:0:0:0:
465,0,129810,2,0,B|432:24|432:24|452:123,1,107.999996704102,2|0,0:0|0:0,0:0:0:0:
509,134,130114,1,4,0:0:0:0:
509,134,130267,1,4,0:0:0:0:
367,193,130419,1,2,0:0:0:0:
512,379,130571,1,2,0:0:0:0:
312,255,130724,6,0,P|246:253|215:212,1,107.999996704102,4|0,0:0|0:0,0:0:0:0:
25,384,131028,2,0,P|91:382|148:252,1,215.999993408203,2|2,0:0|0:0,0:0:0:0:
126,69,131485,5,4,0:0:0:0:
83,130,131561,1,4,0:0:0:0:
114,195,131637,1,4,1:0:0:0:
114,195,131942,6,0,P|147:259|134:322,2,107.999996704102,6|0|8,0:0|0:0|0:0,0:0:0:0:
40,187,132399,1,2,0:2:0:0:
340,19,132551,2,0,L|323:155,1,107.999996704102,2|0,0:0|0:0,0:0:0:0:
326,126,132779,1,0,0:0:0:0:
326,126,132856,1,8,0:0:0:0:
65,384,133008,6,0,P|102:294|221:309,1,215.999993408203,4|0,1:0|0:0,0:0:0:0:
260,372,133465,5,8,0:0:0:0:
265,342,133617,1,2,0:2:0:0:
421,319,133769,5,2,0:0:0:0:
353,236,133922,1,2,0:0:0:0:
361,384,134074,5,8,0:0:0:0:
420,75,134226,1,2,0:2:0:0:
144,202,134378,6,0,P|91:204|44:179,2,107.999996704102,4|2|10,1:2|0:2|0:1,0:0:0:0:
319,39,134835,1,2,0:0:0:0:
182,270,134988,1,8,0:3:0:0:
424,275,135140,1,0,0:0:0:0:
171,134,135292,1,8,0:0:0:0:
441,351,135444,6,0,P|361:319|359:234,1,179.999994506836,4|0,1:2|0:0,0:0:0:0:
387,215,135749,5,0,3:0:0:0:
411,217,135800,1,0,0:0:0:0:
435,214,135850,1,0,0:0:0:0:
457,206,135901,1,8,0:0:0:0:
456,64,136054,1,2,0:0:0:0:
428,135,136206,1,0,1:0:0:0:
414,142,136358,1,0,1:0:0:0:
300,363,136511,5,8,0:0:0:0:
170,287,136663,1,0,0:3:0:0:
170,287,136739,1,0,0:3:0:0:
170,287,136815,6,0,L|183:166,1,107.999996704102,4|0,0:2|0:0,0:0:0:0:
373,62,137120,1,2,0:0:0:0:
373,62,137272,1,0,0:0:0:0:
337,128,137424,2,0,P|260:132|223:90,1,107.999996704102,4|0,0:0|0:0,0:0:0:0:
238,115,137652,1,0,0:0:0:0:
238,115,137728,1,2,0:0:0:0:
408,127,137881,1,2,0:0:0:0:
150,100,138033,6,0,P|147:46|122:0,1,107.999996704102,4|0,0:0|0:0,0:0:0:0:
6,188,138338,2,0,P|45:278|139:246,1,215.999993408203,2|4,0:0|0:0,0:0:0:0:
103,173,138794,1,4,0:0:0:0:
223,375,138947,2,0,P|250:329|241:266,1,107.999996704102,2|0,0:0|0:0,0:0:0:0:
394,161,139251,6,0,P|472:160|508:227,1,161.999995056153,4|0,0:0|0:0,0:0:0:0:
452,278,139556,2,0,B|428:244|428:244|329:265,1,107.999996704102,2|0,0:0|0:0,0:0:0:0:
284,77,139860,1,4,0:0:0:0:
284,77,140012,1,4,0:0:0:0:
495,17,140165,1,2,0:0:0:0:
313,172,140317,1,2,0:0:0:0:
205,54,140470,6,0,P|139:56|108:96,1,107.999996704102,4|0,0:0|0:0,0:0:0:0:
0,256,140774,2,0,P|40:290|134:174,1,215.999993408203,2|2,0:0|0:0,0:0:0:0:
341,277,141231,5,4,0:0:0:0:
276,305,141307,1,4,0:0:0:0:
214,270,141383,1,4,1:0:0:0:
214,270,141688,6,0,P|247:334|234:397,2,107.999996704102,4|0|10,1:0|0:0|0:0,0:0:0:0:
141,240,142145,1,0,0:0:0:0:
441,361,142297,2,0,L|306:353,1,107.999996704102,0|0,1:0|0:0,0:0:0:0:
334,355,142525,1,0,0:0:0:0:
334,355,142602,1,8,0:0:0:0:
47,146,142754,6,0,B|109:125|137:177|137:177|161:223|236:206,1,215.999993408203,4|0,1:2|0:0,0:0:0:0:
290,156,143211,5,8,0:0:0:0:
301,133,143363,1,0,0:0:0:0:
119,10,143515,5,8,0:3:0:0:
234,206,143668,1,2,0:1:0:0:
403,104,143820,6,0,P|383:87|322:82,1,53.9999983520508,8|0,0:0|0:0,0:0:0:0:
24,244,143972,2,0,P|49:235|69:218,1,53.9999983520508,2|0,0:0|0:0,0:0:0:0:
157,239,144125,6,0,P|160:186|170:133,2,107.999996704102,4|0|0,1:0|3:0|3:0,0:0:0:0:
428,245,144581,2,0,P|425:298|416:352,2,107.999996704102,4|0|0,1:2|3:0|3:0,0:0:0:0:
135,323,145038,6,0,B|47:329|47:329|16:364,2,135.000005149842,4|0|0,1:0|0:0|3:0,0:0:0:0:
396,104,145495,6,0,B|482:96|482:96|515:55,2,135.000005149842,4|0|0,1:2|0:0|3:0,0:0:0:0:
254,353,145952,5,4,1:0:0:0:
254,353,146104,2,0,L|254:277,1,53.9999983520508,0|0,3:0|3:0,0:0:0:0:
290,13,146257,2,0,P|318:116|205:123,1,242.999992584229,4|0,1:2|0:0,0:0:0:0:
211,129,146561,6,0,P|303:130|369:230,1,195.750005973816,4|0,1:2|0:0,0:0:0:0:
403,270,146866,2,0,P|363:282|317:258,1,65.250001991272,10|0,0:1|0:0,0:0:0:0:
157,75,147018,2,0,B|97:55|97:55|14:75,2,130.500003982544,0|0|0,0:0|3:0|0:0,0:0:0:0:
215,132,147474,1,8,0:0:0:0:
131,223,147626,1,2,0:0:0:0:
468,334,147779,6,0,P|477:283|455:196,1,130.500003982544,0|0,1:0|0:0,0:0:0:0:
170,292,148084,2,0,P|81:286|51:193,1,195.750005973816,8|0,0:0|0:0,0:0:0:0:
113,145,148389,1,8,0:3:0:0:
0,309,148541,1,2,0:1:0:0:
0,20,148693,2,0,B|98:52|98:52|216:43,1,195.750005973816,8|0,0:1|0:0,0:0:0:0:
246,0,148998,6,0,P|237:63|250:134,1,130.500003982544,0|0,3:0|0:0,0:0:0:0:
511,384,149302,2,0,P|521:309|418:264,1,195.750005973816,10|0,0:0|0:0,0:0:0:0:
399,289,149607,1,4,0:3:0:0:
473,172,149759,1,0,0:0:0:0:
147,209,149911,1,8,0:0:0:0:
512,256,150064,1,0,3:0:0:0:
145,15,150216,5,0,1:0:0:0:
330,188,150368,1,2,0:0:0:0:
143,350,150521,1,8,0:0:0:0:
143,350,150571,1,8,0:0:0:0:
143,350,150622,1,8,0:0:0:0:
143,350,150673,2,0,P|152:284|165:244,1,65.250001991272,8|0,0:0|0:0,0:0:0:0:
216,246,150825,1,0,1:0:0:0:
457,340,150977,5,0,3:0:0:0:
391,375,151053,1,0,3:0:0:0:
334,329,151130,2,0,P|322:279|359:190,1,130.500003982544,12|0,1:0|0:0,0:0:0:0:
437,0,151434,6,0,B|481:52|435:140|435:140|410:142|379:152,1,195.750005973816,4|0,1:0|0:0,0:0:0:0:
484,193,151739,1,10,0:0:0:0:
213,110,151891,5,8,0:0:0:0:
328,89,152043,1,2,1:3:0:0:
16,50,152196,5,2,0:3:0:0:
284,177,152348,1,8,0:3:0:0:
32,358,152500,6,0,B|101:343|122:273|122:273|125:344|181:383,1,261.000007965088,4|2,1:0|0:0,0:0:0:0:
337,245,152957,2,0,P|307:255|274:255,1,65.250001991272,8|0,0:0|0:0,0:0:0:0:
259,333,153109,2,0,P|229:320|206:297,1,65.250001991272,4|0,0:0|0:0,0:0:0:0:
205,223,153262,1,0,1:0:0:0:
205,223,153414,1,2,0:0:0:0:
512,384,153566,1,4,1:2:0:0:
496,242,153718,1,0,0:0:0:0:
496,242,153769,1,0,0:0:0:0:
496,242,153820,1,0,0:0:0:0:
496,242,153870,6,0,B|506:300|506:300|494:370,1,130.500003982544,4|0,1:0|0:0,0:0:0:0:
259,333,154175,5,12,0:0:0:0:
431,299,154328,1,8,0:0:0:0:
85,200,154480,5,2,3:0:0:0:
336,291,154632,1,2,0:3:0:0:
450,13,154784,1,10,0:3:0:0:
74,350,154937,6,0,B|111:329|129:292|129:292|100:85,1,261.000007965088,4|2,1:2|0:3,0:0:0:0:
302,222,155394,1,8,0:3:0:0:
89,39,155546,1,4,1:0:0:0:
33,264,155698,5,2,0:3:0:0:
231,91,155850,1,2,0:3:0:0:
424,308,156002,1,4,1:2:0:0:
408,310,156078,1,8,0:3:0:0:
392,311,156154,1,8,0:3:0:0:
376,313,156230,1,8,0:3:0:0:
362,315,156307,6,0,B|234:327|234:327|204:302|199:236,1,195.750005973816,4|0,1:2|0:0,0:0:0:0:
165,189,156612,2,0,P|196:184|237:193,1,65.250001991272,10|0,0:1|0:0,0:0:0:0:
429,139,156764,1,0,0:0:0:0:
491,206,156916,2,0,B|425:218|425:218|365:198,1,130.500003982544,0|0,3:0|0:0,0:0:0:0:
352,35,157221,2,0,B|395:35|395:35|429:71,1,65.250001991272,8|0,0:0|0:0,0:0:0:0:
429,139,157372,1,2,0:0:0:0:
33,264,157525,6,0,L|47:130,1,130.500003982544,0|0,1:0|0:0,0:0:0:0:
425,43,157830,2,0,P|374:116|261:54,1,195.750005973816,8|0,0:0|0:0,0:0:0:0:
211,123,158135,1,8,0:3:0:0:
229,37,158287,1,2,0:1:0:0:
504,304,158439,2,0,B|406:272|406:272|278:278,1,195.750005973816,8|0,0:1|0:0,0:0:0:0:
234,302,158744,6,0,P|297:312|356:286,1,130.500003982544,0|0,3:0|0:0,0:0:0:0:
421,8,159048,2,0,B|361:-11|321:32|321:32|310:136,1,195.750005973816,10|0,0:0|0:0,0:0:0:0:
354,187,159353,1,4,0:3:0:0:
400,114,159505,1,0,0:0:0:0:
163,272,159657,5,8,0:0:0:0:
29,37,159810,1,0,3:0:0:0:
356,285,159962,5,0,1:0:0:0:
440,188,160114,1,2,0:0:0:0:
65,359,160267,1,8,0:0:0:0:
65,359,160317,1,8,0:0:0:0:
65,359,160368,1,8,0:0:0:0:
65,359,160419,2,0,L|43:241,1,65.250001991272,8|0,0:0|0:0,0:0:0:0:
97,233,160571,1,0,1:0:0:0:
355,379,160723,5,0,3:0:0:0:
271,383,160799,1,0,3:0:0:0:
221,320,160875,2,0,P|271:303|352:304,1,130.500003982544,12|0,1:0|0:0,0:0:0:0:
351,307,161180,6,0,P|403:235|342:151,1,195.750005973816,4|0,1:0|0:0,0:0:0:0:
214,179,161485,1,10,0:0:0:0:
390,88,161637,1,8,0:0:0:0:
390,88,161789,1,2,1:3:0:0:
7,0,161942,5,2,0:3:0:0:
289,197,162094,1,8,0:3:0:0:
0,206,162246,6,0,B|17:150|89:130|89:130|151:174|144:255,1,261.000007965088,4|2,1:0|0:0,0:0:0:0:
95,342,162703,2,0,P|165:320|233:322,1,130.500003982544,8|4,0:0|0:0,0:0:0:0:
374,11,163007,2,0,P|372:82|394:149,1,130.500003982544,0|2,1:0|0:0,0:0:0:0:
512,302,163312,2,0,P|468:232|331:271,1,195.750005973816,4|0,1:0|0:0,0:0:0:0:
336,307,163617,5,4,1:2:0:0:
254,283,163769,1,8,0:0:0:0:
413,375,163921,5,12,1:0:0:0:
461,29,164074,1,8,0:0:0:0:
110,95,164226,5,8,1:0:0:0:
138,67,164302,1,8,0:3:0:0:
190,64,164378,1,8,1:0:0:0:
227,118,164454,1,8,0:3:0:0:
223,198,164531,1,8,1:0:0:0:
291,259,164607,1,8,0:3:0:0:
394,237,164683,5,4,1:2:0:0:
0,238,164988,5,8,1:0:0:0:
484,155,165140,1,8,1:0:0:0:
83,203,165596,6,0,L|15:215,1,65.250001991272,0|0,3:0|3:0,0:0:0:0:
0,123,165748,2,0,P|97:132|156:146,1,130.500003982544,12|8,1:0|0:0,0:0:0:0:
184,205,165976,1,8,0:0:0:0:
196,174,166053,6,0,P|289:158|317:187,2,125.999996154785,4|4|8,1:0|0:0|0:0,0:0:0:0:
443,384,166967,1,2,0:0:0:0:
378,346,167119,2,0,P|370:281|366:215,1,125.999996154785,2|0,3:2|3:0,0:0:0:0:
379,144,167576,2,0,P|410:139|436:122,1,62.9999980773926,8|0,0:0|0:0,0:0:0:0:
512,10,167880,1,0,3:0:0:0:
512,10,168185,2,0,P|442:2|432:3,1,62.9999980773926,0|0,3:0|0:0,0:0:0:0:
256,76,168490,6,0,P|319:74|382:67,1,125.999996154785,0|2,3:0|0:0,0:0:0:0:
497,171,168946,2,0,P|494:203|490:234,2,62.9999980773926,0|8|0,0:0|0:0|0:0,0:0:0:0:
379,144,169403,1,4,0:0:0:0:
326,204,169556,2,0,L|319:267,1,62.9999980773926,0|0,3:0|0:0,0:0:0:0:
249,193,169860,1,8,0:0:0:0:
249,193,170012,2,0,L|242:256,1,62.9999980773926,4|0,0:3|0:0,0:0:0:0:
236,181,170317,2,0,P|172:195|133:191,2,94.499997116089,8|0|0,0:0|0:0|0:0,0:0:0:0:
298,131,170926,6,0,L|309:3,2,125.999996154785,4|2|8,3:2|0:0|0:0,0:0:0:0:
7,210,171840,1,4,0:0:0:0:
82,241,171992,2,0,P|95:295|94:367,1,125.999996154785,0|8,3:0|0:0,0:0:0:0:
169,334,172449,2,0,P|200:339|226:355,2,62.9999980773926,0|0|8,3:0|0:0|0:0,0:0:0:0:
70,159,173058,2,0,P|116:152|138:154,1,62.9999980773926,0|0,3:0|0:0,0:0:0:0:
259,276,173363,5,4,1:0:0:0:
259,276,173515,2,0,P|315:283|379:260,1,125.999996154785
379,259,173972,2,0,L|387:183,1,62.9999980773926,8|0,0:0|0:0,0:0:0:0:
233,64,174276,1,0,3:0:0:0:
200,130,174429,2,0,L|208:193,1,62.9999980773926,4|0,1:3|0:0,0:0:0:0:
171,266,174733,1,8,0:1:0:0:
171,266,174809,1,8,0:1:0:0:
171,266,174886,5,8,0:3:0:0:
183,361,175038,1,8,0:1:0:0:
415,186,175190,1,8,0:3:0:0:
457,274,175342,1,8,0:1:0:0:
328,133,175495,6,0,P|297:125|265:131,1,53.9999983520508,8|8,0:3|0:3,0:0:0:0:
55,330,175647,2,0,P|82:333|108:324,1,53.9999983520508,8|8,0:1|0:1,0:0:0:0:
171,266,175799,6,0,P|235:244|295:362,2,215.999993408203,4|10|0,1:0|0:0|1:0,0:0:0:0:
113,211,176561,1,0,0:0:0:0:
41,244,176713,1,12,0:0:0:0:
4,43,176865,6,0,P|66:114|141:103,1,161.999995056153,4|0,1:2|0:0,0:0:0:0:
140,130,177170,2,0,P|193:109|250:139,2,107.999996704102,0|10|0,1:0|0:0|0:0,0:0:0:0:
128,317,177627,2,0,L|113:211,1,107.999996704102,0|0,1:0|0:0,0:0:0:0:
315,74,177931,2,0,L|297:190,1,107.999996704102,12|0,0:0|0:0,0:0:0:0:
481,363,178236,6,0,B|416:274|416:274|312:258,1,215.999993408203,0|10,1:0|0:0,0:0:0:0:
465,130,178693,1,0,0:0:0:0:
512,188,178845,2,0,P|460:207|386:130,1,161.999995056153,0|0,1:0|0:0,0:0:0:0:
390,106,179150,1,12,0:0:0:0:
489,8,179302,1,4,1:2:0:0:
146,82,179454,6,0,P|234:113|248:112,1,107.999996704102,0|0,0:0|1:0,0:0:0:0:
362,5,179759,2,0,P|308:9|261:35,1,107.999996704102,10|0,0:0|0:0,0:0:0:0:
68,48,180063,2,0,P|56:118|55:166,1,107.999996704102,0|0,1:0|0:0,0:0:0:0:
54,154,180292,1,0,0:0:0:0:
54,154,180368,1,10,0:0:0:0:
178,344,180520,6,0,P|154:265|29:266,1,215.999993408203
11,383,180977,2,0,P|81:338|99:310,1,107.999996704102,12|0,0:0|0:0,0:0:0:0:
55,172,181281,1,0,1:0:0:0:
260,336,181434,1,0,0:0:0:0:
178,344,181586,1,8,3:2:0:0:
331,38,181738,6,0,P|291:121|365:214,1,215.999993408203,4|0,1:0|1:0,0:0:0:0:
485,218,182195,2,0,P|430:196|363:206,1,107.999996704102,12|0,0:0|0:0,0:0:0:0:
260,336,182500,1,0,1:0:0:0:
342,328,182652,1,0,0:0:0:0:
87,106,182804,2,0,B|202:121|202:121|248:98,1,161.999995056153,8|0,3:2|0:0,0:0:0:0:
331,38,183109,6,0,L|319:161,1,107.999996704102,0|0,1:0|0:0,0:0:0:0:
382,199,183413,1,4,1:2:0:0:
86,346,183566,1,0,0:0:0:0:
145,285,183718,2,0,L|134:177,1,107.999996704102,0|0,1:0|0:0,0:0:0:0:
430,371,184023,1,10,0:0:0:0:
501,348,184175,6,0,P|443:267|355:313,1,215.999993408203,6|0,1:3|3:0,0:0:0:0:
355,313,184632,5,8,0:0:0:0:
440,139,184784,1,0,3:0:0:0:
215,77,184937,1,0,1:0:0:0:
382,199,185089,1,0,3:0:0:0:
512,72,185241,6,0,P|483:62|447:73,1,53.9999983520508,8|0,0:0|0:0,0:0:0:0:
296,246,185394,2,0,P|266:255|231:245,1,53.9999983520508,8|0,0:0|0:0,0:0:0:0:
143,113,185545,6,0,P|90:116|37:126,2,107.999996704102,4|0|0,1:0|3:0|3:0,0:0:0:0:
362,305,186002,2,0,P|415:313|469:317,2,107.999996704102,4|0|0,1:2|3:0|3:0,0:0:0:0:
92,391,186459,6,0,B|123:330|123:330|98:267,1,135.000005149842,4|0,1:0|0:0,0:0:0:0:
13,231,186764,1,0,3:0:0:0:
431,30,186916,6,0,B|400:91|400:91|425:153,1,135.000005149842,4|0,1:2|0:0,0:0:0:0:
512,195,187221,1,0,3:0:0:0:
251,371,187372,5,4,1:0:0:0:
251,371,187524,2,0,L|251:295,1,53.9999983520508,0|0,3:0|3:0,0:0:0:0:
270,30,187677,2,0,P|298:133|185:140,1,242.999992584229,4|0,1:2|0:0,0:0:0:0:
191,146,187982,6,0,B|242:115|285:148|285:148|331:181|380:146,1,202.500007724762,4|0,1:2|0:0,0:0:0:0:
442,94,188287,2,0,P|394:70|369:66,1,67.5000025749208,10|0,0:1|0:0,0:0:0:0:
121,237,188439,2,0,P|71:253|-2:183,2,135.000005149842,0|0|0,0:0|3:0|0:0,0:0:0:0:
239,209,188896,1,8,0:0:0:0:
0,374,189048,1,2,0:0:0:0:
65,43,189200,6,0,B|85:128|85:128|73:174,1,135.000005149842,0|0,1:0|0:0,0:0:0:0:
353,384,189505,2,0,P|277:327|330:253,1,202.500007724762,8|0,0:0|0:0,0:0:0:0:
390,203,189809,1,8,0:3:0:0:
512,336,189962,1,2,0:1:0:0:
87,313,190114,2,0,B|192:349|192:349|294:315,1,202.500007724762,8|0,0:1|0:0,0:0:0:0:
327,253,190419,6,0,P|397:231|480:230,1,135.000005149842,0|0,3:0|0:0,0:0:0:0:
41,21,190723,2,0,P|122:83|66:172,1,202.500007724762,10|0,0:0|0:0,0:0:0:0:
11,168,191028,1,4,0:3:0:0:
277,94,191180,1,0,0:0:0:0:
298,347,191332,1,8,0:0:0:0:
193,88,191485,1,0,3:0:0:0:
470,384,191637,5,0,1:0:0:0:
295,177,191789,1,2,0:0:0:0:
367,0,191942,1,8,0:0:0:0:
367,0,191992,1,8,0:0:0:0:
367,0,192043,1,8,0:0:0:0:
367,0,192094,2,0,P|395:30|460:49,1,67.5000025749208,8|0,0:0|0:0,0:0:0:0:
497,38,192246,1,0,1:0:0:0:
193,88,192398,5,0,3:0:0:0:
114,84,192474,1,0,3:0:0:0:
54,33,192551,2,0,P|102:-5|168:21,1,135.000005149842,12|0,1:0|0:0,0:0:0:0:
299,297,192855,6,0,B|255:245|301:157|301:157|330:160|368:148,1,202.500007724762,4|0,1:0|0:0,0:0:0:0:
192,221,193160,1,10,0:0:0:0:
273,185,193312,5,8,0:0:0:0:
155,146,193464,1,2,1:3:0:0:
348,233,193617,5,2,0:3:0:0:
0,384,193769,1,8,0:3:0:0:
377,301,193921,6,0,B|417:304|440:344|440:344|427:267|339:241|299:297,1,270.000010299683,4|2,1:0|0:0,0:0:0:0:
89,276,194378,2,0,P|119:283|157:278,1,67.5000025749208,8|0,0:0|0:0,0:0:0:0:
177,355,194530,2,0,P|205:339|226:307,1,67.5000025749208,4|0,0:0|0:0,0:0:0:0:
220,234,194683,1,0,1:0:0:0:
220,234,194835,1,2,0:0:0:0:
512,194,194987,1,4,1:2:0:0:
318,24,195139,5,0,0:0:0:0:
318,24,195190,1,0,0:0:0:0:
318,24,195241,1,0,0:0:0:0:
320,29,195291,6,0,B|308:98|308:98|319:162,1,135.000005149842,4|0,1:0|0:0,0:0:0:0:
120,0,195596,1,12,0:0:0:0:
388,101,195749,1,8,0:0:0:0:
66,111,195901,5,2,3:0:0:0:
411,23,196053,1,2,0:3:0:0:
510,338,196205,1,10,0:3:0:0:
154,99,196358,6,0,B|191:120|209:157|209:157|183:352,1,270.000010299683,4|2,1:2|0:3,0:0:0:0:
0,157,196815,1,8,0:3:0:0:
271,246,196967,1,4,1:0:0:0:
26,326,197119,5,2,0:3:0:0:
293,159,197271,1,2,0:3:0:0:
505,376,197424,1,4,1:2:0:0:
488,374,197500,1,8,0:3:0:0:
473,372,197576,1,8,0:3:0:0:
457,370,197652,1,8,0:3:0:0:
441,367,197728,6,0,B|313:352|313:352|283:321|298:258,1,202.500007724762,4|0,1:2|0:0,0:0:0:0:
177,218,198033,2,0,P|209:210|242:215,1,67.5000025749208,10|0,0:1|0:0,0:0:0:0:
512,195,198185,1,0,0:0:0:0:
383,182,198337,2,0,B|447:207|447:207|512:195,1,135.000005149842,0|0,3:0|0:0,0:0:0:0:
310,66,198642,2,0,P|362:55|389:70,1,67.5000025749208,8|0,0:0|0:0,0:0:0:0:
453,127,198793,1,2,0:0:0:0:
56,271,198946,6,0,L|67:134,1,135.000005149842,0|0,1:0|0:0,0:0:0:0:
453,127,199251,2,0,P|402:46|309:68,1,202.500007724762,8|0,0:0|0:0,0:0:0:0:
242,134,199556,1,8,0:3:0:0:
192,0,199708,1,2,0:1:0:0:
0,324,199860,2,0,B|98:292|98:292|228:304,1,202.500007724762,8|0,0:1|0:0,0:0:0:0:
275,336,200165,6,0,P|212:346|150:314,1,135.000005149842,0|0,3:0|0:0,0:0:0:0:
0,15,200469,6,0,B|67:35|67:35|89:110|79:204,1,202.500007724762,10|0,0:0|0:0,0:0:0:0:
32,225,200774,1,4,0:3:0:0:
125,233,200926,1,0,0:0:0:0:
386,141,201078,5,8,0:0:0:0:
78,300,201231,1,0,3:0:0:0:
0,95,201383,5,0,1:0:0:0:
191,363,201535,1,2,0:0:0:0:
473,116,201688,1,8,0:0:0:0:
473,116,201738,1,8,0:0:0:0:
473,116,201789,1,8,0:0:0:0:
473,116,201840,2,0,L|462:209,1,67.5000025749208,8|0,0:0|0:0,0:0:0:0:
511,246,201992,1,0,1:0:0:0:
191,363,202144,5,0,3:0:0:0:
191,272,202220,1,0,3:0:0:0:
282,244,202297,2,0,P|349:248|414:265,1,135.000005149842,12|0,1:0|0:0,0:0:0:0:
252,321,202601,6,0,P|200:249|263:164,1,202.500007724762,4|0,1:0|0:0,0:0:0:0:
334,164,202906,1,10,0:0:0:0:
92,121,203058,1,8,0:0:0:0:
118,193,203210,1,2,1:3:0:0:
512,21,203363,5,2,0:3:0:0:
282,244,203515,1,8,0:3:0:0:
26,80,203667,6,0,B|43:24|115:4|115:4|177:48|170:141,1,270.000010299683,4|2,1:0|0:0,0:0:0:0:
118,193,204124,2,0,P|188:171|258:174,1,135.000005149842,8|4,0:0|0:0,0:0:0:0:
512,352,204429,2,0,P|447:350|378:328,1,135.000005149842,0|2,1:0|0:0,0:0:0:0:
393,31,204733,2,0,P|400:124|312:181,1,202.500007724762,4|0,1:0|0:0,0:0:0:0:
250,159,205038,5,4,1:2:0:0:
327,194,205190,1,8,0:0:0:0:
5,313,205342,5,12,1:0:0:0:
316,14,205495,1,8,0:0:0:0:
301,375,205647,5,8,1:0:0:0:
334,348,205723,1,8,0:3:0:0:
334,290,205799,1,8,1:0:0:0:
276,251,205875,1,8,0:3:0:0:
193,256,205952,1,8,1:0:0:0:
129,185,206028,1,8,0:3:0:0:
152,76,206104,5,4,1:2:0:0:
98,384,206409,5,8,1:0:0:0:
316,14,206561,1,8,1:0:0:0:
314,13,207018,6,0,L|386:20,1,67.5000025749208,0|0,3:0|3:0,0:0:0:0:
512,85,207170,2,0,P|446:89|373:104,1,135.000005149842,12|8,1:0|0:0,0:0:0:0:
327,233,207397,1,8,0:0:0:0:
337,262,207474,6,0,P|258:296|210:231,2,180,4|10|0,1:0|0:0|1:0,0:0:0:0:
77,34,208235,1,0,0:0:0:0:
151,11,208388,1,12,0:0:0:0:
28,319,208540,6,0,B|35:357|106:380|152:352|152:352|162:314,1,180,4|0,1:2|1:0,0:0:0:0:
206,69,208997,1,10,0:0:0:0:
151,11,209149,1,0,0:0:0:0:
464,270,209301,2,0,P|383:282|325:253,1,135,0|0,1:0|0:0,0:0:0:0:
323,268,209606,1,12,0:0:0:0:
391,92,209759,1,0,0:0:0:0:
384,95,209835,1,0,0:0:0:0:
377,98,209911,6,0,P|452:121|508:90,1,135,0|0,1:0|0:0,0:0:0:0:
495,15,210215,2,0,P|420:-8|370:27,1,135,10|0,0:0|0:0,0:0:0:0:
500,115,210520,1,0,1:0:0:0:
377,98,210672,1,0,0:0:0:0:
305,187,210824,1,12,0:0:0:0:
63,0,210977,6,0,P|80:74|62:175,1,180,4|0,1:2|1:0,0:0:0:0:
33,313,211433,2,0,P|11:277|14:215,1,90,10|0,0:0|0:0,0:0:0:0:
152,185,211738,1,0,1:0:0:0:
0,384,211890,1,0,0:0:0:0:
335,300,212042,2,0,P|344:351|266:342,1,135,10|0,0:0|0:0,0:0:0:0:
263,286,212347,6,0,P|352:285|440:264,2,180,4|12|0,1:0|0:0|1:0,0:0:0:0:
216,46,213108,1,0,0:0:0:0:
332,64,213261,1,8,3:2:0:0:
16,269,213413,6,0,P|78:213|147:261,1,180,4|0,1:2|1:0,0:0:0:0:
334,252,213870,1,12,0:0:0:0:
325,180,214022,1,0,0:0:0:0:
214,230,214174,1,0,1:0:0:0:
395,208,214326,1,0,0:0:0:0:
63,87,214479,1,8,3:2:0:0:
363,6,214631,5,0,0:0:0:0:
363,6,214682,1,0,0:0:0:0:
363,6,214733,1,0,0:0:0:0:
363,6,214784,2,0,L|341:110,1,90,0|0,1:0|0:0,0:0:0:0:
150,186,215088,2,0,L|136:98,1,90,4|0,1:0|0:0,0:0:0:0:
205,67,215393,1,0,1:0:0:0:
0,16,215545,1,0,0:0:0:0:
338,10,215697,1,10,0:0:0:0:
0,274,215850,6,0,P|63:243|161:301,1,180,4|0,1:3|0:0,0:0:0:0:
223,312,216306,1,8,0:0:0:0:
217,184,216459,1,0,0:0:0:0:
126,358,216611,1,2,1:3:0:0:
425,378,216764,1,0,0:0:0:0:
338,165,216916,2,0,L|352:230,2,45,8|0|0,0:0|0:0|0:0,0:0:0:0:
478,315,217144,5,0,0:0:0:0:
478,315,217182,5,0,0:0:0:0:
478,315,217221,6,0,P|512:280|473:163,1,180,4|10,1:0|0:0,0:0:0:0:
221,183,217677,1,0,0:0:0:0:
129,282,217829,2,0,P|74:305|31:311,2,90,0|0|12,1:0|0:0|0:0,0:0:0:0:
203,0,218286,6,0,P|194:70|231:174,1,180,4|0,1:2|1:0,0:0:0:0:
0,150,218743,1,10,0:0:0:0:
0,150,218895,1,0,0:0:0:0:
337,289,219047,2,0,P|285:267|223:273,1,90,0|0,1:0|0:0,0:0:0:0:
87,384,219352,2,0,P|131:380|172:361,1,90,12|0,0:0|0:0,0:0:0:0:
427,183,219657,6,0,B|429:232|429:232|418:272,1,90,0|0,1:0|0:0,0:0:0:0:
360,134,219961,1,10,0:0:0:0:
360,134,220114,1,0,0:0:0:0:
512,362,220266,1,0,1:0:0:0:
398,346,220418,1,0,0:0:0:0:
502,352,220570,1,12,0:0:0:0:
58,291,220723,6,0,P|94:215|177:228,1,180,4|0,1:2|1:0,0:0:0:0:
320,301,221179,2,0,P|270:309|231:293,1,90,10|0,0:0|0:0,0:0:0:0:
140,132,221484,1,0,1:0:0:0:
84,75,221636,1,0,0:0:0:0:
132,367,221789,2,0,P|89:374|58:285,1,135,10|0,0:0|0:0,0:0:0:0:
28,229,222094,6,0,P|42:176|46:134,1,90,4|0,1:0|0:0,0:0:0:0:
194,48,222398,2,0,P|198:92|210:135,1,90,12|0,0:0|0:0,0:0:0:0:
402,275,222702,1,0,1:0:0:0:
285,256,222854,1,0,0:0:0:0:
229,351,223007,1,8,3:2:0:0:
512,62,223159,6,0,P|443:23|381:98,1,180,4|0,1:0|1:0,0:0:0:0:
458,119,223616,1,12,0:0:0:0:
458,119,223768,1,0,0:0:0:0:
304,92,223920,1,0,1:0:0:0:
234,225,224072,1,0,0:0:0:0:
0,60,224225,1,8,3:2:0:0:
298,379,224377,5,0,0:0:0:0:
298,379,224428,1,0,0:0:0:0:
298,379,224479,1,0,0:0:0:0:
298,379,224530,2,0,L|281:278,1,90,4|0,1:0|0:0,0:0:0:0:
108,187,224834,2,0,L|124:88,1,90,4|0,1:3|0:0,0:0:0:0:
0,304,225139,1,4,1:0:0:0:
219,251,225291,1,0,0:0:0:0:
55,14,225443,1,10,0:0:0:0:
404,178,225596,6,0,P|337:171|284:216,1,135,4|0,1:3|0:0,0:0:0:0:
289,226,225900,1,0,0:0:0:0:
44,309,226053,5,4,1:0:0:0:
82,373,226129,1,0,0:0:0:0:
157,373,226206,2,0,L|151:313,1,45
289,226,226358,5,6,1:3:0:0:
251,290,226434,1,0,0:0:0:0:
176,290,226511,2,0,L|182:230,1,45,8|0,1:3|0:0,0:0:0:0:
233,107,226662,6,0,L|227:167,1,45,8|0,0:0|0:0,0:0:0:0:
0,132,226815,1,8,1:3:0:0:
0,132,226865,1,0,0:0:0:0:
0,132,226916,1,0,0:0:0:0:
0,132,226967,6,0,P|63:163|126:130,1,144,4|2,1:0|0:0,0:0:0:0:
63,88,227424,1,0,1:0:0:0:
245,36,227576,2,0,P|236:70|233:106,2,72,8|0|2,1:0|0:0|0:3,0:0:0:0:
39,17,228033,5,2,1:3:0:0:
39,17,228337,1,0,3:0:0:0:
63,88,228490,5,2,1:3:0:0:
313,93,228642,1,0,3:0:0:0:
118,36,228795,1,8,1:0:0:0:
264,236,228947,1,0,3:0:0:0:
253,227,229099,6,0,P|282:217|318:228,1,53.9999983520508,8|8,0:1|0:3,0:0:0:0:
512,149,229252,2,0,P|486:152|460:144,1,53.9999983520508,8|8,0:1|0:3,0:0:0:0:
471,132,229403,6,0,P|468:79|458:26,2,107.999996704102,4|0|0,1:0|3:0|3:0,0:0:0:0:
41,132,229860,2,0,P|44:79|54:26,2,107.999996704102,4|0|0,1:2|3:0|3:0,0:0:0:0:
512,382,230317,5,4,1:0:0:0:
373,322,230469,1,0,0:0:0:0:
458,236,230622,1,0,3:0:0:0:
242,384,230774,5,4,1:2:0:0:
213,190,230926,1,0,0:0:0:0:
365,230,231079,1,0,3:0:0:0:
0,152,231231,5,4,1:0:0:0:
373,113,231383,1,0,3:0:0:0:
225,5,231536,1,4,1:2:0:0:
512,382,231688,5,4,1:2:0:0:
