osu file format v14

[General]
AudioFilename: audio.mp3
AudioLeadIn: 0
PreviewTime: 68591
Countdown: 0
SampleSet: None
StackLeniency: 0.7
Mode: 0
LetterboxInBreaks: 0
WidescreenStoryboard: 1

[Editor]
Bookmarks: 217,29608,49100,68593,88085,97832,107578,112451,117324,122197,127070,146562,166055,175801,187984,207476,226968,231689
DistanceSpacing: 0.6
BeatDivisor: 6
GridSize: 4
TimelineZoom: 2.2

[Metadata]
Title:Ryuu to Sakura Miko
TitleUnicode:龍と桜巫女
Artist:Hatsuki Yura
ArtistUnicode:葉月ゆら
Creator:KKipalt
Version:tomatsu's Extra
Source:
Tags:yoiyami rensou kitan 宵闇恋想奇譚 drop どろっぷ seifuumeigatsu 清風明月 hanazawa_kana kana 1112deng suzuki_1112 1112 otosaka-yu narcissu AIR tomadoi agatsu 和風民族音楽 japanese folk pop
BeatmapID:2206621
BeatmapSetID:962172

[Difficulty]
HPDrainRate:6
CircleSize:4.2
OverallDifficulty:8.8
ApproachRate:9.3
SliderMultiplier:1.6
SliderTickRate:1

[Events]
//Background and Video events
0,0,"BGme.jpg",0,0
//Break Periods
//Storyboard Layer 0 (Background)
//Storyboard Layer 1 (Fail)
//Storyboard Layer 2 (Pass)
//Storyboard Layer 3 (Foreground)
//Storyboard Layer 4 (Overlay)
//Storyboard Sound Samples

[TimingPoints]
-850,304.568527918782,4,2,1,70,1,0
368,-100,4,2,1,70,0,0
2652,-100,4,2,1,70,0,0
10114,-100,4,2,2,70,0,0
29606,-100,4,2,1,70,0,0
29911,-125,4,2,1,70,0,0
34175,-76.9230769230769,4,2,1,70,0,0
34479,-100,4,2,3,70,0,0
38896,-100,4,2,2,70,0,0
39200,-100,4,2,1,70,0,0
39657,-125,4,2,1,70,0,0
43921,-76.9230769230769,4,2,1,70,0,0
44226,-100,4,2,3,70,0,0
48642,-100,4,2,2,70,0,0
48946,-100,4,2,1,70,0,0
49099,-100,4,3,4,70,0,0
53667,-100,4,2,1,70,0,0
53972,-100,4,3,5,70,0,0
55038,-100,4,2,1,70,0,0
55190,-100,4,3,5,70,0,0
56408,-100,4,2,3,70,0,0
57474,-100,4,2,1,70,0,0
57778,-100,4,2,2,70,0,0
57779,-100,4,2,2,70,0,0
58693,-100,4,3,4,70,0,0
63413,-100,4,2,1,70,0,0
63718,-100,4,2,3,70,0,0
66155,-100,4,2,1,70,0,0
66611,-83.3333333333333,4,2,1,70,0,0
67068,-71.4285714285714,4,2,1,70,0,0
67982,-62.5,4,2,1,70,0,0
68591,-90.9090909090909,4,2,3,80,0,0
72093,-90.9090909090909,4,2,2,80,0,0
72094,-90.9090909090909,4,2,2,80,0,0
72246,-90.9090909090909,4,2,3,80,0,0
73007,-90.9090909090909,4,2,1,80,0,0
73160,-71.4285714285714,4,2,1,80,0,0
73464,-90.9090909090909,4,2,2,80,0,0
73921,-90.9090909090909,4,2,1,80,0,0
74835,-90.9090909090909,4,2,2,80,0,0
75596,-90.9090909090909,4,2,1,80,0,0
76205,-90.9090909090909,4,2,2,80,0,0
76358,-90.9090909090909,4,2,1,80,0,0
78337,-90.9090909090909,4,2,3,80,0,0
80774,-90.9090909090909,4,2,3,80,0,0
81840,-90.9090909090909,4,2,2,80,0,0
81992,-90.9090909090909,4,2,3,80,0,0
82906,-71.4285714285714,4,2,1,80,0,0
83210,-90.9090909090909,4,2,2,80,0,0
83667,-90.9090909090909,4,2,1,80,0,0
84580,-90.9090909090909,4,2,2,80,0,0
84581,-90.9090909090909,4,2,2,80,0,0
85342,-90.9090909090909,4,2,1,80,0,0
87779,-71.4285714285714,4,2,1,80,0,0
88084,-100,4,2,2,70,0,0
107575,-100,4,2,1,70,0,0
107576,-125,4,2,1,70,0,0
112144,-76.9230769230769,4,2,1,70,0,0
112449,-100,4,2,3,70,0,0
116865,-100,4,2,2,70,0,0
117170,-100,4,2,1,70,0,0
117322,-125,4,2,1,70,0,0
121891,-76.9230769230769,4,2,1,70,0,0
122195,-100,4,2,3,70,0,0
126611,-100,4,2,2,70,0,0
126916,-100,4,2,1,70,0,0
127068,-100,4,3,4,70,0,0
131637,-100,4,2,1,70,0,0
131941,-100,4,3,5,70,0,0
133007,-100,4,2,1,70,0,0
133160,-100,4,3,5,70,0,0
134378,-100,4,2,3,70,0,0
135444,-100,4,2,1,70,0,0
135672,-100,4,2,2,70,0,0
136662,-100,4,3,4,70,0,0
141383,-100,4,2,1,70,0,0
141688,-100,4,2,3,70,0,0
144124,-100,4,2,1,70,0,0
144581,-83.3333333333333,4,2,1,70,0,0
145038,-71.4285714285714,4,2,1,70,0,0
145952,-62.5,4,2,1,70,0,0
146561,-90.9090909090909,4,2,3,80,0,0
150063,-90.9090909090909,4,2,2,80,0,0
150215,-90.9090909090909,4,2,3,80,0,0
150977,-90.9090909090909,4,2,1,80,0,0
151129,-71.4285714285714,4,2,1,80,0,0
151434,-90.9090909090909,4,2,2,80,0,0
151891,-90.9090909090909,4,2,1,80,0,0
152804,-90.9090909090909,4,2,2,80,0,0
153566,-90.9090909090909,4,2,1,80,0,0
154175,-90.9090909090909,4,2,2,80,0,0
154327,-90.9090909090909,4,2,1,80,0,0
156307,-90.9090909090909,4,2,3,80,0,0
160723,-90.9090909090909,4,2,1,80,0,0
160875,-71.4285714285714,4,2,1,80,0,0
161180,-90.9090909090909,4,2,2,80,0,0
161637,-90.9090909090909,4,2,1,80,0,0
162550,-90.9090909090909,4,2,2,80,0,0
162551,-90.9090909090909,4,2,2,80,0,0
163312,-90.9090909090909,4,2,1,80,0,0
165748,-71.4285714285714,4,2,1,80,0,0
166053,-125,4,2,2,60,0,0
167119,-125,4,2,3,60,0,0
167576,-125,4,2,2,60,0,0
167880,-125,4,2,3,60,0,0
168185,-125,4,2,2,60,0,0
168490,-125,4,2,3,60,0,0
169099,-125,4,2,2,60,0,0
169556,-125,4,2,3,60,0,0
169860,-125,4,2,2,60,0,0
170012,-125,4,2,3,60,0,0
170316,-125,4,2,2,60,0,0
170317,-125,4,2,2,60,0,0
170622,-125,4,2,3,60,0,0
170774,-125,4,2,2,60,0,0
170926,-125,4,2,3,60,0,0
171231,-125,4,2,2,60,0,0
171382,-125,4,2,3,60,0,0
171535,-125,4,2,2,60,0,0
171992,-125,4,2,3,60,0,0
172297,-125,4,2,2,60,0,0
172449,-125,4,2,3,60,0,0
172754,-125,4,2,2,60,0,0
174733,-125,4,2,1,60,0,0
175495,-100,4,2,1,60,0,0
175799,-100,4,2,2,70,0,0
185545,-100,4,2,1,70,0,0
186002,-83.3333333333333,4,2,1,70,0,0
186459,-71.4285714285714,4,2,1,70,0,0
187373,-62.5,4,2,1,70,0,0
187982,-90.9090909090909,4,2,3,80,0,0
191484,-90.9090909090909,4,2,2,80,0,0
191485,-90.9090909090909,4,2,2,80,0,0
191637,-90.9090909090909,4,2,3,80,0,0
192551,-71.4285714285714,4,2,1,80,0,0
192855,-90.9090909090909,4,2,2,80,0,0
193312,-90.9090909090909,4,2,1,80,0,0
194226,-90.9090909090909,4,2,2,80,0,0
194987,-90.9090909090909,4,2,1,80,0,0
195596,-90.9090909090909,4,2,2,80,0,0
195748,-90.9090909090909,4,2,1,80,0,0
197728,-90.9090909090909,4,2,3,80,0,0
201231,-90.9090909090909,4,2,2,80,0,0
201306,-90.9090909090909,4,2,3,80,0,0
201383,-90.9090909090909,4,2,3,80,0,0
202297,-71.4285714285714,4,2,1,80,0,0
202601,-90.9090909090909,4,2,2,80,0,0
203058,-90.9090909090909,4,2,1,80,0,0
203061,-90.9090909090909,4,2,1,80,0,0
203971,-90.9090909090909,4,2,2,80,0,0
203972,-90.9090909090909,4,2,2,80,0,0
204733,-90.9090909090909,4,2,1,80,0,0
207170,-71.4285714285714,4,2,1,80,0,0
207474,-90.9090909090909,4,2,2,70,0,0
226967,-111.111111111111,4,2,3,70,0,0
227271,-111.111111111111,4,2,2,70,0,0
227576,-111.111111111111,4,2,1,70,0,0
228033,-90.9090909090908,4,2,1,70,0,0
228337,-90.9090909090908,4,2,2,70,0,0
228489,-90.9090909090908,4,2,1,70,0,0
228490,-90.9090909090908,4,2,1,70,0,0
228642,-111.111111111111,4,2,2,70,0,0
228794,-111.111111111111,4,2,1,70,0,0
228946,-111.111111111111,4,2,2,70,0,0
229099,-111.111111111111,4,2,1,70,0,0
229556,-100,4,2,1,70,0,0
230012,-83.3333333333333,4,2,1,70,0,0
230469,-71.4285714285714,4,2,1,70,0,0
231231,-62.5,4,2,1,70,0,0
231688,-62.5,4,1,3,70,0,0

[Colours]
Combo1 : 225,157,89
Combo2 : 255,170,170
Combo3 : 181,125,204
Combo4 : 212,212,212

[HitObjects]
148,198,215,6,0,L|144:235,2,26.6666666666667,8|8|8,0:0|0:0|0:0,0:0:0:0:
127,252,368,2,0,B|139:157|80:192|104:94,1,160,4|0,3:2|0:0,0:0:0:0:
127,252,825,1,2,0:3:0:0:
0,296,977,2,0,P|38:296|86:307,1,80,8|0,0:3|0:0,0:0:0:0:
135,348,1281,1,2,0:3:0:0:
352,289,1434,2,0,P|287:300|190:307,1,160,0|8,3:0|0:3,0:0:0:0:
434,383,1891,2,0,P|429:348|432:301,1,80,2|0,0:3|3:0,0:0:0:0:
392,101,2195,5,8,0:3:0:0:
458,158,2347,1,0,0:0:0:0:
408,231,2500,1,2,0:3:0:0:
342,174,2652,2,0,L|344:205,2,26.6666666666667,8|8|8,0:0|0:0|0:0,0:0:0:0:
342,174,2804,2,0,B|435:171|403:222|498:231,1,160,0|0,3:0|0:0,0:0:0:0:
499,160,3261,1,2,0:3:0:0:
293,309,3413,6,0,P|291:271|286:230,1,80,8|0,0:3|0:0,0:0:0:0:
378,305,3718,1,2,0:3:0:0:
111,350,3870,2,0,P|183:342|263:390,1,160,0|8,3:0|0:3,0:0:0:0:
23,304,4327,2,0,P|18:273|28:226,1,80,2|0,0:3|3:0,0:0:0:0:
213,112,4632,5,8,0:3:0:0:
148,171,4784,1,0,0:0:0:0:
127,81,4936,1,2,0:3:0:0:
228,214,5089,2,0,L|231:257,2,26.6666666666667,8|8|8,0:0|0:0|0:0,0:0:0:0:
231,188,5241,5,4,3:1:0:0:
357,63,5393,2,0,B|294:74|294:74|278:98|278:98|205:113,1,160,2|2,0:3|0:3,0:0:0:0:
405,194,5850,2,0,L|499:217,1,80,8|0,0:3|0:0,0:0:0:0:
405,194,6155,1,2,0:3:0:0:
274,333,6307,2,0,B|244:312|244:312|256:230,1,120,0|0,3:0|0:0,0:0:0:0:
256,229,6611,1,8,0:3:0:0:
411,298,6764,2,0,B|379:277|379:277|335:286,1,80,2|0,0:3|3:0,0:0:0:0:
121,291,7068,5,8,0:3:0:0:
274,333,7221,1,0,0:0:0:0:
183,357,7373,5,2,0:3:0:0:
222,269,7525,2,0,B|219:228,2,26.6666666666667,8|0|0,0:3|0:0|0:0,0:0:0:0:
206,285,7677,2,0,L|193:122,1,160,4|0,3:2|0:0,0:0:0:0:
144,74,8134,1,2,0:3:0:0:
3,213,8287,2,0,L|17:132,1,80,8|0,0:3|0:0,0:0:0:0:
70,77,8591,1,2,0:3:0:0:
121,277,8743,6,0,B|52:269|75:304|-3:304,1,120,4|0,3:1|0:0,0:0:0:0:
6,303,9048,2,0,L|50:312,1,40,8|8,0:3|0:3,0:0:0:0:
160,364,9200,5,8,0:3:0:0:
116,186,9353,1,0,3:0:0:0:
234,255,9505,5,8,0:3:0:0:
284,52,9657,1,8,0:1:0:0:
191,127,9809,5,8,0:3:0:0:
157,7,9962,1,8,0:0:0:0:
289,137,10114,5,4,1:0:0:0:
116,205,10266,2,0,P|78:197|36:192,2,80,0|10|0,0:0|0:0|0:0,0:0:0:0:
255,327,10723,2,0,P|249:285|245:247,1,80,0|0,1:0|0:0,0:0:0:0:
255,327,11028,1,12,0:0:0:0:
366,144,11180,2,0,P|297:155|225:97,1,160,4|0,1:2|1:0,0:0:0:0:
413,202,11637,2,0,L|491:217,1,80,10|0,0:0|0:0,0:0:0:0:
322,78,11941,5,0,1:0:0:0:
322,78,12094,1,0,0:0:0:0:
179,194,12246,2,0,L|101:209,1,80,12|0,0:0|0:0,0:0:0:0:
88,219,12474,1,0,0:0:0:0:
77,195,12551,2,0,B|141:210|141:210|157:234|157:234|238:254,1,160,0|10,1:0|0:0,0:0:0:0:
281,216,13007,1,0,0:0:0:0:
356,348,13160,2,0,B|342:313|342:313|355:265,1,80,0|0,1:0|0:0,0:0:0:0:
421,303,13464,1,12,0:0:0:0:
202,360,13617,6,0,L|290:373,1,80,4|0,1:2|0:0,0:0:0:0:
495,362,13921,1,0,1:0:0:0:
471,367,13997,1,0,0:0:0:0:
447,372,14073,1,10,0:0:0:0:
348,260,14226,1,0,0:0:0:0:
481,258,14378,5,0,1:0:0:0:
356,348,14530,1,0,0:0:0:0:
192,147,14682,6,0,L|199:226,1,80,10|0,0:0|0:0,0:0:0:0:
406,170,14987,6,0,B|366:163|336:161|336:161|324:139|338:110,1,120,4|0,1:0|0:0,0:0:0:0:
336,113,15292,2,0,L|323:196,1,80,12|0,0:0|0:0,0:0:0:0:
454,11,15596,2,0,L|467:93,1,80,0|0,1:0|0:0,0:0:0:0:
379,40,15901,1,8,3:2:0:0:
470,241,16053,6,0,B|384:246|410:190|318:192,1,160,4|0,1:2|1:0,0:0:0:0:
170,333,16510,2,0,P|197:336|253:347,1,80,12|0,0:0|0:0,0:0:0:0:
170,333,16814,1,0,1:0:0:0:
322,191,16967,2,0,B|336:226|336:226|324:266,1,80,0|8,0:0|3:2,0:0:0:0:
214,160,17271,2,0,L|219:115,2,26.6666666666667
214,160,17424,5,0,1:0:0:0:
309,103,17576,1,0,0:0:0:0:
166,23,17728,1,4,1:0:0:0:
101,232,17880,1,0,0:0:0:0:
218,134,18033,5,0,1:0:0:0:
47,56,18185,1,0,0:0:0:0:
6,268,18337,1,10,0:0:0:0:
189,119,18490,6,0,B|108:115|129:181|33:147,1,160,4|0,1:3|0:0,0:0:0:0:
272,22,18946,2,0,P|311:30|365:36,1,80,8|0,0:0|0:0,0:0:0:0:
480,216,19251,1,2,1:3:0:0:
275,293,19403,1,0,0:0:0:0:
355,126,19556,2,0,P|363:165|369:219,1,80,8|0,0:0|0:0,0:0:0:0:
367,204,19784,5,0,0:0:0:0:
367,204,19860,2,0,B|299:208|324:171|243:180,1,120,4|0,1:0|0:0,0:0:0:0:
252,179,20165,1,10,0:0:0:0:
416,358,20317,2,0,B|410:317|410:317|423:277,2,80,0|0|0,0:0|1:0|0:0,0:0:0:0:
480,216,20774,1,12,0:0:0:0:
199,235,20926,6,0,B|267:225|267:225|288:201|288:201|359:189,1,160,4|0,1:2|1:0,0:0:0:0:
146,287,21383,2,0,L|66:277,1,80,10|0,0:0|0:0,0:0:0:0:
197,349,21688,1,0,1:0:0:0:
197,349,21840,1,0,0:0:0:0:
59,198,21992,2,0,P|67:235|66:280,1,80,12|0,0:0|0:0,0:0:0:0:
66,276,22221,2,0,L|19:286,1,40,0|0,0:0|1:0,0:0:0:0:
138,123,22449,5,0,0:0:0:0:
196,166,22601,2,0,L|278:181,1,80,10|0,0:0|0:0,0:0:0:0:
449,123,22906,1,0,1:0:0:0:
425,126,22982,1,0,0:0:0:0:
406,141,23058,1,0,0:0:0:0:
450,201,23210,1,12,0:0:0:0:
255,87,23363,6,0,P|323:92|383:26,1,160,4|0,1:2|1:0,0:0:0:0:
196,166,23820,2,0,L|116:175,1,80,10|0,0:0|0:0,0:0:0:0:
256,211,24124,1,0,1:0:0:0:
45,143,24276,1,0,0:0:0:0:
103,23,24429,2,0,B|94:60|94:60|106:100,1,80,10|0,0:0|0:0,0:0:0:0:
77,356,24733,6,0,B|96:307|96:307|81:241,1,120,4|0,1:0|0:0,0:0:0:0:
81,241,25038,2,0,L|164:253,1,80,12|0,0:0|0:0,0:0:0:0:
220,296,25342,1,0,1:0:0:0:
371,211,25495,1,0,0:0:0:0:
418,263,25647,1,8,3:2:0:0:
286,257,25799,6,0,L|297:89,1,160,4|0,1:0|1:0,0:0:0:0:
498,299,26256,2,0,L|488:212,1,80,12|0,0:0|0:0,0:0:0:0:
304,337,26561,5,0,1:0:0:0:
319,241,26713,1,0,0:0:0:0:
411,312,26865,5,8,3:2:0:0:
207,219,27018,5,0,0:0:0:0:
207,219,27094,1,0,0:0:0:0:
207,219,27170,2,0,B|119:211|146:262|55:265,1,160,4|4,1:0|1:3,0:0:0:0:
9,212,27627,1,0,0:0:0:0:
220,316,27779,5,4,1:0:0:0:
277,77,27931,2,0,P|277:114|284:162,1,80,0|10,0:0|0:0,0:0:0:0:
474,275,28236,2,0,P|443:240|332:236,1,160,4|0,1:3|0:0,0:0:0:0:
354,308,28693,5,4,1:0:0:0:
447,106,28845,1,0,0:0:0:0:
453,129,28921,1,0,0:0:0:0:
458,152,28997,5,6,1:3:0:0:
308,56,29150,1,8,1:3:0:0:
279,157,29302,5,8,0:0:0:0:
400,34,29454,1,8,1:3:0:0:
400,34,29606,1,4,3:2:0:0:
375,184,29911,6,0,P|374:152|371:120,1,64,8|8,0:3|0:0,0:0:0:0:
286,243,30215,1,0,3:0:0:0:
286,243,30368,1,0,0:0:0:0:
347,292,30520,1,8,0:3:0:0:
167,349,30672,2,0,P|230:351|294:358,1,128,0|2,3:0|3:0,0:0:0:0:
99,311,31129,6,0,P|57:314|25:305,1,64,8|0,0:3|0:0,0:0:0:0:
131,171,31434,2,0,P|154:205|162:238,1,64,0|0,3:0|3:0,0:0:0:0:
294,358,31738,2,0,P|293:293|296:229,1,128,8|0,0:3|3:0,0:0:0:0:
362,76,32195,5,0,0:0:0:0:
362,76,32271,1,0,0:0:0:0:
362,76,32347,1,8,0:3:0:0:
423,126,32500,1,0,0:0:0:0:
350,153,32652,1,0,3:0:0:0:
287,105,32804,1,8,0:0:0:0:
182,169,32957,5,8,0:3:0:0:
15,81,33109,6,0,P|80:92|162:100,1,128,0|2,3:0|3:0,0:0:0:0:
141,98,33566,2,0,P|198:92|219:93,1,64,8|8,0:3|0:0,0:0:0:0:
304,42,33870,1,0,3:0:0:0:
435,159,34023,1,0,3:0:0:0:
435,159,34099,1,0,3:0:0:0:
435,159,34175,6,0,B|401:85|401:85|441:11,1,155.999992858887,12|0,0:1|0:0,0:0:0:0:
492,95,34479,6,0,B|401:105|432:158|320:135,1,160,4|10,1:2|0:0,0:0:0:0:
169,56,34936,2,0,P|252:43|269:36,1,80,0|4,0:0|0:3,0:0:0:0:
169,56,35241,1,0,0:0:0:0:
274,205,35393,1,10,0:1:0:0:
79,264,35545,2,0,P|103:183|182:169,1,160,8|8,0:3|0:3,0:0:0:0:
254,345,36002,6,0,P|176:332|148:332,1,80,8|0,0:0|0:0,0:0:0:0:
359,202,36307,2,0,P|346:280|346:308,1,80,0|0,1:0|0:0,0:0:0:0:
196,87,36611,2,0,P|299:107|352:111,1,120,10|0,0:0|0:0,0:0:0:0:
313,108,36916,6,0,B|303:70|303:70|326:35,1,80,4|0,1:0|0:0,0:0:0:0:
194,174,37221,1,10,0:1:0:0:
345,280,37373,2,0,P|270:299|254:305,1,80,0|4,0:0|0:3,0:0:0:0:
267,299,37677,1,0,0:0:0:0:
375,190,37830,1,10,0:0:0:0:
504,301,37982,6,0,P|504:221|512:141,1,160,4|0,1:2|1:0,0:0:0:0:
375,190,38439,2,0,P|292:183|237:176,1,120,8|0,0:0|0:0,0:0:0:0:
255,178,38743,1,8,0:3:0:0:
377,288,38896,1,0,3:0:0:0:
266,367,39048,5,2,3:0:0:0:
235,348,39124,1,0,0:0:0:0:
199,340,39200,1,2,0:3:0:0:
163,347,39276,1,2,0:3:0:0:
133,365,39353,1,4,3:2:0:0:
255,241,39657,6,0,P|256:197|253:159,1,64,8|8,0:3|0:0,0:0:0:0:
289,28,39962,2,0,P|288:72|291:110,1,64,0|0,3:0|0:0,0:0:0:0:
289,28,40266,1,8,0:3:0:0:
162,163,40419,2,0,P|164:79|160:19,1,128,0|2,3:0|3:0,0:0:0:0:
87,227,40875,6,0,B|56:220|56:220|14:228,1,64,8|0,0:3|0:0,0:0:0:0:
151,368,41180,2,0,P|149:328|151:290,1,64,0|0,3:0|3:0,0:0:0:0:
52,320,41485,1,8,0:3:0:0:
193,197,41637,1,0,0:0:0:0:
193,197,41713,1,0,0:0:0:0:
193,197,41789,6,0,P|127:142|71:146,1,128,0|8,3:0|0:3,0:0:0:0:
267,177,42246,1,0,0:0:0:0:
338,288,42398,2,0,P|336:237|338:204,1,64,0|8,3:0|0:0,0:0:0:0:
278,356,42703,1,8,0:3:0:0:
193,197,42855,6,0,P|194:303|191:345,1,128,0|2,3:0|3:0,0:0:0:0:
47,157,43312,2,0,B|80:164|80:164|119:157,1,64,8|8,0:3|0:0,0:0:0:0:
199,110,43617,1,0,3:0:0:0:
420,161,43769,1,0,3:0:0:0:
420,161,43845,1,0,3:0:0:0:
420,161,43921,6,0,B|347:138|347:138|265:164,1,155.999992858887,12|0,0:1|0:0,0:0:0:0:
343,63,44226,6,0,P|341:183|345:259,1,160,4|10,1:2|0:0,0:0:0:0:
199,110,44682,2,0,P|122:95|105:89,1,80,0|4,0:0|0:3,0:0:0:0:
199,110,44987,1,0,0:0:0:0:
109,204,45139,1,10,0:1:0:0:
207,351,45292,2,0,B|119:346|146:305|45:304,1,160,8|8,0:3|0:3,0:0:0:0:
222,244,45748,2,0,P|266:247|312:245,1,80,8|0,0:0|0:0,0:0:0:0:
411,349,46053,5,0,1:0:0:0:
375,147,46205,2,0,L|385:201,1,40
464,260,46358,6,0,B|484:231|484:231|459:123,1,120,10|0,0:0|0:0,0:0:0:0:
437,79,46662,6,0,P|440:29|437:-15,1,80,4|0,1:0|0:0,0:0:0:0:
310,92,46967,1,10,0:1:0:0:
165,37,47119,2,0,B|206:45|206:45|260:33,1,80,0|4,0:0|0:3,0:0:0:0:
375,147,47424,1,0,0:0:0:0:
260,267,47576,1,10,0:0:0:0:
355,240,47728,6,0,P|453:266|520:309,1,160,4|0,1:2|1:0,0:0:0:0:
355,240,48185,5,8,0:0:0:0:
183,316,48337,1,0,0:0:0:0:
158,322,48413,1,0,0:0:0:0:
131,329,48490,5,0,1:0:0:0:
233,185,48642,1,0,3:0:0:0:
121,130,48794,5,2,3:0:0:0:
355,240,48946,1,2,0:3:0:0:
261,346,49099,6,0,P|262:307|259:264,1,80,4|0,0:2|0:0,0:0:0:0:
296,105,49403,1,2,0:0:0:0:
296,105,49556,1,0,0:0:0:0:
465,194,49708,2,0,P|425:191|385:192,1,80,4|0,0:0|0:0,0:0:0:0:
465,194,50012,1,2,0:0:0:0:
309,339,50165,2,0,P|334:302|445:301,1,160,2|0,0:0|0:0,0:0:0:0:
243,374,50622,2,0,L|161:361,1,80,2|0,0:0|0:0,0:0:0:0:
43,227,50926,5,4,0:0:0:0:
81,338,51078,1,4,0:0:0:0:
107,269,51231,2,0,L|189:256,1,80,2|0,0:0|0:0,0:0:0:0:
108,58,51535,6,0,B|80:89|80:89|95:176,1,120,4|0,0:0|0:0,0:0:0:0:
93,166,51840,2,0,B|108:130|108:130|89:92,1,80,2|0,0:0|0:0,0:0:0:0:
189,269,52144,5,4,0:0:0:0:
43,227,52297,1,4,0:0:0:0:
184,153,52449,5,2,0:0:0:0:
267,345,52601,2,0,B|362:344|325:293|422:297,1,160,2|0,0:0|0:0,0:0:0:0:
497,377,53058,2,0,P|512:343|502:294,1,80,2|0,0:0|0:0,0:0:0:0:
421,142,53363,5,2,0:0:0:0:
361,25,53515,1,4,0:0:0:0:
361,25,53591,1,4,0:0:0:0:
361,25,53667,2,0,P|346:59|356:108,1,80,4|0,1:0|0:0,0:0:0:0:
508,214,53972,6,0,L|421:224,1,80,6|0,0:0|0:0,0:0:0:0:
223,268,54276,2,0,B|271:268|271:268|292:293|292:293|351:306,1,120,8|0,0:0|0:0,0:0:0:0:
330,301,54581,1,2,0:0:0:0:
169,205,54733,1,0,0:0:0:0:
105,333,54886,5,8,0:0:0:0:
255,192,55038,2,0,B|290:104|233:117|275:27,1,160,4|0,1:0|0:0,0:0:0:0:
80,235,55495,2,0,P|78:191|71:151,1,80,8|2,0:0|0:2,0:0:0:0:
261,304,55799,5,2,0:0:0:0:
284,205,55952,1,2,0:0:0:0:
412,258,56104,6,0,P|372:264|332:265,1,80,8|2,0:0|0:2,0:0:0:0:
82,353,56408,5,4,1:2:0:0:
70,256,56561,1,2,0:2:0:0:
160,223,56713,1,10,0:1:0:0:
171,320,56866,1,2,0:0:0:0:
77,171,57018,5,8,0:3:0:0:
241,263,57170,1,0,0:0:0:0:
82,353,57322,1,8,0:0:0:0:
253,162,57474,6,0,P|313:168|369:258,1,160,4|0,1:2|3:0,0:0:0:0:
459,373,57931,2,0,P|457:338|464:291,1,80,8|2,0:0|0:0,0:0:0:0:
438,70,58236,5,0,1:0:0:0:
451,193,58388,1,0,1:0:0:0:
512,150,58540,5,8,0:0:0:0:
512,150,58617,1,0,0:0:0:0:
512,150,58693,1,0,0:3:0:0:
512,150,58769,1,0,0:3:0:0:
512,150,58845,2,0,B|426:122|444:185|343:166,1,160,4|2,0:2|0:0,0:0:0:0:
310,115,59302,1,0,0:0:0:0:
243,266,59454,2,0,B|251:226|251:226|242:187,1,80,4|0,0:0|0:0,0:0:0:0:
243,266,59759,1,2,0:0:0:0:
146,54,59911,6,0,B|124:104|124:104|146:172,1,120,2|0,0:0|0:0,0:0:0:0:
144,166,60215,1,0,0:0:0:0:
89,11,60368,2,0,L|9:1,1,80,2|0,0:0|0:0,0:0:0:0:
213,110,60672,5,4,0:0:0:0:
331,83,60825,1,4,0:0:0:0:
262,45,60977,2,0,L|253:127,1,80,2|0,0:0|0:0,0:0:0:0:
353,318,61281,6,0,P|369:281|314:182,2,160,4|2|4,0:0|0:0|0:0,0:0:0:0:
289,290,62043,1,4,0:0:0:0:
426,157,62195,1,2,0:0:0:0:
289,290,62347,2,0,B|206:278|221:332|135:323,1,160,2|0,0:0|0:0,0:0:0:0:
27,366,62804,2,0,B|41:332|41:332|28:286,1,80,2|0,0:0|0:0,0:0:0:0:
101,168,63109,5,2,0:0:0:0:
15,47,63261,1,4,0:0:0:0:
15,47,63337,1,4,0:0:0:0:
15,47,63413,2,0,B|1:81|1:81|14:127,1,80,4|0,1:0|0:0,0:0:0:0:
273,125,63718,6,0,L|153:103,1,120,4|0,1:0|0:0,0:0:0:0:
154,103,64023,2,0,B|168:69|168:69|156:27,1,80,10|0,0:0|0:0,0:0:0:0:
187,180,64327,1,0,1:0:0:0:
120,221,64479,1,0,0:0:0:0:
86,153,64632,1,8,0:0:0:0:
221,272,64784,6,0,B|281:290|281:290|300:316|300:316|366:337,1,160,4|0,1:2|0:0,0:0:0:0:
501,279,65241,2,0,L|419:295,1,80,8|0,0:0|0:0,0:0:0:0:
366,248,65545,1,8,0:3:0:0:
423,71,65698,2,0,L|418:123,1,40,2|0,0:1|0:0,0:0:0:0:
452,195,65850,5,8,0:0:0:0:
270,112,66002,1,2,0:0:0:0:
366,248,66155,6,0,L|359:162,1,80,4|0,1:0|3:0,0:0:0:0:
349,98,66459,1,0,3:0:0:0:
292,295,66611,6,0,L|283:192,1,95.9999970703126,4|0,1:2|3:0,0:0:0:0:
270,112,66915,1,0,3:0:0:0:
190,358,67068,6,0,L|180:238,1,111.999996582031,4|0,1:0|0:0,0:0:0:0:
170,128,67372,1,0,3:0:0:0:
7,300,67525,5,4,1:2:0:0:
39,289,67601,1,0,0:0:0:0:
71,278,67677,1,0,0:0:0:0:
180,246,67830,1,0,3:0:0:0:
58,77,67982,6,0,B|84:133|84:133|65:204,1,128,4|0,1:0|3:0,0:0:0:0:
268,372,68287,2,0,B|242:316|242:316|261:245,1,128,4|0,1:2|0:0,0:0:0:0:
366,28,68591,6,0,L|372:173,1,132.00000402832,4|0,1:2|0:0,0:0:0:0:
371,159,68896,1,10,0:1:0:0:
208,22,69048,2,0,P|124:11|97:4,1,88.000002685547,0|0,0:0|3:0,0:0:0:0:
249,112,69353,1,0,0:0:0:0:
108,220,69505,1,8,0:0:0:0:
249,112,69657,1,2,0:0:0:0:
304,220,69809,5,0,1:0:0:0:
132,115,69962,1,0,0:0:0:0:
306,23,70114,2,0,P|393:38|416:39,1,88.000002685547,8|0,0:0|0:0,0:0:0:0:
205,191,70419,6,0,P|208:314|207:331,1,132.00000402832,8|0,0:3|0:0,0:0:0:0:
151,372,70723,2,0,B|107:360|107:360|49:378,1,88.000002685547,8|0,0:1|0:0,0:0:0:0:
369,188,71028,6,0,B|346:222|346:222|367:333,1,132.00000402832,0|0,3:0|0:0,0:0:0:0:
345,384,71332,2,0,B|327:342|327:342|336:286,1,88.000002685547,10|0,0:0|0:0,0:0:0:0:
458,128,71637,5,4,0:3:0:0:
453,255,71789,1,0,0:0:0:0:
282,200,71941,2,0,P|363:189|382:183,1,88.000002685547,8|0,0:0|3:0,0:0:0:0:
222,378,72246,6,0,B|123:374|159:329|57:322,1,176.000005371094,0|8,1:0|0:0,0:0:0:0:
240,273,72703,1,0,0:0:0:0:
112,128,72855,1,0,1:0:0:0:
285,0,73007,6,0,L|268:55,1,44.0000013427735,0|0,3:0|3:0,0:0:0:0:
230,174,73160,6,0,B|203:146|203:146|243:13,1,167.999994873047,12|0,1:0|0:0,0:0:0:0:
328,102,73464,6,0,B|410:91|377:62|468:58,1,132.00000402832,4|0,1:0|0:0,0:0:0:0:
451,59,73769,1,10,0:0:0:0:
348,285,73921,2,0,P|348:235|342:183,1,88.000002685547,8|2,0:0|1:3,0:0:0:0:
437,334,74226,1,2,0:3:0:0:
250,240,74378,1,8,0:3:0:0:
435,98,74530,6,0,B|413:120|413:120|286:103,1,132.00000402832,4|0,1:0|0:0,0:0:0:0:
239,94,74835,1,2,0:0:0:0:
342,255,74987,1,8,0:0:0:0:
210,364,75139,2,0,B|109:360|147:312|30:313,1,176.000005371094,4|2,0:0|0:0,0:0:0:0:
228,220,75596,1,4,1:2:0:0:
116,100,75748,1,0,0:0:0:0:
228,220,75901,6,0,P|220:118|221:61,1,132.00000402832,4|0,1:0|0:0,0:0:0:0:
220,88,76205,1,12,0:0:0:0:
133,280,76358,6,0,B|106:299|106:299|-11:279,1,132.00000402832,8|0,0:0|0:0,0:0:0:0:
0,203,76662,2,0,L|117:223,1,88.000002685547,2|10,0:3|0:3,0:0:0:0:
219,340,76967,6,0,B|304:332|270:302|366:299,1,132.00000402832,4|0,1:2|0:0,0:0:0:0:
343,300,77271,1,2,0:3:0:0:
429,336,77424,5,8,0:3:0:0:
257,170,77576,1,4,1:0:0:0:
352,146,77728,5,2,0:3:0:0:
186,265,77880,1,2,0:3:0:0:
27,129,78033,5,4,1:2:0:0:
56,163,78109,1,8,0:3:0:0:
60,208,78185,1,8,0:3:0:0:
40,248,78261,1,8,0:3:0:0:
40,248,78337,6,0,P|39:332|46:393,1,132.00000402832,4|0,1:2|0:0,0:0:0:0:
43,379,78642,1,10,0:1:0:0:
186,205,78794,2,0,B|204:176|204:176|179:20,1,176.000005371094
292,218,79251,1,8,0:0:0:0:
103,139,79403,1,2,0:0:0:0:
292,218,79556,6,0,B|366:208|341:180|428:173,1,132.00000402832,0|0,1:0|0:0,0:0:0:0:
488,206,79860,2,0,P|497:153|486:107,1,88.000002685547,8|0,0:0|0:0,0:0:0:0:
295,2,80165,5,8,0:3:0:0:
199,78,80317,1,2,0:1:0:0:
292,178,80469,2,0,B|278:136|278:136|296:94,1,88.000002685547,8|0,0:1|0:0,0:0:0:0:
100,281,80774,6,0,P|171:248|233:256,1,132.00000402832,0|0,3:0|0:0,0:0:0:0:
279,305,81078,2,0,P|233:282|175:280,1,88.000002685547,10|0,0:0|0:0,0:0:0:0:
376,231,81383,5,4,0:3:0:0:
195,381,81535,1,0,0:0:0:0:
376,231,81688,2,0,P|370:309|372:326,1,88.000002685547,8|0,0:0|3:0,0:0:0:0:
305,161,81992,5,0,1:0:0:0:
464,251,82144,1,2,0:0:0:0:
476,137,82297,5,8,0:0:0:0:
286,244,82449,1,0,0:0:0:0:
395,54,82601,6,0,B|373:92|373:92|397:155,1,88.000002685547,0|0,1:0|3:0,0:0:0:0:
100,69,82906,6,0,B|167:87|167:87|183:120|183:120|270:146,1,167.999994873047,12|0,1:0|0:0,0:0:0:0:
316,163,83210,6,0,P|316:242|322:310,1,132.00000402832,4|0,1:0|0:0,0:0:0:0:
320,294,83515,1,10,0:0:0:0:
121,265,83667,2,0,B|166:274|166:274|214:263,1,88.000002685547,8|2,0:0|1:3,0:0:0:0:
18,333,83972,1,2,0:3:0:0:
162,175,84124,1,8,0:3:0:0:
18,333,84276,6,0,B|34:295|34:295|11:140,1,176.000005371094,4|2,1:0|0:0,0:0:0:0:
190,58,84733,5,8,0:0:0:0:
367,143,84886,1,4,0:0:0:0:
299,42,85038,5,0,1:0:0:0:
256,145,85190,1,2,0:0:0:0:
86,47,85342,6,0,L|95:111,1,44.0000013427735,4|0,1:0|0:0,0:0:0:0:
120,253,85495,2,0,L|129:317,1,44.0000013427735,8|0,0:0|0:0,0:0:0:0:
154,180,85647,5,4,1:2:0:0:
310,353,85799,5,8,0:0:0:0:
334,238,85952,1,12,1:0:0:0:
358,123,86104,1,8,0:0:0:0:
386,361,86256,6,0,L|446:378,1,44.0000013427735,8|8,1:0|0:3,0:0:0:0:
419,186,86408,2,0,L|409:251,1,44.0000013427735,8|8,1:0|0:3,0:0:0:0:
234,342,86561,2,0,L|173:351,1,44.0000013427735,8|8,1:0|0:3,0:0:0:0:
282,160,86713,1,4,1:2:0:0:
187,0,87018,5,8,1:0:0:0:
282,160,87170,1,8,1:0:0:0:
313,19,87627,6,0,L|262:32,1,44.0000013427735,0|0,3:0|3:0,0:0:0:0:
105,53,87779,6,0,B|136:37|136:37|274:63,1,167.999994873047,12|8,1:0|0:0,0:0:0:0:
343,96,88084,6,0,B|241:92|279:126|173:132,2,160,4|10|0,1:0|0:0|1:0,0:0:0:0:
454,235,88845,1,0,0:0:0:0:
432,162,88997,1,12,0:0:0:0:
356,315,89150,6,0,P|364:256|363:216,1,80,4|0,1:2|0:0,0:0:0:0:
439,346,89454,1,0,1:0:0:0:
264,182,89606,2,0,P|251:255|249:347,2,160,10|0|12,0:0|1:0|0:0,0:0:0:0:
106,98,90368,2,0,B|107:83|105:53,2,26.6666666666667
106,98,90520,6,0,B|146:105|146:105|202:84,1,80,0|0,1:0|0:0,0:0:0:0:
38,262,90825,2,0,B|45:222|45:222|24:166,1,80,10|0,0:0|0:0,0:0:0:0:
160,327,91129,1,0,1:0:0:0:
155,253,91281,1,0,0:0:0:0:
130,338,91434,1,12,0:0:0:0:
246,228,91586,6,0,B|350:231|310:262|417:262,1,160,4|0,1:2|1:0,0:0:0:0:
400,261,92043,2,0,P|395:208|395:165,1,80,10|0,0:0|0:0,0:0:0:0:
302,321,92347,1,0,1:0:0:0:
394,182,92500,1,0,0:0:0:0:
305,43,92652,1,10,0:0:0:0:
208,182,92804,2,0,B|210:184|212:167|208:142,2,26.6666666666667
208,182,92957,6,0,B|141:168|141:168|111:180|111:180|41:166,2,160,0|12|0,1:0|0:0|1:0,0:0:0:0:
95,68,93718,1,0,0:0:0:0:
161,25,93870,1,8,3:2:0:0:
210,84,94023,1,0,1:0:0:0:
442,35,94175,6,0,P|356:37|296:97,1,160,0|12,0:0|0:0,0:0:0:0:
442,35,94632,1,0,0:0:0:0:
370,224,94784,2,0,P|376:179|373:136,1,80,0|0,1:0|0:0,0:0:0:0:
465,222,95089,1,8,3:2:0:0:
305,355,95241,1,0,0:0:0:0:
305,355,95317,1,0,0:0:0:0:
305,355,95393,6,0,B|393:353|362:320|479:323,2,160,0|4|0,1:0|1:0|1:0,0:0:0:0:
148,288,96155,1,0,0:0:0:0:
79,320,96307,1,10,0:0:0:0:
138,166,96459,6,0,P|192:175|239:178,1,80,4|0,1:3|0:0,0:0:0:0:
73,216,96764,1,0,0:0:0:0:
183,51,96916,2,0,B|144:57|144:57|94:44,1,80,8|0,0:0|0:0,0:0:0:0:
278,129,97221,1,2,1:3:0:0:
383,55,97373,1,0,0:0:0:0:
497,165,97525,1,8,0:0:0:0:
470,189,97601,1,0,0:0:0:0:
430,198,97677,1,8,0:0:0:0:
394,186,97754,1,0,0:0:0:0:
394,186,97830,6,0,P|397:295|392:371,1,160,4|10,1:0|0:0,0:0:0:0:
243,249,98287,1,0,0:0:0:0:
122,344,98439,2,0,B|162:333|162:333|228:346,1,80,0|0,1:0|0:0,0:0:0:0:
122,344,98743,1,12,0:0:0:0:
228,141,98896,6,0,B|192:165|158:173|158:173|118:166|66:138,1,160,4|0,1:2|1:0,0:0:0:0:
266,67,99353,1,10,0:0:0:0:
316,128,99505,1,0,0:0:0:0:
157,0,99657,2,0,P|156:59|160:99,1,80,0|0,1:0|0:0,0:0:0:0:
223,235,99962,1,12,0:0:0:0:
92,363,100114,2,0,B|93:366|78:362|49:364,2,26.6666666666667
92,363,100266,6,0,P|76:265|104:183,1,160,0|10,1:0|0:0,0:0:0:0:
152,158,100723,1,0,0:0:0:0:
301,106,100875,2,0,P|256:135|219:144,1,80,0|0,1:0|0:0,0:0:0:0:
101,38,101180,1,12,0:0:0:0:
230,142,101332,6,0,B|330:155|285:182|385:197,1,160,4|0,1:2|1:0,0:0:0:0:
253,333,101789,1,10,0:0:0:0:
225,262,101941,1,0,0:0:0:0:
347,384,102094,2,0,B|360:346|360:346|347:299,1,80,0|0,1:0|0:0,0:0:0:0:
280,203,102398,1,10,0:0:0:0:
424,49,102551,2,0,L|421:11,2,26.6666666666667
424,49,102703,6,0,B|334:31|356:72|246:48,2,160,4|12|0,1:0|0:0|1:0,0:0:0:0:
235,126,103464,1,0,0:0:0:0:
172,84,103617,1,8,3:2:0:0:
125,143,103769,1,0,1:0:0:0:
180,338,103921,6,0,B|161:304|153:265|153:265|164:223|191:187,1,160,0|12,0:0|0:0,0:0:0:0:
250,270,104378,1,0,0:0:0:0:
402,332,104530,2,0,P|340:328|305:328,1,80,0|0,1:0|0:0,0:0:0:0:
450,248,104835,1,8,3:2:0:0:
450,248,104911,1,0,0:0:0:0:
319,116,105063,1,0,0:0:0:0:
319,116,105139,6,0,P|224:120|129:115,1,160,4|2,1:0|0:0,0:0:0:0:
9,246,105596,2,0,B|37:213|46:169|46:169|35:128|-1:94,1,160,4|0,1:3|0:0,0:0:0:0:
134,286,106053,1,4,1:0:0:0:
189,232,106205,2,0,P|256:213|283:211,1,80,0|0,1:0|0:0,0:0:0:0:
141,367,106510,5,4,1:3:0:0:
266,211,106662,1,0,1:0:0:0:
426,340,106814,1,0,1:0:0:0:
434,236,106967,5,4,1:0:0:0:
264,324,107119,1,8,1:3:0:0:
351,214,107271,6,0,L|344:374,1,160,4|4,1:3|3:2,0:0:0:0:
422,117,107880,6,0,P|478:112|513:105,1,64,8|8,0:3|0:0,0:0:0:0:
351,214,108185,2,0,B|274:203|294:234|217:223,1,128,0|8,3:0|0:3,0:0:0:0:
49,148,108642,6,0,P|107:159|175:128,1,128,0|2,3:0|3:0,0:0:0:0:
169,133,109099,2,0,P|163:84|167:51,1,64,8|0,0:3|0:0,0:0:0:0:
310,52,109403,2,0,P|270:81|239:94,1,64,0|0,3:0|3:0,0:0:0:0:
228,2,109708,1,8,0:3:0:0:
425,93,109936,5,0,0:0:0:0:
425,93,110012,2,0,P|372:58|287:57,1,128,0|8,3:0|0:3,0:0:0:0:
432,179,110469,1,0,0:0:0:0:
278,242,110622,2,0,B|353:236|342:266|427:260,1,128,0|8,3:0|0:3,0:0:0:0:
261,372,111078,6,0,P|216:345|121:355,1,128,0|2,3:0|3:0,0:0:0:0:
0,301,111535,2,0,P|37:300|76:295,1,64,8|8,0:3|0:0,0:0:0:0:
188,191,111840,1,0,3:0:0:0:
280,276,111992,6,0,L|223:267,1,32,0|0,3:0|3:0,0:0:0:0:
114,121,112144,2,0,B|154:145|191:151|191:151|230:144|269:116,1,155.999992858887,12|0,0:1|0:0,0:0:0:0:
188,31,112449,6,0,P|191:143|185:207,1,160,4|10,1:2|0:0,0:0:0:0:
345,49,112906,2,0,B|437:41|420:79|511:69,1,160
354,149,113363,1,10,0:1:0:0:
510,273,113515,6,0,B|475:229|411:245|411:245|398:280|357:283,1,160,8|8,0:3|0:3,0:0:0:0:
214,214,113972,1,8,0:0:0:0:
158,264,114124,1,0,0:0:0:0:
19,216,114276,2,0,B|60:225|60:225|105:212,1,80,0|0,1:0|0:0,0:0:0:0:
261,111,114581,2,0,L|405:126,1,120,10|0,0:0|0:0,0:0:0:0:
380,123,114886,6,0,B|289:110|310:158|219:132,1,160,4|12,1:0|0:0,0:0:0:0:
394,205,115342,2,0,P|452:197|494:198,1,80,0|4,0:0|0:3,0:0:0:0:
400,334,115647,1,0,0:0:0:0:
473,196,115799,1,10,0:0:0:0:
376,67,115952,6,0,P|292:60|208:47,1,160,4|0,1:2|1:0,0:0:0:0:
104,186,116408,2,0,P|113:127|114:96,1,80,8|0,0:0|0:0,0:0:0:0:
186,271,116713,1,8,0:3:0:0:
241,221,116865,1,0,3:0:0:0:
190,362,117018,5,2,3:0:0:0:
140,372,117094,1,0,0:0:0:0:
97,368,117170,1,2,0:3:0:0:
60,344,117246,1,2,0:3:0:0:
40,306,117322,1,4,3:2:0:0:
241,221,117627,6,0,P|292:220|332:216,1,64,8|8,0:3|0:0,0:0:0:0:
166,305,117931,2,0,B|88:287|115:322|11:301,1,128,0|8,3:0|0:3,0:0:0:0:
228,376,118388,6,0,P|337:356|354:336,1,128,0|2,3:0|3:0,0:0:0:0:
344,347,118845,2,0,P|390:356|428:359,1,64,8|0,0:3|0:0,0:0:0:0:
294,282,119150,1,0,3:0:0:0:
357,233,119302,1,0,3:0:0:0:
312,97,119454,2,0,P|314:149|320:186,1,64,8|0,0:3|0:0,0:0:0:0:
436,264,119759,6,0,B|449:234|449:234|436:134,2,128,0|8|0,3:0|0:3|3:0,0:0:0:0:
387,80,120520,1,8,0:0:0:0:
434,19,120672,1,8,0:3:0:0:
306,83,120825,6,0,B|228:71|251:103|165:88,1,128,0|2,3:0|3:0,0:0:0:0:
96,210,121281,2,0,P|99:170|98:131,1,64,8|8,0:3|0:0,0:0:0:0:
158,271,121586,1,0,3:0:0:0:
376,227,121738,1,0,3:0:0:0:
376,227,121814,1,0,3:0:0:0:
376,227,121891,6,0,B|314:218|314:218|286:233|286:233|210:219,1,155.999992858887,12|0,0:1|0:0,0:0:0:0:
333,299,122195,6,0,P|349:192|329:119,1,160,4|10,1:2|0:0,0:0:0:0:
512,53,122652,2,0,B|421:32|444:75|330:47,1,160
499,155,123109,1,10,0:1:0:0:
333,299,123261,6,0,P|433:298|478:254,1,160,8|8,0:3|0:3,0:0:0:0:
270,155,123718,2,0,P|300:191|345:207,1,80,8|0,0:0|0:0,0:0:0:0:
353,5,124023,2,0,P|336:48|345:95,1,80,0|0,1:0|0:0,0:0:0:0:
166,171,124327,2,0,P|181:102|159:24,1,120,10|0,0:0|0:0,0:0:0:0:
172,54,124632,6,0,B|83:38|108:80|6:67,1,160,4|10,1:0|0:0,0:0:0:0:
161,248,125089,2,0,P|164:197|160:156,1,80,0|4,0:0|0:3,0:0:0:0:
102,309,125393,1,0,0:0:0:0:
48,249,125545,1,10,0:0:0:0:
180,347,125698,6,0,L|20:355,1,160,4|0,1:2|1:0,0:0:0:0:
232,286,126155,1,8,0:0:0:0:
391,353,126307,1,0,0:0:0:0:
416,252,126459,5,0,1:0:0:0:
266,353,126611,1,0,3:0:0:0:
337,296,126764,5,2,3:0:0:0:
337,296,126916,1,2,0:3:0:0:
282,140,127068,6,0,P|285:186|284:233,1,80,4|0,0:2|0:0,0:0:0:0:
412,79,127373,1,2,0:0:0:0:
512,169,127525,1,0,0:0:0:0:
412,79,127677,2,0,P|417:36|417:-6,1,80,4|0,0:0|0:0,0:0:0:0:
512,50,127982,1,2,0:0:0:0:
282,140,128134,6,0,P|219:90|136:95,1,160,2|0,0:0|0:0,0:0:0:0:
187,245,128591,2,0,P|232:244|274:247,1,80,2|0,0:0|0:0,0:0:0:0:
456,140,128896,2,0,P|411:141|369:138,1,80,4|4,0:0|0:0,0:0:0:0:
456,140,129200,1,2,0:0:0:0:
417,384,129353,1,0,0:0:0:0:
417,384,129429,1,0,0:0:0:0:
417,384,129505,6,0,B|434:286|385:324|405:226,1,160,4|2,0:0|0:0,0:0:0:0:
503,346,129962,1,0,0:0:0:0:
404,228,130114,1,4,0:0:0:0:
261,356,130266,2,0,P|261:316|259:277,1,80,4|2,0:0|0:0,0:0:0:0:
12,352,130571,6,0,P|77:310|164:322,1,160,2|0,0:0|0:0,0:0:0:0:
61,123,131028,2,0,P|42:170|45:211,1,80,2|0,0:0|0:0,0:0:0:0:
61,123,131332,1,2,0:0:0:0:
150,220,131485,1,4,0:0:0:0:
273,53,131637,5,4,1:0:0:0:
164,130,131789,1,0,0:0:0:0:
403,146,131941,6,0,B|311:134|331:175|236:157,1,160,6|8,0:0|0:0,0:0:0:0:
375,285,132398,1,2,0:2:0:0:
245,380,132551,2,0,P|249:342|268:300,1,80,2|0,0:0|0:0,0:0:0:0:
245,380,132855,1,8,0:0:0:0:
0,364,133007,6,0,P|69:308|150:314,1,160,4|0,1:0|0:0,0:0:0:0:
194,229,133464,2,0,L|188:146,1,80,8|2,0:0|0:2,0:0:0:0:
368,305,133769,2,0,L|362:384,1,80,2|2,0:0|0:0,0:0:0:0:
471,236,134073,1,8,0:0:0:0:
471,236,134226,1,2,0:2:0:0:
227,340,134378,6,0,P|158:331|79:380,1,160,4|10,1:2|0:1,0:0:0:0:
236,260,134835,1,2,0:0:0:0:
409,354,134987,2,0,P|453:353|495:344,1,80,8|0,0:3|0:0,0:0:0:0:
389,139,135292,1,8,0:0:0:0:
321,343,135444,6,0,B|333:309|333:309|312:187,1,160,4|0,1:2|3:0,0:0:0:0:
161,257,135901,1,8,0:0:0:0:
161,257,136053,1,2,0:0:0:0:
92,202,136205,5,0,1:0:0:0:
250,279,136358,1,0,1:0:0:0:
247,207,136510,5,8,0:0:0:0:
49,278,136662,1,0,0:3:0:0:
49,278,136738,1,0,0:3:0:0:
49,278,136814,6,0,P|50:183|46:110,1,160,4|2,0:2|0:0,0:0:0:0:
143,137,137271,1,0,0:0:0:0:
249,55,137424,2,0,P|246:124|248:163,1,80,4|0,0:0|0:0,0:0:0:0:
110,47,137728,1,2,0:0:0:0:
192,222,137880,6,0,B|278:215|256:257|357:243,1,160,2|0,0:0|0:0,0:0:0:0:
434,293,138337,2,0,P|443:241|438:188,1,80,2|0,0:0|0:0,0:0:0:0:
399,29,138642,2,0,P|390:81|395:134,1,80,4|4,0:0|0:0,0:0:0:0:
399,29,138946,1,2,0:0:0:0:
279,160,139099,1,0,0:0:0:0:
279,160,139175,1,0,0:0:0:0:
279,160,139251,6,0,L|274:-6,2,160,4|2|4,0:0|0:0|0:0,0:0:0:0:
154,272,140012,2,0,B|148:235|148:235|156:187,1,80,4|2,0:0|0:0,0:0:0:0:
18,355,140317,6,0,B|111:348|84:387|177:373,1,160,2|0,0:0|0:0,0:0:0:0:
379,380,140774,2,0,L|382:294,1,80,2|0,0:0|0:0,0:0:0:0:
453,273,141078,1,2,0:0:0:0:
331,118,141231,1,4,0:0:0:0:
331,118,141307,1,4,0:0:0:0:
331,118,141383,2,0,P|372:101|418:102,1,80,4|0,1:0|0:0,0:0:0:0:
304,300,141688,6,0,P|240:301|173:227,2,160,4|10|0,1:0|0:0|1:0,0:0:0:0:
280,229,142449,1,0,0:0:0:0:
130,323,142601,1,8,0:0:0:0:
88,81,142754,6,0,P|93:175|91:257,1,160,4|0,1:2|0:0,0:0:0:0:
225,150,143210,2,0,P|270:135|315:141,1,80,8|0,0:0|0:0,0:0:0:0:
344,0,143515,2,0,P|371:36|378:80,1,80,8|2,0:3|0:1,0:0:0:0:
485,94,143820,1,8,0:0:0:0:
476,113,143896,1,0,0:0:0:0:
491,139,143972,1,2,0:0:0:0:
481,166,144048,1,0,0:0:0:0:
481,166,144124,6,0,L|485:252,2,80,4|0|0,1:0|3:0|3:0,0:0:0:0:
358,215,144581,6,0,L|362:119,2,95.9999970703126,4|0|0,1:2|3:0|3:0,0:0:0:0:
212,220,145038,6,0,L|218:339,2,111.999996582031,4|0|0,1:0|0:0|3:0,0:0:0:0:
81,168,145495,5,4,1:2:0:0:
84,151,145571,1,0,0:0:0:0:
88,135,145647,1,0,0:0:0:0:
126,248,145799,1,0,3:0:0:0:
157,41,145952,2,0,B|178:69|188:93|188:93|186:130|167:176,1,128,4|0,1:0|3:0,0:0:0:0:
44,376,146256,2,0,B|23:348|13:324|13:324|15:287|34:241,1,128,4|0,1:2|0:0,0:0:0:0:
217,310,146561,6,0,B|320:307|285:353|396:353,1,176.000005371094,4|10,1:2|0:1,0:0:0:0:
482,205,147018,2,0,P|489:271|484:310,1,88.000002685547,0|0,0:0|3:0,0:0:0:0:
393,159,147322,1,0,0:0:0:0:
314,213,147474,5,8,0:0:0:0:
474,108,147627,1,2,0:0:0:0:
300,5,147779,6,0,B|484:23,2,176.000005371094,0|8|8,1:0|0:0|0:3,0:0:0:0:
161,169,148540,1,2,0:1:0:0:
325,160,148693,2,0,P|270:131|227:133,1,88.000002685547,8|0,0:1|0:0,0:0:0:0:
328,318,148997,6,0,P|406:309|443:271,1,132.00000402832,0|0,3:0|0:0,0:0:0:0:
442,274,149302,2,0,L|476:360,1,88.000002685547,10|0,0:0|0:0,0:0:0:0:
289,234,149606,5,4,0:3:0:0:
192,315,149759,1,0,0:0:0:0:
87,212,149911,2,0,P|38:209|-5:201,1,88.000002685547,8|0,0:0|3:0,0:0:0:0:
187,20,150215,6,0,B|173:54|173:54|194:200,1,176.000005371094,0|8,1:0|0:0,0:0:0:0:
354,129,150672,1,0,0:0:0:0:
435,250,150825,1,0,1:0:0:0:
496,146,150977,6,0,L|434:162,1,44.0000013427735,0|0,3:0|3:0,0:0:0:0:
289,226,151129,6,0,B|302:188|311:141|311:141|304:105|287:48,1,167.999994873047,12|0,1:0|0:0,0:0:0:0:
216,149,151434,6,0,B|141:145|161:175|73:170,1,132.00000402832,4|0,1:0|0:0,0:0:0:0:
87,170,151738,1,10,0:0:0:0:
289,226,151891,2,0,L|300:319,1,88.000002685547,8|2,0:0|1:3,0:0:0:0:
300,87,152195,2,0,L|311:-6,1,88.000002685547,2|8,0:3|0:3,0:0:0:0:
482,201,152500,6,0,P|427:166|341:165,1,132.00000402832,4|0,1:0|0:0,0:0:0:0:
361,160,152804,1,2,0:0:0:0:
206,269,152957,1,8,0:0:0:0:
289,318,153109,1,4,0:0:0:0:
206,269,153261,2,0,B|216:246|221:226|221:226|217:203|202:169,1,88.000002685547,0|2,1:0|0:0,0:0:0:0:
5,42,153566,2,0,B|-5:65|-10:85|-10:85|-6:108|9:142,1,88.000002685547,4|0,1:2|0:0,0:0:0:0:
105,220,153870,6,0,L|108:77,1,132.00000402832,4|0,1:0|0:0,0:0:0:0:
107,88,154175,1,12,0:0:0:0:
306,102,154327,2,0,L|246:31,1,88.000002685547,8|2,0:0|3:0,0:0:0:0:
220,276,154632,2,0,L|302:244,1,88.000002685547,2|10,0:3|0:3,0:0:0:0:
511,177,154936,6,0,L|372:170,1,132.00000402832,4|0,1:2|0:0,0:0:0:0:
379,170,155241,1,2,0:3:0:0:
456,249,155393,5,8,0:3:0:0:
303,117,155545,1,4,1:0:0:0:
440,91,155698,5,2,0:3:0:0:
298,193,155850,1,2,0:3:0:0:
163,107,156002,5,4,1:2:0:0:
172,80,156078,1,8,0:3:0:0:
156,56,156155,1,8,0:3:0:0:
168,34,156231,1,8,0:3:0:0:
168,34,156307,6,0,P|82:27|2:96,1,176.000005371094,4|10,1:2|0:1,0:0:0:0:
153,239,156764,2,0,P|115:284|104:374,1,132.00000402832
100,354,157068,1,0,0:0:0:0:
65,204,157221,1,8,0:0:0:0:
188,348,157373,1,2,0:0:0:0:
326,224,157525,6,0,B|229:214|243:256|145:237,2,176.000005371094,0|8|8,1:0|0:0|0:3,0:0:0:0:
391,160,158287,1,2,0:1:0:0:
457,301,158439,2,0,P|469:250|466:205,1,88.000002685547,8|0,0:1|0:0,0:0:0:0:
323,10,158743,6,0,P|303:85|308:181,1,132.00000402832,0|0,3:0|0:0,0:0:0:0:
301,139,159048,2,0,L|203:170,1,88.000002685547,10|0,0:0|0:0,0:0:0:0:
33,345,159353,6,0,B|61:333|61:333|169:354,1,132.00000402832,4|0,0:3|0:0,0:0:0:0:
235,343,159657,2,0,L|122:324,1,88.000002685547,8|0,0:0|3:0,0:0:0:0:
0,199,159962,6,0,B|70:184|70:184|89:152|89:152|184:132,1,176.000005371094,0|8,1:0|0:0,0:0:0:0:
317,203,160419,1,0,0:0:0:0:
276,109,160571,2,0,B|301:99|319:97|319:97|342:102|383:116,1,88.000002685547,0|0,1:0|3:0,0:0:0:0:
512,275,160875,6,0,B|419:244|419:244|381:259|388:300,1,167.999994873047,12|0,1:0|0:0,0:0:0:0:
355,376,161180,6,0,B|338:265|387:314|362:193,1,176.000005371094,4|10,1:0|0:0,0:0:0:0:
238,340,161637,2,0,P|239:289|236:238,1,88.000002685547,8|2,0:0|1:3,0:0:0:0:
152,371,161941,1,2,0:3:0:0:
237,252,162094,1,8,0:3:0:0:
143,115,162246,6,0,B|242:121|216:162|320:168,1,176.000005371094,4|2,1:0|0:0,0:0:0:0:
488,308,162703,5,8,0:0:0:0:
301,373,162855,1,4,0:0:0:0:
317,268,163007,5,0,1:0:0:0:
495,380,163160,1,2,0:0:0:0:
404,318,163312,6,0,B|380:207|441:262|412:145,1,176.000005371094,4|4,1:0|1:2,0:0:0:0:
505,258,163769,5,8,0:0:0:0:
308,187,163921,1,12,1:0:0:0:
308,187,164073,1,8,0:0:0:0:
135,270,164226,5,8,1:0:0:0:
135,270,164302,1,8,0:3:0:0:
135,270,164378,2,0,L|130:205,1,44.0000013427735,8|8,1:0|0:3,0:0:0:0:
184,111,164530,2,0,L|189:176,1,44.0000013427735,8|8,1:0|0:3,0:0:0:0:
99,41,164682,1,4,1:2:0:0:
0,222,164987,5,8,1:0:0:0:
99,41,165139,1,8,1:0:0:0:
317,333,165596,6,0,L|320:284,1,44.0000013427735,0|0,3:0|3:0,0:0:0:0:
288,115,165748,6,0,B|274:145|274:145|289:291,1,167.999994873047,12|8,1:0|0:0,0:0:0:0:
363,224,166053,6,0,L|355:155,1,64,4|0,1:0|0:0,0:0:0:0:
387,17,166358,2,0,L|394:80,1,64,4|0,0:0|0:0,0:0:0:0:
465,124,166662,1,8,0:0:0:0:
277,59,166967,5,2,0:0:0:0:
215,99,167119,2,0,L|75:89,1,128,2|0,3:2|3:0,0:0:0:0:
263,167,167576,2,0,L|332:162,1,64,8|0,0:0|0:0,0:0:0:0:
263,167,167880,1,0,3:0:0:0:
77,271,168185,1,0,3:0:0:0:
135,227,168337,1,0,0:0:0:0:
115,342,168490,6,0,L|96:196,1,128,0|2,3:0|0:0,0:0:0:0:
20,23,168946,2,0,L|36:149,1,128
0,248,169403,1,4,0:0:0:0:
130,129,169556,2,0,B|203:133|188:157|268:162,1,128,0|8,3:0|0:0,0:0:0:0:
357,128,170012,2,0,P|353:192|357:260,1,128,4|8,0:3|0:0,0:0:0:0:
273,294,170545,5,0,0:0:0:0:
439,163,170774,5,0,0:0:0:0:
279,76,170926,5,4,3:2:0:0:
335,23,171078,2,0,L|208:41,1,128
402,76,171535,1,8,0:0:0:0:
402,76,171840,5,4,0:0:0:0:
471,189,171992,2,0,L|479:115,1,64,0|0,3:0|0:0,0:0:0:0:
368,215,172297,1,8,0:0:0:0:
277,158,172449,1,0,3:0:0:0:
277,158,172754,6,0,B|205:158|219:182|145:187,1,128,8|0,0:0|3:0,0:0:0:0:
6,109,173210,1,0,0:0:0:0:
83,78,173363,5,4,1:0:0:0:
54,6,173515,2,0,L|33:151,1,128
167,74,173972,1,8,0:0:0:0:
167,74,174276,1,0,3:0:0:0:
183,229,174429,6,0,L|194:361,1,128,4|8,1:3|0:1,0:0:0:0:
193,356,174809,1,8,0:1:0:0:
193,356,174886,5,8,0:3:0:0:
370,304,175038,1,8,0:1:0:0:
432,381,175190,5,8,0:3:0:0:
265,288,175342,1,8,0:1:0:0:
476,246,175495,6,0,L|429:252,1,40,8|8,0:3|0:3,0:0:0:0:
328,382,175647,2,0,L|288:376,1,40,8|8,0:1|0:1,0:0:0:0:
144,253,175799,6,0,B|132:151|172:179|142:77,2,160,4|10|0,1:0|0:0|1:0,0:0:0:0:
66,156,176561,1,0,0:0:0:0:
231,255,176713,1,12,0:0:0:0:
62,366,176865,6,0,L|240:355,1,160,4|0,1:2|1:0,0:0:0:0:
443,322,177322,2,0,L|360:318,1,80,10|0,0:0|0:0,0:0:0:0:
268,220,177627,2,0,B|251:126|281:166|255:78,1,120,0|0,1:0|0:0,0:0:0:0:
261,101,177931,2,0,P|310:109|349:110,1,80,12|0,0:0|0:0,0:0:0:0:
181,231,178236,6,0,P|123:219|65:136,1,160,0|10,1:0|0:0,0:0:0:0:
238,381,178693,2,0,P|232:339|239:286,1,80,0|0,0:0|1:0,0:0:0:0:
127,374,178997,1,0,0:0:0:0:
229,162,179150,6,0,L|274:173,1,40,12|0,0:0|0:0,0:0:0:0:
339,192,179302,2,0,B|254:196|267:225|172:225,1,160,4|0,1:2|1:0,0:0:0:0:
356,106,179759,2,0,P|368:53|367:10,1,80,10|0,0:0|0:0,0:0:0:0:
431,171,180063,1,0,1:0:0:0:
226,38,180215,1,0,0:0:0:0:
226,38,180292,1,0,0:0:0:0:
226,38,180368,2,0,L|231:103,1,40,10|0,0:0|0:0,0:0:0:0:
324,249,180520,6,0,B|343:143|304:190|328:90,1,160
239,284,180977,2,0,P|241:335|238:380,1,80,12|0,0:0|0:0,0:0:0:0:
239,284,181281,1,0,1:0:0:0:
320,350,181434,5,0,0:0:0:0:
135,282,181586,1,8,3:2:0:0:
316,177,181738,6,0,L|155:163,1,160,4|0,1:0|1:0,0:0:0:0:
377,109,182195,2,0,L|468:101,1,80,12|0,0:0|0:0,0:0:0:0:
220,262,182500,2,0,L|129:270,1,80,0|0,1:0|0:0,0:0:0:0:
326,309,182804,5,8,3:2:0:0:
189,174,182957,1,0,0:0:0:0:
266,362,183109,6,0,B|290:260|249:315|275:198,2,160,0|4|0,1:0|1:2|1:0,0:0:0:0:
378,230,183870,2,0,P|440:230|478:225,1,80,0|10,0:0|0:0,0:0:0:0:
313,36,184175,6,0,P|293:117|297:170,1,120,6|0,1:3|0:0,0:0:0:0:
294,152,184479,1,0,3:0:0:0:
202,318,184632,2,0,P|194:271|196:224,1,80,8|0,0:0|3:0,0:0:0:0:
122,376,184936,5,0,1:0:0:0:
290,282,185089,1,0,3:0:0:0:
119,141,185241,5,8,0:0:0:0:
114,159,185317,1,0,0:0:0:0:
115,178,185393,1,8,0:0:0:0:
189,318,185545,6,0,L|194:235,1,80,4|0,1:0|3:0,0:0:0:0:
115,286,185850,1,0,3:0:0:0:
303,142,186002,6,0,L|309:244,1,95.9999970703126,4|0,1:2|3:0,0:0:0:0:
229,170,186307,1,0,3:0:0:0:
471,360,186459,6,0,L|478:246,1,111.999996582031,4|0,1:0|0:0,0:0:0:0:
397,348,186764,1,0,3:0:0:0:
400,135,186916,5,4,1:2:0:0:
406,155,186992,1,0,0:0:0:0:
406,176,187068,1,0,0:0:0:0:
301,89,187221,1,0,3:0:0:0:
497,30,187373,2,0,B|469:46|440:55|440:55|402:43|382:24,1,128,4|0,1:0|3:0,0:0:0:0:
181,199,187677,2,0,B|209:183|238:174|238:174|276:186|295:204,1,128,4|0,1:2|0:0,0:0:0:0:
409,379,187982,6,0,B|399:295|430:334|405:232,1,132.00000402832,4|0,1:2|0:0,0:0:0:0:
409,249,188287,1,10,0:1:0:0:
494,99,188439,2,0,P|498:147|493:192,1,88.000002685547,0|0,0:0|3:0,0:0:0:0:
303,291,188743,1,0,0:0:0:0:
500,297,188896,5,8,0:0:0:0:
342,171,189048,1,2,0:0:0:0:
411,384,189200,6,0,L|421:203,2,176.000005371094,0|8|8,1:0|0:0|0:3,0:0:0:0:
298,267,189962,1,2,0:1:0:0:
148,368,190114,2,0,P|217:360|255:360,1,88.000002685547,8|0,0:1|0:0,0:0:0:0:
388,206,190419,6,0,P|329:170|256:174,1,132.00000402832,0|0,3:0|0:0,0:0:0:0:
211,224,190723,2,0,P|254:201|317:199,1,88.000002685547,10|0,0:0|0:0,0:0:0:0:
455,366,191028,6,0,B|443:341|443:341|456:226,1,132.00000402832,4|0,0:3|0:0,0:0:0:0:
496,173,191332,2,0,L|485:288,1,88.000002685547,8|0,0:0|3:0,0:0:0:0:
301,351,191637,6,0,B|201:365|239:308|119:318,1,176.000005371094,0|8,1:0|0:0,0:0:0:0:
285,245,192094,1,0,0:0:0:0:
199,91,192246,2,0,P|202:155|200:206,1,88.000002685547,0|0,1:0|3:0,0:0:0:0:
37,299,192551,6,0,B|20:277|20:277|43:135,1,167.999994873047,12|0,1:0|0:0,0:0:0:0:
0,68,192855,6,0,P|64:106|174:86,1,176.000005371094,4|10,1:0|0:0,0:0:0:0:
350,192,193312,2,0,P|326:134|286:106,1,88.000002685547,8|2,0:0|1:3,0:0:0:0:
152,301,193617,2,0,P|206:261|215:238,1,88.000002685547,2|8,0:3|0:3,0:0:0:0:
437,345,193921,6,0,P|367:304|298:309,1,132.00000402832,4|0,1:0|0:0,0:0:0:0:
317,303,194226,1,2,0:0:0:0:
503,288,194378,1,8,0:0:0:0:
368,175,194530,1,4,0:0:0:0:
503,288,194682,2,0,B|491:269|487:249|487:249|490:224|501:193,1,88.000002685547,0|2,1:0|0:0,0:0:0:0:
436,0,194987,2,0,B|448:19|452:39|452:39|449:64|438:95,1,88.000002685547,4|0,1:2|0:0,0:0:0:0:
334,240,195292,6,0,B|337:155|306:197|324:92,1,132.00000402832,4|0,1:0|0:0,0:0:0:0:
321,110,195596,1,12,0:0:0:0:
250,272,195748,2,0,P|258:330|255:379,1,88.000002685547,8|2,0:0|3:0,0:0:0:0:
290,196,196053,1,2,0:3:0:0:
168,324,196205,1,10,0:3:0:0:
0,181,196358,6,0,B|93:176|66:227|178:216,1,176.000005371094,4|2,1:2|0:3,0:0:0:0:
54,311,196814,5,8,0:3:0:0:
239,163,196967,1,4,1:0:0:0:
286,284,197119,5,2,0:3:0:0:
126,137,197271,1,2,0:3:0:0:
259,6,197424,5,4,1:2:0:0:
248,30,197500,1,8,0:3:0:0:
280,58,197576,1,8,0:3:0:0:
262,103,197652,1,8,0:3:0:0:
262,103,197728,6,0,P|343:93|431:139,1,176.000005371094,4|10,1:2|0:1,0:0:0:0:
338,375,198185,2,0,B|354:272|312:317|345:194,1,176.000005371094
452,368,198642,2,0,P|446:316|445:258,1,88.000002685547,8|2,0:0|0:0,0:0:0:0:
208,294,198946,6,0,P|213:250|215:206,1,88.000002685547,0|0,1:0|0:0,0:0:0:0:
389,51,199251,2,0,B|381:126|400:93|387:195,1,132.00000402832,8|0,0:0|0:0,0:0:0:0:
388,182,199556,2,0,P|446:171|482:169,1,88.000002685547,8|2,0:3|0:1,0:0:0:0:
311,335,199860,6,0,B|241:318|241:318|204:368|143:353,1,176.000005371094,8|0,0:1|3:0,0:0:0:0:
264,221,200317,1,0,0:0:0:0:
216,14,200469,2,0,P|164:84|179:170,1,176.000005371094,10|4,0:0|0:3,0:0:0:0:
308,120,200926,1,0,0:0:0:0:
408,306,201078,2,0,B|393:225|423:267|398:160,1,132.00000402832,8|0,0:0|0:0,0:0:0:0:
401,175,201383,6,0,P|335:213|215:179,1,176.000005371094,0|8,1:0|0:0,0:0:0:0:
323,322,201840,1,0,0:0:0:0:
160,241,201992,1,0,1:0:0:0:
19,350,202144,1,0,3:0:0:0:
84,150,202297,6,0,B|108:183|120:223|120:223|109:282|82:323,1,167.999994873047,12|0,1:0|0:0,0:0:0:0:
27,233,202601,6,0,B|126:205|104:262|206:229,1,176.000005371094,4|10,1:0|0:0,0:0:0:0:
319,86,203058,2,0,P|316:143|320:190,1,88.000002685547,8|2,0:0|1:3,0:0:0:0:
215,113,203363,1,2,0:3:0:0:
306,274,203515,1,8,0:3:0:0:
150,376,203667,6,0,B|124:341|116:296|116:296|125:248|155:202,1,176.000005371094,4|2,1:0|0:0,0:0:0:0:
354,368,204124,5,8,0:0:0:0:
254,353,204276,1,4,0:0:0:0:
399,258,204429,5,0,1:0:0:0:
503,237,204581,1,2,0:0:0:0:
319,102,204733,6,0,P|321:160|319:207,1,88.000002685547,4|8,1:0|0:0,0:0:0:0:
396,42,205038,5,4,1:2:0:0:
219,136,205190,1,8,0:0:0:0:
228,29,205342,5,12,1:0:0:0:
401,135,205495,1,8,0:0:0:0:
230,258,205647,5,8,1:0:0:0:
195,251,205723,1,8,0:3:0:0:
159,249,205799,1,8,1:0:0:0:
120,254,205875,1,8,0:3:0:0:
86,264,205952,1,8,1:0:0:0:
262,340,206104,1,4,1:2:0:0:
240,131,206408,5,8,1:0:0:0:
262,340,206560,1,8,1:0:0:0:
466,191,207018,5,0,3:0:0:0:
466,191,207094,1,0,3:0:0:0:
466,191,207170,2,0,B|397:199|397:199|374:228|374:228|304:237,1,167.999994873047,12|8,1:0|0:0,0:0:0:0:
364,312,207474,5,4,1:0:0:0:
238,164,207627,1,0,0:0:0:0:
222,341,207779,2,0,P|224:276|216:232,1,88.000002685547,10|0,0:0|0:0,0:0:0:0:
327,53,208084,2,0,P|325:118|333:162,1,88.000002685547,0|0,1:0|0:0,0:0:0:0:
327,53,208388,1,12,0:0:0:0:
153,187,208540,6,0,P|78:200|9:135,1,176.000005371094,4|0,1:2|1:0,0:0:0:0:
143,291,208997,1,10,0:0:0:0:
99,102,209150,1,0,0:0:0:0:
186,2,209302,2,0,P|188:48|186:106,1,88.000002685547,0|0,1:0|0:0,0:0:0:0:
299,258,209606,2,0,B|296:186|324:213|305:118,1,132.00000402832,12|0,0:0|0:0,0:0:0:0:
306,127,209911,5,0,1:0:0:0:
383,289,210063,1,0,0:0:0:0:
512,219,210215,2,0,L|412:214,1,88.000002685547,10|0,0:0|0:0,0:0:0:0:
344,370,210520,1,0,1:0:0:0:
211,262,210672,2,0,L|298:257,1,88.000002685547,0|12,0:0|0:0,0:0:0:0:
400,43,210977,6,0,B|386:152|434:93|423:223,1,176.000005371094,4|0,1:2|1:0,0:0:0:0:
308,58,211434,1,10,0:0:0:0:
196,158,211586,1,0,0:0:0:0:
123,65,211738,2,0,P|171:62|224:65,1,88.000002685547,0|0,1:0|0:0,0:0:0:0:
287,286,212043,2,0,B|305:255|309:217|309:217|300:168|276:138,1,132.00000402832,10|0,0:0|0:0,0:0:0:0:
234,223,212347,5,4,1:0:0:0:
55,147,212500,1,0,0:0:0:0:
136,290,212652,2,0,B|143:247|143:247|133:199,1,88.000002685547,12|0,0:0|0:0,0:0:0:0:
242,10,212957,2,0,B|235:53|235:53|245:101,1,88.000002685547,0|0,1:0|0:0,0:0:0:0:
150,103,213261,1,8,3:2:0:0:
402,195,213413,6,0,B|337:186|337:186|303:202|303:202|217:189,1,176.000005371094,4|0,1:2|1:0,0:0:0:0:
362,273,213870,1,12,0:0:0:0:
478,146,214023,1,0,0:0:0:0:
469,349,214175,2,0,B|474:331|480:307|480:307|475:284|465:256,1,88.000002685547,0|0,1:0|0:0,0:0:0:0:
354,375,214479,1,8,3:2:0:0:
229,265,214632,2,0,L|232:300,2,29.3333342285157
221,315,214784,5,0,1:0:0:0:
312,222,214936,1,0,0:0:0:0:
219,159,215089,1,4,1:0:0:0:
385,277,215241,1,0,0:0:0:0:
309,37,215393,2,0,B|321:79|321:79|311:140,1,88.000002685547,0|0,1:0|0:0,0:0:0:0:
217,60,215698,1,10,0:0:0:0:
133,242,215850,6,0,B|115:180|115:180|140:95,1,132.00000402832,4|0,1:3|0:0,0:0:0:0:
134,115,216155,1,0,0:0:0:0:
222,262,216307,5,8,0:0:0:0:
175,377,216459,1,0,0:0:0:0:
257,363,216611,5,2,1:3:0:0:
133,242,216764,1,0,0:0:0:0:
265,108,216916,5,8,0:0:0:0:
377,249,217068,1,0,0:0:0:0:
375,277,217144,1,0,0:0:0:0:
380,307,217221,5,4,1:0:0:0:
270,249,217373,1,0,0:0:0:0:
445,153,217525,2,0,P|400:154|348:148,1,88.000002685547,10|0,0:0|0:0,0:0:0:0:
177,104,217830,2,0,P|222:103|274:109,1,88.000002685547,0|0,1:0|0:0,0:0:0:0:
177,104,218134,1,12,0:0:0:0:
352,61,218287,6,0,B|328:167|383:124|357:240,1,176.000005371094,4|0,1:2|1:0,0:0:0:0:
272,373,218743,2,0,P|270:317|274:269,1,88.000002685547,10|0,0:0|0:0,0:0:0:0:
364,353,219048,1,0,1:0:0:0:
179,311,219200,1,0,0:0:0:0:
358,233,219353,2,0,L|496:237,1,132.00000402832,12|0,0:0|0:0,0:0:0:0:
489,236,219657,5,0,1:0:0:0:
378,148,219809,1,0,0:0:0:0:
446,12,219962,2,0,B|456:53|456:53|449:115,1,88.000002685547,10|0,0:0|0:0,0:0:0:0:
351,61,220266,1,0,1:0:0:0:
273,222,220419,2,0,B|263:181|263:181|270:119,1,88.000002685547,0|12,0:0|0:0,0:0:0:0:
406,303,220723,6,0,B|333:299|333:299|300:320|300:320|196:314,1,176.000005371094,4|0,1:2|1:0,0:0:0:0:
370,208,221180,1,10,0:0:0:0:
488,367,221332,1,0,0:0:0:0:
468,150,221485,2,0,P|473:201|470:259,1,88.000002685547,0|0,1:0|0:0,0:0:0:0:
261,174,221789,2,0,B|244:135|240:105|240:105|248:73|264:27,1,132.00000402832,10|0,0:0|0:0,0:0:0:0:
326,102,222094,5,4,1:0:0:0:
179,200,222246,1,0,0:0:0:0:
280,259,222398,1,12,0:0:0:0:
201,320,222551,1,0,0:0:0:0:
296,282,222703,2,0,L|395:293,1,88.000002685547,0|0,1:0|0:0,0:0:0:0:
279,369,223007,1,8,3:2:0:0:
471,266,223160,6,0,L|289:282,1,176.000005371094,4|0,1:0|1:0,0:0:0:0:
105,206,223617,1,12,0:0:0:0:
190,160,223769,1,0,0:0:0:0:
110,18,223921,2,0,P|105:68|111:126,1,88.000002685547,0|0,1:0|0:0,0:0:0:0:
189,252,224226,1,8,3:2:0:0:
306,104,224378,1,0,0:0:0:0:
313,127,224454,1,0,0:0:0:0:
312,155,224530,5,4,1:0:0:0:
379,46,224682,1,0,0:0:0:0:
214,133,224835,1,4,1:3:0:0:
372,228,224987,1,0,0:0:0:0:
267,365,225139,2,0,P|271:313|268:262,1,88.000002685547,4|0,1:0|0:0,0:0:0:0:
380,384,225444,1,10,0:0:0:0:
167,199,225596,6,0,P|158:308|162:401,1,176.000005371094,4|0,1:3|0:0,0:0:0:0:
69,200,226053,1,4,1:0:0:0:
73,173,226129,1,0,0:0:0:0:
70,144,226205,1,0,0:0:0:0:
226,31,226358,2,0,L|224:82,3,44.0000013427735,6|0|8|0,1:3|0:0|1:3|0:0,0:0:0:0:
306,73,226662,1,8,0:0:0:0:
324,106,226738,1,0,0:0:0:0:
328,142,226814,1,8,1:3:0:0:
317,180,226891,1,0,0:0:0:0:
291,208,226967,6,0,B|204:192|223:231|132:217,1,143.999995605469,4|2,1:0|0:0,0:0:0:0:
304,289,227424,1,0,1:0:0:0:
223,384,227576,2,0,L|227:306,2,71.9999978027344,8|0|2,1:0|0:0|0:3,0:0:0:0:
282,176,228033,5,2,1:3:0:0:
282,176,228109,1,0,0:0:0:0:
282,176,228185,2,0,P|204:181|156:274,1,176.000005371094,0|2,0:0|1:3,0:0:0:0:
270,90,228794,1,8,1:0:0:0:
361,222,228946,1,0,3:0:0:0:
463,87,229099,1,8,0:1:0:0:
483,120,229175,1,8,0:3:0:0:
486,157,229251,1,8,0:1:0:0:
479,193,229327,1,8,0:3:0:0:
457,224,229403,5,4,1:0:0:0:
303,168,229556,2,0,L|194:162,1,80,0|0,3:0|3:0,0:0:0:0:
323,319,229860,5,4,1:2:0:0:
383,95,230012,2,0,B|392:142|392:142|384:204,1,95.9999970703126,0|0,3:0|3:0,0:0:0:0:
170,74,230317,5,4,1:0:0:0:
99,278,230469,2,0,B|89:224|89:224|98:159,1,111.999996582031,0|0,0:0|3:0,0:0:0:0:
254,281,230774,5,4,1:2:0:0:
248,306,230850,1,0,0:0:0:0:
250,338,230926,1,0,0:0:0:0:
329,194,231078,1,0,3:0:0:0:
479,300,231231,2,0,B|450:320|423:323|423:323|392:316|356:291,1,128,4|0,1:0|3:0,0:0:0:0:
222,169,231535,1,4,1:2:0:0:
336,380,231688,5,4,1:2:0:0:
