osu file format v14

[General]
AudioFilename: audio.mp3
AudioLeadIn: 0
PreviewTime: 68591
Countdown: 0
SampleSet: None
StackLeniency: 0.7
Mode: 0
LetterboxInBreaks: 0
WidescreenStoryboard: 0

[Editor]
DistanceSpacing: 1.2
BeatDivisor: 2
GridSize: 4
TimelineZoom: 1

[Metadata]
Title:Ryuu to Sakura Miko
TitleUnicode:龍と桜巫女
Artist:Hatsuki Yura
ArtistUnicode:葉月ゆら
Creator:KKipalt
Version:Narcissu's Normal
Source:
Tags:yoiyami rensou kitan 宵闇恋想奇譚 drop どろっぷ seifuumeigatsu 清風明月 hanazawa_kana kana 1112deng suzuki_1112 1112 otosaka-yu narcissu AIR tomadoi agatsu 和風民族音楽 japanese folk pop
BeatmapID:2225108
BeatmapSetID:962172

[Difficulty]
HPDrainRate:3.5
CircleSize:3.5
OverallDifficulty:5
ApproachRate:6.5
SliderMultiplier:1
SliderTickRate:1

[Events]
//Background and Video events
0,0,"BG.jpg",0,0
//Break Periods
2,87370,106526
2,165339,174749
//Storyboard Layer 0 (Background)
//Storyboard Layer 1 (Fail)
//Storyboard Layer 2 (Pass)
//Storyboard Layer 3 (Foreground)
//Storyboard Layer 4 (Overlay)
//Storyboard Sound Samples

[TimingPoints]
-850,304.568527918782,4,2,1,70,1,0
63,-125,4,2,1,70,0,0
10114,-111.111111111111,4,2,2,70,0,0
29606,-125,4,2,1,70,0,0
34479,-125,4,2,3,70,0,0
38896,-125,4,2,2,70,0,0
39200,-125,4,2,1,70,0,0
44226,-125,4,2,3,70,0,0
48642,-125,4,2,2,70,0,0
48946,-125,4,2,1,70,0,0
49099,-125,4,3,4,70,0,0
53667,-125,4,2,1,70,0,0
53972,-125,4,3,5,70,0,0
55038,-125,4,2,1,70,0,0
55190,-125,4,3,5,70,0,0
56408,-125,4,2,3,70,0,0
57474,-125,4,2,1,70,0,0
57779,-125,4,2,2,70,0,0
58693,-125,4,3,4,70,0,0
63413,-125,4,2,1,70,0,0
63718,-125,4,2,3,70,0,0
66155,-125,4,2,1,70,0,0
68591,-111.111111111111,4,2,3,80,0,1
72094,-111.111111111111,4,2,2,80,0,1
72246,-111.111111111111,4,2,3,80,0,1
73007,-111.111111111111,4,2,1,80,0,1
73464,-111.111111111111,4,2,2,80,0,1
73921,-111.111111111111,4,2,1,80,0,1
74835,-111.111111111111,4,2,2,80,0,1
75596,-111.111111111111,4,2,1,80,0,1
76205,-111.111111111111,4,2,2,80,0,1
76358,-111.111111111111,4,2,1,80,0,1
78337,-111.111111111111,4,2,3,80,0,1
81840,-111.111111111111,4,2,2,80,0,1
81992,-111.111111111111,4,2,3,80,0,1
82906,-111.111111111111,4,2,1,80,0,1
83210,-111.111111111111,4,2,2,80,0,1
83667,-111.111111111111,4,2,1,80,0,1
84581,-111.111111111111,4,2,2,80,0,1
85342,-111.111111111111,4,2,1,80,0,1
87170,-125,4,2,1,80,0,0
88084,-125,4,2,2,70,0,0
107576,-125,4,2,1,70,0,0
112449,-125,4,2,3,70,0,0
116865,-125,4,2,2,70,0,0
117170,-125,4,2,1,70,0,0
122195,-125,4,2,3,70,0,0
126611,-125,4,2,2,70,0,0
126916,-125,4,2,1,70,0,0
127068,-125,4,3,4,70,0,0
131637,-125,4,2,1,70,0,0
131941,-125,4,3,5,70,0,0
133007,-125,4,2,1,70,0,0
133160,-125,4,3,5,70,0,0
134378,-125,4,2,3,70,0,0
135444,-125,4,2,1,70,0,0
135672,-125,4,2,2,70,0,0
136662,-125,4,3,4,70,0,0
141383,-125,4,2,1,70,0,0
141688,-125,4,2,3,70,0,0
144124,-125,4,2,1,70,0,0
146561,-111.111111111111,4,2,3,80,0,1
150063,-111.111111111111,4,2,2,80,0,1
150215,-111.111111111111,4,2,3,80,0,1
150977,-111.111111111111,4,2,1,80,0,1
151433,-111.111111111111,4,2,2,80,0,1
151890,-111.111111111111,4,2,1,80,0,1
151891,-111.111111111111,4,2,1,80,0,1
152804,-111.111111111111,4,2,2,80,0,1
153565,-111.111111111111,4,2,1,80,0,1
153566,-111.111111111111,4,2,1,80,0,1
154174,-111.111111111111,4,2,2,80,0,1
154175,-111.111111111111,4,2,2,80,0,1
154327,-111.111111111111,4,2,1,80,0,1
156307,-111.111111111111,4,2,3,80,0,1
160723,-111.111111111111,4,2,1,80,0,1
161180,-111.111111111111,4,2,2,80,0,1
161637,-111.111111111111,4,2,1,80,0,1
162551,-111.111111111111,4,2,2,80,0,1
163312,-111.111111111111,4,2,1,80,0,1
165139,-125,4,2,1,80,0,0
166053,-125,4,2,2,60,0,0
167119,-125,4,2,3,60,0,0
167576,-125,4,2,2,60,0,0
167880,-125,4,2,3,60,0,0
168185,-125,4,2,2,60,0,0
168490,-125,4,2,3,60,0,0
169099,-125,4,2,2,60,0,0
169556,-125,4,2,3,60,0,0
169860,-125,4,2,2,60,0,0
170012,-125,4,2,3,60,0,0
170317,-125,4,2,2,60,0,0
170622,-125,4,2,3,60,0,0
171231,-125,4,2,2,60,0,0
171992,-125,4,2,3,60,0,0
172297,-125,4,2,2,60,0,0
172449,-125,4,2,3,60,0,0
172754,-125,4,2,2,60,0,0
174733,-125,4,2,1,60,0,0
175799,-125,4,2,2,70,0,0
185545,-125,4,2,1,70,0,0
187982,-111.111111111111,4,2,3,80,0,1
191485,-111.111111111111,4,2,2,80,0,1
191637,-111.111111111111,4,2,3,80,0,1
192551,-111.111111111111,4,2,1,80,0,1
192855,-111.111111111111,4,2,2,80,0,1
193312,-111.111111111111,4,2,1,80,0,1
194226,-111.111111111111,4,2,2,80,0,1
194987,-111.111111111111,4,2,1,80,0,1
195596,-111.111111111111,4,2,2,80,0,1
195748,-111.111111111111,4,2,1,80,0,1
197728,-111.111111111111,4,2,3,80,0,1
201231,-111.111111111111,4,2,2,80,0,1
201383,-111.111111111111,4,2,3,80,0,1
202297,-111.111111111111,4,2,1,80,0,1
202601,-111.111111111111,4,2,2,80,0,1
203058,-111.111111111111,4,2,1,80,0,1
203061,-111.111111111111,4,2,1,80,0,1
203972,-111.111111111111,4,2,2,80,0,1
204733,-111.111111111111,4,2,1,80,0,1
206865,-111.111111111111,4,2,1,80,0,0
207474,-100,4,2,2,70,0,1
226967,-125,4,2,3,70,0,0
227271,-125,4,2,2,70,0,0
227576,-125,4,2,1,70,0,0
228337,-125,4,2,2,70,0,0
228490,-125,4,2,1,70,0,0
228642,-125,4,2,2,70,0,0
228794,-125,4,2,1,70,0,0
228946,-125,4,2,2,70,0,0
229099,-125,4,2,1,70,0,0
231688,-125,4,1,3,70,0,0

[Colours]
Combo1 : 255,128,255
Combo2 : 128,255,255
Combo3 : 255,255,128
Combo4 : 128,128,255

[HitObjects]
64,288,368,5,4,3:2:0:0:
64,288,520,2,0,P|116:312|204:288,1,120,2|8,0:3|0:3,0:0:0:0:
256,252,1281,1,2,0:3:0:0:
256,252,1434,2,0,B|292:252|292:252|396:280,1,120,0|2,3:0|0:3,0:0:0:0:
464,308,2195,2,0,L|460:220,1,80,8|2,0:3|0:3,0:0:0:0:
500,140,2804,5,0,3:0:0:0:
500,140,2957,1,2,0:3:0:0:
420,88,3261,1,2,0:3:0:0:
420,88,3413,2,0,P|360:112|280:100,1,120,8|0,0:3|3:0,0:0:0:0:
224,60,4175,1,8,0:3:0:0:
224,60,4327,1,2,0:3:0:0:
160,132,4632,2,0,L|64:140,1,80,8|2,0:3|0:3,0:0:0:0:
52,232,5241,5,4,3:1:0:0:
52,232,5393,2,0,B|92:228|92:228|192:248,1,120,2|8,0:3|0:3,0:0:0:0:
212,328,6155,1,2,0:3:0:0:
212,328,6307,2,0,P|280:336|352:304,1,120,0|2,3:0|0:3,0:0:0:0:
304,228,7068,2,0,L|312:140,1,80,8|2,0:3|0:3,0:0:0:0:
376,76,7677,5,4,3:2:0:0:
376,76,7830,1,2,0:3:0:0:
452,136,8134,1,2,0:3:0:0:
452,136,8287,2,0,L|460:268,1,120,8|4,0:3|3:1,0:0:0:0:
396,328,9048,2,0,L|332:340,1,40,8|8,0:3|0:3,0:0:0:0:
268,296,9505,2,0,B|236:296|236:296|192:312|192:312|168:308|168:308|140:312,1,120,8|8,0:3|0:0,0:0:0:0:
104,288,10114,6,0,P|112:240|100:188,1,89.9999972534181,4|10,1:0|0:0,0:0:0:0:
16,140,10723,1,0,1:0:0:0:
64,44,11028,1,12,0:0:0:0:
64,44,11180,2,0,L|224:56,1,134.999995880127,4|10,1:2|0:0,0:0:0:0:
284,120,11941,1,0,1:0:0:0:
376,64,12246,1,12,0:0:0:0:
472,112,12551,6,0,P|488:160|476:224,1,89.9999972534181,0|10,1:0|0:0,0:0:0:0:
380,176,13160,1,0,1:0:0:0:
380,176,13312,1,0,0:0:0:0:
284,120,13617,2,0,B|272:160|272:160|284:288,1,134.999995880127,4|10,1:2|0:0,0:0:0:0:
212,336,14378,1,0,1:0:0:0:
112,292,14682,1,10,0:0:0:0:
16,340,14987,6,0,L|8:224,1,89.9999972534181,4|12,1:0|0:0,0:0:0:0:
92,180,15596,2,0,L|100:68,1,89.9999972534181,0|8,1:0|3:2,0:0:0:0:
64,48,16053,2,0,P|128:76|220:52,1,134.999995880127,4|12,1:2|0:0,0:0:0:0:
292,28,16814,2,0,L|392:36,1,89.9999972534181,0|8,1:0|3:2,0:0:0:0:
460,112,17424,5,0,1:0:0:0:
376,180,17728,1,4,1:0:0:0:
284,124,18033,1,0,1:0:0:0:
184,160,18337,1,10,0:0:0:0:
184,160,18490,2,0,P|164:228|188:308,1,134.999995880127,4|8,1:3|0:0,0:0:0:0:
272,344,19251,1,2,1:3:0:0:
372,300,19556,1,8,0:0:0:0:
312,212,19860,6,0,L|308:112,1,89.9999972534181,4|10,1:0|0:0,0:0:0:0:
380,44,20469,1,0,1:0:0:0:
468,108,20774,1,12,0:0:0:0:
468,108,20926,2,0,L|464:272,1,134.999995880127,4|10,1:2|0:0,0:0:0:0:
372,300,21688,1,0,1:0:0:0:
284,236,21992,1,12,0:0:0:0:
208,312,22297,6,0,P|156:324|96:316,1,89.9999972534181,0|10,1:0|0:0,0:0:0:0:
48,240,22906,1,0,1:0:0:0:
48,240,23058,1,0,0:0:0:0:
156,220,23363,2,0,B|168:180|168:180|156:52,1,134.999995880127,4|10,1:2|0:0,0:0:0:0:
80,16,24124,1,0,1:0:0:0:
56,120,24429,1,10,0:0:0:0:
159,87,24733,6,0,P|208:88|264:112,1,89.9999972534181,4|12,1:0|0:0,0:0:0:0:
352,72,25342,2,0,P|396:76|448:64,1,89.9999972534181,0|8,1:0|3:2,0:0:0:0:
476,24,25799,2,0,L|472:180,1,134.999995880127,4|12,1:0|0:0,0:0:0:0:
408,244,26561,2,0,L|416:360,1,89.9999972534181,0|8,1:0|3:2,0:0:0:0:
312,300,27170,5,4,1:0:0:0:
214,348,27474,1,4,1:3:0:0:
166,249,27779,1,4,1:0:0:0:
264,203,28084,1,10,0:0:0:0:
264,203,28236,2,0,P|284:135|260:55,1,134.999995880127,4|4,1:3|1:0,0:0:0:0:
176,24,28997,1,6,1:3:0:0:
80,76,29302,1,8,0:0:0:0:
156,132,29606,6,0,L|264:136,1,80,4|8,3:2|0:3,0:0:0:0:
308,72,30215,1,0,3:0:0:0:
396,108,30520,1,8,0:3:0:0:
396,108,30672,2,0,L|408:252,1,120,0|8,3:0|0:3,0:0:0:0:
484,284,31434,1,0,3:0:0:0:
396,324,31738,1,8,0:3:0:0:
320,268,32043,6,0,P|236:264|164:296,1,160,0|0,3:0|3:0,0:0:0:0:
96,356,32957,1,8,0:3:0:0:
96,356,33109,2,0,P|76:296|92:228,1,120,0|8,3:0|0:3,0:0:0:0:
156,176,33870,1,0,3:0:0:0:
88,108,34175,1,12,0:1:0:0:
144,32,34479,6,0,P|192:28|248:52,1,80,4|10,1:2|0:0,0:0:0:0:
248,76,34936,2,0,B|280:84|280:84|388:76,1,120,0|10,0:0|0:1,0:0:0:0:
400,44,35545,2,0,L|412:200,1,120,8|8,0:3|0:0,0:0:0:0:
476,232,36307,1,0,1:0:0:0:
428,316,36611,1,10,0:0:0:0:
364,244,36916,6,0,P|324:236|256:256,1,80,4|10,1:0|0:1,0:0:0:0:
248,276,37373,1,0,0:0:0:0:
176,212,37677,1,0,0:0:0:0:
104,276,37982,2,0,P|80:228|100:148,1,120,4|8,1:2|0:0,0:0:0:0:
168,108,38743,1,8,0:3:0:0:
128,20,39048,1,2,3:0:0:0:
224,28,39353,6,0,L|332:36,1,80,4|8,3:2|0:3,0:0:0:0:
320,128,39962,1,0,3:0:0:0:
404,88,40266,1,8,0:3:0:0:
404,88,40419,2,0,P|428:140|416:232,1,120,0|8,3:0|0:3,0:0:0:0:
364,272,41180,1,0,3:0:0:0:
276,236,41485,1,8,0:3:0:0:
200,296,41789,6,0,P|116:304|44:272,1,160,0|0,3:0|3:0,0:0:0:0:
64,180,42703,1,8,0:3:0:0:
64,180,42855,2,0,B|76:140|76:140|68:52,1,120,0|8,3:0|0:3,0:0:0:0:
156,24,43617,1,0,3:0:0:0:
172,120,43921,1,12,0:1:0:0:
260,156,44226,6,0,P|304:156|364:128,1,80,4|10,1:2|0:0,0:0:0:0:
368,104,44682,2,0,P|432:96|500:128,1,120,0|10,0:0|0:1,0:0:0:0:
468,160,45292,2,0,L|480:316,1,120,8|8,0:3|0:0,0:0:0:0:
416,356,46053,1,0,1:0:0:0:
328,320,46358,1,10,0:0:0:0:
368,232,46662,6,0,P|328:220|264:244,1,80,4|10,1:0|0:1,0:0:0:0:
256,256,47119,2,0,L|188:264,1,40,0|4,0:0|0:3,0:0:0:0:
152,332,47576,1,10,0:0:0:0:
152,332,47728,2,0,L|24:324,1,120,4|8,1:2|0:0,0:0:0:0:
68,236,48490,1,0,1:0:0:0:
20,152,48794,1,2,3:0:0:0:
56,64,49099,6,0,L|148:60,1,80,4|2,0:2|0:0,0:0:0:0:
216,112,49708,1,4,0:0:0:0:
268,32,50012,1,2,0:0:0:0:
268,32,50165,2,0,P|332:20|412:52,1,120,2|2,0:0|0:0,0:0:0:0:
436,116,50926,1,4,0:0:0:0:
368,184,51231,1,2,0:0:0:0:
460,208,51535,6,0,B|480:248|480:248|468:392,1,160,4|4,0:0|0:0,0:0:0:0:
380,332,52449,1,2,0:0:0:0:
380,332,52601,2,0,L|232:340,1,120,2|2,0:0|0:0,0:0:0:0:
176,292,53363,1,2,0:0:0:0:
196,200,53667,1,4,1:0:0:0:
280,248,53972,6,0,L|372:252,1,80,6|8,0:0|0:0,0:0:0:0:
436,192,54581,1,2,0:0:0:0:
404,100,54886,1,8,0:0:0:0:
404,100,55038,2,0,B|368:120|368:120|280:128,1,120,4|8,1:0|0:0,0:0:0:0:
212,72,55799,1,2,0:0:0:0:
124,108,56104,1,8,0:0:0:0:
60,36,56408,6,0,P|32:84|52:176,1,120,4|2,1:2|0:0,0:0:0:0:
68,180,57018,2,0,L|64:288,1,80,8|8,0:3|0:0,0:0:0:0:
36,296,57474,2,0,P|96:280|176:308,1,120,4|8,1:2|0:0,0:0:0:0:
224,356,58236,1,0,1:0:0:0:
308,308,58540,1,8,0:0:0:0:
396,348,58845,6,0,L|488:344,1,80,4|2,0:2|0:0,0:0:0:0:
504,252,59454,1,4,0:0:0:0:
416,212,59759,1,2,0:0:0:0:
416,212,59911,2,0,B|400:176|400:176|408:80,1,120,2|2,0:0|0:0,0:0:0:0:
328,36,60672,1,4,0:0:0:0:
268,112,60977,1,2,0:0:0:0:
184,64,61281,6,0,B|4:56,1,160,4|4,0:0|0:0,0:0:0:0:
68,144,62195,1,2,0:0:0:0:
68,144,62347,2,0,P|72:208|44:268,1,120,2|2,0:0|0:0,0:0:0:0:
120,328,63109,1,2,0:0:0:0:
212,296,63413,1,4,1:0:0:0:
168,212,63718,6,0,P|164:172|172:124,1,80,4|10,1:0|0:0,0:0:0:0:
248,80,64327,1,0,1:0:0:0:
256,176,64632,1,8,0:0:0:0:
256,176,64784,2,0,B|292:192|292:192|388:196,1,120,4|8,1:2|0:0,0:0:0:0:
424,112,65545,1,8,0:3:0:0:
500,168,65850,1,8,0:0:0:0:
456,252,66155,6,0,L|460:300,1,40,4|0,1:0|3:0,0:0:0:0:
368,324,66611,2,0,L|364:284,1,40,4|0,1:2|3:0,0:0:0:0:
268,268,67068,2,0,L|271:307,1,40,4|0,1:0|0:0,0:0:0:0:
180,340,67525,2,0,L|176:300,1,40,4|0,1:2|0:0,0:0:0:0:
84,332,67982,2,0,L|-4:336,1,80,4|4,1:0|1:2,0:0:0:0:
44,236,68591,6,0,L|48:108,1,89.9999972534181,4|10,1:2|0:1,0:0:0:0:
112,60,69200,2,0,P|156:52|204:60,1,89.9999972534181,0|8,3:0|0:0,0:0:0:0:
288,120,69809,5,0,1:0:0:0:
382,70,70114,1,8,0:0:0:0:
458,147,70419,1,8,0:3:0:0:
410,243,70723,1,8,0:1:0:0:
304,226,71028,5,0,3:0:0:0:
288,120,71332,1,10,0:0:0:0:
182,103,71637,1,4,0:3:0:0:
134,199,71941,1,8,0:0:0:0:
210,276,72246,6,0,P|210:331|192:376,1,89.9999972534181,0|8,1:0|0:0,0:0:0:0:
104,312,72855,1,0,1:0:0:0:
8,360,73160,1,12,1:0:0:0:
16,248,73464,6,0,L|22:158,1,89.9999972534181,4|10,1:0|0:0,0:0:0:0:
64,124,73921,2,0,L|64:28,1,89.9999972534181,8|2,0:0|0:3,0:0:0:0:
160,84,74530,6,0,P|220:92|308:56,1,134.999995880127,4|8,1:0|0:0,0:0:0:0:
376,8,75292,1,0,1:0:0:0:
476,48,75596,1,4,1:2:0:0:
392,116,75901,6,0,P|380:164|392:228,1,89.9999972534181,4|12,1:0|0:0,0:0:0:0:
428,236,76358,2,0,B|440:268|440:268|428:344,1,89.9999972534181,8|2,0:0|0:3,0:0:0:0:
324,320,76967,6,0,L|172:312,1,134.999995880127,4|8,1:2|0:3,0:0:0:0:
88,356,77728,1,2,0:3:0:0:
24,268,78033,1,4,1:2:0:0:
116,212,78337,6,0,P|124:168|116:116,1,89.9999972534181,4|10,1:2|0:1,0:0:0:0:
72,24,78946,2,0,P|116:16|164:24,1,89.9999972534181,0|8,3:0|0:0,0:0:0:0:
244,88,79556,5,0,1:0:0:0:
346,59,79860,1,8,0:0:0:0:
374,164,80165,1,8,0:3:0:0:
270,192,80469,1,8,0:1:0:0:
244,88,80774,5,0,3:0:0:0:
140,116,81078,1,10,0:0:0:0:
168,221,81383,1,4,0:3:0:0:
270,192,81688,1,8,0:0:0:0:
344,272,81992,6,0,L|444:276,1,89.9999972534181,0|8,1:0|0:0,0:0:0:0:
500,188,82601,1,0,1:0:0:0:
452,92,82906,1,12,1:0:0:0:
352,132,83210,6,0,P|304:128|256:104,1,89.9999972534181,4|10,1:0|0:0,0:0:0:0:
248,60,83667,2,0,L|152:48,1,89.9999972534181,8|2,0:0|0:3,0:0:0:0:
60,88,84276,6,0,P|36:152|48:224,1,134.999995880127,4|8,1:0|0:0,0:0:0:0:
116,296,85038,1,0,1:0:0:0:
212,244,85342,1,4,1:0:0:0:
300,308,85647,6,0,L|364:316,2,44.999998626709,4|8|12,1:2|0:0|1:0,0:0:0:0:
244,216,86256,2,0,P|240:148|256:96,1,89.9999972534181,8|8,1:0|1:0,0:0:0:0:
276,84,86713,1,4,1:2:0:0:
344,168,87018,1,8,1:0:0:0:
344,168,87170,1,8,1:0:0:0:
356,132,107576,22,0,L|248:136,1,80,4|8,3:2|0:3,0:0:0:0:
204,72,108185,1,0,3:0:0:0:
116,108,108490,1,8,0:3:0:0:
116,108,108642,2,0,L|104:252,1,120,0|8,3:0|0:3,0:0:0:0:
28,284,109403,1,0,3:0:0:0:
116,324,109708,1,8,0:3:0:0:
192,268,110012,6,0,P|276:264|348:296,1,160,0|0,3:0|3:0,0:0:0:0:
416,356,110926,1,8,0:3:0:0:
416,356,111078,2,0,P|436:296|420:228,1,120,0|8,3:0|0:3,0:0:0:0:
356,176,111840,1,0,3:0:0:0:
424,108,112144,1,12,0:1:0:0:
368,32,112449,6,0,P|320:28|264:52,1,80,4|10,1:2|0:0,0:0:0:0:
264,76,112906,2,0,B|232:84|232:84|124:76,1,120,0|10,0:0|0:1,0:0:0:0:
112,44,113515,2,0,L|100:200,1,120,8|8,0:3|0:0,0:0:0:0:
36,232,114276,1,0,1:0:0:0:
84,316,114581,1,10,0:0:0:0:
148,244,114886,6,0,P|188:236|256:256,1,80,4|12,1:0|0:0,0:0:0:0:
264,276,115342,1,0,0:0:0:0:
336,212,115647,1,0,0:0:0:0:
408,276,115952,2,0,P|432:228|412:148,1,120,4|8,1:2|0:0,0:0:0:0:
344,108,116713,1,8,0:3:0:0:
384,20,117018,1,2,3:0:0:0:
288,28,117322,6,0,L|180:36,1,80,4|8,3:2|0:3,0:0:0:0:
192,128,117931,1,0,3:0:0:0:
108,88,118236,1,8,0:3:0:0:
108,88,118388,2,0,P|84:140|96:232,1,120,0|8,3:0|0:3,0:0:0:0:
148,272,119150,1,0,3:0:0:0:
236,236,119454,1,8,0:3:0:0:
312,296,119759,6,0,P|396:304|468:272,1,160,0|0,3:0|3:0,0:0:0:0:
448,180,120672,1,8,0:3:0:0:
448,180,120825,2,0,B|436:140|436:140|444:52,1,120,0|8,3:0|0:3,0:0:0:0:
356,24,121586,1,0,3:0:0:0:
340,120,121891,1,12,0:1:0:0:
252,156,122195,6,0,P|208:156|148:128,1,80,4|10,1:2|0:0,0:0:0:0:
144,104,122652,2,0,P|80:96|12:128,1,120,0|10,0:0|0:1,0:0:0:0:
44,160,123261,2,0,L|32:316,1,120,8|8,0:3|0:0,0:0:0:0:
96,356,124023,1,0,1:0:0:0:
184,320,124327,1,10,0:0:0:0:
144,232,124632,6,0,P|184:220|248:244,1,80,4|10,1:0|0:0,0:0:0:0:
256,256,125089,2,0,L|324:264,1,40,0|4,0:0|0:3,0:0:0:0:
360,332,125545,1,10,0:0:0:0:
360,332,125698,2,0,L|488:324,1,120,4|8,1:2|0:0,0:0:0:0:
444,236,126459,1,0,1:0:0:0:
492,152,126764,1,2,3:0:0:0:
456,64,127068,6,0,L|364:60,1,80,4|2,0:2|0:0,0:0:0:0:
296,112,127677,1,4,0:0:0:0:
244,32,127982,1,2,0:0:0:0:
244,32,128134,2,0,P|180:20|100:52,1,120,2|2,0:0|0:0,0:0:0:0:
76,116,128896,1,4,0:0:0:0:
144,184,129200,1,2,0:0:0:0:
52,208,129505,6,0,B|32:248|32:248|44:392,1,160,4|4,0:0|0:0,0:0:0:0:
132,332,130419,1,2,0:0:0:0:
132,332,130571,2,0,L|280:340,1,120,2|2,0:0|0:0,0:0:0:0:
336,292,131332,1,2,0:0:0:0:
316,200,131637,1,4,1:0:0:0:
232,248,131941,6,0,L|140:252,1,80,6|8,0:0|0:0,0:0:0:0:
76,192,132551,1,2,0:0:0:0:
108,100,132855,1,8,0:0:0:0:
108,100,133007,2,0,B|144:120|144:120|232:128,1,120,4|8,1:0|0:0,0:0:0:0:
300,72,133769,1,2,0:0:0:0:
388,108,134073,1,8,0:0:0:0:
452,36,134378,6,0,P|480:84|460:176,1,120,4|2,1:2|0:0,0:0:0:0:
444,180,134987,2,0,L|448:288,1,80,8|8,0:3|0:0,0:0:0:0:
476,296,135444,2,0,P|416:280|336:308,1,120,4|8,1:2|0:0,0:0:0:0:
288,356,136205,1,0,1:0:0:0:
204,308,136510,1,8,0:0:0:0:
116,348,136814,6,0,L|24:344,1,80,4|2,0:2|0:0,0:0:0:0:
8,252,137424,1,4,0:0:0:0:
96,212,137728,1,2,0:0:0:0:
96,212,137880,2,0,B|112:176|112:176|104:80,1,120,2|2,0:0|0:0,0:0:0:0:
184,36,138642,1,4,0:0:0:0:
244,112,138946,1,2,0:0:0:0:
328,64,139251,6,0,B|508:56,1,160,4|4,0:0|0:0,0:0:0:0:
444,144,140165,1,2,0:0:0:0:
444,144,140317,2,0,P|440:208|468:268,1,120,2|2,0:0|0:0,0:0:0:0:
392,328,141078,1,2,0:0:0:0:
300,296,141383,1,4,1:0:0:0:
344,212,141688,6,0,P|348:172|340:124,1,80,4|10,1:0|0:0,0:0:0:0:
264,80,142297,1,0,1:0:0:0:
256,176,142601,1,8,0:0:0:0:
256,176,142754,2,0,B|220:192|220:192|124:196,1,120,4|8,1:2|0:0,0:0:0:0:
88,112,143515,1,8,0:3:0:0:
12,168,143820,1,8,0:0:0:0:
56,252,144124,6,0,L|52:300,1,40,4|0,1:0|3:0,0:0:0:0:
144,324,144581,2,0,L|148:284,1,40,4|0,1:2|3:0,0:0:0:0:
244,268,145038,2,0,L|241:307,1,40,4|0,1:0|0:0,0:0:0:0:
332,340,145495,2,0,L|336:300,1,40,4|0,1:2|0:0,0:0:0:0:
428,332,145952,2,0,L|516:336,1,80,4|4,1:0|1:2,0:0:0:0:
468,236,146561,6,0,L|464:108,1,89.9999972534181,4|10,1:2|0:1,0:0:0:0:
400,60,147170,2,0,P|356:52|308:60,1,89.9999972534181,0|8,3:0|0:0,0:0:0:0:
224,120,147779,5,0,1:0:0:0:
130,70,148084,1,8,0:0:0:0:
54,147,148388,1,8,0:3:0:0:
102,243,148693,1,8,0:1:0:0:
208,226,148997,5,0,3:0:0:0:
224,120,149302,1,10,0:0:0:0:
330,103,149606,1,4,0:3:0:0:
378,199,149911,1,8,0:0:0:0:
302,276,150215,6,0,P|302:331|320:376,1,89.9999972534181,0|8,1:0|0:0,0:0:0:0:
408,312,150824,1,0,1:0:0:0:
504,360,151129,1,12,1:0:0:0:
496,248,151433,6,0,L|489:158,1,89.9999972534181,4|10,1:0|0:0,0:0:0:0:
448,124,151890,2,0,L|448:28,1,89.9999972534181,8|2,0:0|0:3,0:0:0:0:
352,84,152500,6,0,P|292:92|204:56,1,134.999995880127,4|8,1:0|0:0,0:0:0:0:
136,8,153261,1,0,1:0:0:0:
36,48,153565,1,4,1:2:0:0:
120,116,153870,6,0,P|132:164|120:228,1,89.9999972534181,4|12,1:0|0:0,0:0:0:0:
84,236,154327,6,0,B|72:268|72:268|84:344,1,89.9999972534181,8|2,0:0|0:3,0:0:0:0:
188,320,154936,6,0,L|340:312,1,134.999995880127,4|8,1:2|0:3,0:0:0:0:
424,356,155698,1,2,0:3:0:0:
488,268,156002,1,4,1:2:0:0:
396,212,156307,6,0,P|388:168|396:116,1,89.9999972534181,4|10,1:2|0:1,0:0:0:0:
440,24,156916,2,0,P|396:16|348:24,1,89.9999972534181,0|8,3:0|0:0,0:0:0:0:
268,88,157525,5,0,1:0:0:0:
166,59,157830,1,8,0:0:0:0:
138,164,158134,1,8,0:3:0:0:
242,192,158439,1,8,0:1:0:0:
268,88,158743,5,0,3:0:0:0:
372,116,159048,1,10,0:0:0:0:
344,221,159353,1,4,0:3:0:0:
242,192,159657,1,8,0:0:0:0:
168,272,159962,6,0,L|68:276,1,89.9999972534181,0|8,1:0|0:0,0:0:0:0:
12,188,160571,1,0,1:0:0:0:
60,92,160875,1,12,1:0:0:0:
160,132,161180,6,0,P|208:128|256:104,1,89.9999972534181,4|10,1:0|0:0,0:0:0:0:
264,60,161637,2,0,L|360:48,1,89.9999972534181,8|2,0:0|0:3,0:0:0:0:
452,88,162246,6,0,P|476:152|464:224,1,134.999995880127,4|8,1:0|0:0,0:0:0:0:
396,296,163007,1,0,1:0:0:0:
300,244,163312,1,4,1:0:0:0:
212,308,163617,6,0,L|148:316,2,44.999998626709,4|8|12,1:2|0:0|1:0,0:0:0:0:
268,216,164226,2,0,P|272:148|256:96,1,89.9999972534181,8|8,1:0|1:0,0:0:0:0:
236,84,164682,1,4,1:2:0:0:
168,168,164987,1,8,1:0:0:0:
168,168,165139,1,8,1:0:0:0:
76,260,175799,22,0,L|176:252,1,80,4|10,1:0|0:0,0:0:0:0:
240,300,176408,1,0,1:0:0:0:
288,216,176713,1,12,0:0:0:0:
288,216,176865,2,0,P|336:204|416:228,1,120,4|10,1:2|0:0,0:0:0:0:
476,284,177627,2,0,P|496:248|492:180,1,80,0|12,1:0|0:0,0:0:0:0:
444,132,178236,6,0,P|432:72|456:4,1,120,0|0,1:0|0:0,0:0:0:0:
320,84,179150,1,12,0:0:0:0:
320,84,179302,2,0,L|184:88,1,120,4|10,1:2|0:0,0:0:0:0:
120,36,180063,1,0,1:0:0:0:
36,84,180368,1,10,0:0:0:0:
36,84,180520,6,0,B|24:124|24:124|32:216,1,120,0|12,0:0|0:0,0:0:0:0:
104,264,181281,1,0,1:0:0:0:
52,344,181586,1,8,3:2:0:0:
52,344,181738,2,0,P|108:356|184:324,1,120,4|12,1:0|0:0,0:0:0:0:
240,276,182500,2,0,P|280:272|328:292,1,80,0|8,1:0|3:2,0:0:0:0:
404,328,183109,6,0,B|444:316|444:316|488:320,1,80,0|4,1:0|1:2,0:0:0:0:
508,228,183718,1,0,1:0:0:0:
472,140,184023,1,10,0:0:0:0:
472,140,184175,2,0,B|436:160|436:160|336:164,1,120,6|8,1:3|0:0,0:0:0:0:
312,80,184936,1,0,1:0:0:0:
224,116,185241,1,8,0:0:0:0:
260,204,185545,6,0,L|264:268,1,40,4|0,1:0|3:0,0:0:0:0:
180,196,186002,2,0,L|184:260,1,40,4|0,1:2|3:0,0:0:0:0:
100,188,186459,2,0,L|104:252,1,40,4|0,1:0|0:0,0:0:0:0:
20,180,186916,2,0,L|24:244,1,40,4|0,1:2|0:0,0:0:0:0:
60,308,187373,1,4,1:0:0:0:
144,264,187677,1,4,1:2:0:0:
224,340,187982,6,0,L|324:344,1,89.9999972534181,4|10,1:2|0:1,0:0:0:0:
420,316,188591,2,0,P|440:276|436:216,1,89.9999972534181,0|8,3:0|0:0,0:0:0:0:
348,176,189200,5,0,1:0:0:0:
247,214,189505,1,8,0:0:0:0:
180,130,189810,1,8,0:3:0:0:
238,39,190114,1,8,0:1:0:0:
342,67,190419,5,0,3:0:0:0:
348,176,190723,1,10,0:0:0:0:
456,168,191027,1,4,0:3:0:0:
452,64,191332,1,8,0:0:0:0:
342,67,191637,6,0,P|288:56|244:24,1,89.9999972534181,0|8,1:0|0:0,0:0:0:0:
176,108,192246,1,0,1:0:0:0:
80,60,192551,1,12,1:0:0:0:
20,148,192855,6,0,L|28:264,1,89.9999972534181,4|10,1:0|0:0,0:0:0:0:
72,268,193312,2,0,P|80:312|64:368,1,89.9999972534181,8|2,0:0|0:3,0:0:0:0:
172,316,193921,6,0,L|324:308,1,134.999995880127,4|8,1:0|0:0,0:0:0:0:
404,352,194682,1,0,1:0:0:0:
484,280,194987,1,4,1:2:0:0:
388,232,195292,6,0,P|376:184|388:120,1,89.9999972534181,4|12,1:0|0:0,0:0:0:0:
424,112,195748,2,0,B|436:80|436:80|424:4,1,89.9999972534181,8|2,0:0|0:3,0:0:0:0:
324,56,196358,6,0,P|248:40|176:60,1,134.999995880127,4|8,1:2|0:3,0:0:0:0:
128,140,197119,1,2,0:3:0:0:
192,228,197424,1,4,1:2:0:0:
156,328,197728,6,0,L|40:340,1,89.9999972534181,4|10,1:2|0:1,0:0:0:0:
0,252,198337,2,0,L|116:240,1,89.9999972534181,0|8,3:0|0:0,0:0:0:0:
152,152,198946,5,0,1:0:0:0:
253,190,199251,1,8,0:0:0:0:
320,106,199556,1,8,0:3:0:0:
262,15,199860,1,8,0:1:0:0:
158,43,200165,5,0,3:0:0:0:
152,152,200469,1,10,0:0:0:0:
44,144,200773,1,4,0:3:0:0:
48,40,201078,1,8,0:0:0:0:
158,43,201383,6,0,L|252:36,1,89.9999972534181,0|8,1:0|0:0,0:0:0:0:
328,108,201992,1,0,1:0:0:0:
408,36,202297,1,12,1:0:0:0:
484,112,202601,6,0,P|480:160|456:208,1,89.9999972534181,4|10,1:0|0:0,0:0:0:0:
420,232,203058,2,0,L|324:236,1,89.9999972534181,8|2,0:0|0:3,0:0:0:0:
252,164,203667,6,0,B|208:156|208:156|108:172,1,134.999995880127,4|8,1:0|0:0,0:0:0:0:
52,256,204429,1,0,1:0:0:0:
116,344,204733,1,4,1:0:0:0:
204,280,205038,6,0,L|268:276,2,44.999998626709,4|8|12,1:2|0:0|1:0,0:0:0:0:
132,200,205647,2,0,L|128:100,1,89.9999972534181,8|8,1:0|1:0,0:0:0:0:
92,72,206104,1,4,1:2:0:0:
192,32,206408,1,8,1:0:0:0:
192,32,206561,1,8,1:0:0:0:
472,144,207474,6,0,P|428:168|348:164,1,100,4|10,1:0|0:0,0:0:0:0:
268,120,208084,1,0,1:0:0:0:
168,188,208388,1,12,0:0:0:0:
168,188,208540,2,0,L|156:356,1,150,4|10,1:2|0:0,0:0:0:0:
40,304,209301,1,0,1:0:0:0:
40,304,209454,2,0,L|36:248,1,50,0|12,0:0|0:0,0:0:0:0:
72,140,209911,6,0,P|80:88|68:28,1,100,0|10,1:0|0:0,0:0:0:0:
180,96,210520,1,0,1:0:0:0:
180,96,210672,1,0,0:0:0:0:
276,24,210977,2,0,P|352:16|444:60,1,150,4|10,1:2|0:0,0:0:0:0:
408,160,211738,1,0,1:0:0:0:
408,160,211891,1,0,0:0:0:0:
408,160,212043,1,10,0:0:0:0:
332,252,212347,6,0,L|212:248,1,100,4|12,1:0|0:0,0:0:0:0:
140,328,212956,2,0,P|92:348|40:340,1,100,0|8,1:0|3:2,0:0:0:0:
4,296,213413,2,0,B|20:256|20:256|12:140,1,150,4|12,1:2|0:0,0:0:0:0:
132,128,214175,1,0,1:0:0:0:
132,128,214327,2,0,L|124:208,1,50,0|8,0:0|3:2,0:0:0:0:
216,256,214784,5,0,1:0:0:0:
320,196,215088,1,4,1:0:0:0:
432,236,215393,1,0,1:0:0:0:
476,128,215698,1,10,0:0:0:0:
476,128,215850,2,0,P|396:112|356:56,1,150,4|8,1:3|0:0,0:0:0:0:
240,88,216611,1,2,1:3:0:0:
240,88,216764,1,0,0:0:0:0:
240,88,216916,1,8,0:0:0:0:
120,72,217221,6,0,B|92:100|92:100|80:176,1,100,4|10,1:0|0:0,0:0:0:0:
68,276,217830,1,0,1:0:0:0:
180,228,218134,1,12,0:0:0:0:
180,228,218286,2,0,L|348:240,1,150,4|10,1:2|0:0,0:0:0:0:
408,332,219047,1,0,1:0:0:0:
408,332,219200,1,0,0:0:0:0:
408,332,219353,1,12,0:0:0:0:
444,216,219657,6,0,L|452:108,1,100,0|10,1:0|0:0,0:0:0:0:
364,36,220266,1,0,1:0:0:0:
364,36,220418,1,0,0:0:0:0:
292,132,220723,2,0,P|216:140|124:96,1,150,4|10,1:2|0:0,0:0:0:0:
28,108,221484,1,0,1:0:0:0:
28,108,221637,1,0,0:0:0:0:
28,108,221789,1,10,0:0:0:0:
88,212,222093,6,0,L|80:328,1,100,4|12,1:0|0:0,0:0:0:0:
192,360,222703,2,0,L|200:244,1,100,0|8,1:0|3:2,0:0:0:0:
248,292,223160,2,0,P|328:304|400:276,1,150,4|12,1:0|0:0,0:0:0:0:
464,184,223921,1,0,1:0:0:0:
464,184,224073,2,0,L|456:96,1,50,0|8,0:0|3:2,0:0:0:0:
368,56,224530,5,4,1:0:0:0:
256,100,224834,1,4,1:3:0:0:
176,12,225139,1,4,1:0:0:0:
72,72,225444,1,10,0:0:0:0:
72,72,225596,2,0,P|88:152|46:229,1,150,4|4,1:3|1:0,0:0:0:0:
128,312,226358,2,0,L|240:308,1,100,6|8,1:3|0:0,0:0:0:0:
324,304,226967,5,4,1:0:0:0:
464,244,229403,6,0,L|461:204,1,40,4|0,1:0|3:0,0:0:0:0:
368,224,229860,2,0,L|365:184,1,40,4|0,1:2|3:0,0:0:0:0:
272,204,230317,2,0,L|269:164,1,40,4|0,1:0|0:0,0:0:0:0:
176,184,230774,2,0,L|173:144,1,40,4|0,1:2|0:0,0:0:0:0:
80,160,231231,1,4,1:0:0:0:
72,64,231535,1,4,1:2:0:0:
72,64,231688,1,4,1:2:0:0:
