osu file format v14

[General]
AudioFilename: audio.mp3
AudioLeadIn: 0
PreviewTime: 68591
Countdown: 0
SampleSet: Soft
StackLeniency: 0.8
Mode: 0
LetterboxInBreaks: 0
WidescreenStoryboard: 1

[Editor]
Bookmarks: 29606,53972,97830,107576,127068,144124,156307,175799,183109
DistanceSpacing: 1.1
BeatDivisor: 4
GridSize: 4
TimelineZoom: 3.899998

[Metadata]
Title:Ryuu to Sakura Miko
TitleUnicode:龍と桜巫女
Artist:Hatsuki Yura
ArtistUnicode:葉月ゆら
Creator:KKipalt
Version:Kana's Extreme
Source:
Tags:yoiyami rensou kitan 宵闇恋想奇譚 drop どろっぷ seifuumeigatsu 清風明月 hanazawa_kana kana 1112deng suzuki_1112 1112 otosaka-yu narcissu AIR tomadoi agatsu 和風民族音楽 japanese folk pop
BeatmapID:2014638
BeatmapSetID:962172

[Difficulty]
HPDrainRate:6
CircleSize:4.3
OverallDifficulty:8.6
ApproachRate:9.6
SliderMultiplier:1.7
SliderTickRate:1

[Events]
//Background and Video events
0,0,"BG.jpg",0,0
//Break Periods
//Storyboard Layer 0 (Background)
//Storyboard Layer 1 (Fail)
//Storyboard Layer 2 (Pass)
//Storyboard Layer 3 (Foreground)
//Storyboard Layer 4 (Overlay)
//Storyboard Sound Samples

[TimingPoints]
-850,304.568527918782,4,2,1,70,1,0
215,-125,4,2,1,70,0,0
10114,-100,4,2,2,70,0,0
11180,-83.3333333333333,4,2,2,70,0,0
11485,-100,4,2,2,70,0,0
11941,-76.9230769230769,4,2,2,70,0,0
12246,-100,4,2,2,70,0,0
13617,-76.9230769230769,4,2,2,70,0,0
13921,-100,4,2,2,70,0,0
29606,-125,4,2,1,70,0,0
34175,-100,4,2,1,70,0,0
34479,-76.9230769230769,4,2,3,70,0,0
34784,-125,4,2,3,70,0,0
36611,-83.3333333333333,4,2,3,70,0,0
36916,-125,4,2,3,70,0,0
38896,-125,4,2,2,70,0,0
39200,-125,4,2,1,70,0,0
43921,-83.3333333333333,4,2,1,70,0,0
44226,-71.4285714285714,4,2,3,70,0,0
44530,-125,4,2,3,70,0,0
46358,-83.3333333333333,4,2,3,70,0,0
46662,-125,4,2,3,70,0,0
48642,-125,4,2,2,70,0,0
48946,-125,4,2,1,70,0,0
49099,-125,4,3,4,70,0,0
53667,-125,4,2,1,70,0,0
53972,-125,4,3,5,70,0,0
55038,-125,4,2,1,70,0,0
55190,-125,4,3,5,70,0,0
56408,-125,4,2,3,70,0,0
57474,-125,4,2,1,70,0,0
57779,-125,4,2,2,70,0,0
58693,-125,4,3,4,70,0,0
63413,-125,4,2,1,70,0,0
63718,-125,4,2,3,70,0,0
66155,-125,4,2,1,70,0,0
68591,-90.9090909090909,4,2,3,80,0,1
69809,-83.3333333333333,4,2,3,80,0,1
70266,-90.9090909090909,4,2,3,80,0,1
70723,-76.9230769230769,4,2,3,80,0,1
71028,-66.6666666666667,4,2,3,80,0,1
71332,-83.3333333333333,4,2,3,80,0,1
72094,-83.3333333333333,4,2,2,80,0,1
72246,-71.4285714285714,4,2,3,80,0,1
72551,-83.3333333333333,4,2,3,80,0,1
73007,-83.3333333333333,4,2,1,80,0,1
73160,-66.6666666666667,4,2,1,80,0,1
73464,-90.9090909090909,4,2,2,80,0,1
73921,-90.9090909090909,4,2,1,80,0,1
74835,-90.9090909090909,4,2,2,80,0,1
75596,-66.6666666666667,4,2,1,80,0,1
75901,-90.9090909090909,4,2,1,80,0,1
76205,-90.9090909090909,4,2,2,80,0,1
76358,-90.9090909090909,4,2,1,80,0,1
78337,-90.9090909090909,4,2,3,80,0,1
79556,-83.3333333333333,4,2,3,80,0,1
80012,-90.9090909090909,4,2,3,80,0,1
80774,-76.9230769230769,4,2,3,80,0,1
81078,-90.9090909090909,4,2,3,80,0,1
81840,-90.9090909090909,4,2,2,80,0,1
81992,-90.9090909090909,4,2,3,80,0,1
82906,-90.9090909090909,4,2,1,80,0,1
83210,-90.9090909090909,4,2,2,80,0,1
83667,-90.9090909090909,4,2,1,80,0,1
84580,-90.9090909090909,4,2,2,80,0,1
84581,-90.9090909090909,4,2,2,80,0,1
85342,-90.9090909090909,4,2,1,80,0,1
87170,-142.857142857143,4,2,1,80,0,1
87627,-100,4,2,1,80,0,1
88084,-111.111111111111,4,2,2,70,0,0
107576,-111.111111111111,4,2,1,70,0,0
112144,-83.3333333333333,4,2,1,70,0,0
112449,-71.4285714285714,4,2,3,70,0,0
112754,-111.111111111111,4,2,3,70,0,0
114581,-76.9230769230769,4,2,3,70,0,0
114886,-111.111111111111,4,2,3,70,0,0
116865,-111.111111111111,4,2,2,70,0,0
117170,-111.111111111111,4,2,1,70,0,0
121891,-76.9230769230769,4,2,1,70,0,0
122195,-66.6666666666667,4,2,3,70,0,0
122500,-111.111111111111,4,2,3,70,0,0
124327,-76.9230769230769,4,2,3,70,0,0
124632,-111.111111111111,4,2,3,70,0,0
126611,-111.111111111111,4,2,2,70,0,0
126916,-111.111111111111,4,2,1,70,0,0
127068,-111.111111111111,4,3,4,70,0,0
131637,-111.111111111111,4,2,1,70,0,0
131941,-111.111111111111,4,3,5,70,0,0
133007,-111.111111111111,4,2,1,70,0,0
133160,-111.111111111111,4,3,5,70,0,0
134378,-111.111111111111,4,2,3,70,0,0
135444,-111.111111111111,4,2,1,70,0,0
135672,-111.111111111111,4,2,2,70,0,0
136662,-111.111111111111,4,3,4,70,0,0
141383,-111.111111111111,4,2,1,70,0,0
141688,-111.111111111111,4,2,3,70,0,0
144124,-111.111111111111,4,2,1,70,0,0
146561,-90.9090909090909,4,2,3,80,0,1
147779,-76.9230769230769,4,2,3,80,0,1
148084,-90.9090909090909,4,2,3,80,0,1
148693,-71.4285714285714,4,2,3,80,0,1
148997,-90.9090909090909,4,2,3,80,0,1
150063,-90.9090909090909,4,2,2,80,0,1
150215,-76.9230769230769,4,2,3,80,0,1
150520,-90.9090909090909,4,2,3,80,0,1
150977,-90.9090909090909,4,2,1,80,0,1
151129,-71.4285714285714,4,2,1,80,0,1
151434,-90.9090909090909,4,2,2,80,0,1
151891,-90.9090909090909,4,2,1,80,0,1
152500,-76.9230769230769,4,2,1,80,0,1
152804,-90.9090909090909,4,2,2,80,0,1
153566,-90.9090909090909,4,2,1,80,0,1
153870,-76.9230769230769,4,2,1,80,0,1
154175,-90.9090909090909,4,2,2,80,0,1
154327,-90.9090909090909,4,2,1,80,0,1
154936,-76.9230769230769,4,2,1,80,0,1
155241,-90.9090909090909,4,2,1,80,0,1
156307,-90.9090909090909,4,2,3,80,0,1
157525,-76.9230769230769,4,2,3,80,0,1
157830,-90.9090909090909,4,2,3,80,0,1
158439,-71.4285714285714,4,2,3,80,0,1
158743,-90.9090909090909,4,2,3,80,0,1
160723,-90.9090909090909,4,2,1,80,0,1
160875,-76.9230769230769,4,2,1,80,0,1
161180,-90.9090909090909,4,2,2,80,0,1
161637,-90.9090909090909,4,2,1,80,0,1
162551,-90.9090909090909,4,2,2,80,0,1
163312,-90.9090909090909,4,2,1,80,0,1
164987,-142.857142857143,4,2,1,80,0,1
165596,-100,4,2,1,80,0,1
166053,-142.857142857143,4,2,2,60,0,0
167119,-142.857142857143,4,2,3,60,0,0
167576,-142.857142857143,4,2,2,60,0,0
167880,-142.857142857143,4,2,3,60,0,0
168185,-142.857142857143,4,2,2,60,0,0
168490,-142.857142857143,4,2,3,60,0,0
169099,-142.857142857143,4,2,2,60,0,0
169556,-142.857142857143,4,2,3,60,0,0
169860,-142.857142857143,4,2,2,60,0,0
170012,-142.857142857143,4,2,3,60,0,0
170317,-142.857142857143,4,2,2,60,0,0
170622,-142.857142857143,4,2,3,60,0,0
171230,-142.857142857143,4,2,2,60,0,0
171231,-142.857142857143,4,2,2,60,0,0
171992,-142.857142857143,4,2,3,60,0,0
172297,-142.857142857143,4,2,2,60,0,0
172449,-142.857142857143,4,2,3,60,0,0
172754,-142.857142857143,4,2,2,60,0,0
174429,-100,4,2,2,60,0,0
174733,-100,4,2,1,60,0,0
175799,-100,4,2,2,70,0,0
185545,-100,4,2,1,70,0,0
187982,-90.9090909090909,4,2,3,80,0,1
189200,-76.9230769230769,4,2,3,80,0,1
190419,-90.9090909090909,4,2,3,80,0,1
191485,-90.9090909090909,4,2,2,80,0,1
191637,-90.9090909090909,4,2,3,80,0,1
192551,-76.9230769230769,4,2,1,80,0,1
192855,-90.9090909090909,4,2,2,80,0,1
193312,-90.9090909090909,4,2,1,80,0,1
194225,-90.9090909090909,4,2,2,80,0,1
194226,-90.9090909090909,4,2,2,80,0,1
194987,-90.9090909090909,4,2,1,80,0,1
195596,-90.9090909090909,4,2,2,80,0,1
195748,-90.9090909090909,4,2,1,80,0,1
196358,-71.4285714285714,4,2,1,80,0,1
196662,-90.9090909090909,4,2,1,80,0,1
197728,-90.9090909090909,4,2,3,80,0,1
198946,-76.9230769230769,4,2,3,80,0,1
199251,-90.9090909090909,4,2,3,80,0,1
199860,-76.9230769230769,4,2,3,80,0,1
200165,-90.9090909090909,4,2,3,80,0,1
201231,-90.9090909090909,4,2,2,80,0,1
201383,-90.9090909090909,4,2,3,80,0,1
202297,-76.9230769230769,4,2,1,80,0,1
202601,-90.9090909090909,4,2,2,80,0,1
203058,-90.9090909090909,4,2,1,80,0,1
203061,-90.9090909090909,4,2,1,80,0,1
203971,-90.9090909090909,4,2,2,80,0,1
203972,-90.9090909090909,4,2,2,80,0,1
204733,-90.9090909090909,4,2,1,80,0,1
206561,-125,4,2,1,80,0,1
207474,-111.111111111111,4,2,2,70,0,1
209606,-76.9230769230769,4,2,2,70,0,1
209911,-111.111111111111,4,2,2,70,0,1
212043,-71.4285714285714,4,2,2,70,0,1
212347,-111.111111111111,4,2,2,70,0,1
215850,-76.9230769230769,4,2,2,70,0,1
216155,-111.111111111111,4,2,2,70,0,1
221789,-76.9230769230769,4,2,2,70,0,1
222094,-111.111111111111,4,2,2,70,0,1
225596,-71.4285714285714,4,2,2,70,0,1
225901,-111.111111111111,4,2,2,70,0,1
226967,-111.111111111111,4,2,3,70,0,0
227271,-111.111111111111,4,2,2,70,0,0
227576,-111.111111111111,4,2,1,70,0,0
228337,-111.111111111111,4,2,2,70,0,0
228490,-111.111111111111,4,2,1,70,0,0
228642,-111.111111111111,4,2,2,70,0,0
228794,-111.111111111111,4,2,1,70,0,0
228946,-111.111111111111,4,2,2,70,0,0
229099,-111.111111111111,4,2,1,70,0,0
231688,-111.111111111111,4,1,3,70,0,0

[Colours]
Combo1 : 255,128,255
Combo2 : 128,255,255
Combo3 : 255,255,128
Combo4 : 128,128,255

[HitObjects]
198,107,215,6,0,L|226:101,2,22.6666666666667,8|8|8,0:0|0:0|0:0,0:0:0:0:
251,108,368,1,4,3:2:0:0:
65,194,520,2,0,P|93:175|184:213,1,136,2|2,0:3|0:3,0:0:0:0:
304,277,977,2,0,P|263:283|238:300,2,68,8|0|2,0:3|0:0|0:3,0:0:0:0:
136,298,1434,1,0,3:0:0:0:
385,341,1586,5,0,0:0:0:0:
402,193,1738,2,0,L|366:205,1,34,8|0,0:3|0:0,0:0:0:0:
293,134,1891,2,0,L|340:156,1,34,2|0,0:3|0:0,0:0:0:0:
465,239,2043,2,0,L|457:281,1,34,0|0,3:0|0:0,0:0:0:0:
510,85,2195,2,0,P|473:41|394:76,1,136,8|2,0:3|0:3,0:0:0:0:
480,219,2652,2,0,L|505:209,2,22.6666666666667,8|8|8,0:0|0:0|0:0,0:0:0:0:
465,239,2804,5,0,3:0:0:0:
293,134,2957,2,0,P|238:121|149:113,1,136,2|2,0:3|0:3,0:0:0:0:
367,343,3413,2,0,P|386:305|393:278,2,68,8|0|2,0:3|0:0|0:3,0:0:0:0:
497,353,3870,1,0,3:0:0:0:
234,311,4023,5,0,0:0:0:0:
326,212,4175,2,0,L|361:207,1,34,8|0,0:3|0:0,0:0:0:0:
226,288,4327,2,0,L|178:292,1,34,2|0,0:3|0:0,0:0:0:0:
333,346,4479,2,0,L|374:342,1,34,0|0,3:0|0:0,0:0:0:0:
72,335,4632,2,0,P|82:293|89:256,1,68,8|0,0:3|0:0,0:0:0:0:
215,220,4936,2,0,P|221:261|227:296,1,68,2|8,0:3|0:0,0:0:0:0:
227,311,5139,6,0,L|194:320,1,22.6666666666667,8|8,0:0|0:0,0:0:0:0:
182,325,5241,5,4,3:1:0:0:
370,215,5393,2,0,P|350:277|332:348,1,136,2|2,0:3|0:3,0:0:0:0:
216,84,5850,2,0,P|232:123|244:155,2,68,8|0|2,0:3|0:0|0:3,0:0:0:0:
333,47,6307,1,0,3:0:0:0:
105,187,6459,5,0,0:0:0:0:
15,93,6611,2,0,L|31:49,1,34,8|0,0:3|0:0,0:0:0:0:
83,196,6764,2,0,L|93:240,1,34,2|0,0:3|0:0,0:0:0:0:
169,91,6916,2,0,L|179:54,1,34,0|0,3:0|0:0,0:0:0:0:
221,268,7068,2,0,P|252:237|348:239,1,136,8|2,0:3|0:3,0:0:0:0:
114,343,7525,5,8,0:3:0:0:
108,334,7576,1,0,0:0:0:0:
102,324,7627,1,0,0:0:0:0:
97,313,7677,5,4,3:2:0:0:
203,166,7830,1,2,0:3:0:0:
244,313,7982,2,0,P|187:303|160:291,1,68,0|2,0:0|0:3,0:0:0:0:
300,128,8287,5,8,0:3:0:0:
283,224,8439,1,0,0:0:0:0:
203,166,8591,1,2,0:3:0:0:
348,352,8743,5,4,3:1:0:0:
402,186,8896,5,0,0:0:0:0:
283,224,9048,1,8,0:3:0:0:
283,224,9124,1,8,0:3:0:0:
283,224,9200,1,8,0:3:0:0:
315,111,9353,1,0,3:0:0:0:
482,308,9505,5,8,0:3:0:0:
454,84,9657,1,8,0:1:0:0:
350,338,9809,1,8,0:3:0:0:
315,111,9962,2,0,L|348:119,2,22.6666666666667,8|8|8,0:0|0:0|0:0,0:0:0:0:
288,111,10114,1,4,1:0:0:0:
204,310,10266,5,0,0:0:0:0:
174,211,10419,1,10,0:0:0:0:
73,235,10571,1,0,0:0:0:0:
223,324,10723,5,0,1:0:0:0:
55,233,10875,1,0,0:0:0:0:
286,254,11028,1,12,0:0:0:0:
78,131,11180,2,0,P|59:191|83:297,1,152.999995330811,4|0,1:2|0:0,0:0:0:0:
103,345,11485,5,0,1:0:0:0:
0,313,11637,1,10,0:0:0:0:
191,256,11789,2,0,P|211:252|237:251,1,42.5
291,294,11941,2,0,P|241:269|199:173,1,165.749992412568,0|0,1:0|0:0,0:0:0:0:
180,90,12246,2,0,P|229:85|172:134,1,170,12|0,0:0|1:0,0:0:0:0:
42,39,12703,5,0,0:0:0:0:
91,120,12855,1,10,0:0:0:0:
33,195,13007,1,0,0:0:0:0:
64,28,13160,5,0,1:0:0:0:
17,215,13312,2,0,P|69:205|141:237,1,127.5
186,289,13617,2,0,P|178:215|282:221,1,165.749992412568,4|0,1:2|0:0,0:0:0:0:
308,240,13921,5,0,1:0:0:0:
178,314,14073,1,10,0:0:0:0:
173,157,14226,1,0,0:0:0:0:
304,352,14378,5,0,1:0:0:0:
67,294,14530,1,0,0:0:0:0:
386,166,14682,2,0,P|387:225|334:169,1,170,10|4,0:0|1:0,0:0:0:0:
503,33,15139,5,0,0:0:0:0:
411,52,15292,1,12,0:0:0:0:
320,75,15444,1,0,0:0:0:0:
506,107,15596,6,0,P|456:68|402:67,1,85,0|0,1:0|0:0,0:0:0:0:
308,55,15901,1,8,3:2:0:0:
402,291,16053,2,0,P|435:235|410:142,1,127.5,4|0,1:2|0:0,0:0:0:0:
410,157,16358,5,0,1:0:0:0:
501,329,16510,1,12,0:0:0:0:
423,376,16662,1,0,0:0:0:0:
264,221,16814,5,0,1:0:0:0:
423,290,16967,1,0,0:0:0:0:
137,343,17119,1,8,3:2:0:0:
83,199,17271,2,0,P|89:183|99:165,2,28.3333333333333
151,215,17424,5,0,1:0:0:0:
7,270,17576,1,0,0:0:0:0:
31,131,17728,1,4,1:0:0:0:
165,229,17880,5,0,0:0:0:0:
326,246,18033,1,0,1:0:0:0:
230,357,18185,1,0,0:0:0:0:
153,242,18337,5,10,0:0:0:0:
217,32,18490,2,0,P|243:84|236:163,1,127.5,4|0,1:3|0:0,0:0:0:0:
223,178,18794,1,0,0:0:0:0:
437,29,18946,1,8,0:0:0:0:
411,149,19099,1,0,0:0:0:0:
332,23,19251,5,2,1:3:0:0:
493,156,19403,1,0,0:0:0:0:
280,241,19556,1,8,0:0:0:0:
367,314,19708,2,0,P|380:286|386:255,1,42.5
352,200,19860,1,4,1:0:0:0:
492,359,20012,5,0,0:0:0:0:
447,229,20165,1,10,0:0:0:0:
362,337,20317,1,0,0:0:0:0:
505,347,20469,5,0,1:0:0:0:
345,349,20622,1,0,0:0:0:0:
239,227,20774,1,12,0:0:0:0:
505,347,20926,2,0,P|450:315|408:317,1,85,4|0,1:2|0:0,0:0:0:0:
303,353,21231,6,0,P|279:346|262:336,1,42.5,0|0,1:0|0:0,0:0:0:0:
121,238,21383,2,0,P|145:231|163:222,1,42.5,10|0,0:0|0:0,0:0:0:0:
229,94,21535,1,0,0:0:0:0:
168,334,21688,5,0,1:0:0:0:
319,216,21840,1,0,0:0:0:0:
133,58,21992,2,0,P|122:118|107:177,1,85,12|0,0:0|0:0,0:0:0:0:
50,172,22221,1,0,0:0:0:0:
0,117,22297,1,0,1:0:0:0:
254,171,22449,5,0,0:0:0:0:
117,214,22601,1,10,0:0:0:0:
257,259,22754,1,0,0:0:0:0:
130,227,22906,5,0,1:0:0:0:
269,271,23058,1,0,0:0:0:0:
181,368,23210,1,12,0:0:0:0:
32,331,23363,2,0,P|78:307|126:312,1,85,4|0,1:2|0:0,0:0:0:0:
278,254,23667,6,0,P|289:271|296:294,1,42.5,0|0,1:0|0:0,0:0:0:0:
110,150,23820,2,0,P|102:170|98:203,1,42.5,10|0,0:0|0:0,0:0:0:0:
304,54,23972,1,0,0:0:0:0:
222,302,24124,5,0,1:0:0:0:
17,194,24276,1,0,0:0:0:0:
362,109,24429,2,0,P|327:149|307:70,1,170,10|4,0:0|1:0,0:0:0:0:
508,257,24886,5,0,0:0:0:0:
357,237,25038,1,12,0:0:0:0:
508,257,25190,1,0,0:0:0:0:
283,353,25342,5,0,1:0:0:0:
434,308,25495,1,0,0:0:0:0:
283,353,25647,1,8,3:2:0:0:
499,360,25799,2,0,P|454:333|388:333,1,85,4|0,1:0|0:0,0:0:0:0:
260,349,26104,2,0,P|249:324|242:299,1,42.5,0|0,1:0|0:0,0:0:0:0:
417,196,26256,2,0,P|405:219|392:243,1,42.5,12|0,0:0|0:0,0:0:0:0:
147,297,26408,2,0,P|149:274|156:246,1,42.5
246,91,26561,6,0,P|251:113|257:144,1,42.5,0|0,1:0|0:0,0:0:0:0:
336,340,26713,2,0,L|350:287,1,42.5
475,132,26865,2,0,P|420:109|368:134,1,85,8|0,3:2|0:0,0:0:0:0:
389,120,27068,1,0,0:0:0:0:
381,129,27119,1,0,0:0:0:0:
377,138,27170,5,4,1:0:0:0:
490,217,27322,1,0,0:0:0:0:
356,224,27474,1,4,1:3:0:0:
422,267,27626,1,0,0:0:0:0:
278,259,27779,1,4,1:0:0:0:
415,349,27931,1,0,0:0:0:0:
272,96,28084,1,10,0:0:0:0:
487,296,28236,6,0,P|423:263|342:300,1,127.5,4|0,1:3|0:0,0:0:0:0:
351,295,28540,1,0,0:0:0:0:
376,142,28693,1,4,1:0:0:0:
241,351,28845,1,0,0:0:0:0:
258,346,28921,1,0,0:0:0:0:
274,338,28997,1,6,1:3:0:0:
423,211,29150,1,8,1:3:0:0:
150,294,29302,1,8,0:0:0:0:
342,382,29454,1,8,1:3:0:0:
64,198,29606,6,0,P|74:243|82:293,1,68,4|0,3:2|0:0,0:0:0:0:
303,227,29911,2,0,P|254:233|220:241,1,68,8|8,0:3|0:0,0:0:0:0:
140,345,30215,1,0,3:0:0:0:
140,345,30368,1,0,0:0:0:0:
166,189,30520,1,8,0:3:0:0:
360,172,30672,6,0,L|322:316,1,136,0|2,3:0|3:0,0:0:0:0:
459,171,31129,2,0,P|445:117|434:82,1,68,8|0,0:3|0:0,0:0:0:0:
298,86,31434,1,0,3:0:0:0:
298,86,31586,1,0,3:0:0:0:
512,243,31738,2,0,P|473:209|396:221,1,102,8|0,0:3|0:0,0:0:0:0:
383,190,32043,6,0,P|396:260|399:282,1,68,0|0,3:0|0:0,0:0:0:0:
287,356,32347,2,0,P|294:314|300:283,1,68,8|0,0:3|0:0,0:0:0:0:
232,183,32652,1,0,3:0:0:0:
232,183,32804,1,8,0:0:0:0:
385,349,32957,1,8,0:3:0:0:
131,358,33109,6,0,P|150:285|164:223,1,136,0|2,3:0|3:0,0:0:0:0:
66,113,33566,2,0,L|92:198,1,68,8|8,0:3|0:0,0:0:0:0:
245,274,33870,1,0,3:0:0:0:
222,106,34023,2,0,L|211:146,1,34,0|0,3:0|3:0,0:0:0:0:
155,90,34175,6,0,P|207:67|287:123,1,127.5,12|0,0:1|0:0,0:0:0:0:
346,105,34479,2,0,P|386:57|294:38,1,165.749992412568,4|0,1:2|0:0,0:0:0:0:
240,41,34784,1,10,0:0:0:0:
318,186,34936,1,0,0:0:0:0:
456,110,35089,1,4,0:3:0:0:
456,110,35241,1,0,0:0:0:0:
424,323,35393,1,10,0:1:0:0:
328,198,35545,2,0,L|415:187,1,68,8|0,0:3|0:0,0:0:0:0:
489,344,35850,5,8,0:3:0:0:
418,306,36002,2,0,L|326:319,1,68,8|0,0:0|0:0,0:0:0:0:
194,246,36307,2,0,L|211:332,1,68,0|0,1:0|0:0,0:0:0:0:
202,108,36611,6,0,P|212:166|273:119,1,152.999995330811,10|0,0:0|0:0,0:0:0:0:
301,114,36916,6,0,L|287:208,1,68,4|0,1:0|0:0,0:0:0:0:
260,35,37221,1,10,0:1:0:0:
389,184,37373,2,0,L|353:262,1,68,0|4,0:0|0:3,0:0:0:0:
472,96,37677,2,0,L|480:151,1,34
490,200,37830,1,10,0:0:0:0:
389,35,37982,6,0,P|447:19|477:96,1,136,4|0,1:2|1:0,0:0:0:0:
455,162,38439,5,8,0:0:0:0:
367,178,38591,5,0,0:0:0:0:
291,139,38743,5,8,0:3:0:0:
219,227,38896,5,0,3:0:0:0:
153,88,39048,5,2,3:0:0:0:
50,284,39200,6,0,L|11:272,1,34,2|2,0:3|0:3,0:0:0:0:
0,258,39353,6,0,L|20:346,1,68,4|0,3:2|0:0,0:0:0:0:
228,315,39657,2,0,L|137:325,1,68,8|8,0:3|0:0,0:0:0:0:
113,231,39962,1,0,3:0:0:0:
113,231,40114,1,0,0:0:0:0:
314,349,40266,1,8,0:3:0:0:
222,178,40419,6,0,L|247:321,1,136,0|2,3:0|3:0,0:0:0:0:
331,81,40875,2,0,L|309:156,1,68,8|0,0:3|0:0,0:0:0:0:
175,54,41180,1,0,3:0:0:0:
175,54,41332,1,0,3:0:0:0:
324,245,41485,2,0,P|365:225|437:230,1,102,8|0,0:3|0:0,0:0:0:0:
456,221,41789,6,0,P|439:266|432:291,1,68,0|0,3:0|0:0,0:0:0:0:
372,384,42094,2,0,P|357:342|345:306,1,68,8|0,0:3|0:0,0:0:0:0:
279,231,42398,1,0,3:0:0:0:
279,231,42551,1,8,0:0:0:0:
494,339,42703,1,8,0:3:0:0:
480,142,42855,6,0,P|414:157|331:176,1,136,0|2,3:0|3:0,0:0:0:0:
249,74,43312,2,0,L|331:97,1,68,8|8,0:3|0:0,0:0:0:0:
380,249,43617,1,0,3:0:0:0:
195,265,43769,2,0,L|240:254,1,34,0|0,3:0|3:0,0:0:0:0:
224,331,43921,6,0,P|263:290|224:211,1,152.999995330811,12|0,0:1|0:0,0:0:0:0:
163,178,44226,2,0,P|150:105|240:118,1,178.499994552612,4|0,1:2|0:0,0:0:0:0:
262,182,44530,1,10,0:0:0:0:
93,254,44682,1,0,0:0:0:0:
35,94,44835,1,4,0:3:0:0:
35,94,44987,1,0,0:0:0:0:
41,327,45139,1,10,0:1:0:0:
134,183,45292,2,0,L|217:198,1,68,8|0,0:3|0:0,0:0:0:0:
277,294,45596,5,8,0:3:0:0:
212,341,45748,2,0,L|140:353,1,68,8|0,0:0|0:0,0:0:0:0:
355,184,46053,2,0,L|374:271,1,68,0|0,1:0|0:0,0:0:0:0:
492,294,46358,6,0,P|455:249|378:284,1,152.999995330811,10|0,0:0|0:0,0:0:0:0:
368,307,46662,6,0,L|390:228,1,68,4|0,1:0|0:0,0:0:0:0:
401,53,46967,1,10,0:1:0:0:
512,187,47119,2,0,L|427:166,1,68,0|4,0:0|0:3,0:0:0:0:
299,95,47424,1,0,0:0:0:0:
510,92,47576,1,10,0:0:0:0:
321,205,47728,6,0,P|270:191|278:120,1,136,4|0,1:2|1:0,0:0:0:0:
355,90,48185,5,8,0:0:0:0:
422,146,48337,5,0,0:0:0:0:
331,220,48490,5,0,1:0:0:0:
465,251,48642,5,0,3:0:0:0:
214,296,48794,5,2,3:0:0:0:
504,340,48946,5,2,0:3:0:0:
75,338,49099,6,0,P|111:327|157:316,1,68,4|0,0:2|0:0,0:0:0:0:
328,315,49403,1,2,0:0:0:0:
224,378,49556,1,0,0:0:0:0:
173,201,49708,2,0,L|264:227,1,68,4|0,0:0|0:0,0:0:0:0:
339,166,50012,1,2,0:0:0:0:
151,123,50165,6,0,L|109:263,1,136,2|0,0:0|0:0,0:0:0:0:
249,118,50622,2,0,L|229:45,1,68,2|0,0:0|0:0,0:0:0:0:
43,119,50926,2,0,L|20:193,1,68,4|4,0:0|0:0,0:0:0:0:
242,309,51231,2,0,L|222:239,1,68,2|0,0:0|0:0,0:0:0:0:
32,304,51535,5,4,0:0:0:0:
111,326,51688,1,0,0:0:0:0:
165,167,51840,5,2,0:0:0:0:
141,242,51992,1,0,0:0:0:0:
322,232,52144,5,4,0:0:0:0:
247,197,52297,1,4,0:0:0:0:
281,344,52449,5,2,0:0:0:0:
356,96,52601,1,2,0:0:0:0:
471,209,52754,5,4,0:0:0:0:
454,125,52906,1,0,0:0:0:0:
391,27,53058,5,2,0:0:0:0:
374,109,53210,1,0,0:0:0:0:
299,233,53363,5,2,0:0:0:0:
298,147,53515,2,0,L|285:108,1,34,4|4,0:0|0:0,0:0:0:0:
274,86,53667,2,0,L|251:166,1,68,4|0,1:0|0:0,0:0:0:0:
205,251,53972,5,6,0:0:0:0:
205,251,54124,1,0,0:0:0:0:
138,197,54276,1,8,0:0:0:0:
138,197,54429,1,2,0:2:0:0:
58,238,54581,1,2,0:0:0:0:
58,238,54733,1,0,0:0:0:0:
0,151,54886,1,8,0:0:0:0:
142,349,55038,6,0,L|286:309,1,136,4|0,1:0|0:0,0:0:0:0:
430,214,55495,2,0,P|373:191|353:185,1,68,8|2,0:0|0:2,0:0:0:0:
379,338,55799,1,2,0:0:0:0:
379,338,55952,1,2,0:0:0:0:
271,220,56104,1,8,0:0:0:0:
271,220,56256,1,2,0:2:0:0:
478,149,56408,5,4,1:2:0:0:
419,237,56561,1,2,0:2:0:0:
371,136,56713,2,0,L|379:91,1,34,10|0,0:1|0:0,0:0:0:0:
488,161,56865,1,2,0:0:0:0:
339,271,57018,5,8,0:3:0:0:
196,160,57170,1,0,0:0:0:0:
376,102,57322,2,0,L|418:114,1,34,8|0,0:0|0:0,0:0:0:0:
329,285,57474,2,0,L|254:296,1,68,4|0,1:2|0:0,0:0:0:0:
83,221,57779,2,0,L|125:228,2,22.6666666666667,0|0|0,3:0|0:0|0:0,0:0:0:0:
47,215,57931,5,8,0:0:0:0:
167,290,58084,1,2,0:0:0:0:
86,303,58236,5,0,1:0:0:0:
224,231,58388,1,0,1:0:0:0:
7,294,58540,5,8,0:0:0:0:
146,364,58693,2,0,L|186:370,1,34,0|0,0:3|0:3,0:0:0:0:
209,361,58845,6,0,P|247:351|288:342,1,68,4|0,0:2|0:0,0:0:0:0:
347,228,59150,1,2,0:0:0:0:
372,359,59302,1,0,0:0:0:0:
470,195,59454,2,0,L|450:286,1,68,4|0,0:0|0:0,0:0:0:0:
502,349,59759,1,2,0:0:0:0:
241,271,59911,6,0,L|388:246,1,136,2|0,0:0|0:0,0:0:0:0:
508,193,60368,2,0,L|432:174,1,68,2|0,0:0|0:0,0:0:0:0:
221,120,60672,2,0,L|297:103,1,68,4|4,0:0|0:0,0:0:0:0:
499,20,60977,2,0,L|421:10,1,68,2|0,0:0|0:0,0:0:0:0:
357,165,61281,5,4,0:0:0:0:
391,92,61434,1,0,0:0:0:0:
324,288,61586,5,2,0:0:0:0:
287,214,61738,1,0,0:0:0:0:
384,363,61891,5,4,0:0:0:0:
409,284,62043,1,4,0:0:0:0:
501,362,62195,5,2,0:0:0:0:
188,308,62347,1,2,0:0:0:0:
125,189,62500,5,4,0:0:0:0:
200,177,62652,1,0,0:0:0:0:
329,133,62804,5,2,0:0:0:0:
253,110,62957,1,0,0:0:0:0:
152,20,63109,5,2,0:0:0:0:
182,93,63261,2,0,L|222:79,1,34,4|4,0:0|0:0,0:0:0:0:
250,69,63413,2,0,L|157:60,1,68,4|0,1:0|0:0,0:0:0:0:
34,68,63718,5,4,1:0:0:0:
34,68,63870,1,0,0:0:0:0:
96,146,64023,1,10,0:0:0:0:
96,146,64175,1,0,0:0:0:0:
37,229,64327,1,0,1:0:0:0:
37,229,64479,1,0,0:0:0:0:
91,308,64632,1,8,0:0:0:0:
199,119,64784,6,0,P|183:184|163:272,1,136,4|0,1:2|0:0,0:0:0:0:
352,362,65241,2,0,P|345:318|339:284,1,68,8|0,0:0|0:0,0:0:0:0:
418,165,65545,1,8,0:3:0:0:
226,342,65698,1,2,0:1:0:0:
508,327,65850,1,8,0:0:0:0:
480,279,65926,1,0,0:0:0:0:
432,253,66002,1,2,0:0:0:0:
377,250,66078,1,0,0:0:0:0:
325,269,66155,6,0,L|318:315,1,34,4|0,1:0|0:0,0:0:0:0:
410,371,66307,2,0,L|420:330,1,34,0|0,3:0|0:0,0:0:0:0:
226,342,66459,1,0,3:0:0:0:
247,176,66611,6,0,L|255:210,1,34,4|0,1:2|0:0,0:0:0:0:
409,259,66764,2,0,L|413:223,1,34,0|0,3:0|0:0,0:0:0:0:
136,280,66916,1,0,3:0:0:0:
162,108,67068,6,0,L|165:153,1,34,4|0,1:0|0:0,0:0:0:0:
380,158,67221,2,0,L|392:125,1,34
35,288,67373,1,0,3:0:0:0:
94,41,67525,5,4,1:2:0:0:
81,56,67601,2,0,P|76:78|75:105,1,34
131,363,67830,2,0,P|139:344|148:324,1,34,0|0,3:0|0:0,0:0:0:0:
225,251,67982,6,0,P|206:238|188:229,1,34,4|0,1:0|0:0,0:0:0:0:
393,315,68134,1,0,3:0:0:0:
417,310,68210,1,0,3:0:0:0:
431,298,68287,2,0,P|436:251|373:228,1,102,4|0,1:2|0:0,0:0:0:0:
318,215,68591,6,0,P|353:201|446:253,1,140.25000428009,4|0,1:2|0:0,0:0:0:0:
480,248,68896,2,0,L|468:303,1,46.7500014266968,10|0,0:1|0:0,0:0:0:0:
192,353,69048,1,0,0:0:0:0:
211,203,69200,1,0,3:0:0:0:
366,288,69353,1,0,0:0:0:0:
98,297,69505,2,0,L|148:285,1,46.7500014266968,8|0,0:0|0:0,0:0:0:0:
398,202,69657,2,0,L|345:195,1,46.7500014266968,2|0,0:0|0:0,0:0:0:0:
29,345,69809,6,0,P|91:323|117:221,1,152.999995330811,0|0,1:0|0:0,0:0:0:0:
75,184,70114,2,0,P|83:159|96:129,1,50.9999984436036,8|0,0:0|0:0,0:0:0:0:
241,112,70266,5,0,0:0:0:0:
7,130,70419,1,8,0:3:0:0:
214,258,70571,1,2,0:1:0:0:
149,91,70723,6,0,P|158:154|235:124,1,165.749992412568,8|0,0:1|0:0,0:0:0:0:
268,64,71028,6,0,B|238:134|238:134|253:176|253:176|224:269,1,191.250007295609,0|0,3:0|0:0,0:0:0:0:
202,313,71332,5,10,0:0:0:0:
202,313,71485,1,0,0:0:0:0:
74,181,71637,1,4,0:3:0:0:
327,130,71789,1,0,0:0:0:0:
119,272,71941,2,0,L|57:257,1,50.9999984436036,8|0,0:0|0:0,0:0:0:0:
74,181,72094,2,0,L|12:192,1,50.9999984436036,0|0,3:0|0:0,0:0:0:0:
341,341,72246,6,0,B|299:280|299:280|255:315|159:314,1,178.499994552612,0|0,1:0|0:0,0:0:0:0:
178,335,72551,6,0,P|215:287|259:301,1,101.999996887207,8|0,0:0|0:0,0:0:0:0:
431,358,72855,1,0,1:0:0:0:
400,201,73007,2,0,L|374:263,1,50.9999984436036,0|0,3:0|3:0,0:0:0:0:
333,176,73160,6,0,P|408:146|414:234,1,191.250007295609,12|0,1:0|0:0,0:0:0:0:
451,261,73464,6,0,L|441:102,1,140.25000428009,4|0,1:0|0:0,0:0:0:0:
436,80,73769,1,10,0:0:0:0:
203,190,73921,1,8,0:0:0:0:
317,138,74073,1,2,1:3:0:0:
171,92,74226,2,0,L|123:97,1,46.7500014266968,2|0,0:3|0:0,0:0:0:0:
319,159,74378,2,0,L|368:172,1,46.7500014266968,8|0,0:3|0:0,0:0:0:0:
116,179,74530,6,0,P|64:155|45:61,1,140.25000428009,4|0,1:0|0:0,0:0:0:0:
63,38,74835,1,2,0:0:0:0:
104,272,74987,1,8,0:0:0:0:
241,131,75139,1,4,0:0:0:0:
123,277,75292,2,0,L|134:331,1,46.7500014266968,0|0,1:0|0:0,0:0:0:0:
261,146,75444,2,0,L|275:95,1,46.7500014266968,2|0,0:0|0:0,0:0:0:0:
233,381,75596,2,0,B|259:325|259:325|223:264,1,127.500004863739,4|0,1:2|0:0,0:0:0:0:
187,205,75825,1,0,0:0:0:0:
206,195,75901,6,0,L|305:218,1,93.5000028533936,4|0,1:0|0:0,0:0:0:0:
373,153,76205,2,0,L|431:138,1,46.7500014266968,12|0,0:0|0:0,0:0:0:0:
494,355,76358,2,0,L|441:338,1,46.7500014266968,8|0,0:0|0:0,0:0:0:0:
298,130,76510,2,0,L|285:72,1,46.7500014266968,2|0,3:0|0:0,0:0:0:0:
512,224,76662,2,0,L|486:285,1,46.7500014266968,2|0,0:3|0:0,0:0:0:0:
382,63,76814,2,0,L|391:17,1,46.7500014266968,10|0,0:3|0:0,0:0:0:0:
420,271,76967,6,0,P|397:327|276:346,1,187.000005706787,4|2,1:2|0:3,0:0:0:0:
129,205,77424,5,8,0:3:0:0:
286,166,77576,2,0,L|334:173,1,46.7500014266968,4|0,1:0|0:0,0:0:0:0:
43,155,77728,5,2,0:3:0:0:
326,269,77880,1,2,0:3:0:0:
33,368,78033,1,4,1:2:0:0:
34,313,78109,1,8,0:3:0:0:
67,267,78185,1,8,0:3:0:0:
116,240,78261,1,8,0:3:0:0:
170,226,78337,6,0,P|213:172|202:88,1,140.25000428009,4|0,1:2|0:0,0:0:0:0:
171,82,78642,2,0,P|174:58|181:30,1,46.7500014266968,10|0,0:1|0:0,0:0:0:0:
359,93,78794,1,0,0:0:0:0:
134,144,78946,1,0,3:0:0:0:
315,214,79099,1,0,0:0:0:0:
303,28,79251,6,0,L|317:90,1,46.7500014266968,8|0,0:0|0:0,0:0:0:0:
385,328,79403,2,0,L|393:273,1,46.7500014266968,2|0,0:0|0:0,0:0:0:0:
512,33,79556,6,0,P|448:33|376:122,1,152.999995330811,0|0,1:0|0:0,0:0:0:0:
339,151,79860,2,0,P|345:172|358:210,1,50.9999984436036,8|0,0:0|0:0,0:0:0:0:
500,238,80012,1,0,0:0:0:0:
235,255,80165,1,8,0:3:0:0:
427,160,80317,1,2,0:1:0:0:
285,360,80469,2,0,L|257:256,1,93.5000028533936,8|0,0:1|0:0,0:0:0:0:
137,160,80774,6,0,P|170:97|293:130,1,165.749992412568,0|0,3:0|0:0,0:0:0:0:
287,77,81078,6,0,P|331:114|325:163,1,93.5000028533936,10|0,0:0|0:0,0:0:0:0:
146,300,81383,1,4,0:3:0:0:
227,168,81535,1,0,0:0:0:0:
124,313,81688,2,0,L|75:304,1,46.7500014266968,8|0,0:0|0:0,0:0:0:0:
242,184,81840,2,0,L|289:178,1,46.7500014266968,0|0,3:0|0:0,0:0:0:0:
62,108,81992,5,0,1:0:0:0:
274,252,82144,1,2,0:0:0:0:
11,364,82297,2,0,L|-3:311,1,46.7500014266968,8|0,0:0|0:0,0:0:0:0:
25,249,82449,2,0,L|120:245,1,93.5000028533936,0|0,0:0|1:0,0:0:0:0:
452,379,82754,1,0,3:0:0:0:
483,314,82830,1,0,3:0:0:0:
456,248,82906,2,0,B|361:270|361:270|321:320,1,140.25000428009,12|0,1:0|0:0,0:0:0:0:
304,368,83210,5,4,1:0:0:0:
327,157,83363,1,0,0:0:0:0:
406,338,83515,1,10,0:0:0:0:
164,220,83667,2,0,L|268:230,1,93.5000028533936,8|2,0:0|1:3,0:0:0:0:
178,354,83972,1,2,0:3:0:0:
102,115,84124,1,8,0:3:0:0:
43,271,84276,2,0,L|138:246,2,93.5000028533936,4|0|2,1:0|0:0|0:0,0:0:0:0:
3,168,84733,5,8,0:0:0:0:
129,353,84886,1,4,0:0:0:0:
220,88,85038,1,0,1:0:0:0:
243,85,85190,1,2,0:0:0:0:
316,374,85342,1,4,1:0:0:0:
346,365,85495,1,8,0:0:0:0:
185,171,85647,5,4,1:2:0:0:
365,151,85799,1,8,0:0:0:0:
106,208,85952,5,12,1:0:0:0:
371,286,86104,1,8,0:0:0:0:
0,137,86256,6,0,L|53:151,1,46.7500014266968,8|8,1:0|0:3,0:0:0:0:
321,222,86408,2,0,L|249:238,1,46.7500014266968,8|8,1:0|0:3,0:0:0:0:
45,327,86561,2,0,L|128:308,1,46.7500014266968,8|8,1:0|0:3,0:0:0:0:
346,365,86713,1,4,1:2:0:0:
422,370,87018,5,8,1:0:0:0:
422,370,87170,2,0,P|480:358|468:301,1,118.999996368408,8|0,1:0|0:0,0:0:0:0:
491,237,87627,5,0,3:0:0:0:
491,237,87703,1,0,3:0:0:0:
491,237,87779,2,0,B|455:210|455:210|369:223,1,127.5,12|8,1:0|0:0,0:0:0:0:
336,215,88084,5,4,1:0:0:0:
366,41,88388,1,10,0:0:0:0:
336,215,88693,5,0,1:0:0:0:
292,152,88845,1,0,0:0:0:0:
297,75,88997,1,12,0:0:0:0:
366,41,89150,1,4,1:2:0:0:
229,49,89302,5,0,0:0:0:0:
297,75,89454,1,0,1:0:0:0:
166,83,89606,5,10,0:0:0:0:
229,49,89759,1,0,0:0:0:0:
96,56,89911,5,0,1:0:0:0:
166,83,90063,1,0,0:0:0:0:
28,94,90215,5,12,0:0:0:0:
108,154,90368,2,0,L|100:121,2,25.4999992218018
92,194,90520,5,0,1:0:0:0:
82,246,90672,1,0,0:0:0:0:
68,297,90825,1,10,0:0:0:0:
196,334,91129,5,0,1:0:0:0:
177,256,91281,1,0,0:0:0:0:
164,178,91434,1,12,0:0:0:0:
291,103,91738,5,0,0:0:0:0:
279,192,91891,1,0,1:0:0:0:
412,282,92043,5,10,0:0:0:0:
371,199,92195,1,0,0:0:0:0:
177,256,92347,5,0,1:0:0:0:
289,281,92500,1,0,0:0:0:0:
371,199,92652,1,10,0:0:0:0:
253,168,92804,2,0,L|239:142,2,25.4999992218018
268,205,92957,5,0,1:0:0:0:
469,223,93261,1,12,0:0:0:0:
268,205,93566,5,0,1:0:0:0:
371,199,93718,1,0,0:0:0:0:
469,223,93870,1,8,3:2:0:0:
310,99,94175,5,0,0:0:0:0:
315,119,94327,1,0,1:0:0:0:
371,199,94479,5,12,0:0:0:0:
365,220,94632,1,0,0:0:0:0:
302,310,94784,5,0,1:0:0:0:
315,324,94936,1,0,0:0:0:0:
445,347,95089,5,8,3:2:0:0:
460,334,95241,2,0,L|491:351,2,25.4999992218018
419,315,95393,5,0,1:0:0:0:
315,324,95545,1,0,0:0:0:0:
211,338,95698,1,4,1:0:0:0:
82,240,96002,5,0,1:0:0:0:
165,247,96154,1,0,0:0:0:0:
249,258,96307,1,10,0:0:0:0:
262,112,96611,5,0,0:0:0:0:
216,178,96764,1,0,0:0:0:0:
316,178,96916,5,8,0:0:0:0:
271,98,97068,1,0,0:0:0:0:
366,82,97221,5,2,1:3:0:0:
324,192,97373,1,0,0:0:0:0:
182,86,97525,1,8,0:0:0:0:
203,54,97601,1,0,0:0:0:0:
226,24,97677,1,8,0:0:0:0:
264,18,97754,1,0,0:0:0:0:
302,16,97830,5,4,1:0:0:0:
132,19,97982,1,0,0:0:0:0:
247,170,98134,2,0,L|275:85,1,76.4999976654053,10|0,0:0|0:0,0:0:0:0:
48,147,98439,5,0,1:0:0:0:
132,19,98591,1,0,0:0:0:0:
163,156,98743,1,12,0:0:0:0:
169,178,98896,1,4,1:2:0:0:
298,263,99048,5,0,0:0:0:0:
151,349,99200,1,0,1:0:0:0:
196,250,99353,1,10,0:0:0:0:
221,255,99505,1,0,0:0:0:0:
31,324,99657,5,0,1:0:0:0:
123,240,99809,1,0,0:0:0:0:
246,340,99962,1,12,0:0:0:0:
103,245,100114,2,0,L|69:237,2,25.4999992218018
103,168,100266,5,0,1:0:0:0:
270,189,100419,1,0,0:0:0:0:
14,112,100571,2,0,L|24:193,1,76.4999976654053,10|0,0:0|0:0,0:0:0:0:
306,55,100875,5,0,1:0:0:0:
270,189,101028,1,0,0:0:0:0:
410,140,101180,1,12,0:0:0:0:
384,143,101332,1,4,1:2:0:0:
195,233,101485,5,0,0:0:0:0:
271,345,101637,1,0,1:0:0:0:
367,252,101789,1,10,0:0:0:0:
340,244,101941,1,0,0:0:0:0:
187,323,102094,5,0,1:0:0:0:
425,343,102246,1,0,0:0:0:0:
488,140,102398,1,10,0:0:0:0:
399,348,102551,2,0,L|371:340,2,25.4999992218018
406,271,102703,5,4,1:0:0:0:
271,345,102855,1,0,0:0:0:0:
512,221,103007,2,0,L|494:308,1,76.4999976654053,12|0,0:0|0:0,0:0:0:0:
212,211,103312,5,0,1:0:0:0:
271,345,103464,1,0,0:0:0:0:
317,163,103617,1,8,3:2:0:0:
314,183,103769,1,0,1:0:0:0:
344,250,103921,6,0,P|287:216|207:250,1,152.999995330811,0|12,0:0|0:0,0:0:0:0:
46,174,104378,1,0,0:0:0:0:
142,270,104530,2,0,B|162:240|162:240|156:169,1,76.4999976654053,0|0,1:0|0:0,0:0:0:0:
4,60,104835,2,0,L|-3:103,1,38.2499988327027,8|0,3:2|0:0,0:0:0:0:
70,320,104987,2,0,L|58:259,1,38.2499988327027
129,100,105139,5,4,1:0:0:0:
154,77,105292,1,0,0:0:0:0:
186,74,105444,1,2,0:0:0:0:
256,127,105596,5,4,1:3:0:0:
283,124,105748,1,0,0:0:0:0:
305,110,105901,1,0,0:0:0:0:
346,38,106053,5,4,1:0:0:0:
364,24,106205,1,0,1:0:0:0:
385,24,106358,1,0,0:0:0:0:
460,53,106510,5,4,1:3:0:0:
477,50,106662,1,0,1:0:0:0:
486,39,106814,1,0,1:0:0:0:
508,118,106967,5,4,1:0:0:0:
505,130,107119,1,8,1:3:0:0:
424,130,107271,5,4,1:3:0:0:
429,142,107424,1,8,1:3:0:0:
460,214,107576,6,0,P|469:247|476:297,1,76.4999976654053,4|0,3:2|0:0,0:0:0:0:
269,173,107880,2,0,L|355:161,1,76.4999976654053,8|8,0:3|0:0,0:0:0:0:
186,247,108185,1,0,3:0:0:0:
186,247,108337,1,0,0:0:0:0:
216,83,108490,1,8,0:3:0:0:
397,293,108642,6,0,P|356:258|252:295,1,152.999995330811,0|2,3:0|3:0,0:0:0:0:
123,353,109099,2,0,L|108:275,1,76.4999976654053,8|0,0:3|0:0,0:0:0:0:
35,120,109403,1,0,3:0:0:0:
35,120,109556,1,0,3:0:0:0:
112,185,109708,2,0,P|154:195|202:207,1,76.4999976654053,8|0,0:3|0:0,0:0:0:0:
274,125,110012,5,0,3:0:0:0:
335,303,110165,1,0,0:0:0:0:
432,163,110317,2,0,P|380:170|344:176,1,76.4999976654053,8|0,0:3|0:0,0:0:0:0:
241,38,110622,2,0,L|345:56,1,76.4999976654053,0|8,3:0|0:0,0:0:0:0:
270,218,110926,1,8,0:3:0:0:
418,16,111078,6,0,P|407:67|441:176,1,152.999995330811,0|2,3:0|3:0,0:0:0:0:
359,257,111535,2,0,L|445:244,1,76.4999976654053,8|8,0:3|0:0,0:0:0:0:
340,165,111840,1,0,3:0:0:0:
199,260,111992,2,0,L|221:300,1,38.2499988327027,0|0,3:0|3:0,0:0:0:0:
290,320,112144,6,0,P|270:272|166:272,1,152.999995330811,12|0,0:1|0:0,0:0:0:0:
105,275,112449,2,0,P|65:207|143:152,1,178.499994552612,4|0,1:2|0:0,0:0:0:0:
219,201,112754,1,10,0:0:0:0:
20,323,112906,1,0,0:0:0:0:
11,115,113058,1,4,0:3:0:0:
11,115,113210,1,0,0:0:0:0:
115,354,113363,1,10,0:1:0:0:
218,116,113515,6,0,P|167:143|102:71,1,152.999995330811,8|8,0:3|0:3,0:0:0:0:
61,188,113972,2,0,P|75:234|87:273,1,76.4999976654053,8|0,0:0|0:0,0:0:0:0:
253,204,114276,1,0,1:0:0:0:
253,204,114429,1,0,0:0:0:0:
396,280,114581,6,0,B|356:263|327:238|327:238|301:271|256:286,1,165.749992412568,10|0,0:0|0:0,0:0:0:0:
232,284,114886,6,0,P|244:325|254:370,1,76.4999976654053,4|0,1:0|0:0,0:0:0:0:
398,198,115190,1,12,0:0:0:0:
481,374,115342,2,0,P|499:331|417:288,1,152.999995330811
334,337,115799,5,10,0:0:0:0:
253,204,115952,2,0,L|347:184,1,76.4999976654053,4|0,1:2|0:0,0:0:0:0:
154,286,116256,1,0,1:0:0:0:
190,95,116408,1,8,0:0:0:0:
172,145,116561,5,0,0:0:0:0:
144,72,116713,5,8,0:3:0:0:
116,199,116865,5,0,3:0:0:0:
75,35,117018,6,0,L|87:-1,1,38.2499988327027,2|0,3:0|0:0,0:0:0:0:
34,245,117170,6,0,L|50:296,1,38.2499988327027,2|2,0:3|0:3,0:0:0:0:
172,145,117322,6,0,L|74:162,1,76.4999976654053,4|0,3:2|0:0,0:0:0:0:
271,250,117627,2,0,P|259:298|249:337,1,76.4999976654053,8|8,0:3|0:0,0:0:0:0:
291,142,117931,1,0,3:0:0:0:
291,142,118084,1,0,0:0:0:0:
161,279,118236,1,8,0:3:0:0:
432,197,118388,6,0,P|393:227|368:328,1,152.999995330811,0|2,3:0|3:0,0:0:0:0:
435,80,118845,2,0,P|485:104|526:104,1,76.4999976654053,8|0,0:3|0:0,0:0:0:0:
334,137,119150,1,0,3:0:0:0:
334,137,119302,1,0,3:0:0:0:
432,197,119454,2,0,L|523:187,1,76.4999976654053,8|0,0:3|0:0,0:0:0:0:
292,252,119759,5,0,3:0:0:0:
445,300,119911,1,0,0:0:0:0:
205,334,120063,2,0,P|212:280|217:243,1,76.4999976654053,8|0,0:3|0:0,0:0:0:0:
150,178,120368,1,0,3:0:0:0:
150,178,120520,1,8,0:0:0:0:
352,115,120672,1,8,0:3:0:0:
69,143,120825,6,0,P|101:179|123:304,1,152.999995330811,0|2,3:0|3:0,0:0:0:0:
53,23,121281,2,0,P|20:48|-4:95,1,76.4999976654053,8|8,0:3|0:0,0:0:0:0:
206,73,121586,1,0,3:0:0:0:
267,172,121738,2,0,L|245:222,1,38.2499988327027,0|0,3:0|3:0,0:0:0:0:
215,268,121891,6,0,P|235:204|341:189,1,165.749992412568,12|0,0:1|0:0,0:0:0:0:
404,176,122195,2,0,P|442:112|339:68,1,191.250007295609,4|0,1:2|0:0,0:0:0:0:
269,130,122500,1,10,0:0:0:0:
465,288,122652,1,0,0:0:0:0:
499,49,122804,1,4,0:3:0:0:
499,49,122957,1,0,0:0:0:0:
369,318,123109,1,10,0:1:0:0:
339,90,123261,6,0,P|387:110|502:150,1,152.999995330811,8|8,0:3|0:3,0:0:0:0:
297,190,123718,2,0,P|254:212|217:222,1,76.4999976654053,8|0,0:0|0:0,0:0:0:0:
372,322,124023,1,0,1:0:0:0:
372,322,124175,1,0,0:0:0:0:
213,302,124327,6,0,B|280:308|280:308|295:302|295:302|312:313|312:313|399:326,1,165.749992412568,10|0,0:0|0:0,0:0:0:0:
388,305,124632,6,0,P|346:304|312:339,1,76.4999976654053,4|0,1:0|0:0,0:0:0:0:
102,314,124936,1,10,0:0:0:0:
201,338,125089,2,0,P|179:287|103:349,1,152.999995330811
42,174,125545,1,10,0:0:0:0:
12,294,125698,2,0,L|31:376,1,76.4999976654053,4|0,1:2|0:0,0:0:0:0:
139,251,126002,5,0,1:0:0:0:
179,186,126155,5,8,0:0:0:0:
253,220,126307,5,0,0:0:0:0:
317,155,126459,5,0,1:0:0:0:
363,279,126611,5,0,3:0:0:0:
405,74,126764,5,2,3:0:0:0:
479,335,126916,5,2,0:3:0:0:
501,17,127068,6,0,P|494:61|485:110,1,76.4999976654053,4|0,0:2|0:0,0:0:0:0:
381,202,127373,1,2,0:0:0:0:
512,167,127525,1,0,0:0:0:0:
298,78,127677,2,0,P|307:124|314:165,1,76.4999976654053,4|0,0:0|0:0,0:0:0:0:
361,23,127982,1,2,0:0:0:0:
290,267,128134,6,0,P|331:238|429:280,1,152.999995330811,2|0,0:0|0:0,0:0:0:0:
196,341,128591,2,0,P|212:295|202:247,1,76.4999976654053,2|0,0:0|0:0,0:0:0:0:
314,356,128896,1,4,0:0:0:0:
314,356,129048,1,4,0:0:0:0:
109,206,129200,2,0,P|124:253|131:283,1,76.4999976654053,2|0,0:0|0:0,0:0:0:0:
168,140,129505,5,4,0:0:0:0:
240,114,129657,1,0,0:0:0:0:
97,43,129809,5,2,0:0:0:0:
174,60,129962,1,0,0:0:0:0:
0,145,130114,5,4,0:0:0:0:
85,126,130266,1,4,0:0:0:0:
21,60,130419,5,2,0:0:0:0:
71,331,130571,1,2,0:0:0:0:
204,293,130723,5,4,0:0:0:0:
130,279,130875,1,0,0:0:0:0:
239,369,131028,5,2,0:0:0:0:
313,338,131180,1,0,0:0:0:0:
203,201,131332,5,2,0:0:0:0:
224,287,131485,2,0,L|268:274,1,38.2499988327027,4|4,0:0|0:0,0:0:0:0:
282,274,131637,6,0,L|174:253,1,76.4999976654053,4|0,1:0|0:0,0:0:0:0:
48,229,131941,5,6,0:0:0:0:
124,197,132094,1,0,0:0:0:0:
33,236,132246,5,8,0:0:0:0:
137,192,132399,1,2,0:2:0:0:
174,103,132551,5,2,0:0:0:0:
269,143,132703,1,0,0:0:0:0:
95,75,132855,5,8,0:0:0:0:
348,167,133007,2,0,P|286:155|242:236,1,152.999995330811,4|0,1:0|0:0,0:0:0:0:
295,343,133464,1,8,0:0:0:0:
295,343,133617,1,2,0:2:0:0:
445,245,133769,1,2,0:0:0:0:
445,245,133921,1,2,0:0:0:0:
353,83,134073,1,8,0:0:0:0:
353,83,134226,1,2,0:2:0:0:
197,162,134378,5,4,1:2:0:0:
268,183,134530,1,2,0:2:0:0:
251,104,134682,1,10,0:1:0:0:
119,173,134835,1,2,0:0:0:0:
395,294,134987,5,8,0:3:0:0:
388,220,135139,1,0,0:0:0:0:
324,264,135292,1,8,0:0:0:0:
501,104,135444,6,0,P|428:80|365:143,1,152.999995330811,4|0,1:2|3:0,0:0:0:0:
372,122,135901,5,8,0:0:0:0:
443,153,136053,1,2,0:0:0:0:
287,197,136205,5,0,1:0:0:0:
388,220,136358,1,0,1:0:0:0:
234,272,136510,5,8,0:0:0:0:
414,307,136662,2,0,L|454:296,1,38.2499988327027,0|0,0:3|0:3,0:0:0:0:
488,226,136814,6,0,L|459:320,1,76.4999976654053,4|0,0:2|0:0,0:0:0:0:
324,280,137119,1,2,0:0:0:0:
349,358,137271,1,0,0:0:0:0:
181,206,137424,2,0,L|141:359,1,152.999995330811,4|2,0:0|0:0,0:0:0:0:
82,127,137880,2,0,L|103:204,1,76.4999976654053,2|4,0:0|0:0,0:0:0:0:
245,146,138185,5,0,0:0:0:0:
39,11,138337,2,0,P|15:49|6:98,1,76.4999976654053,2|0,0:0|0:0,0:0:0:0:
166,129,138642,1,4,0:0:0:0:
311,93,138794,1,4,0:0:0:0:
240,295,138946,2,0,B|212:196,1,76.4999976654053,2|0,0:0|0:0,0:0:0:0:
389,123,139251,5,4,0:0:0:0:
383,45,139403,1,0,0:0:0:0:
401,213,139556,5,2,0:0:0:0:
412,135,139708,1,0,0:0:0:0:
389,305,139860,5,4,0:0:0:0:
370,228,140012,1,4,0:0:0:0:
342,376,140165,5,2,0:0:0:0:
281,200,140317,2,0,P|310:244|413:314,1,152.999995330811,2|0,0:0|0:0,0:0:0:0:
184,356,140774,2,0,P|207:323|234:297,1,76.4999976654053,2|0,0:0|0:0,0:0:0:0:
40,206,141078,1,2,0:0:0:0:
194,181,141231,2,0,L|203:139,1,38.2499988327027,4|4,0:0|0:0,0:0:0:0:
180,131,141383,6,0,L|197:232,1,76.4999976654053,4|0,1:0|0:0,0:0:0:0:
40,286,141688,1,4,1:0:0:0:
114,264,141840,1,0,0:0:0:0:
135,338,141992,1,10,0:0:0:0:
61,359,142144,1,0,0:0:0:0:
119,183,142297,5,0,1:0:0:0:
306,220,142449,1,0,0:0:0:0:
40,209,142601,1,8,0:0:0:0:
382,260,142754,6,0,P|314:232|255:311,1,152.999995330811,4|0,1:2|0:0,0:0:0:0:
261,379,143210,1,8,0:0:0:0:
261,379,143363,1,0,0:0:0:0:
300,126,143515,1,8,0:3:0:0:
300,126,143667,1,2,0:1:0:0:
489,184,143820,1,8,0:0:0:0:
443,218,143896,1,0,0:0:0:0:
386,226,143972,1,2,0:0:0:0:
332,206,144048,1,0,0:0:0:0:
294,163,144124,6,0,L|301:114,1,38.2499988327027,4|0,1:0|0:0,0:0:0:0:
390,271,144276,2,0,L|396:314,1,38.2499988327027,0|0,3:0|0:0,0:0:0:0:
402,143,144429,1,0,3:0:0:0:
205,149,144581,6,0,L|213:91,1,38.2499988327027,4|0,1:2|0:0,0:0:0:0:
317,275,144733,2,0,L|324:325,1,38.2499988327027,0|0,3:0|0:0,0:0:0:0:
331,125,144886,1,0,3:0:0:0:
123,152,145038,6,0,L|132:88,1,38.2499988327027,4|0,1:0|0:0,0:0:0:0:
246,290,145190,2,0,L|253:345,1,38.2499988327027
261,125,145343,1,0,3:0:0:0:
43,232,145495,5,4,1:2:0:0:
34,216,145571,2,0,P|38:190|41:174,1,38.2499988327027
257,37,145799,2,0,L|321:33,1,38.2499988327027,0|0,3:0|0:0,0:0:0:0:
161,45,145952,6,0,P|131:38|110:35,1,38.2499988327027,4|0,1:0|0:0,0:0:0:0:
317,182,146104,1,0,3:0:0:0:
302,202,146180,1,0,3:0:0:0:
280,216,146256,2,0,P|223:200|181:150,1,114.749996498108,4|0,1:2|0:0,0:0:0:0:
135,121,146561,6,0,P|184:157|181:264,1,140.25000428009,4|0,1:2|0:0,0:0:0:0:
230,315,146865,2,0,P|214:335|194:355,1,46.7500014266968,10|0,0:1|0:0,0:0:0:0:
40,309,147018,1,0,0:0:0:0:
290,364,147170,1,0,3:0:0:0:
138,279,147322,1,0,0:0:0:0:
366,251,147474,2,0,L|425:241,1,46.7500014266968,8|0,0:0|0:0,0:0:0:0:
113,360,147627,2,0,L|62:347,1,46.7500014266968,2|0,0:0|0:0,0:0:0:0:
458,329,147779,6,0,P|439:261|317:258,1,165.749992412568,0|0,1:0|0:0,0:0:0:0:
286,260,148084,1,8,0:0:0:0:
505,197,148236,1,0,0:0:0:0:
340,113,148388,1,8,0:3:0:0:
377,311,148540,1,2,0:1:0:0:
230,99,148693,6,0,P|253:88|220:151,1,178.499994552612,8|0,0:1|0:0,0:0:0:0:
202,259,148997,2,0,P|168:210|236:196,1,140.25000428009,0|0,3:0|0:0,0:0:0:0:
253,330,149302,1,10,0:0:0:0:
73,251,149454,1,0,0:0:0:0:
317,256,149606,6,0,L|375:251,1,46.7500014266968,4|0,0:3|0:0,0:0:0:0:
385,325,149759,2,0,L|332:328,1,46.7500014266968
433,182,149911,1,8,0:0:0:0:
485,364,150063,1,0,3:0:0:0:
485,91,150215,6,0,P|449:146|341:95,1,165.749992412568,0|0,1:0|0:0,0:0:0:0:
318,68,150520,1,8,0:0:0:0:
363,251,150672,1,0,0:0:0:0:
137,179,150825,2,0,P|149:152|165:130,1,46.7500014266968,0|0,1:0|0:0,0:0:0:0:
235,308,150977,1,0,3:0:0:0:
209,306,151053,1,0,3:0:0:0:
190,290,151129,6,0,P|220:222|284:277,1,178.499994552612,12|0,1:0|0:0,0:0:0:0:
364,335,151434,2,0,P|329:289|276:311,1,93.5000028533936,4|0,1:0|0:0,0:0:0:0:
149,361,151738,1,10,0:0:0:0:
374,250,151891,2,0,L|437:241,1,46.7500014266968,8|0,0:0|0:0,0:0:0:0:
262,149,152043,2,0,L|211:138,1,46.7500014266968,2|0,1:3|0:0,0:0:0:0:
395,55,152195,2,0,L|458:51,1,46.7500014266968,2|0,0:3|0:0,0:0:0:0:
184,17,152347,2,0,L|121:35,1,46.7500014266968,8|0,0:3|0:0,0:0:0:0:
492,225,152500,6,0,P|440:224|353:315,1,165.749992412568,4|0,1:0|0:0,0:0:0:0:
293,337,152804,2,0,P|300:355|317:389,1,46.7500014266968,2|0,0:0|0:0,0:0:0:0:
206,196,152957,2,0,P|214:169|225:137,1,46.7500014266968,8|0,0:0|0:0,0:0:0:0:
79,311,153109,2,0,P|79:338|84:374,1,46.7500014266968,4|0,0:0|0:0,0:0:0:0:
294,252,153261,1,0,1:0:0:0:
157,332,153413,1,2,0:0:0:0:
92,93,153566,6,0,L|101:41,1,46.7500014266968,4|0,1:2|0:0,0:0:0:0:
0,340,153718,2,0,L|17:400,1,46.7500014266968
279,148,153870,2,0,P|215:118|124:191,1,165.749992412568,4|0,1:0|0:0,0:0:0:0:
70,197,154175,6,0,L|87:256,1,46.7500014266968,12|0,0:0|0:0,0:0:0:0:
217,207,154327,2,0,L|205:253,1,46.7500014266968,8|0,0:0|0:0,0:0:0:0:
127,336,154479,1,2,3:0:0:0:
157,129,154632,1,2,0:3:0:0:
222,364,154784,1,10,0:3:0:0:
258,127,154936,6,0,P|328:104|294:170,1,165.749992412568,4|0,1:2|0:0,0:0:0:0:
304,177,155241,5,2,0:3:0:0:
478,76,155393,1,8,0:3:0:0:
174,138,155545,5,4,1:0:0:0:
385,268,155698,1,2,0:3:0:0:
38,216,155850,5,2,0:3:0:0:
512,37,156002,1,4,1:2:0:0:
478,76,156078,1,8,0:3:0:0:
470,127,156155,1,8,0:3:0:0:
485,175,156231,1,8,0:3:0:0:
511,218,156307,6,0,B|498:318|498:318|462:360,1,140.25000428009,4|0,1:2|0:0,0:0:0:0:
403,372,156611,2,0,P|381:355|355:344,1,46.7500014266968,10|0,0:1|0:0,0:0:0:0:
192,345,156764,1,0,0:0:0:0:
385,268,156916,1,0,3:0:0:0:
224,156,157068,1,0,0:0:0:0:
368,261,157221,2,0,L|430:252,1,46.7500014266968,8|0,0:0|0:0,0:0:0:0:
153,198,157373,2,0,L|92:189,1,46.7500014266968,2|0,0:0|0:0,0:0:0:0:
496,122,157525,6,0,P|441:164|419:284,1,165.749992412568,0|0,1:0|0:0,0:0:0:0:
440,329,157830,1,8,0:0:0:0:
346,104,157982,1,0,0:0:0:0:
440,351,158134,2,0,P|388:321|333:323,1,93.5000028533936,8|2,0:3|0:1,0:0:0:0:
107,192,158439,6,0,P|145:138|218:193,1,178.499994552612,8|0,0:1|0:0,0:0:0:0:
303,239,158743,2,0,P|265:276|227:213,1,140.25000428009,0|0,3:0|0:0,0:0:0:0:
269,111,159048,1,10,0:0:0:0:
147,282,159200,1,0,0:0:0:0:
31,124,159353,6,0,L|42:67,1,46.7500014266968,4|0,0:3|0:0,0:0:0:0:
131,273,159505,2,0,L|143:334,1,46.7500014266968
247,95,159657,2,0,L|261:36,1,46.7500014266968,8|0,0:0|0:0,0:0:0:0:
332,309,159809,2,0,L|342:358,1,46.7500014266968,0|0,3:0|0:0,0:0:0:0:
429,85,159962,5,0,1:0:0:0:
254,320,160114,1,2,0:0:0:0:
339,122,160266,1,8,0:0:0:0:
425,350,160419,1,0,0:0:0:0:
425,173,160571,1,0,1:0:0:0:
240,275,160723,2,0,L|257:331,1,46.7500014266968,0|0,3:0|3:0,0:0:0:0:
320,255,160875,2,0,P|257:202|177:223,1,165.749992412568,12|0,1:0|0:0,0:0:0:0:
124,272,161180,5,4,1:0:0:0:
148,61,161332,1,0,0:0:0:0:
301,184,161485,1,10,0:0:0:0:
22,172,161637,2,0,L|135:160,1,93.5000028533936,8|2,0:0|1:3,0:0:0:0:
301,184,161941,1,2,0:3:0:0:
202,296,162094,1,8,0:3:0:0:
244,40,162246,2,0,L|215:143,1,93.5000028533936,4|0,1:0|0:0,0:0:0:0:
124,272,162551,5,2,0:0:0:0:
308,323,162703,1,8,0:0:0:0:
139,353,162855,5,4,0:0:0:0:
410,237,163007,1,0,1:0:0:0:
59,324,163160,5,2,0:0:0:0:
512,345,163312,2,0,P|501:293|490:248,1,93.5000028533936,4|8,1:0|0:0,0:0:0:0:
445,87,163617,5,4,1:2:0:0:
450,167,163769,1,8,0:0:0:0:
349,42,163921,5,12,1:0:0:0:
333,243,164073,1,8,0:0:0:0:
212,14,164226,6,0,L|218:76,1,46.7500014266968,8|8,1:0|0:3,0:0:0:0:
197,268,164378,2,0,L|208:330,1,46.7500014266968,8|8,1:0|0:3,0:0:0:0:
36,3,164530,6,0,L|45:65,1,46.7500014266968,8|8,1:0|0:3,0:0:0:0:
45,368,164682,1,4,1:2:0:0:
45,368,164987,5,8,1:0:0:0:
45,368,165139,2,0,B|113:346|113:346|165:366,1,118.999996368408,8|0,1:0|0:0,0:0:0:0:
239,345,165596,1,0,3:0:0:0:
239,345,165672,1,0,3:0:0:0:
239,345,165748,2,0,P|260:296|190:270,1,127.5,12|8,1:0|0:0,0:0:0:0:
132,257,166053,6,0,B|105:184|155:197|134:130,1,118.999996368408,4|4,1:0|0:0,0:0:0:0:
137,141,166662,1,8,0:0:0:0:
223,176,166967,1,2,0:0:0:0:
223,176,167119,1,2,3:2:0:0:
297,138,167424,1,0,3:0:0:0:
297,138,167576,1,8,0:0:0:0:
369,161,167880,1,0,3:0:0:0:
440,25,168185,6,0,P|435:37|432:49,3,19.8333327280681,0|0|0|0,3:0|0:0|0:0|0:0,0:0:0:0:
455,123,168490,5,0,3:0:0:0:
455,123,168642,2,0,P|478:163|480:184,1,59.4999981842042,0|2,0:0|0:0,0:0:0:0:
504,251,168946,2,0,P|479:277|393:246,1,118.999996368408
327,251,169403,5,4,0:0:0:0:
327,251,169556,2,0,L|338:314,1,59.4999981842042,0|0,3:0|0:0,0:0:0:0:
272,354,169860,1,8,0:0:0:0:
272,354,170012,1,4,0:3:0:0:
15,204,170317,6,0,P|62:176|102:170,1,89.2499972763062,8|0,0:0|0:0,0:0:0:0:
115,158,170622,2,0,P|73:146|35:128,1,59.4999981842042,2|0,0:0|0:0,0:0:0:0:
87,49,170926,5,4,3:2:0:0:
87,49,171078,2,0,P|123:57|157:69,1,59.4999981842042,0|2,0:0|0:0,0:0:0:0:
366,52,171535,6,0,P|357:90|355:128,1,59.4999981842042,8|0,0:0|0:0,0:0:0:0:
335,187,171840,1,4,0:0:0:0:
335,187,171992,2,0,P|371:181|411:181,1,59.4999981842042,0|0,3:0|0:0,0:0:0:0:
469,194,172297,1,8,0:0:0:0:
469,194,172449,1,0,3:0:0:0:
321,366,172754,6,0,P|312:331|298:301,1,59.4999981842042,8|0,0:0|0:0,0:0:0:0:
257,248,173058,1,0,3:0:0:0:
202,328,173210,1,0,0:0:0:0:
163,204,173363,5,4,1:0:0:0:
163,204,173515,1,0,0:0:0:0:
116,289,173667,1,4,0:0:0:0:
135,31,173972,1,8,0:0:0:0:
66,360,174276,1,0,3:0:0:0:
0,227,174429,2,0,P|46:213|100:208,1,85,4|0,1:3|0:0,0:0:0:0:
239,154,174733,5,8,0:1:0:0:
239,154,174809,1,8,0:1:0:0:
239,154,174886,1,8,0:3:0:0:
255,248,175038,1,8,0:1:0:0:
325,112,175190,1,8,0:3:0:0:
345,278,175342,1,8,0:1:0:0:
418,75,175495,1,8,0:3:0:0:
440,319,175647,1,8,0:1:0:0:
500,30,175799,6,0,P|457:60|439:160,1,127.5,4|0,1:0|0:0,0:0:0:0:
437,162,176104,1,10,0:0:0:0:
247,60,176408,1,0,1:0:0:0:
317,193,176561,1,0,0:0:0:0:
342,34,176713,1,12,0:0:0:0:
396,255,176865,2,0,P|354:220|308:221,1,85,4|0,1:2|0:0,0:0:0:0:
176,301,177170,5,0,1:0:0:0:
254,332,177322,2,0,P|303:319|329:289,1,85,10|0,0:0|0:0,0:0:0:0:
145,226,177627,2,0,P|83:202|39:203,1,85,0|0,1:0|0:0,0:0:0:0:
266,186,177931,2,0,P|264:133|208:51,1,127.5,12|0,0:0|0:0,0:0:0:0:
205,50,178236,6,0,P|217:-8|273:29,1,127.5,0|0,1:0|0:0,0:0:0:0:
283,31,178540,1,10,0:0:0:0:
372,90,178693,2,0,L|466:77,1,85,0|0,0:0|1:0,0:0:0:0:
386,187,178997,1,0,0:0:0:0:
169,121,179150,1,12,0:0:0:0:
356,308,179302,2,0,P|415:294|384:194,1,170,4|0,1:2|1:0,0:0:0:0:
279,271,179759,6,0,P|243:308|224:350,1,85,10|0,0:0|0:0,0:0:0:0:
194,177,180063,1,0,1:0:0:0:
94,313,180215,1,0,0:0:0:0:
94,313,180292,1,0,0:0:0:0:
94,313,180368,2,0,L|143:303,2,42.5,10|0|0,0:0|0:0|0:0,0:0:0:0:
17,89,180672,6,0,P|28:137|45:224,1,127.5,4|0,1:0|0:0,0:0:0:0:
47,240,180977,1,12,0:0:0:0:
298,119,181281,1,0,1:0:0:0:
194,177,181434,1,0,0:0:0:0:
401,68,181586,1,8,3:2:0:0:
184,53,181738,6,0,P|200:111|220:227,1,170,4|0,1:0|1:0,0:0:0:0:
326,294,182195,1,12,0:0:0:0:
326,294,182347,1,0,0:0:0:0:
162,349,182500,1,0,1:0:0:0:
162,349,182652,1,0,0:0:0:0:
116,261,182804,1,8,3:2:0:0:
385,356,182957,1,0,0:0:0:0:
423,142,183109,6,0,P|360:151|332:157,1,85,0|0,1:0|0:0,0:0:0:0:
113,181,183413,1,4,1:2:0:0:
311,63,183566,2,0,P|266:81|219:113,1,85,0|0,0:0|1:0,0:0:0:0:
43,222,183870,1,0,0:0:0:0:
296,218,184023,1,10,0:0:0:0:
87,109,184175,1,6,1:3:0:0:
87,109,184479,5,0,3:0:0:0:
163,282,184632,1,8,0:0:0:0:
177,136,184784,1,0,3:0:0:0:
117,368,184936,1,0,1:0:0:0:
241,50,185089,2,0,L|249:100,1,42.5,0|0,3:0|0:0,0:0:0:0:
339,360,185241,1,8,0:0:0:0:
369,313,185317,1,0,0:0:0:0:
367,258,185393,1,8,0:0:0:0:
342,209,185469,1,0,0:0:0:0:
301,171,185545,6,0,L|249:190,1,42.5,4|0,1:0|0:0,0:0:0:0:
457,203,185698,2,0,L|505:217,1,42.5,0|0,3:0|0:0,0:0:0:0:
287,285,185850,1,0,3:0:0:0:
238,117,186002,6,0,L|178:138,1,42.5,4|0,1:2|0:0,0:0:0:0:
416,152,186155,2,0,L|470:168,1,42.5,0|0,3:0|0:0,0:0:0:0:
221,246,186307,1,0,3:0:0:0:
155,70,186459,6,0,L|85:95,1,42.5,4|0,1:0|0:0,0:0:0:0:
362,110,186612,2,0,L|425:128,1,42.5
153,221,186764,1,0,3:0:0:0:
20,51,186916,5,4,1:2:0:0:
20,51,186992,1,0,0:0:0:0:
20,51,187068,2,0,L|26:108,1,42.5
75,172,187221,2,0,L|57:224,1,42.5,0|0,3:0|0:0,0:0:0:0:
274,35,187373,6,0,L|258:84,1,42.5,4|0,1:0|0:0,0:0:0:0:
287,243,187525,1,0,3:0:0:0:
300,265,187601,1,0,3:0:0:0:
328,276,187677,2,0,P|373:263|391:179,1,127.5,4|0,1:2|0:0,0:0:0:0:
417,123,187982,6,0,L|444:302,1,140.25000428009,4|0,1:2|0:0,0:0:0:0:
495,310,188287,2,0,L|480:363,1,46.7500014266968,10|0,0:1|0:0,0:0:0:0:
220,290,188439,1,0,0:0:0:0:
399,347,188591,1,0,3:0:0:0:
326,158,188743,1,0,0:0:0:0:
215,300,188896,2,0,L|150:297,1,46.7500014266968,8|0,0:0|0:0,0:0:0:0:
399,193,189048,2,0,L|457:209,1,46.7500014266968,2|0,0:0|0:0,0:0:0:0:
42,248,189200,6,0,P|103:231|130:345,1,165.749992412568,0|0,1:0|0:0,0:0:0:0:
113,368,189505,1,8,0:0:0:0:
10,169,189657,1,0,0:0:0:0:
231,203,189809,1,8,0:3:0:0:
0,321,189962,1,2,0:1:0:0:
257,187,190114,2,0,P|310:219|258:284,1,165.749992412568,8|0,0:1|0:0,0:0:0:0:
235,308,190419,6,0,B|312:284|312:284|396:301,1,140.25000428009,0|0,3:0|0:0,0:0:0:0:
402,306,190723,1,10,0:0:0:0:
315,367,190875,1,0,0:0:0:0:
412,123,191028,1,4,0:3:0:0:
501,328,191180,1,0,0:0:0:0:
375,69,191332,2,0,L|385:131,1,46.7500014266968,8|0,0:0|0:0,0:0:0:0:
476,323,191485,2,0,L|488:265,1,46.7500014266968,0|0,3:0|0:0,0:0:0:0:
257,219,191637,6,0,L|413:196,1,140.25000428009,0|0,1:0|0:0,0:0:0:0:
435,204,191941,1,8,0:0:0:0:
276,319,192094,1,0,0:0:0:0:
218,131,192246,1,0,1:0:0:0:
230,331,192398,2,0,L|286:316,1,46.7500014266968,0|0,3:0|3:0,0:0:0:0:
367,325,192551,2,0,P|298:309|309:384,1,165.749992412568,12|0,1:0|0:0,0:0:0:0:
384,343,192855,6,0,P|395:291|403:243,1,93.5000028533936,4|0,1:0|0:0,0:0:0:0:
266,201,193160,1,10,0:0:0:0:
499,266,193312,2,0,L|486:212,1,46.7500014266968,8|0,0:0|0:0,0:0:0:0:
377,79,193464,2,0,L|366:126,1,46.7500014266968,2|0,1:3|0:0,0:0:0:0:
283,284,193617,1,2,0:3:0:0:
173,123,193769,1,8,0:3:0:0:
72,239,193921,6,0,P|121:211|202:290,1,187.000005706787,4|2,1:0|0:0,0:0:0:0:
356,327,194378,2,0,P|304:315|280:275,1,93.5000028533936,8|4,0:0|0:0,0:0:0:0:
146,326,194682,2,0,L|197:318,1,46.7500014266968,0|0,1:0|0:0,0:0:0:0:
323,184,194835,2,0,L|269:167,1,46.7500014266968,2|0,0:0|0:0,0:0:0:0:
423,269,194987,2,0,L|477:261,1,46.7500014266968,4|0,1:2|0:0,0:0:0:0:
504,330,195139,1,0,0:0:0:0:
443,96,195292,5,4,1:0:0:0:
407,189,195444,1,0,0:0:0:0:
291,30,195596,2,0,L|353:26,1,46.7500014266968,12|0,0:0|0:0,0:0:0:0:
231,174,195748,2,0,L|304:167,1,46.7500014266968,8|0,0:0|0:0,0:0:0:0:
184,43,195901,1,2,3:0:0:0:
323,254,196053,1,2,0:3:0:0:
361,102,196205,1,10,0:3:0:0:
179,292,196358,6,0,P|242:261|232:335,1,178.499994552612,4|0,1:2|0:0,0:0:0:0:
216,352,196662,6,0,L|282:343,1,46.7500014266968,2|0,0:3|0:0,0:0:0:0:
374,343,196814,1,8,0:3:0:0:
118,233,196967,2,0,L|182:215,1,46.7500014266968,4|0,1:0|0:0,0:0:0:0:
405,196,197119,1,2,0:3:0:0:
46,153,197271,1,2,0:3:0:0:
483,296,197424,1,4,1:2:0:0:
472,245,197500,1,8,0:3:0:0:
482,194,197576,1,8,0:3:0:0:
475,143,197652,1,8,0:3:0:0:
483,92,197728,6,0,P|457:43|365:67,1,140.25000428009,4|0,1:2|0:0,0:0:0:0:
308,57,198033,2,0,P|299:81|293:108,1,46.7500014266968,10|0,0:1|0:0,0:0:0:0:
316,228,198185,1,0,0:0:0:0:
216,77,198337,1,0,3:0:0:0:
219,281,198490,1,0,0:0:0:0:
383,163,198642,2,0,L|441:154,1,46.7500014266968,8|0,0:0|0:0,0:0:0:0:
211,296,198794,2,0,L|155:284,1,46.7500014266968,2|0,0:0|0:0,0:0:0:0:
490,351,198946,6,0,P|443:284|360:295,1,165.749992412568,0|0,1:0|0:0,0:0:0:0:
313,350,199251,1,8,0:0:0:0:
232,185,199403,1,0,0:0:0:0:
426,119,199556,2,0,B|434:145|434:145|391:234,1,93.5000028533936,8|2,0:3|0:1,0:0:0:0:
228,106,199860,6,0,P|232:170|299:129,1,165.749992412568,8|0,0:1|0:0,0:0:0:0:
315,119,200165,6,0,P|323:174|331:215,1,93.5000028533936,0|0,3:0|0:0,0:0:0:0:
281,33,200469,1,10,0:0:0:0:
146,82,200622,1,0,0:0:0:0:
38,147,200774,5,4,0:3:0:0:
248,215,200926,1,0,0:0:0:0:
414,194,201078,6,0,L|405:240,1,46.7500014266968,8|0,0:0|0:0,0:0:0:0:
179,363,201231,2,0,L|165:313,1,46.7500014266968,0|0,3:0|0:0,0:0:0:0:
505,337,201383,6,0,P|449:338|410:301,1,93.5000028533936,0|2,1:0|0:0,0:0:0:0:
330,211,201688,1,8,0:0:0:0:
479,262,201840,1,0,0:0:0:0:
316,330,201992,1,0,1:0:0:0:
466,245,202144,2,0,L|458:193,1,46.7500014266968,0|0,3:0|3:0,0:0:0:0:
434,110,202297,6,0,P|500:132|442:176,1,165.749992412568,12|0,1:0|0:0,0:0:0:0:
430,179,202601,6,0,L|451:271,1,93.5000028533936,4|0,1:0|0:0,0:0:0:0:
338,152,202906,1,10,0:0:0:0:
400,359,203058,2,0,P|351:330|307:332,1,93.5000028533936,8|2,0:0|1:3,0:0:0:0:
196,355,203363,1,2,0:3:0:0:
351,245,203515,1,8,0:3:0:0:
65,194,203667,6,0,P|160:194|199:295,1,187.000005706787,4|2,1:0|0:0,0:0:0:0:
27,339,204124,2,0,P|2:285|11:247,1,93.5000028533936,8|4,0:0|0:0,0:0:0:0:
237,136,204429,5,0,1:0:0:0:
148,190,204581,1,2,0:0:0:0:
5,18,204733,5,4,1:0:0:0:
63,95,204886,1,8,0:0:0:0:
329,204,205038,5,4,1:2:0:0:
247,48,205190,1,8,0:0:0:0:
148,190,205342,1,12,1:0:0:0:
339,183,205495,1,8,0:0:0:0:
154,130,205647,6,0,L|163:185,1,46.7500014266968,8|8,1:0|0:3,0:0:0:0:
337,312,205799,2,0,L|395:335,1,46.7500014266968,8|8,1:0|0:3,0:0:0:0:
55,353,205952,2,0,L|-1:383,1,46.7500014266968,8|8,1:0|0:3,0:0:0:0:
401,220,206104,1,4,1:2:0:0:
454,161,206408,5,8,1:0:0:0:
454,161,206561,2,0,B|484:198|484:198|465:293,1,136,8|0,1:0|0:0,0:0:0:0:
424,346,207018,1,0,3:0:0:0:
424,346,207094,1,0,3:0:0:0:
424,346,207170,2,0,P|373:331|343:324,1,68,12|8,1:0|0:0,0:0:0:0:
268,345,207474,1,4,1:0:0:0:
113,159,207627,5,0,0:0:0:0:
202,283,207779,1,10,0:0:0:0:
329,196,207931,1,0,0:0:0:0:
99,146,208084,5,0,1:0:0:0:
342,186,208236,1,0,0:0:0:0:
111,252,208388,1,12,0:0:0:0:
278,275,208540,2,0,L|192:284,1,76.4999976654053,4|0,1:2|0:0,0:0:0:0:
5,166,208845,5,0,1:0:0:0:
196,194,208997,1,10,0:0:0:0:
43,314,209150,1,0,0:0:0:0:
196,165,209302,2,0,B|236:141|236:141|336:153,1,114.749996498108,0|0,1:0|0:0,0:0:0:0:
335,159,209606,6,0,P|296:114|377:83,1,165.749992412568,12|0,0:0|0:0,0:0:0:0:
421,136,209911,1,0,1:0:0:0:
225,55,210063,5,0,0:0:0:0:
262,225,210215,1,10,0:0:0:0:
96,165,210368,1,0,0:0:0:0:
279,212,210520,5,0,1:0:0:0:
81,177,210672,2,0,P|73:133|60:74,1,76.4999976654053,0|12,0:0|0:0,0:0:0:0:
120,336,210977,2,0,P|60:337|-3:253,1,152.999995330811,4|0,1:2|1:0,0:0:0:0:
0,69,211434,5,10,0:0:0:0:
141,104,211586,1,0,0:0:0:0:
84,260,211738,1,0,1:0:0:0:
160,115,211891,1,0,0:0:0:0:
14,75,212043,6,0,B|89:21|89:21|176:35,1,178.499994552612,10|0,0:0|0:0,0:0:0:0:
242,51,212347,1,4,1:0:0:0:
359,207,212500,5,0,0:0:0:0:
392,37,212652,1,12,0:0:0:0:
245,137,212804,1,0,0:0:0:0:
455,167,212957,5,0,1:0:0:0:
254,155,213109,1,0,0:0:0:0:
405,47,213261,1,8,3:2:0:0:
271,282,213413,2,0,P|344:242|419:275,1,152.999995330811,4|0,1:2|1:0,0:0:0:0:
188,227,213870,5,12,0:0:0:0:
348,328,214023,1,0,0:0:0:0:
129,354,214175,1,0,1:0:0:0:
254,155,214327,1,0,0:0:0:0:
422,344,214479,2,0,L|322:322,1,76.4999976654053,8|0,3:2|0:0,0:0:0:0:
104,260,214784,5,0,1:0:0:0:
272,234,214936,1,0,0:0:0:0:
379,166,215089,5,4,1:0:0:0:
164,142,215241,1,0,0:0:0:0:
58,103,215393,5,0,1:0:0:0:
275,44,215545,1,0,0:0:0:0:
371,264,215698,1,10,0:0:0:0:
468,51,215850,2,0,B|453:110|453:110|469:165|469:165|458:183|453:227,1,165.749992412568,4|0,1:3|0:0,0:0:0:0:
492,273,216155,6,0,L|481:317,1,38.2499988327027
205,313,216307,2,0,L|218:357,1,38.2499988327027,8|0,0:0|0:0,0:0:0:0:
281,253,216459,2,0,L|286:298,1,38.2499988327027
407,331,216611,6,0,L|397:379,1,38.2499988327027,2|0,1:3|0:0,0:0:0:0:
234,167,216764,2,0,L|229:121,1,38.2499988327027
54,358,216916,2,0,L|44:268,1,76.4999976654053,8|0,0:0|0:0,0:0:0:0:
21,209,217144,1,0,0:0:0:0:
30,134,217221,1,4,1:0:0:0:
187,231,217373,5,0,0:0:0:0:
342,148,217525,1,10,0:0:0:0:
188,64,217677,1,0,0:0:0:0:
355,137,217830,5,0,1:0:0:0:
175,247,217982,1,0,0:0:0:0:
321,25,218134,1,12,0:0:0:0:
281,262,218287,2,0,L|257:172,1,76.4999976654053,4|0,1:2|0:0,0:0:0:0:
171,73,218591,5,0,1:0:0:0:
109,204,218743,1,10,0:0:0:0:
279,113,218896,1,0,0:0:0:0:
74,109,219048,5,0,1:0:0:0:
297,110,219200,1,0,0:0:0:0:
91,218,219353,2,0,L|180:200,1,76.4999976654053,12|0,0:0|0:0,0:0:0:0:
281,262,219657,1,0,1:0:0:0:
413,57,219809,5,0,0:0:0:0:
334,186,219962,1,10,0:0:0:0:
484,186,220114,1,0,0:0:0:0:
311,191,220266,5,0,1:0:0:0:
501,180,220419,2,0,P|506:130|500:86,1,76.4999976654053,0|12,0:0|0:0,0:0:0:0:
346,341,220723,2,0,P|391:308|498:295,1,152.999995330811,4|0,1:2|1:0,0:0:0:0:
238,268,221180,5,10,0:0:0:0:
410,214,221332,1,0,0:0:0:0:
192,175,221485,1,0,1:0:0:0:
426,217,221637,1,0,0:0:0:0:
220,271,221789,6,0,P|153:235|201:173,1,165.749992412568,10|0,0:0|0:0,0:0:0:0:
261,199,222094,1,4,1:0:0:0:
78,9,222246,5,0,0:0:0:0:
202,99,222398,1,12,0:0:0:0:
56,157,222551,1,0,0:0:0:0:
224,94,222703,5,0,1:0:0:0:
35,165,222855,1,0,0:0:0:0:
96,12,223007,1,8,3:2:0:0:
353,43,223160,2,0,L|273:29,1,76.4999976654053,4|0,1:0|0:0,0:0:0:0:
121,100,223464,5,0,1:0:0:0:
277,167,223617,1,12,0:0:0:0:
159,223,223769,1,0,0:0:0:0:
131,87,223921,5,0,1:0:0:0:
116,301,224073,1,0,0:0:0:0:
292,179,224226,2,0,P|264:212|250:264,1,76.4999976654053,8|0,3:2|0:0,0:0:0:0:
275,343,224530,5,4,1:0:0:0:
174,211,224682,1,0,0:0:0:0:
116,301,224835,5,4,1:3:0:0:
74,132,224987,1,0,0:0:0:0:
13,210,225139,5,4,1:0:0:0:
114,22,225292,1,0,0:0:0:0:
267,175,225444,1,10,0:0:0:0:
478,9,225596,2,0,B|463:55|463:55|484:120|484:120|476:141|474:186,1,178.499994552612,4|0,1:3|0:0,0:0:0:0:
435,240,225901,6,0,L|448:287,1,38.2499988327027
441,359,226053,5,4,1:0:0:0:
407,352,226129,1,0,0:0:0:0:
381,329,226205,1,0,0:0:0:0:
347,323,226281,1,0,0:0:0:0:
301,342,226358,5,6,1:3:0:0:
259,340,226434,1,0,0:0:0:0:
220,318,226510,1,8,1:3:0:0:
178,324,226586,1,0,0:0:0:0:
136,346,226662,5,8,0:0:0:0:
120,287,226738,1,0,0:0:0:0:
169,247,226814,1,8,1:3:0:0:
187,189,226891,1,0,0:0:0:0:
172,132,226967,6,0,P|231:197|266:140,1,152.999995330811,4|2,1:0|0:0,0:0:0:0:
10,131,227424,1,0,1:0:0:0:
98,113,227576,2,0,L|190:113,1,76.4999976654053,8|0,1:0|0:0,0:0:0:0:
296,37,227880,5,2,0:3:0:0:
275,50,228033,1,2,1:3:0:0:
396,111,228185,1,0,0:0:0:0:
394,80,228337,1,0,3:0:0:0:
460,198,228490,5,2,1:3:0:0:
485,192,228642,1,0,3:0:0:0:
473,333,228794,1,8,1:0:0:0:
446,322,228946,1,0,3:0:0:0:
205,264,229099,5,8,0:1:0:0:
246,259,229175,1,8,0:3:0:0:
287,256,229251,1,8,0:1:0:0:
328,253,229327,1,8,0:3:0:0:
369,250,229403,5,4,1:0:0:0:
334,326,229556,1,0,3:0:0:0:
287,256,229708,1,0,3:0:0:0:
103,201,229860,5,4,1:2:0:0:
205,264,230013,1,0,3:0:0:0:
97,319,230165,1,0,3:0:0:0:
369,107,230317,5,4,1:0:0:0:
287,256,230470,1,0,0:0:0:0:
201,106,230622,1,0,3:0:0:0:
441,351,230774,5,4,1:2:0:0:
441,351,230850,1,0,0:0:0:0:
441,351,230926,1,0,0:0:0:0:
373,188,231078,1,0,3:0:0:0:
184,355,231231,5,4,1:0:0:0:
378,278,231383,1,0,3:0:0:0:
51,75,231535,6,0,L|39:135,1,38.2499988327027,4|0,1:2|0:0,0:0:0:0:
0,384,231688,1,4,1:2:0:0:
