osu file format v14

[General]
AudioFilename: audio.mp3
AudioLeadIn: 0
PreviewTime: 68591
Countdown: 0
SampleSet: Soft
StackLeniency: 0.8
Mode: 0
LetterboxInBreaks: 0
WidescreenStoryboard: 0

[Editor]
Bookmarks: 217,10116,29608,34481,39354,44227,49100,68593,88085,97832,107578,112451,117324,122197,127070,146562,166055,175801,187984,207476,226968,231689
DistanceSpacing: 2.7
BeatDivisor: 4
GridSize: 4
TimelineZoom: 2.2

[Metadata]
Title:Ryuu to Sakura Miko
TitleUnicode:龍と桜巫女
Artist:Hatsuki Yura
ArtistUnicode:葉月ゆら
Creator:KKipalt
Version:Hard
Source:
Tags:yoiyami rensou kitan 宵闇恋想奇譚 drop どろっぷ seifuumeigatsu 清風明月 hanazawa_kana kana 1112deng suzuki_1112 1112 otosaka-yu narcissu AIR tomadoi agatsu 和風民族音楽 japanese folk pop
BeatmapID:2014637
BeatmapSetID:962172

[Difficulty]
HPDrainRate:5.7
CircleSize:3.9
OverallDifficulty:5.9
ApproachRate:7.7
SliderMultiplier:1.2
SliderTickRate:1

[Events]
//Background and Video events
0,0,"BGme.jpg",0,0
//Break Periods
//Storyboard Layer 0 (Background)
//Storyboard Layer 1 (Fail)
//Storyboard Layer 2 (Pass)
//Storyboard Layer 3 (Foreground)
//Storyboard Layer 4 (Overlay)
//Storyboard Sound Samples

[TimingPoints]
-850,304.568527918782,4,2,1,70,1,0
368,-100,4,2,1,70,0,0
8743,-100,4,2,1,70,0,0
10114,-100,4,2,2,70,0,0
29454,-100,4,2,2,70,0,0
29606,-100,4,2,1,70,0,0
34479,-100,4,2,3,70,0,0
38895,-100,4,2,2,70,0,0
38896,-100,4,2,2,70,0,0
39200,-100,4,2,1,70,0,0
39353,-100,4,2,1,70,0,0
44226,-100,4,2,3,70,0,0
48642,-100,4,2,2,70,0,0
48946,-100,4,2,1,70,0,0
49099,-100,4,3,4,70,0,0
53667,-100,4,2,1,70,0,0
53972,-100,4,3,5,70,0,0
55038,-100,4,2,1,70,0,0
55190,-100,4,3,5,70,0,0
56408,-100,4,2,3,70,0,0
57474,-100,4,2,1,70,0,0
57778,-100,4,2,2,70,0,0
57779,-100,4,2,2,70,0,0
58692,-100,4,3,4,70,0,0
58693,-100,4,3,4,70,0,0
63412,-100,4,2,1,70,0,0
63413,-100,4,2,1,70,0,0
63718,-100,4,2,3,70,0,0
66155,-100,4,2,1,70,0,0
68287,-100,4,2,1,70,0,0
68591,-86.9565217391304,4,2,3,80,0,1
72094,-86.9565217391304,4,2,2,80,0,1
72246,-86.9565217391304,4,2,3,80,0,1
73007,-86.9565217391304,4,2,1,80,0,1
73464,-86.9565217391304,4,2,2,80,0,1
73921,-86.9565217391304,4,2,1,80,0,1
74834,-86.9565217391304,4,2,2,80,0,1
74835,-86.9565217391304,4,2,2,80,0,1
75596,-86.9565217391304,4,2,1,80,0,1
76205,-86.9565217391304,4,2,2,80,0,1
76358,-86.9565217391304,4,2,1,80,0,1
78033,-86.9565217391304,4,2,1,80,0,0
78337,-86.9565217391304,4,2,3,80,0,1
81840,-86.9565217391304,4,2,2,80,0,1
81992,-86.9565217391304,4,2,3,80,0,1
82906,-86.9565217391304,4,2,1,80,0,1
83210,-86.9565217391304,4,2,2,80,0,1
83667,-86.9565217391304,4,2,1,80,0,1
84580,-86.9565217391304,4,2,2,80,0,1
84581,-86.9565217391304,4,2,2,80,0,1
85342,-86.9565217391304,4,2,1,80,0,1
88084,-100,4,2,2,70,0,0
107271,-100,4,2,2,70,0,0
107576,-100,4,2,1,70,0,0
112449,-100,4,2,3,70,0,0
116865,-100,4,2,2,70,0,0
117170,-100,4,2,1,70,0,0
117322,-100,4,2,1,70,0,0
122195,-100,4,2,3,70,0,0
126611,-100,4,2,2,70,0,0
126916,-100,4,2,1,70,0,0
127068,-100,4,3,4,70,0,0
131637,-100,4,2,1,70,0,0
131941,-100,4,3,5,70,0,0
133007,-100,4,2,1,70,0,0
133160,-100,4,3,5,70,0,0
134378,-100,4,2,3,70,0,0
135444,-100,4,2,1,70,0,0
135672,-100,4,2,2,70,0,0
136662,-100,4,3,4,70,0,0
141382,-100,4,2,1,70,0,0
141383,-100,4,2,1,70,0,0
141687,-100,4,2,3,70,0,0
144124,-100,4,2,1,70,0,0
146256,-100,4,2,1,70,0,0
146561,-86.9565217391304,4,2,3,80,0,1
150063,-86.9565217391304,4,2,2,80,0,1
150215,-86.9565217391304,4,2,3,80,0,1
150977,-86.9565217391304,4,2,1,80,0,1
151434,-86.9565217391304,4,2,2,80,0,1
151891,-86.9565217391304,4,2,1,80,0,1
152804,-86.9565217391304,4,2,2,80,0,1
153566,-86.9565217391304,4,2,1,80,0,1
154175,-86.9565217391304,4,2,2,80,0,1
154327,-86.9565217391304,4,2,1,80,0,1
156002,-86.9565217391304,4,2,1,80,0,0
156307,-86.9565217391304,4,2,3,80,0,1
160723,-86.9565217391304,4,2,1,80,0,1
161180,-86.9565217391304,4,2,2,80,0,1
161637,-86.9565217391304,4,2,1,80,0,1
162550,-86.9565217391304,4,2,2,80,0,1
162551,-86.9565217391304,4,2,2,80,0,1
163312,-86.9565217391304,4,2,1,80,0,1
166053,-100,4,2,2,60,0,0
167119,-100,4,2,3,60,0,0
167575,-100,4,2,2,60,0,0
167576,-100,4,2,2,60,0,0
167880,-100,4,2,3,60,0,0
168185,-100,4,2,2,60,0,0
168490,-100,4,2,3,60,0,0
169099,-100,4,2,2,60,0,0
169556,-100,4,2,3,60,0,0
169860,-100,4,2,2,60,0,0
170012,-100,4,2,3,60,0,0
170317,-100,4,2,2,60,0,0
170622,-100,4,2,3,60,0,0
170773,-100,4,2,2,60,0,0
170926,-100,4,2,3,60,0,0
171231,-100,4,2,2,60,0,0
171992,-100,4,2,3,60,0,0
172297,-100,4,2,2,60,0,0
172448,-100,4,2,3,60,0,0
172449,-100,4,2,3,60,0,0
172754,-100,4,2,2,60,0,0
174733,-100,4,2,1,60,0,0
175495,-100,4,2,1,60,0,0
175799,-100,4,2,2,70,0,0
185545,-100,4,2,1,70,0,0
187677,-100,4,2,1,70,0,0
187982,-86.9565217391304,4,2,3,80,0,1
191485,-86.9565217391304,4,2,2,80,0,1
191637,-86.9565217391304,4,2,3,80,0,1
192551,-86.9565217391304,4,2,1,80,0,1
192855,-86.9565217391304,4,2,2,80,0,1
193312,-86.9565217391304,4,2,1,80,0,1
194225,-86.9565217391304,4,2,2,80,0,1
194226,-86.9565217391304,4,2,2,80,0,1
194987,-86.9565217391304,4,2,1,80,0,1
195596,-86.9565217391304,4,2,2,80,0,1
195748,-86.9565217391304,4,2,1,80,0,1
197424,-86.9565217391304,4,2,1,80,0,0
197728,-86.9565217391304,4,2,3,80,0,1
201231,-86.9565217391304,4,2,2,80,0,1
201383,-86.9565217391304,4,2,3,80,0,1
202297,-86.9565217391304,4,2,1,80,0,1
202601,-86.9565217391304,4,2,2,80,0,1
203058,-86.9565217391304,4,2,1,80,0,1
203061,-86.9565217391304,4,2,1,80,0,1
203971,-86.9565217391304,4,2,2,80,0,1
203972,-86.9565217391304,4,2,2,80,0,1
204733,-86.9565217391304,4,2,1,80,0,1
207474,-100,4,2,2,70,0,0
226814,-100,4,2,2,70,0,0
226967,-100,4,2,3,70,0,0
227271,-100,4,2,2,70,0,0
227576,-100,4,2,1,70,0,0
228337,-100,4,2,2,70,0,0
228490,-100,4,2,1,70,0,0
228642,-100,4,2,2,70,0,0
228794,-100,4,2,1,70,0,0
228946,-100,4,2,2,70,0,0
229099,-100,4,2,1,70,0,0
229403,-100,4,2,1,70,0,0
231688,-100,4,1,3,70,0,0

[Colours]
Combo1 : 225,157,89
Combo2 : 255,170,170
Combo3 : 181,125,204
Combo4 : 212,212,212

[HitObjects]
0,282,368,6,0,P|26:345|129:339,1,180,4|2,3:2|0:3,0:0:0:0:
161,272,977,2,0,P|239:266|302:267,1,120,8|2,0:3|0:3,0:0:0:0:
320,333,1434,2,0,P|398:339|461:338,1,120,0|8,3:0|0:3,0:0:0:0:
483,269,1891,1,2,0:3:0:0:
494,283,2195,2,0,L|507:140,1,120,8|2,0:3|0:3,0:0:0:0:
431,25,2804,6,0,P|352:23|356:118,1,180,0|2,3:0|0:3,0:0:0:0:
407,154,3413,2,0,P|347:153|287:148,1,120,8|2,0:3|0:3,0:0:0:0:
238,87,3870,2,0,P|178:87|118:92,1,120,0|8,3:0|0:3,0:0:0:0:
53,49,4327,1,2,0:3:0:0:
43,69,4632,2,0,L|48:156,1,60,8|0,0:3|0:0,0:0:0:0:
109,174,4936,2,0,L|104:261,1,60,2|8,0:3|0:0,0:0:0:0:
155,294,5241,6,0,P|79:272|20:360,1,180,4|2,3:1|0:3,0:0:0:0:
97,349,5850,2,0,P|209:346|233:351,1,120,8|2,0:3|0:3,0:0:0:0:
283,307,6307,2,0,P|284:277|282:247,2,60,0|0|8,3:0|0:0|0:3,0:0:0:0:
333,376,6764,1,2,0:3:0:0:
340,360,7068,2,0,P|409:354|484:354,1,120,8|2,0:3|0:3,0:0:0:0:
510,293,7525,1,8,0:3:0:0:
468,227,7677,6,0,L|480:139,2,60,4|2|0,3:2|0:3|0:0,0:0:0:0:
319,177,8287,2,0,L|310:117,2,60,8|0|2,0:3|0:0|0:3,0:0:0:0:
392,149,8743,2,0,P|442:127|523:122,1,120,4|8,3:1|0:3,0:0:0:0:
495,42,9200,2,0,P|463:33|408:30,1,60,8|0,0:3|3:0,0:0:0:0:
364,62,9505,2,0,P|314:51|283:50,1,60,8|8,0:3|0:1,0:0:0:0:
239,91,9809,2,0,P|189:102|158:103,1,60,8|8,0:3|0:0,0:0:0:0:
116,57,10114,6,0,P|60:28|-7:41,2,120,4|10|0,1:0|0:0|1:0,0:0:0:0:
131,188,11028,1,12,0:0:0:0:
62,150,11180,2,0,P|19:161|4:236,1,120,4|0,1:2|1:0,0:0:0:0:
32,300,11637,2,0,P|64:294|107:299,1,60,10|0,0:0|0:0,0:0:0:0:
142,354,11941,2,0,P|233:359|270:357,1,120,0|12,1:0|0:0,0:0:0:0:
341,222,12551,6,0,P|397:193|464:206,2,120,0|10|0,1:0|0:0|1:0,0:0:0:0:
431,349,13465,1,12,0:0:0:0:
491,299,13617,2,0,L|476:159,1,120,4|0,1:2|1:0,0:0:0:0:
426,120,14074,2,0,P|424:90|493:29,1,120,10|0,0:0|1:0,0:0:0:0:
484,30,14530,1,0,0:0:0:0:
409,8,14682,2,0,L|328:17,1,60,10|0,0:0|0:0,0:0:0:0:
312,83,14987,6,0,P|256:112|189:99,2,120,4|12|0,1:0|0:0|1:0,0:0:0:0:
161,41,15901,1,8,3:2:0:0:
108,98,16053,2,0,P|116:154|169:175,1,120,4|0,1:2|1:0,0:0:0:0:
225,231,16510,2,0,P|195:229|165:235,1,60,12|0,0:0|0:0,0:0:0:0:
114,294,16814,2,0,P|84:295|54:289,2,60,0|0|8,1:0|0:0|3:2,0:0:0:0:
179,337,17271,1,0,0:0:0:0:
179,337,17424,6,0,P|235:308|308:328,1,120,0|4,1:0|1:0,0:0:0:0:
334,379,17880,1,0,0:0:0:0:
363,306,18033,2,0,P|419:335|492:315,1,120,0|10,1:0|0:0,0:0:0:0:
508,256,18490,2,0,L|493:116,1,120,4|0,1:3|0:0,0:0:0:0:
419,118,18946,2,0,B|405:57|405:57|429:-9,2,120,8|2|8,0:0|1:3|0:0,0:0:0:0:
360,170,19708,1,0,0:0:0:0:
360,170,19784,1,0,0:0:0:0:
360,170,19860,6,0,P|291:160|226:158,2,120,4|10|0,1:0|0:0|1:0,0:0:0:0:
217,233,20774,1,12,0:0:0:0:
146,265,20926,2,0,P|103:254|88:179,1,120,4|0,1:2|1:0,0:0:0:0:
148,142,21383,2,0,P|149:112|143:82,1,60,10|0,0:0|0:0,0:0:0:0:
85,30,21687,2,0,P|176:35|213:33,1,120,0|12,1:0|0:0,0:0:0:0:
360,51,22297,6,0,P|416:22|483:35,2,120,0|10|0,1:0|0:0|1:0,0:0:0:0:
333,204,23211,1,12,0:0:0:0:
406,230,23363,2,0,L|418:349,1,120,4|0,1:2|1:0,0:0:0:0:
344,384,23820,2,0,P|314:382|259:309,1,120,10|0,0:0|1:0,0:0:0:0:
259,318,24276,1,0,0:0:0:0:
189,352,24428,2,0,L|108:343,1,60,10|0,0:0|0:0,0:0:0:0:
112,268,24733,6,0,P|56:297|-8:298,2,120,4|12|0,1:0|0:0|1:0,0:0:0:0:
145,115,25647,1,8,3:2:0:0:
117,187,25799,2,0,P|63:165|55:109,1,120,4|0,1:0|1:0,0:0:0:0:
89,38,26256,2,0,P|59:32|29:33,1,60,12|0,0:0|0:0,0:0:0:0:
145,115,26560,2,0,P|174:116|204:110,2,60,0|0|8,1:0|0:0|3:2,0:0:0:0:
167,39,27017,1,0,0:0:0:0:
167,39,27170,6,0,P|223:10|296:30,1,120,4|4,1:0|1:3,0:0:0:0:
314,86,27626,1,0,0:0:0:0:
357,21,27779,2,0,P|413:50|486:30,1,120,4|10,1:0|0:0,0:0:0:0:
507,109,28236,2,0,L|494:228,1,120,4|0,1:3|0:0,0:0:0:0:
423,261,28692,2,0,L|412:182,2,60,4|0|6,1:0|0:0|1:3,0:0:0:0:
486,307,29150,1,8,1:3:0:0:
413,335,29302,2,0,L|339:321,1,60,8|8,0:0|1:3,0:0:0:0:
283,356,29606,6,0,P|214:366|149:368,2,120,4|8|0,3:2|0:3|3:0,0:0:0:0:
160,259,30520,1,8,0:3:0:0:
160,259,30672,2,0,P|84:284|25:206,1,180,0|8,3:0|0:3,0:0:0:0:
122,92,31434,2,0,L|112:20,2,60,0|0|8,3:0|3:0|0:3,0:0:0:0:
226,208,32043,6,0,P|231:137|249:72,2,120,0|8|0,3:0|0:3|3:0,0:0:0:0:
331,92,32957,1,8,0:3:0:0:
331,92,33109,2,0,P|407:67|466:145,1,180,0|8,3:0|0:3,0:0:0:0:
492,288,33870,2,0,L|484:280|480:276|476:272|472:268|469:265|465:261|392:248,2,60,0|0|12,3:0|3:0|0:1,0:0:0:0:
492,288,34479,6,0,L|356:297,1,120,4|10,1:2|0:0,0:0:0:0:
318,359,34936,1,0,0:0:0:0:
318,359,35089,2,0,P|235:334|194:339,1,120,4|10,0:3|0:1,0:0:0:0:
140,383,35545,2,0,L|154:245,1,120,8|8,0:3|0:3,0:0:0:0:
110,196,36002,1,8,0:0:0:0:
93,207,36307,2,0,P|36:223|12:218,1,60,0|0,1:0|0:0,0:0:0:0:
16,147,36611,2,0,P|73:131|97:136,1,60,10|0,0:0|0:0,0:0:0:0:
136,85,36916,6,0,P|219:110|260:105,1,120,4|10,1:0|0:1,0:0:0:0:
321,72,37373,2,0,L|308:5,1,60,0|4,0:0|0:3,0:0:0:0:
388,134,37677,2,0,L|401:67,1,60,0|10,0:0|0:0,0:0:0:0:
449,15,37982,2,0,P|489:13|494:97,1,120,4|0,1:2|1:0,0:0:0:0:
486,153,38439,1,8,0:0:0:0:
486,153,38591,1,0,0:0:0:0:
426,202,38743,2,0,L|443:273,1,60,8|0,0:3|3:0,0:0:0:0:
499,311,39048,1,2,3:0:0:0:
425,337,39200,2,0,L|419:386,1,30,2|2,0:3|0:3,0:0:0:0:
415,332,39353,6,0,P|333:314|270:313,2,120,4|8|0,3:2|0:3|3:0,0:0:0:0:
292,235,40267,1,8,0:3:0:0:
292,235,40419,2,0,P|216:210|157:288,1,180,0|8,3:0|0:3,0:0:0:0:
7,323,41181,2,0,L|15:382,2,60,0|0|8,3:0|3:0|0:3,0:0:0:0:
101,198,41790,6,0,P|96:127|78:62,2,120,0|8|0,3:0|0:3|3:0,0:0:0:0:
92,354,42704,1,8,0:3:0:0:
92,354,42856,2,0,P|168:379|227:301,1,180,0|8,3:0|0:3,0:0:0:0:
183,160,43617,2,0,L|175:152|171:148|167:144|163:140|160:137|156:133|229:120,2,60,0|0|12,3:0|3:0|0:1,0:0:0:0:
183,160,44226,6,0,L|319:169,1,120,4|10,1:2|0:0,0:0:0:0:
341,245,44683,1,0,0:0:0:0:
341,245,44836,2,0,P|424:220|465:225,1,120,4|10,0:3|0:1,0:0:0:0:
500,286,45292,2,0,L|514:148,1,120,8|8,0:3|0:3,0:0:0:0:
477,85,45749,1,8,0:0:0:0:
466,103,46054,2,0,P|409:119|385:114,1,60,0|0,1:0|0:0,0:0:0:0:
359,59,46358,2,0,P|302:43|278:48,1,60,10|0,0:0|0:0,0:0:0:0:
254,104,46663,6,0,P|180:118|139:91,1,120,4|10,1:0|0:1,0:0:0:0:
109,27,47119,1,0,0:0:0:0:
11,150,47424,2,0,L|22:208,1,60,0|10,0:0|0:0,0:0:0:0:
30,286,47729,2,0,P|51:234|107:240,1,120,4|0,1:2|1:0,0:0:0:0:
101,318,48186,1,8,0:0:0:0:
101,318,48338,1,0,0:0:0:0:
172,288,48490,2,0,L|230:274,1,60,0|0,1:0|3:0,0:0:0:0:
303,299,48794,1,2,3:0:0:0:
303,299,48946,1,2,0:3:0:0:
243,351,49100,6,0,P|325:369|388:370,1,120,4|2,0:2|0:0,0:0:0:0:
420,320,49556,1,0,0:0:0:0:
497,301,49708,2,0,L|486:360,2,60,4|0|2,0:0|0:0|0:0,0:0:0:0:
442,245,50165,2,0,P|423:182|432:116,1,120,2|0,0:0|0:0,0:0:0:0:
492,83,50622,2,0,P|430:108|370:97,1,120,2|4,0:0|0:0,0:0:0:0:
324,45,51078,1,4,0:0:0:0:
302,120,51231,2,0,P|268:118|224:111,1,60,2|0,0:0|0:0,0:0:0:0:
181,64,51535,6,0,P|109:88|40:87,1,120,4|2,0:0|0:0,0:0:0:0:
31,242,52144,1,4,0:0:0:0:
31,242,52297,1,4,0:0:0:0:
84,299,52449,2,0,L|160:284,1,60,2|2,0:0|0:0,0:0:0:0:
206,327,52754,2,0,B|188:284|188:284|212:205,1,120,4|2,0:0|0:0,0:0:0:0:
382,172,53363,2,0,B|400:215|400:215|376:294,1,120,2|4,0:0|1:0,0:0:0:0:
378,285,53972,6,0,P|443:266|514:265,1,120,6|8,0:0|0:0,0:0:0:0:
494,263,54429,1,2,0:2:0:0:
454,196,54581,2,0,P|444:133|457:51,1,120,2|8,0:0|0:0,0:0:0:0:
380,40,55038,2,0,P|334:52|244:53,1,120,4|0,1:0|0:0,0:0:0:0:
206,110,55495,1,8,0:0:0:0:
206,110,55647,1,2,0:2:0:0:
138,71,55799,1,2,0:0:0:0:
138,71,55952,1,2,0:0:0:0:
67,112,56104,2,0,L|56:40,1,60,8|2,0:0|0:2,0:0:0:0:
136,150,56408,6,0,P|147:236|134:276,1,120,4|10,1:2|0:1,0:0:0:0:
100,335,56865,1,2,0:0:0:0:
24,354,57018,2,0,L|160:352,1,120,8|8,0:3|0:0,0:0:0:0:
204,302,57474,2,0,P|274:336|333:335,1,120,4|0,1:2|3:0,0:0:0:0:
374,286,57931,2,0,L|366:203,1,60,8|2,0:0|0:0,0:0:0:0:
446,334,58236,1,0,1:0:0:0:
446,334,58388,1,0,1:0:0:0:
497,275,58540,2,0,L|489:192,1,60,8|0,0:0|0:3,0:0:0:0:
473,138,58845,6,0,P|413:132|355:118,1,120,4|2,0:2|0:0,0:0:0:0:
313,52,59301,1,0,0:0:0:0:
239,77,59454,2,0,L|227:18,2,60,4|0|2,0:0|0:0|0:0,0:0:0:0:
245,155,59910,2,0,P|182:136|116:145,1,120,2|0,0:0|0:0,0:0:0:0:
112,217,60367,2,0,P|50:242|-10:231,1,120,2|4,0:0|0:0,0:0:0:0:
42,170,60825,1,4,0:0:0:0:
3,101,60977,2,0,P|5:67|12:23,1,60,2|0,0:0|0:0,0:0:0:0:
82,17,61281,6,0,P|154:41|223:40,1,120,4|2,0:0|0:0,0:0:0:0:
350,13,61891,2,0,P|364:53|340:132,1,120,4|2,0:0|0:0,0:0:0:0:
267,114,62348,1,2,0:0:0:0:
271,194,62499,2,0,B|314:176|314:176|393:200,1,120,4|2,0:0|0:0,0:0:0:0:
505,353,63108,2,0,B|462:371|462:371|383:347,1,120,2|4,0:0|1:0,0:0:0:0:
257,270,63718,6,0,P|192:289|121:290,1,120,4|10,1:0|0:0,0:0:0:0:
140,292,64174,1,0,0:0:0:0:
82,344,64327,2,0,P|92:281|79:199,1,120,0|8,1:0|0:0,0:0:0:0:
145,173,64784,2,0,P|133:127|132:37,1,120,4|0,1:2|0:0,0:0:0:0:
195,11,65240,1,8,0:0:0:0:
195,11,65392,1,0,0:0:0:0:
255,60,65544,1,8,0:3:0:0:
255,60,65697,1,2,0:1:0:0:
326,28,65849,2,0,L|336:-16,2,30,8|0|2,0:0|0:0|0:0,0:0:0:0:
352,101,66155,6,0,P|438:112|413:30,1,180,4|4,1:0|1:2,0:0:0:0:
512,280,67068,2,0,P|506:201|429:221,1,180,4|4,1:0|1:2,0:0:0:0:
195,361,67982,2,0,L|207:272,1,90,4|0,1:0|3:0,0:0:0:0:
232,242,68287,2,0,B|265:255|265:255|310:255,1,60,4|0,1:2|0:0,0:0:0:0:
344,183,68591,6,0,L|333:33,1,138.000002632141,4|10,1:2|0:1,0:0:0:0:
267,9,69048,2,0,B|210:-2|158:34|158:34|168:85,1,138.000002632141
174,134,69505,1,8,0:0:0:0:
174,134,69657,1,2,0:0:0:0:
44,136,69809,2,0,P|40:75|5:-6,2,138.000002632141,0|8|8,1:0|0:0|0:3,0:0:0:0:
19,208,70571,1,2,0:1:0:0:
72,261,70723,2,0,L|61:334,1,69.0000013160706,8|0,0:1|0:0,0:0:0:0:
162,384,71028,6,0,P|203:353|244:346,1,69.0000013160706,0|0,3:0|0:0,0:0:0:0:
215,272,71332,2,0,P|267:292|288:324,1,69.0000013160706,10|0,0:0|0:0,0:0:0:0:
327,356,71637,2,0,B|364:366|400:360|400:360|422:334|420:286,1,138.000002632141,4|8,0:3|0:0,0:0:0:0:
374,236,72094,1,0,3:0:0:0:
482,256,72246,2,0,B|469:223|469:223|469:164|495:108,1,138.000002632141,0|8,1:0|0:0,0:0:0:0:
451,50,72703,1,0,0:0:0:0:
451,50,72855,2,0,L|368:43,1,69.0000013160706,0|0,1:0|3:0,0:0:0:0:
329,107,73160,2,0,P|268:111|203:84,1,103.500001974106,12|0,1:0|0:0,0:0:0:0:
204,69,73464,6,0,P|158:47|96:102,1,138.000002632141,4|10,1:0|0:0,0:0:0:0:
128,166,73921,1,8,0:0:0:0:
128,166,74073,1,2,1:3:0:0:
52,155,74226,1,2,0:3:0:0:
52,155,74378,1,8,0:3:0:0:
3,251,74530,2,0,P|53:233|152:263,1,138.000002632141,4|2,1:0|0:0,0:0:0:0:
176,313,74987,2,0,P|226:331|262:328,1,69.0000013160706,8|4,0:0|0:0,0:0:0:0:
310,363,75292,2,0,P|344:359|375:344,1,69.0000013160706,0|2,1:0|0:0,0:0:0:0:
399,272,75596,2,0,L|386:197,1,69.0000013160706,4|0,1:2|0:0,0:0:0:0:
486,344,75901,6,0,P|499:224|506:200,1,138.000002632141,4|12,1:0|0:0,0:0:0:0:
459,145,76358,1,8,0:0:0:0:
459,145,76510,1,2,3:0:0:0:
496,78,76662,1,2,0:3:0:0:
496,78,76814,1,10,0:3:0:0:
409,6,76967,2,0,P|348:22|251:21,1,138.000002632141,4|2,1:2|0:3,0:0:0:0:
218,76,77424,1,8,0:3:0:0:
218,76,77576,1,4,1:0:0:0:
151,40,77728,1,2,0:3:0:0:
151,40,77880,1,2,0:3:0:0:
85,79,78033,2,0,L|93:131,2,34.5000006580353,4|8|8,1:2|0:3|0:3,0:0:0:0:
29,27,78337,6,0,L|18:164,1,138.000002632141,4|10,1:2|0:1,0:0:0:0:
53,232,78794,2,0,B|110:221|162:257|162:257|152:308,1,138.000002632141
105,335,79251,1,8,0:0:0:0:
105,335,79403,1,2,0:0:0:0:
231,342,79555,2,0,P|234:281|270:200,2,138.000002632141,0|8|8,1:0|0:0|0:3,0:0:0:0:
297,379,80317,1,2,0:1:0:0:
364,343,80469,2,0,L|353:270,1,69.0000013160706,8|0,0:1|0:0,0:0:0:0:
469,237,80774,6,0,P|435:233|405:218,1,69.0000013160706,0|0,3:0|0:0,0:0:0:0:
489,163,81078,2,0,P|459:148|425:144,1,69.0000013160706,10|0,0:0|0:0,0:0:0:0:
443,64,81383,2,0,B|405:53|370:60|370:60|348:86|350:134,1,138.000002632141,4|8,0:3|0:0,0:0:0:0:
274,107,81840,1,0,3:0:0:0:
186,19,81992,2,0,B|199:52|199:52|198:110|173:167,1,138.000002632141,0|8,1:0|0:0,0:0:0:0:
120,208,82449,1,0,0:0:0:0:
120,208,82601,2,0,L|37:201,1,69.0000013160706,0|0,1:0|3:0,0:0:0:0:
163,276,82906,2,0,P|243:272|280:292,1,103.500001974106,12|0,1:0|0:0,0:0:0:0:
273,317,83210,6,0,P|319:339|381:284,1,138.000002632141,4|10,1:0|0:0,0:0:0:0:
439,342,83667,2,0,P|468:351|507:350,1,69.0000013160706,8|2,0:0|1:3,0:0:0:0:
475,271,83972,1,2,0:3:0:0:
475,271,84124,1,8,0:3:0:0:
512,156,84276,2,0,P|446:174|380:154,1,138.000002632141,4|2,1:0|0:0,0:0:0:0:
329,98,84733,2,0,P|279:116|243:113,1,69.0000013160706,8|4,0:0|0:0,0:0:0:0:
182,35,85038,2,0,P|150:20|116:16,1,69.0000013160706,0|2,1:0|0:0,0:0:0:0:
28,101,85342,2,0,L|39:168,1,69.0000013160706,4|8,1:0|0:0,0:0:0:0:
113,197,85647,5,4,1:2:0:0:
113,197,85799,1,8,0:0:0:0:
192,176,85952,2,0,L|180:243,1,69.0000013160706,12|8,1:0|0:0,0:0:0:0:
126,297,86256,1,8,1:0:0:0:
199,316,86408,1,8,1:0:0:0:
254,264,86560,1,8,1:0:0:0:
313,311,86713,2,0,P|380:301|457:302,1,138.000002632141,4|8,1:2|1:0,0:0:0:0:
512,360,87170,1,8,1:0:0:0:
512,360,87627,1,0,3:0:0:0:
512,360,87779,1,12,1:0:0:0:
493,338,88084,6,0,P|476:265|479:218,1,120,4|10,1:0|0:0,0:0:0:0:
468,76,88693,2,0,P|477:21|477:5,2,60,0|0|12,1:0|0:0|0:0,0:0:0:0:
416,134,89150,2,0,P|329:115|292:118,1,120,4|0,1:2|1:0,0:0:0:0:
233,159,89606,1,10,0:0:0:0:
111,60,89911,2,0,P|56:105|61:156,1,120,0|12,1:0|0:0,0:0:0:0:
106,210,90368,1,0,0:0:0:0:
182,224,90520,6,0,P|196:292|202:344,1,120,0|10,1:0|0:0,0:0:0:0:
46,324,91129,2,0,P|37:379|37:395,2,60,0|0|12,1:0|0:0|0:0,0:0:0:0:
120,348,91586,2,0,P|207:367|244:364,1,120,4|0,1:2|1:0,0:0:0:0:
291,308,92043,1,10,0:0:0:0:
424,384,92347,2,0,L|417:312,1,60,0|0,1:0|0:0,0:0:0:0:
492,299,92652,2,0,L|499:227,1,60,10|0,0:0|0:0,0:0:0:0:
448,178,92957,6,0,P|390:191|324:180,1,120,0|12,1:0|0:0,0:0:0:0:
223,68,93566,1,0,1:0:0:0:
223,68,93718,1,0,0:0:0:0:
152,101,93870,1,8,3:2:0:0:
152,101,94022,1,0,1:0:0:0:
87,56,94175,2,0,P|78:121|109:173,1,120,0|12,0:0|0:0,0:0:0:0:
67,237,94632,1,0,0:0:0:0:
67,237,94784,2,0,P|96:241|143:249,1,60,0|0,1:0|0:0,0:0:0:0:
169,311,95089,1,8,3:2:0:0:
169,311,95393,6,0,P|240:276|284:277,1,120,0|4,1:0|1:0,0:0:0:0:
401,373,96002,2,0,P|460:368|511:338,1,120,0|10,1:0|0:0,0:0:0:0:
444,297,96459,2,0,L|465:172,1,120,4|0,1:3|0:0,0:0:0:0:
509,114,96916,1,8,0:0:0:0:
359,85,97221,2,0,L|366:21,1,60,2|0,1:3|0:0,0:0:0:0:
287,30,97525,2,0,L|283:0,2,30,8|0|8,0:0|0:0|0:0,0:0:0:0:
242,94,97830,6,0,P|243:153|227:211,1,120,4|10,1:0|0:0,0:0:0:0:
89,285,98439,2,0,P|34:276|18:276,2,60,0|0|12,1:0|0:0|0:0,0:0:0:0:
138,345,98896,2,0,P|225:326|262:329,1,120,4|0,1:2|1:0,0:0:0:0:
320,369,99352,1,10,0:0:0:0:
411,239,99657,2,0,P|353:243|322:292,1,120,0|12,1:0|0:0,0:0:0:0:
255,327,100114,1,0,0:0:0:0:
201,270,100266,6,0,P|215:202|221:150,1,120,0|10,1:0|0:0,0:0:0:0:
86,71,100875,2,0,P|77:16|77:0,2,60,0|0|12,1:0|0:0|0:0,0:0:0:0:
38,133,101332,2,0,P|125:114|162:117,1,120,4|0,1:2|1:0,0:0:0:0:
220,151,101789,1,10,0:0:0:0:
366,99,102093,2,0,L|359:27,1,60,0|0,1:0|0:0,0:0:0:0:
445,3,102398,2,0,L|439:62,1,60,10|0,0:0|0:0,0:0:0:0:
495,117,102703,6,0,P|486:176|499:234,1,120,4|12,1:0|0:0,0:0:0:0:
385,341,103312,1,0,1:0:0:0:
385,341,103464,1,0,0:0:0:0:
315,306,103616,1,8,3:2:0:0:
315,306,103768,1,0,1:0:0:0:
250,349,103921,2,0,P|185:358|133:327,2,120,0|12|0,0:0|0:0|1:0,0:0:0:0:
235,193,104835,1,8,3:2:0:0:
174,242,104987,2,0,L|126:231,1,30
179,253,105139,6,0,P|119:257|68:287,1,120,4|2,1:0|0:0,0:0:0:0:
15,230,105596,2,0,L|29:99,1,120,4|0,1:3|0:0,0:0:0:0:
15,33,106053,1,4,1:0:0:0:
87,61,106205,2,0,B|149:66|149:66|212:40,1,120,0|4,1:0|1:3,0:0:0:0:
274,74,106662,2,0,L|281:10,1,60,0|0,1:0|1:0,0:0:0:0:
353,56,106967,2,0,L|360:120,1,60,4|8,1:0|1:3,0:0:0:0:
436,77,107271,1,4,1:3:0:0:
436,77,107424,1,8,1:3:0:0:
498,29,107576,6,0,P|501:88|510:148,2,120,4|8|0,3:2|0:3|3:0,0:0:0:0:
449,200,108490,1,8,0:3:0:0:
449,200,108642,2,0,B|407:161|367:195|367:195|327:229|284:192,1,180,0|8,3:0|0:3,0:0:0:0:
187,73,109404,2,0,L|177:1,2,60,0|0|8,3:0|3:0|0:3,0:0:0:0:
245,217,110013,6,0,P|250:146|268:81,2,120,0|8|0,3:0|0:3|3:0,0:0:0:0:
169,353,110927,1,8,0:3:0:0:
169,353,111079,2,0,B|90:377|90:377|36:352|34:300,1,180,0|8,3:0|0:3,0:0:0:0:
120,180,111840,2,0,L|112:172|108:168|104:164|100:160|97:157|93:153|20:166,2,60,0|0|12,3:0|3:0|0:1,0:0:0:0:
120,180,112449,6,0,L|111:316,1,120,4|10,1:2|0:0,0:0:0:0:
162,367,112906,1,0,0:0:0:0:
162,367,113059,2,0,P|245:342|286:347,1,120,4|10,0:3|0:1,0:0:0:0:
348,376,113515,2,0,L|362:238,1,120,8|8,0:3|0:3,0:0:0:0:
430,222,113972,1,8,0:0:0:0:
419,207,114277,2,0,P|476:223|500:218,1,60,0|0,1:0|0:0,0:0:0:0:
494,147,114581,2,0,P|437:131|413:136,1,60,10|0,0:0|0:0,0:0:0:0:
363,157,114886,6,0,P|280:182|239:177,1,120,4|12,1:0|0:0,0:0:0:0:
187,129,115343,2,0,L|174:62,1,60,0|4,0:0|0:3,0:0:0:0:
98,60,115647,2,0,L|111:-7,1,60,0|10,0:0|0:0,0:0:0:0:
0,74,115952,2,0,P|7:129|63:138,1,120,4|0,1:2|1:0,0:0:0:0:
126,183,116409,1,8,0:0:0:0:
126,183,116561,1,0,0:0:0:0:
56,217,116713,2,0,L|73:288,1,60,8|0,0:3|3:0,0:0:0:0:
21,337,117018,1,2,3:0:0:0:
103,345,117170,2,0,L|99:397,1,30,2|2,0:3|0:3,0:0:0:0:
108,337,117323,6,0,P|190:319|253:318,2,120,4|8|0,3:2|0:3|3:0,0:0:0:0:
220,229,118236,1,8,0:3:0:0:
220,229,118388,2,0,B|261:267|301:233|301:233|341:199|384:236,1,180,0|8,3:0|0:3,0:0:0:0:
505,331,119151,2,0,L|497:272,2,60,0|0|8,3:0|3:0|0:3,0:0:0:0:
425,166,119760,6,0,P|420:237|402:302,2,120,0|8|0,3:0|0:3|3:0,0:0:0:0:
511,36,120672,1,8,0:3:0:0:
511,36,120825,2,0,B|432:12|432:12|378:37|376:89,1,180,0|8,3:0|0:3,0:0:0:0:
287,214,121587,2,0,L|279:206|275:202|271:198|267:194|264:191|260:187|333:174,2,60,0|0|12,3:0|3:0|0:1,0:0:0:0:
287,214,122196,6,0,L|294:94,1,120,4|10,1:2|0:0,0:0:0:0:
244,26,122653,1,0,0:0:0:0:
244,26,122804,2,0,P|161:51|120:46,1,120,4|10,0:3|0:1,0:0:0:0:
70,0,123262,2,0,L|84:138,1,120,8|8,0:3|0:3,0:0:0:0:
144,159,123719,1,8,0:0:0:0:
132,178,124024,2,0,P|75:194|51:189,1,60,0|0,1:0|0:0,0:0:0:0:
208,209,124328,2,0,P|237:212|264:225,1,60,10|0,0:0|0:0,0:0:0:0:
150,253,124633,6,0,P|67:278|26:273,1,120,4|10,1:0|0:0,0:0:0:0:
2,345,125089,1,0,0:0:0:0:
158,337,125394,2,0,L|216:348,1,60,0|10,0:0|0:0,0:0:0:0:
288,315,125699,2,0,P|309:367|365:361,1,120,4|0,1:2|1:0,0:0:0:0:
368,283,126156,1,8,0:0:0:0:
368,283,126308,1,0,0:0:0:0:
433,325,126460,2,0,L|491:311,1,60,0|0,1:0|3:0,0:0:0:0:
503,233,126764,1,2,3:0:0:0:
503,233,126916,1,2,0:3:0:0:
438,187,127068,6,0,P|443:127|457:69,1,120,4|2,0:2|0:0,0:0:0:0:
389,31,127526,1,0,0:0:0:0:
319,66,127678,2,0,L|308:7,2,60,4|0|2,0:0|0:0|0:0,0:0:0:0:
269,126,128135,2,0,P|206:107|140:116,1,120,2|0,0:0|0:0,0:0:0:0:
143,189,128592,2,0,P|205:214|265:203,1,120,2|4,0:0|0:0,0:0:0:0:
328,176,129048,1,4,0:0:0:0:
391,222,129201,2,0,P|393:256|400:300,1,60,2|0,0:0|0:0,0:0:0:0:
348,343,129505,6,0,P|276:319|207:320,1,120,4|2,0:0|0:0,0:0:0:0:
70,326,130114,1,4,0:0:0:0:
70,326,130267,1,4,0:0:0:0:
123,383,130419,2,0,L|199:368,1,60,2|2,0:0|0:0,0:0:0:0:
232,317,130724,2,0,B|214:274|214:274|238:195,1,120,4|2,0:0|0:0,0:0:0:0:
131,52,131333,2,0,B|149:95|149:95|125:174,1,120,2|4,0:0|1:0,0:0:0:0:
282,144,131942,6,0,P|347:163|418:164,1,120,6|8,0:0|0:0,0:0:0:0:
398,166,132399,1,2,0:2:0:0:
459,118,132551,2,0,P|449:181|462:263,1,120,2|8,0:0|0:0,0:0:0:0:
508,293,133008,2,0,P|462:281|372:280,1,120,4|0,1:0|0:0,0:0:0:0:
328,327,133465,1,8,0:0:0:0:
328,327,133617,1,2,0:2:0:0:
260,366,133769,1,2,0:0:0:0:
260,366,133922,1,2,0:0:0:0:
189,325,134074,2,0,L|195:390,1,60,8|2,0:0|0:2,0:0:0:0:
258,287,134378,6,0,P|269:201|256:161,1,120,4|10,1:2|0:1,0:0:0:0:
192,129,134835,1,2,0:0:0:0:
118,156,134988,2,0,L|128:283,1,120,8|8,0:3|0:0,0:0:0:0:
49,279,135444,2,0,L|39:159,1,120,4|0,1:2|3:0,0:0:0:0:
72,88,135901,2,0,L|80:5,1,60,8|2,0:0|0:0,0:0:0:0:
154,9,136206,1,0,1:0:0:0:
154,9,136358,1,0,1:0:0:0:
198,69,136510,2,0,L|191:132,1,60,8|0,0:0|0:3,0:0:0:0:
261,163,136815,6,0,P|321:157|379:143,1,120,4|2,0:2|0:0,0:0:0:0:
367,65,137271,1,0,0:0:0:0:
441,90,137423,2,0,L|453:31,2,60,4|0|2,0:0|0:0|0:0,0:0:0:0:
455,167,137880,2,0,P|450:226|469:283,1,120,2|0,0:0|0:0,0:0:0:0:
509,350,138337,2,0,P|447:325|387:336,1,120,2|4,0:0|0:0,0:0:0:0:
332,377,138793,1,4,0:0:0:0:
258,350,138946,2,0,P|260:316|267:272,1,60,2|0,0:0|0:0,0:0:0:0:
187,271,139251,6,0,P|115:295|46:294,1,120,4|2,0:0|0:0,0:0:0:0:
1,156,139860,2,0,L|13:33,1,120,4|2,0:0|0:0,0:0:0:0:
86,9,140317,1,2,0:0:0:0:
144,60,140469,2,0,B|187:42|187:42|266:66,1,120,4|2,0:0|0:0,0:0:0:0:
346,226,141078,2,0,B|389:244|389:244|468:220,1,120,2|4,0:0|1:0,0:0:0:0:
338,123,141687,6,0,P|273:142|202:143,1,120,4|10,1:0|0:0,0:0:0:0:
221,145,142144,1,0,0:0:0:0:
166,200,142296,2,0,P|171:259|161:318,1,120,0|8,1:0|0:0,0:0:0:0:
82,314,142754,2,0,P|76:254|86:195,1,120,4|0,1:2|0:0,0:0:0:0:
32,139,143210,1,8,0:0:0:0:
32,139,143362,1,0,0:0:0:0:
58,65,143514,1,8,0:3:0:0:
58,65,143667,1,2,0:1:0:0:
133,47,143819,2,0,L|143:3,2,30,8|0|2,0:0|0:0|0:0,0:0:0:0:
183,106,144124,6,0,P|269:117|244:35,1,180,4|4,1:0|1:2,0:0:0:0:
432,210,145038,2,0,P|426:131|349:151,1,180,4|4,1:0|1:2,0:0:0:0:
133,158,145952,6,0,L|145:247,1,90,4|0,1:0|3:0,0:0:0:0:
172,274,146255,2,0,B|196:274|196:274|229:261,1,60,4|0,1:2|0:0,0:0:0:0:
231,351,146561,6,0,L|81:340,1,138.000002632141,4|10,1:2|0:1,0:0:0:0:
25,306,147018,2,0,B|82:317|134:281|134:281|124:230,1,138.000002632141
70,210,147475,1,8,0:0:0:0:
70,210,147627,1,2,0:0:0:0:
162,131,147779,2,0,P|158:70|123:-11,2,138.000002632141,0|8|8,1:0|0:0|0:3,0:0:0:0:
222,176,148541,1,2,0:1:0:0:
288,139,148693,2,0,L|277:66,1,69.0000013160706,8|0,0:1|0:0,0:0:0:0:
446,63,148998,6,0,P|415:104|408:145,1,69.0000013160706,0|0,3:0|0:0,0:0:0:0:
358,178,149302,2,0,P|389:219|396:260,1,69.0000013160706,10|0,0:0|0:0,0:0:0:0:
353,300,149607,2,0,B|391:308|408:343|408:343|408:307|447:286,1,138.000002632141,4|8,0:3|0:0,0:0:0:0:
484,352,150064,1,0,3:0:0:0:
337,374,150216,2,0,B|295:354|236:354|236:354|203:367,1,138.000002632141,0|8,1:0|0:0,0:0:0:0:
170,299,150673,1,0,0:0:0:0:
170,299,150825,2,0,L|87:306,1,69.0000013160706,0|0,1:0|3:0,0:0:0:0:
37,349,151130,2,0,P|41:288|14:223,1,103.500001974106,12|0,1:0|0:0,0:0:0:0:
63,232,151434,6,0,P|15:187|35:124,1,138.000002632141,4|10,1:0|0:0,0:0:0:0:
53,50,151891,1,8,0:0:0:0:
53,50,152043,1,2,1:3:0:0:
116,114,152196,1,2,0:3:0:0:
116,114,152348,1,8,0:3:0:0:
232,36,152500,2,0,P|282:18|365:30,1,138.000002632141,4|2,1:0|0:0,0:0:0:0:
393,100,152957,2,0,P|443:118|479:115,1,69.0000013160706,8|4,0:0|0:0,0:0:0:0:
447,193,153262,2,0,P|481:189|512:174,1,69.0000013160706,0|2,1:0|0:0,0:0:0:0:
402,253,153566,2,0,L|413:320,1,69.0000013160706,4|0,1:2|0:0,0:0:0:0:
255,382,153871,6,0,P|268:262|275:238,1,138.000002632141,4|12,1:0|0:0,0:0:0:0:
340,211,154328,1,8,0:0:0:0:
340,211,154480,1,2,3:0:0:0:
275,171,154632,1,2,0:3:0:0:
275,171,154784,1,10,0:3:0:0:
185,278,154937,2,0,P|124:294|27:293,1,138.000002632141,4|2,1:2|0:3,0:0:0:0:
3,235,155394,1,8,0:3:0:0:
3,235,155546,1,4,1:0:0:0:
52,177,155698,1,2,0:3:0:0:
52,177,155850,1,2,0:3:0:0:
12,111,156003,2,0,L|6:76,2,34.5000006580353,4|8|8,1:2|0:3|0:3,0:0:0:0:
82,59,156307,6,0,L|219:70,1,138.000002632141,4|10,1:2|0:1,0:0:0:0:
261,133,156764,2,0,B|318:144|370:108|370:108|360:57,1,138.000002632141
336,15,157221,1,8,0:0:0:0:
336,15,157373,1,2,0:0:0:0:
440,100,157525,2,0,P|412:163|408:231,2,138.000002632141,0|8|8,1:0|0:0|0:3,0:0:0:0:
512,127,158287,1,2,0:1:0:0:
491,199,158439,2,0,L|502:272,1,69.0000013160706,8|0,0:1|0:0,0:0:0:0:
413,375,158744,6,0,P|379:371|349:356,1,69.0000013160706,0|0,3:0|0:0,0:0:0:0:
298,298,159048,2,0,P|268:313|234:317,1,69.0000013160706,10|0,0:0|0:0,0:0:0:0:
216,242,159353,2,0,B|176:247|160:285|160:285|160:249|126:228,1,138.000002632141,4|8,0:3|0:0,0:0:0:0:
86,295,159810,1,0,3:0:0:0:
0,214,159962,2,0,B|22:163|23:105|23:105|11:81,1,138.000002632141,0|8,1:0|0:0,0:0:0:0:
80,42,160419,1,0,0:0:0:0:
80,42,160571,2,0,L|163:49,1,69.0000013160706,0|0,1:0|3:0,0:0:0:0:
209,96,160876,2,0,P|289:92|326:112,1,103.500001974106,12|0,1:0|0:0,0:0:0:0:
332,71,161180,6,0,P|378:93|440:38,1,138.000002632141,4|10,1:0|0:0,0:0:0:0:
502,1,161637,2,0,P|511:30|510:69,1,69.0000013160706,8|2,0:0|1:3,0:0:0:0:
472,134,161942,1,2,0:3:0:0:
472,134,162094,1,8,0:3:0:0:
512,255,162246,2,0,P|446:237|380:257,1,138.000002632141,4|2,1:0|0:0,0:0:0:0:
340,320,162703,2,0,P|290:338|254:335,1,69.0000013160706,8|4,0:0|0:0,0:0:0:0:
170,247,163008,2,0,P|204:251|235:266,1,69.0000013160706,0|2,1:0|0:0,0:0:0:0:
139,379,163312,2,0,L|127:310,1,69.0000013160706,4|8,1:0|0:0,0:0:0:0:
93,242,163617,5,4,1:2:0:0:
93,242,163769,1,8,0:0:0:0:
26,288,163922,2,0,L|14:221,1,69.0000013160706,12|8,1:0|0:0,0:0:0:0:
16,144,164226,1,8,1:0:0:0:
89,125,164378,1,8,1:0:0:0:
127,59,164530,1,8,1:0:0:0:
165,124,164683,2,0,P|232:134|309:133,1,138.000002632141,4|8,1:2|1:0,0:0:0:0:
348,73,165140,1,8,1:0:0:0:
348,73,165596,5,0,3:0:0:0:
348,73,165748,1,12,1:0:0:0:
343,88,166053,6,0,B|331:113|354:145|397:153|420:112|420:112|439:72|482:77|498:102|515:123|493:148,1,240,4|8,1:0|0:0,0:0:0:0:
507,269,166967,1,2,0:0:0:0:
507,269,167119,2,0,P|453:248|323:277,1,180,2|8,3:2|0:0,0:0:0:0:
220,373,167880,1,0,3:0:0:0:
77,309,168185,2,0,L|84:234,1,60,0|0,3:0|0:0,0:0:0:0:
19,202,168490,6,0,P|81:172|20:92,2,180,0|0|4,3:0|0:0|0:0,0:0:0:0:
19,202,169556,1,0,3:0:0:0:
169,241,169860,1,8,0:0:0:0:
169,241,170012,1,4,0:3:0:0:
270,122,170317,2,0,L|253:13,2,90,8|0|0,0:0|0:0|0:0,0:0:0:0:
262,199,170926,6,0,B|250:173|273:141|316:133|339:174|339:174|333:216|348:262|404:276,1,240,4|8,3:2|0:0,0:0:0:0:
501,368,171840,1,4,0:0:0:0:
501,368,171992,2,0,P|448:325|479:198,1,180,0|0,3:0|3:0,0:0:0:0:
507,80,172754,1,8,0:0:0:0:
371,2,173059,2,0,L|365:61,1,60,0|0,3:0|0:0,0:0:0:0:
306,112,173363,6,0,P|340:181|358:237,2,120,4|4|8,1:0|0:0|0:0,0:0:0:0:
163,49,174277,1,0,3:0:0:0:
163,49,174429,2,0,P|96:77|32:63,1,120,4|8,1:3|0:1,0:0:0:0:
11,139,174886,2,0,L|21:206,1,60,8|8,0:3|0:1,0:0:0:0:
97,206,175190,2,0,L|87:273,1,60,8|8,0:3|0:1,0:0:0:0:
33,321,175495,1,8,0:3:0:0:
33,321,175647,1,8,0:1:0:0:
95,366,175799,6,0,P|197:353|237:351,1,120,4|10,1:0|0:0,0:0:0:0:
326,243,176408,2,0,L|334:302,1,60,0|0,1:0|0:0,0:0:0:0:
402,341,176713,1,12,0:0:0:0:
473,309,176865,2,0,L|493:126,1,180,4|10,1:2|0:0,0:0:0:0:
360,45,177627,2,0,P|290:39|278:44,1,60,0|0,1:0|0:0,0:0:0:0:
275,109,177931,2,0,P|205:115|193:110,1,60,12|0,0:0|0:0,0:0:0:0:
154,70,178236,6,0,P|105:39|65:82,1,120,0|10,1:0|0:0,0:0:0:0:
15,135,178693,2,0,P|23:202|3:264,1,120
36,325,179150,1,12,0:0:0:0:
36,325,179302,2,0,L|170:320,1,120,4|0,1:2|1:0,0:0:0:0:
218,360,179759,2,0,P|276:331|278:327,1,60,10|0,0:0|0:0,0:0:0:0:
272,260,180063,2,0,P|268:230|279:203,1,60,0|0,1:0|0:0,0:0:0:0:
342,305,180368,1,10,0:0:0:0:
342,305,180520,6,0,P|422:356|490:310,1,180,0|12,0:0|0:0,0:0:0:0:
405,188,181281,1,0,1:0:0:0:
405,188,181434,2,0,L|413:107,1,60,0|8,0:0|3:2,0:0:0:0:
459,67,181738,2,0,P|403:92|324:86,1,120,4|0,1:0|1:0,0:0:0:0:
285,41,182195,2,0,P|237:33|215:33,1,60,12|0,0:0|0:0,0:0:0:0:
150,10,182500,2,0,P|119:47|108:66,1,60,0|0,1:0|0:0,0:0:0:0:
146,127,182804,2,0,P|104:134|73:125,1,60,8|0,3:2|0:0,0:0:0:0:
27,80,183109,6,0,L|36:222,1,120,0|4,1:0|1:2,0:0:0:0:
185,240,183718,2,0,L|176:300,2,60,0|0|10,1:0|0:0|0:0,0:0:0:0:
251,199,184175,2,0,B|316:192|316:192|379:224,1,120,6|0,1:3|3:0,0:0:0:0:
406,283,184632,1,8,0:0:0:0:
406,283,184784,1,0,3:0:0:0:
475,247,184936,2,0,L|466:187,1,60,0|0,1:0|3:0,0:0:0:0:
493,114,185241,2,0,L|484:67,2,30,8|0|8,0:0|0:0|0:0,0:0:0:0:
416,128,185545,6,0,B|337:123|337:123|322:132|322:132|238:128,1,180,4|4,1:0|1:2,0:0:0:0:
337,340,186459,2,0,B|253:344|253:344|238:335|238:335|139:341,1,180,4|4,1:0|1:2,0:0:0:0:
101,111,187373,6,0,L|190:123,1,90,4|0,1:0|3:0,0:0:0:0:
217,150,187677,2,0,B|217:174|217:174|204:207,1,60,4|0,1:2|0:0,0:0:0:0:
129,258,187982,6,0,L|279:247,1,138.000002632141,4|10,1:2|0:1,0:0:0:0:
325,198,188439,2,0,B|382:187|434:223|434:223|424:274,1,138.000002632141
360,277,188896,1,8,0:0:0:0:
360,277,189048,1,2,0:0:0:0:
467,252,189200,2,0,P|471:313|506:394,2,138.000002632141,0|8|8,1:0|0:0|0:3,0:0:0:0:
512,179,189962,1,2,0:1:0:0:
456,131,190114,2,0,L|445:58,1,69.0000013160706,8|0,0:1|0:0,0:0:0:0:
315,16,190419,6,0,P|349:11|383:19,1,69.0000013160706,0|0,3:0|0:0,0:0:0:0:
283,85,190723,2,0,P|249:92|215:87,1,69.0000013160706,10|0,0:0|0:0,0:0:0:0:
200,12,191028,2,0,B|162:20|145:55|145:55|110:36|106:-2,1,138.000002632141,4|8,0:3|0:0,0:0:0:0:
46,51,191485,1,0,3:0:0:0:
0,166,191637,2,0,B|44:153|102:163|102:163|133:182,1,138.000002632141,0|8,1:0|0:0,0:0:0:0:
211,158,192094,1,0,0:0:0:0:
211,158,192246,2,0,L|204:241,1,69.0000013160706,0|0,1:0|3:0,0:0:0:0:
135,257,192551,2,0,P|131:318|158:383,1,103.500001974106,12|0,1:0|0:0,0:0:0:0:
180,366,192855,6,0,P|211:307|277:311,1,138.000002632141,4|10,1:0|0:0,0:0:0:0:
322,371,193312,1,8,0:0:0:0:
322,371,193464,1,2,1:3:0:0:
397,362,193617,1,2,0:3:0:0:
397,362,193769,1,8,0:3:0:0:
484,257,193921,2,0,P|465:191|485:125,1,138.000002632141,4|2,1:0|0:0,0:0:0:0:
444,61,194378,2,0,P|394:79|358:76,1,69.0000013160706,8|4,0:0|0:0,0:0:0:0:
316,123,194683,2,0,P|282:119|251:104,1,69.0000013160706,0|2,1:0|0:0,0:0:0:0:
196,51,194987,2,0,L|207:118,1,69.0000013160706,4|0,1:2|0:0,0:0:0:0:
179,237,195292,6,0,P|111:222|42:219,1,138.000002632141,4|12,1:0|0:0,0:0:0:0:
5,152,195749,1,8,0:0:0:0:
5,152,195901,1,2,3:0:0:0:
77,131,196053,1,2,0:3:0:0:
77,131,196205,1,10,0:3:0:0:
179,237,196358,2,0,P|240:221|316:221,1,138.000002632141,4|2,1:2|0:3,0:0:0:0:
365,277,196815,1,8,0:3:0:0:
365,277,196967,1,4,1:0:0:0:
322,340,197119,1,2,0:3:0:0:
322,340,197271,1,2,0:3:0:0:
384,384,197424,2,0,L|378:349,2,34.5000006580353,4|8|8,1:2|0:3|0:3,0:0:0:0:
463,384,197728,6,0,L|474:247,1,138.000002632141,4|10,1:2|0:1,0:0:0:0:
407,208,198185,2,0,B|464:219|516:183|516:183|506:132,1,138.000002632141
477,94,198642,1,8,0:0:0:0:
477,94,198794,1,2,0:0:0:0:
353,155,198946,2,0,P|325:92|321:24,2,138.000002632141,0|8|8,1:0|0:0|0:3,0:0:0:0:
407,208,199708,1,2,0:1:0:0:
349,257,199860,2,0,L|276:246,1,69.0000013160706,8|0,0:1|0:0,0:0:0:0:
248,315,200165,6,0,P|214:319|184:334,1,69.0000013160706,0|0,3:0|0:0,0:0:0:0:
122,379,200469,2,0,P|92:364|58:360,1,69.0000013160706,10|0,0:0|0:0,0:0:0:0:
7,304,200774,2,0,B|12:264|50:248|50:248|28:211|-7:214,1,138.000002632141,4|8,0:3|0:0,0:0:0:0:
22,141,201231,1,0,3:0:0:0:
117,225,201383,2,0,B|139:174|140:116|140:116|128:92,1,138.000002632141,0|8,1:0|0:0,0:0:0:0:
98,17,201840,1,0,0:0:0:0:
98,17,201992,2,0,L|181:24,1,69.0000013160706,0|0,1:0|3:0,0:0:0:0:
221,76,202297,2,0,P|301:80|338:60,1,103.500001974106,12|0,1:0|0:0,0:0:0:0:
342,40,202601,6,0,P|320:86|375:148,1,138.000002632141,4|10,1:0|0:0,0:0:0:0:
436,110,203058,2,0,P|445:139|444:178,1,69.0000013160706,8|2,0:0|1:3,0:0:0:0:
383,223,203363,1,2,0:3:0:0:
383,223,203515,1,8,0:3:0:0:
512,302,203667,2,0,P|446:284|380:304,1,138.000002632141,4|2,1:0|0:0,0:0:0:0:
331,361,204124,2,0,P|281:379|245:376,1,69.0000013160706,8|4,0:0|0:0,0:0:0:0:
228,233,204429,2,0,P|197:218|162:213,1,69.0000013160706,0|2,1:0|0:0,0:0:0:0:
108,384,204733,2,0,L|96:315,1,69.0000013160706,4|8,1:0|0:0,0:0:0:0:
93,242,205038,5,4,1:2:0:0:
93,242,205190,1,8,0:0:0:0:
20,264,205343,2,0,L|32:197,1,69.0000013160706,12|8,1:0|0:0,0:0:0:0:
91,149,205647,1,8,1:0:0:0:
49,85,205799,1,8,1:0:0:0:
98,27,205951,1,8,1:0:0:0:
171,55,206104,2,0,P|238:65|315:64,1,138.000002632141,4|8,1:2|1:0,0:0:0:0:
371,20,206561,1,8,1:0:0:0:
371,20,207018,1,0,3:0:0:0:
371,20,207170,1,12,1:0:0:0:
365,36,207474,6,0,P|421:7|488:20,2,120,4|10|0,1:0|0:0|1:0,0:0:0:0:
274,163,208388,1,12,0:0:0:0:
342,126,208540,2,0,P|385:137|400:212,1,120,4|0,1:2|1:0,0:0:0:0:
433,276,208997,2,0,P|401:270|358:275,1,60,10|0,0:0|0:0,0:0:0:0:
344,343,209301,2,0,P|435:348|472:346,1,120,0|12,1:0|0:0,0:0:0:0:
269,332,209911,6,0,P|213:361|146:348,2,120,0|10|0,1:0|0:0|1:0,0:0:0:0:
120,283,210825,1,12,0:0:0:0:
197,283,210977,2,0,L|205:164,1,120,4|0,1:2|1:0,0:0:0:0:
131,136,211434,2,0,P|133:106|64:45,1,120,10|0,0:0|1:0,0:0:0:0:
74,46,211890,1,0,0:0:0:0:
138,2,212042,2,0,L|219:11,1,60,10|0,0:0|0:0,0:0:0:0:
237,75,212347,6,0,P|293:46|360:59,2,120,4|12|0,1:0|0:0|1:0,0:0:0:0:
356,175,213261,1,8,3:2:0:0:
413,122,213413,2,0,P|469:130|490:183,1,120,4|0,1:2|1:0,0:0:0:0:
453,253,213870,2,0,P|483:251|513:257,1,60,12|0,0:0|0:0,0:0:0:0:
387,298,214174,2,0,P|357:299|327:293,2,60,0|0|8,1:0|0:0|3:2,0:0:0:0:
402,374,214631,1,0,0:0:0:0:
402,374,214784,6,0,P|346:345|273:365,1,120,0|4,1:0|1:0,0:0:0:0:
217,377,215240,1,0,0:0:0:0:
152,332,215393,2,0,P|96:361|23:341,1,120,0|10,1:0|0:0,0:0:0:0:
3,284,215850,2,0,L|18:144,1,120,4|0,1:3|0:0,0:0:0:0:
91,147,216306,2,0,B|152:161|152:161|218:137,2,120,8|2|8,0:0|1:3|0:0,0:0:0:0:
77,61,217068,1,0,0:0:0:0:
77,61,217144,1,0,0:0:0:0:
77,61,217220,6,0,P|146:51|211:49,2,120,4|10|0,1:0|0:0|1:0,0:0:0:0:
150,199,218134,1,12,0:0:0:0:
201,140,218286,2,0,P|257:148|278:201,1,120,4|0,1:2|1:0,0:0:0:0:
351,231,218743,2,0,P|350:201|356:171,1,60,10|0,0:0|0:0,0:0:0:0:
392,103,219048,2,0,P|483:108|520:106,1,120,0|12,1:0|0:0,0:0:0:0:
511,263,219657,6,0,P|455:292|388:279,2,120,0|10|0,1:0|0:0|1:0,0:0:0:0:
387,359,220571,1,12,0:0:0:0:
325,311,220723,2,0,L|337:192,1,120,4|0,1:2|1:0,0:0:0:0:
298,123,221180,2,0,P|272:107|185:135,1,120,10|0,0:0|1:0,0:0:0:0:
191,128,221636,1,0,0:0:0:0:
134,73,221788,2,0,L|140:13,1,60,10|0,0:0|0:0,0:0:0:0:
116,152,222093,6,0,P|60:181|-4:182,2,120,4|12|0,1:0|0:0|1:0,0:0:0:0:
217,283,223007,1,8,3:2:0:0:
189,211,223159,2,0,P|135:233|127:289,1,120,4|0,1:0|1:0,0:0:0:0:
174,351,223616,2,0,P|204:345|234:346,1,60,12|0,0:0|0:0,0:0:0:0:
294,298,223921,2,0,P|323:304|353:303,2,60,0|0|8,1:0|0:0|3:2,0:0:0:0:
331,229,224377,1,0,0:0:0:0:
331,229,224530,6,0,P|301:173|321:99,1,120,4|4,1:0|1:3,0:0:0:0:
378,80,224986,1,0,0:0:0:0:
453,59,225139,2,0,L|458:-2,2,60,4|0|10,1:0|0:0|0:0,0:0:0:0:
507,109,225596,2,0,L|494:228,1,120,4|0,1:3|0:0,0:0:0:0:
425,265,226052,2,0,L|414:186,1,60,4|0,1:0|0:0,0:0:0:0:
340,227,226358,2,0,L|351:148,1,60,6|8,1:3|1:3,0:0:0:0:
283,277,226662,1,8,0:0:0:0:
213,225,226814,1,8,1:3:0:0:
213,225,226967,6,0,L|204:367,1,120,4|2,1:0|0:0,0:0:0:0:
62,324,227576,2,0,L|71:384,2,60,8|0|2,1:0|0:0|0:3,0:0:0:0:
113,265,228033,2,0,B|48:272|48:272|-15:240,1,120,2|0,1:3|3:0,0:0:0:0:
0,165,228490,1,2,1:3:0:0:
0,165,228642,1,0,3:0:0:0:
61,116,228794,1,8,1:0:0:0:
61,116,228946,1,0,3:0:0:0:
25,46,229099,2,0,L|34:-1,2,30,8|8|8,0:1|0:3|0:1,0:0:0:0:
99,24,229403,6,0,P|104:102|181:82,1,180,4|4,1:0|1:2,0:0:0:0:
369,221,230317,2,0,P|375:142|452:162,1,180,4|4,1:0|1:2,0:0:0:0:
243,270,231231,2,0,P|292:248|315:298,1,120,4|4,1:0|1:2,0:0:0:0:
105,303,231688,5,4,1:2:0:0:
