osu file format v14

[General]
AudioFilename: audio.mp3
AudioLeadIn: 0
PreviewTime: 68591
Countdown: 0
SampleSet: Soft
StackLeniency: 0.5
Mode: 0
LetterboxInBreaks: 0
WidescreenStoryboard: 0

[Editor]
Bookmarks: 217,10116,29608,34481,39354,44227,49100,68593,88085,97832,107578,112451,117324,122197,127070,146562,166055,175801,187984,207476,226968,231689
DistanceSpacing: 1
BeatDivisor: 2
GridSize: 4
TimelineZoom: 0.6999999

[Metadata]
Title:Ryuu to Sakura Miko
TitleUnicode:龍と桜巫女
Artist:Hatsuki Yura
ArtistUnicode:葉月ゆら
Creator:KKipalt
Version:Easy
Source:
Tags:yoiyami rensou kitan 宵闇恋想奇譚 drop どろっぷ seifuumeigatsu 清風明月 hanazawa_kana kana 1112deng suzuki_1112 1112 otosaka-yu narcissu AIR tomadoi agatsu 和風民族音楽 japanese folk pop
BeatmapID:2014635
BeatmapSetID:962172

[Difficulty]
HPDrainRate:2
CircleSize:3
OverallDifficulty:2
ApproachRate:4
SliderMultiplier:0.8
SliderTickRate:1

[Events]
//Background and Video events
0,0,"BGme.jpg",0,0
//Break Periods
2,88086,106138
2,166053,174361
//Storyboard Layer 0 (Background)
//Storyboard Layer 1 (Fail)
//Storyboard Layer 2 (Pass)
//Storyboard Layer 3 (Foreground)
//Storyboard Layer 4 (Overlay)
//Storyboard Sound Samples

[TimingPoints]
-850,304.568527918782,4,2,1,70,1,0
368,-100,4,2,1,70,0,0
8743,-100,4,2,1,70,0,0
10114,-100,4,2,2,70,0,0
29454,-100,4,2,2,70,0,0
29606,-100,4,2,1,70,0,0
34479,-100,4,2,3,70,0,0
38896,-100,4,2,2,70,0,0
39200,-100,4,2,1,70,0,0
39353,-100,4,2,1,70,0,0
44225,-100,4,2,3,70,0,0
44226,-100,4,2,3,70,0,0
48642,-100,4,2,2,70,0,0
48946,-100,4,2,1,70,0,0
49099,-100,4,3,4,70,0,0
53667,-100,4,2,1,70,0,0
53972,-100,4,3,5,70,0,0
55038,-100,4,2,1,70,0,0
55190,-100,4,3,5,70,0,0
56408,-100,4,2,3,70,0,0
57474,-100,4,2,1,70,0,0
57779,-100,4,2,2,70,0,0
58693,-100,4,3,4,70,0,0
63413,-100,4,2,1,70,0,0
63718,-100,4,2,3,70,0,0
66155,-100,4,2,1,70,0,0
68287,-100,4,2,1,70,0,0
68591,-100,4,2,3,80,0,1
72094,-100,4,2,2,80,0,1
72246,-100,4,2,3,80,0,1
73007,-100,4,2,1,80,0,1
73464,-100,4,2,2,80,0,1
73920,-100,4,2,1,80,0,1
73921,-100,4,2,1,80,0,1
74835,-100,4,2,2,80,0,1
75596,-100,4,2,1,80,0,1
76205,-100,4,2,2,80,0,1
76357,-100,4,2,1,80,0,1
76358,-100,4,2,1,80,0,1
78033,-100,4,2,1,80,0,0
78337,-100,4,2,3,80,0,1
81840,-100,4,2,2,80,0,1
81992,-100,4,2,3,80,0,1
82906,-100,4,2,1,80,0,1
83210,-100,4,2,2,80,0,1
83666,-100,4,2,1,80,0,1
83667,-100,4,2,1,80,0,1
84581,-100,4,2,2,80,0,1
85342,-100,4,2,1,80,0,1
88084,-100,4,2,2,70,0,0
107271,-100,4,2,2,70,0,0
107576,-100,4,2,1,70,0,0
112449,-100,4,2,3,70,0,0
116865,-100,4,2,2,70,0,0
117170,-100,4,2,1,70,0,0
117322,-100,4,2,1,70,0,0
122195,-100,4,2,3,70,0,0
126611,-100,4,2,2,70,0,0
126916,-100,4,2,1,70,0,0
127068,-100,4,3,4,70,0,0
131637,-100,4,2,1,70,0,0
131941,-100,4,3,5,70,0,0
133007,-100,4,2,1,70,0,0
133160,-100,4,3,5,70,0,0
134378,-100,4,2,3,70,0,0
135444,-100,4,2,1,70,0,0
135672,-100,4,2,2,70,0,0
136662,-100,4,3,4,70,0,0
141383,-100,4,2,1,70,0,0
141688,-100,4,2,3,70,0,0
144124,-100,4,2,1,70,0,0
146256,-100,4,2,1,70,0,0
146561,-100,4,2,3,80,0,1
150063,-100,4,2,2,80,0,1
150215,-100,4,2,3,80,0,1
150977,-100,4,2,1,80,0,1
151434,-100,4,2,2,80,0,1
151890,-100,4,2,1,80,0,1
151891,-100,4,2,1,80,0,1
152804,-100,4,2,2,80,0,1
153566,-100,4,2,1,80,0,1
154175,-100,4,2,2,80,0,1
154327,-100,4,2,1,80,0,1
156002,-100,4,2,1,80,0,0
156307,-100,4,2,3,80,0,1
160723,-100,4,2,1,80,0,1
161180,-100,4,2,2,80,0,1
161636,-100,4,2,1,80,0,1
161637,-100,4,2,1,80,0,1
162551,-100,4,2,2,80,0,1
163312,-100,4,2,1,80,0,1
166053,-100,4,2,2,60,0,0
167119,-100,4,2,3,60,0,0
167576,-100,4,2,2,60,0,0
167880,-100,4,2,3,60,0,0
168185,-100,4,2,2,60,0,0
168490,-100,4,2,3,60,0,0
169099,-100,4,2,2,60,0,0
169556,-100,4,2,3,60,0,0
169860,-100,4,2,2,60,0,0
170012,-100,4,2,3,60,0,0
170317,-100,4,2,2,60,0,0
170622,-100,4,2,3,60,0,0
171231,-100,4,2,2,60,0,0
171992,-100,4,2,3,60,0,0
172297,-100,4,2,2,60,0,0
172449,-100,4,2,3,60,0,0
172754,-100,4,2,2,60,0,0
174733,-100,4,2,1,60,0,0
175495,-100,4,2,1,60,0,0
175799,-100,4,2,2,70,0,0
185545,-100,4,2,1,70,0,0
187677,-100,4,2,1,70,0,0
187982,-100,4,2,3,80,0,1
191485,-100,4,2,2,80,0,1
191637,-100,4,2,3,80,0,1
192551,-100,4,2,1,80,0,1
192855,-100,4,2,2,80,0,1
193311,-100,4,2,1,80,0,1
193312,-100,4,2,1,80,0,1
194226,-100,4,2,2,80,0,1
194987,-100,4,2,1,80,0,1
195596,-100,4,2,2,80,0,1
195748,-100,4,2,1,80,0,1
197424,-100,4,2,1,80,0,0
197728,-100,4,2,3,80,0,1
201231,-100,4,2,2,80,0,1
201383,-100,4,2,3,80,0,1
202297,-100,4,2,1,80,0,1
202601,-100,4,2,2,80,0,1
203057,-100,4,2,1,80,0,1
203061,-100,4,2,1,80,0,1
203972,-100,4,2,2,80,0,1
204733,-100,4,2,1,80,0,1
207474,-100,4,2,2,70,0,0
226814,-100,4,2,2,70,0,0
226966,-100,4,2,3,70,0,0
226967,-100,4,2,3,70,0,0
227271,-100,4,2,2,70,0,0
227576,-100,4,2,1,70,0,0
228337,-100,4,2,2,70,0,0
228490,-100,4,2,1,70,0,0
228642,-100,4,2,2,70,0,0
228794,-100,4,2,1,70,0,0
228946,-100,4,2,2,70,0,0
229099,-100,4,2,1,70,0,0
229403,-100,4,2,1,70,0,0
231687,-100,4,1,3,70,0,0
231688,-100,4,1,3,70,0,0

[Colours]
Combo1 : 225,157,89
Combo2 : 255,170,170
Combo3 : 181,125,204
Combo4 : 212,212,212

[HitObjects]
0,97,368,6,0,B|49:71|49:71|161:81,1,160,4|8,3:2|0:3,0:0:0:0:
199,191,1434,2,0,P|245:232|343:157,1,200,0|8,3:0|0:3,0:0:0:0:
451,47,2804,2,0,B|424:97|424:97|440:216,1,160,0|8,3:0|0:3,0:0:0:0:
486,308,3870,2,0,P|407:287|287:295,1,200,0|8,3:0|0:3,0:0:0:0:
155,381,5241,5,4,3:1:0:0:
138,221,5850,1,8,0:3:0:0:
26,176,6307,2,0,P|14:94|112:38,1,200,0|8,3:0|0:3,0:0:0:0:
227,137,7677,2,0,B|308:153|308:153|392:142,1,160,4|8,3:2|0:3,0:0:0:0:
475,64,8743,2,0,P|474:164|478:190,1,120,4|8,3:1|0:3,0:0:0:0:
452,259,9505,1,8,0:3:0:0:
493,327,9809,1,8,0:3:0:0:
429,376,10114,6,0,B|353:356|353:356|253:358,1,160,4|0,1:0|1:0,0:0:0:0:
151,365,11180,2,0,P|93:373|58:250,1,200,4|0,1:2|1:0,0:0:0:0:
132,245,12246,1,12,0:0:0:0:
148,165,12551,2,0,P|137:111|127:74,1,80,0|10,1:0|0:0,0:0:0:0:
75,28,13160,1,0,1:0:0:0:
194,33,13617,2,0,P|273:38|318:26,1,120,4|10,1:2|0:0,0:0:0:0:
377,74,14378,2,0,P|435:72|474:77,1,80,0|10,1:0|0:0,0:0:0:0:
508,135,14987,6,0,L|502:224,1,80,4|12,1:0|0:0,0:0:0:0:
436,259,15596,2,0,L|449:391,2,120,0|4|12,1:0|1:2|0:0,0:0:0:0:
364,223,16814,1,0,1:0:0:0:
293,261,17119,1,8,3:2:0:0:
219,229,17424,2,0,P|222:169|236:103,1,120,0|0,1:0|0:0,0:0:0:0:
92,34,18490,2,0,P|103:92|106:152,1,120,4|8,1:3|0:0,0:0:0:0:
79,227,19251,2,0,L|-2:220,1,80,2|8,1:3|0:0,0:0:0:0:
15,300,19860,6,0,B|91:280|91:280|191:282,1,160,4|0,1:0|1:0,0:0:0:0:
258,365,20926,2,0,P|250:307|373:272,1,200,4|0,1:2|1:0,0:0:0:0:
405,330,21992,1,12,0:0:0:0:
477,296,22297,2,0,L|495:125,1,160,0|0,1:0|1:0,0:0:0:0:
411,49,23363,2,0,P|331:54|287:42,1,120,4|10,1:2|0:0,0:0:0:0:
213,49,24124,2,0,P|155:47|116:52,1,80,0|10,1:0|0:0,0:0:0:0:
78,107,24733,5,4,1:0:0:0:
113,178,25038,1,12,0:0:0:0:
69,244,25342,2,0,L|56:376,2,120,0|4|12,1:0|1:0|0:0,0:0:0:0:
113,178,26560,1,0,1:0:0:0:
191,195,26865,1,8,3:2:0:0:
267,169,27170,2,0,P|325:193|393:186,1,120,4|0,1:0|0:0,0:0:0:0:
504,292,28236,2,0,P|444:289|389:312,1,120,4|4,1:3|1:0,0:0:0:0:
332,368,28997,1,6,1:3:0:0:
255,345,29302,1,8,0:0:0:0:
232,268,29606,5,4,3:2:0:0:
411,53,30672,2,0,B|480:72|473:142|473:142|464:223,1,200,0|0,3:0|3:0,0:0:0:0:
313,274,32043,2,0,L|285:109,1,160,0|0,3:0|3:0,0:0:0:0:
210,29,33109,1,0,3:0:0:0:
232,270,34175,5,12,0:1:0:0:
173,323,34479,2,0,L|50:304,1,120,4|0,1:2|0:0,0:0:0:0:
26,146,35545,2,0,B|78:172|78:172|142:153,1,120,8|8,0:3|0:0,0:0:0:0:
203,109,36307,2,0,L|211:20,2,80,0|10|4,1:0|0:0|1:0,0:0:0:0:
318,141,37373,1,0,0:0:0:0:
390,107,37677,1,0,0:0:0:0:
460,144,37982,2,0,L|468:280,1,120,4|8,1:2|0:0,0:0:0:0:
507,333,38743,1,8,0:3:0:0:
431,363,39048,1,2,3:0:0:0:
355,336,39353,5,4,3:2:0:0:
87,254,40419,2,0,B|88:326|149:343|149:343|240:325,1,200,0|0,3:0|3:0,0:0:0:0:
336,207,41790,2,0,P|320:129|308:42,1,160,0|0,3:0|3:0,0:0:0:0:
418,109,42856,1,0,3:0:0:0:
355,336,43921,5,12,0:1:0:0:
296,283,44225,2,0,L|173:302,1,120,4|0,1:2|0:0,0:0:0:0:
45,210,45291,2,0,B|97:236|97:236|161:217,1,120,8|8,0:3|0:0,0:0:0:0:
210,159,46053,2,0,L|202:70,1,80,0|10,1:0|0:0,0:0:0:0:
264,27,46662,2,0,L|396:40,1,120,4|0,1:0|0:0,0:0:0:0:
461,20,47423,1,0,0:0:0:0:
505,86,47728,2,0,L|513:222,1,120,4|8,1:2|0:0,0:0:0:0:
496,284,48489,1,0,1:0:0:0:
416,289,48794,1,2,3:0:0:0:
370,354,49099,6,0,P|298:347|205:348,1,160,4|4,0:2|0:0,0:0:0:0:
132,256,50165,2,0,P|66:279|7:276,1,120,2|2,0:0|0:0,0:0:0:0:
19,197,50926,2,0,P|62:181|101:183,1,80,4|2,0:0|0:0,0:0:0:0:
156,129,51535,2,0,L|142:48,2,80,4|2|4,0:0|0:0|0:0,0:0:0:0:
263,183,52601,2,0,P|361:165|440:85,1,200,2|2,0:0|0:0,0:0:0:0:
506,129,53667,1,4,1:0:0:0:
449,183,53972,6,0,P|449:246|471:350,1,160,6|2,0:0|0:0,0:0:0:0:
352,368,55038,2,0,P|332:342|254:362,1,120,4|8,1:0|0:0,0:0:0:0:
180,384,55799,1,2,0:0:0:0:
106,351,56104,1,8,0:0:0:0:
31,380,56408,1,4,1:2:0:0:
98,234,57018,1,8,0:3:0:0:
5,157,57474,2,0,P|86:154|136:145,1,120,4|8,1:2|0:0,0:0:0:0:
183,93,58236,2,0,L|186:10,1,80,0|8,1:0|0:0,0:0:0:0:
264,29,58845,6,0,P|336:22|429:23,1,160,4|4,0:2|0:0,0:0:0:0:
490,122,59911,2,0,P|490:181|511:237,1,120,2|2,0:0|0:0,0:0:0:0:
467,303,60672,2,0,P|423:287|384:289,1,80,4|2,0:0|0:0,0:0:0:0:
311,302,61281,2,0,L|325:383,2,80,4|2|4,0:0|0:0|0:0,0:0:0:0:
207,240,62347,2,0,B|114:281|114:281|9:236,1,200,2|2,0:0|0:0,0:0:0:0:
51,171,63413,1,4,1:0:0:0:
6,104,63718,6,0,P|69:104|173:126,1,160,4|0,1:0|1:0,0:0:0:0:
272,173,64784,2,0,P|303:182|355:121,1,120,4|8,1:2|0:0,0:0:0:0:
383,51,65545,1,8,0:3:0:0:
463,46,65850,1,8,0:0:0:0:
493,119,66155,2,0,P|477:168|474:249,1,120,4|4,1:0|1:2,0:0:0:0:
510,349,67068,2,0,L|377:337,1,120,4|4,1:0|1:2,0:0:0:0:
275,373,67982,2,0,L|278:290,1,80,4|4,1:0|1:2,0:0:0:0:
227,230,68591,6,0,B|189:216|189:216|134:226,1,80,4|10,1:2|0:1,0:0:0:0:
115,295,69200,2,0,B|77:309|77:309|22:299,1,80,0|8,3:0|0:0,0:0:0:0:
1,230,69809,1,0,1:0:0:0:
43,162,70114,1,8,0:0:0:0:
0,94,70419,1,8,0:3:0:0:
42,26,70724,1,8,0:1:0:0:
114,59,71028,2,0,B|194:39|194:39|282:47,1,160,0|4,3:0|0:3,0:0:0:0:
336,0,71941,1,8,0:0:0:0:
393,56,72246,2,0,L|372:222,1,160,0|0,1:0|1:0,0:0:0:0:
510,296,73464,6,0,P|430:277|392:300,1,120,4|8,1:0|0:0,0:0:0:0:
345,352,74226,1,2,0:3:0:0:
293,290,74530,2,0,P|240:275|174:304,1,120,4|8,1:0|0:0,0:0:0:0:
149,371,75292,1,0,1:0:0:0:
69,378,75596,1,4,1:2:0:0:
25,310,75901,2,0,L|39:176,1,120,4|8,1:0|0:0,0:0:0:0:
6,116,76662,1,2,0:3:0:0:
67,64,76967,2,0,P|135:76|196:80,1,120,4|8,1:2|0:3,0:0:0:0:
251,33,77728,2,0,L|342:24,1,80,2|4,0:3|1:2,0:0:0:0:
400,64,78337,6,0,B|407:102|407:102|393:140,1,80,4|10,1:2|0:1,0:0:0:0:
428,212,78946,2,0,B|420:250|420:250|434:288,1,80,0|8,3:0|0:0,0:0:0:0:
493,343,79555,1,0,1:0:0:0:
416,367,79860,1,8,0:0:0:0:
339,343,80165,1,8,0:3:0:0:
262,367,80470,1,8,0:1:0:0:
183,354,80774,2,0,B|190:276|190:276|170:196,1,160,0|4,3:0|0:3,0:0:0:0:
94,169,81687,1,8,0:0:0:0:
30,217,81992,2,0,L|50:58,1,160,0|0,1:0|1:0,0:0:0:0:
210,61,83210,6,0,P|290:80|328:57,1,120,4|8,1:0|0:0,0:0:0:0:
379,10,83972,1,2,0:3:0:0:
455,34,84276,2,0,L|441:153,1,120,4|8,1:0|0:0,0:0:0:0:
490,216,85038,1,0,1:0:0:0:
425,263,85342,1,4,1:0:0:0:
487,320,85647,2,0,B|419:369|356:312|356:312|291:257|223:310,1,280,4|4,1:2|1:2,0:0:0:0:
204,379,87018,1,8,1:0:0:0:
232,270,107576,5,4,3:2:0:0:
453,98,108642,2,0,B|434:167|363:160|363:160|283:151,1,200,0|0,3:0|3:0,0:0:0:0:
154,243,110013,2,0,L|127:85,1,160,0|0,3:0|3:0,0:0:0:0:
231,26,111079,1,0,3:0:0:0:
232,270,112145,5,12,0:1:0:0:
279,334,112449,2,0,L|402:315,1,120,4|0,1:2|0:0,0:0:0:0:
495,188,113515,2,0,B|443:162|443:162|379:181,1,120,8|8,0:3|0:0,0:0:0:0:
304,164,114277,2,0,L|312:253,2,80,0|10|4,1:0|0:0|1:0,0:0:0:0:
231,67,115343,1,0,0:0:0:0:
158,101,115647,1,0,0:0:0:0:
81,78,115952,2,0,L|89:214,1,120,4|8,1:2|0:0,0:0:0:0:
65,274,116713,1,8,0:3:0:0:
73,353,117018,1,2,3:0:0:0:
152,344,117323,5,4,3:2:0:0:
427,296,118388,2,0,B|426:224|365:206|365:206|274:225,1,200,0|0,3:0|3:0,0:0:0:0:
186,96,119759,2,0,P|266:107|344:123,1,160,0|0,3:0|3:0,0:0:0:0:
358,243,120825,1,0,3:0:0:0:
152,342,121891,5,12,0:1:0:0:
225,373,122195,2,0,L|348:354,1,120,4|0,1:2|0:0,0:0:0:0:
488,287,123261,2,0,B|505:227|505:227|479:175,1,120,8|8,0:3|0:0,0:0:0:0:
401,156,124023,2,0,L|409:67,1,80,0|10,1:0|0:0,0:0:0:0:
339,34,124632,2,0,L|207:47,1,120,4|0,1:0|0:0,0:0:0:0:
162,101,125393,1,0,0:0:0:0:
88,69,125698,2,0,L|80:205,1,120,4|8,1:2|0:0,0:0:0:0:
29,250,126459,1,0,1:0:0:0:
49,327,126764,1,2,3:0:0:0:
126,348,127069,6,0,P|205:347|285:354,1,160,4|4,0:2|0:0,0:0:0:0:
396,307,128135,2,0,P|462:330|521:327,1,120,2|2,0:0|0:0,0:0:0:0:
509,248,128896,2,0,P|466:232|427:234,1,80,4|2,0:0|0:0,0:0:0:0:
362,194,129505,2,0,L|348:113,2,80,4|2|4,0:0|0:0|0:0,0:0:0:0:
269,270,130571,2,0,P|199:209|170:91,1,200,2|2,0:0|0:0,0:0:0:0:
95,146,131637,1,4,1:0:0:0:
18,120,131942,6,0,P|34:188|36:278,1,160,6|2,0:0|0:0,0:0:0:0:
135,345,133008,2,0,B|152:369|184:375|184:375|217:359|228:328,1,120,4|8,1:0|0:0,0:0:0:0:
282,276,133769,1,2,0:0:0:0:
362,275,134074,1,8,0:0:0:0:
404,342,134378,1,4,1:2:0:0:
488,205,134988,1,8,0:3:0:0:
437,96,135444,2,0,P|356:99|306:108,1,120,4|8,1:2|0:0,0:0:0:0:
265,166,136206,2,0,L|182:163,1,80,0|8,1:0|0:0,0:0:0:0:
161,86,136815,6,0,P|89:79|-4:80,1,160,4|4,0:2|0:0,0:0:0:0:
9,199,137881,2,0,P|68:199|124:220,1,120,2|2,0:0|0:0,0:0:0:0:
154,294,138642,2,0,P|198:278|237:280,1,80,4|2,0:0|0:0,0:0:0:0:
307,301,139251,2,0,L|321:382,2,80,4|2|4,0:0|0:0|0:0,0:0:0:0:
425,316,140317,2,0,B|432:204|432:204|509:140,1,200,2|2,0:0|0:0,0:0:0:0:
469,72,141383,1,4,1:0:0:0:
390,89,141688,6,0,P|327:89|223:111,1,160,4|0,1:0|1:0,0:0:0:0:
182,217,142754,2,0,B|165:241|133:247|133:247|100:231|89:200,1,120,4|8,1:2|0:0,0:0:0:0:
21,164,143515,1,8,0:3:0:0:
90,123,143820,1,8,0:0:0:0:
88,42,144125,2,0,P|137:58|218:61,1,120,4|4,1:0|1:2,0:0:0:0:
257,170,145038,2,0,P|306:154|387:151,1,120,4|4,1:0|1:2,0:0:0:0:
454,239,145952,2,0,L|451:322,1,80,4|4,1:0|1:2,0:0:0:0:
388,370,146561,6,0,B|349:377|349:377|311:363,1,80,4|10,1:2|0:1,0:0:0:0:
246,315,147170,2,0,B|208:301|208:301|153:311,1,80,0|8,3:0|0:0,0:0:0:0:
122,373,147779,1,0,1:0:0:0:
43,355,148084,1,8,0:0:0:0:
36,275,148389,1,8,0:3:0:0:
112,250,148694,1,8,0:1:0:0:
165,308,148998,2,0,B|172:230|172:230|152:150,1,160,0|4,3:0|0:3,0:0:0:0:
80,115,149911,1,8,0:0:0:0:
112,41,150216,2,0,L|270:61,1,160,0|0,1:0|1:0,0:0:0:0:
360,193,151434,6,0,P|440:212|478:189,1,120,4|8,1:0|0:0,0:0:0:0:
490,118,152196,1,2,0:3:0:0:
462,43,152500,2,0,P|409:28|343:57,1,120,4|8,1:0|0:0,0:0:0:0:
317,123,153262,1,0,1:0:0:0:
360,193,153566,1,4,1:2:0:0:
313,258,153871,2,0,L|327:392,1,120,4|8,1:0|0:0,0:0:0:0:
245,384,154632,1,2,0:3:0:0:
185,330,154937,2,0,P|117:342|56:346,1,120,4|8,1:2|0:3,0:0:0:0:
19,281,155698,1,2,0:3:0:0:
28,201,156002,1,4,1:2:0:0:
106,185,156307,6,0,B|144:199|144:199|182:192,1,80,4|10,1:2|0:1,0:0:0:0:
234,130,156916,2,0,B|272:122|272:122|310:136,1,80,0|8,3:0|0:0,0:0:0:0:
319,215,157525,1,0,1:0:0:0:
395,239,157830,1,8,0:0:0:0:
436,170,158135,1,8,0:3:0:0:
386,106,158440,1,8,0:1:0:0:
310,136,158744,2,0,B|303:214|303:214|323:294,1,160,0|4,3:0|0:3,0:0:0:0:
397,320,159657,1,8,0:0:0:0:
338,375,159962,2,0,L|179:355,1,160,0|0,1:0|1:0,0:0:0:0:
169,200,161180,6,0,L|40:218,1,120,4|8,1:0|0:0,0:0:0:0:
0,153,161942,1,2,0:3:0:0:
43,85,162246,2,0,L|162:99,1,120,4|8,1:0|0:0,0:0:0:0:
180,177,163008,1,0,1:0:0:0:
258,189,163312,1,4,1:0:0:0:
309,127,163617,2,0,B|335:206|408:209|408:209|475:186|473:94,1,280,4|4,1:2|1:2,0:0:0:0:
425,32,164988,1,8,1:0:0:0:
47,373,175799,6,0,L|217:385,1,160,4|0,1:0|1:0,0:0:0:0:
315,334,176865,2,0,B|280:308|280:308|267:207,1,120,4|10,1:2|0:0,0:0:0:0:
207,181,177627,2,0,P|228:139|221:93,1,80,0|12,1:0|0:0,0:0:0:0:
153,73,178236,2,0,P|65:107|3:108,2,120,0|0|12,1:0|0:0|0:0,0:0:0:0:
304,20,179759,2,0,P|367:20|408:33,2,80,10|0|10,0:0|1:0|0:0,0:0:0:0:
262,88,180672,6,0,L|292:268,1,160,4|0,1:0|1:0,0:0:0:0:
365,338,181738,2,0,L|370:199,1,120,4|12,1:0|0:0,0:0:0:0:
441,182,182500,2,0,L|458:272,1,80,0|8,1:0|3:2,0:0:0:0:
502,325,183109,1,0,1:0:0:0:
224,376,184175,1,6,1:3:0:0:
110,333,184632,2,0,L|26:346,2,80,8|0|8,0:0|1:0|0:0,0:0:0:0:
170,281,185545,6,0,P|179:217|166:133,1,120,4|4,1:0|1:2,0:0:0:0:
93,72,186459,2,0,P|157:81|241:68,1,120,4|4,1:0|1:2,0:0:0:0:
314,12,187373,2,0,L|423:33,1,80,4|4,1:0|1:2,0:0:0:0:
456,75,187982,6,0,B|470:113|470:113|463:152,1,80,4|10,1:2|0:1,0:0:0:0:
421,220,188591,2,0,B|383:206|383:206|328:216,1,80,0|8,3:0|0:0,0:0:0:0:
295,276,189200,1,0,1:0:0:0:
310,354,189505,1,8,0:0:0:0:
231,369,189810,1,8,0:3:0:0:
217,289,190115,1,8,0:1:0:0:
295,276,190419,2,0,B|302:198|302:198|282:118,1,160,0|4,3:0|0:3,0:0:0:0:
209,85,191332,1,8,0:0:0:0:
162,150,191637,2,0,L|4:130,1,160,0|0,1:0|1:0,0:0:0:0:
12,289,192855,6,0,P|90:314|129:295,1,120,4|8,1:0|0:0,0:0:0:0:
192,338,193617,1,2,0:3:0:0:
226,266,193921,2,0,P|280:243|337:258,1,120,4|8,1:0|0:0,0:0:0:0:
380,326,194683,1,0,1:0:0:0:
459,316,194987,1,4,1:2:0:0:
499,247,195292,2,0,L|513:113,1,120,4|8,1:0|0:0,0:0:0:0:
451,74,196053,1,2,0:3:0:0:
387,122,196358,2,0,P|319:134|258:138,1,120,4|8,1:2|0:3,0:0:0:0:
195,103,197119,1,2,0:3:0:0:
138,159,197423,1,4,1:2:0:0:
79,103,197728,6,0,B|93:65|93:65|86:27,1,80,4|10,1:2|0:1,0:0:0:0:
6,22,198337,2,0,B|-8:60|-8:60|-1:98,1,80,0|8,3:0|0:0,0:0:0:0:
32,171,198946,1,0,1:0:0:0:
24,250,199251,1,8,0:0:0:0:
103,260,199556,1,8,0:3:0:0:
93,339,199861,1,8,0:1:0:0:
172,343,200165,2,0,B|250:350|250:350|330:330,1,160,0|4,3:0|0:3,0:0:0:0:
371,262,201078,1,8,0:0:0:0:
351,184,201383,2,0,P|285:149|194:177,1,160,0|0,1:0|1:0,0:0:0:0:
105,294,202601,6,0,L|87:165,1,120,4|8,1:0|0:0,0:0:0:0:
31,118,203363,1,2,0:3:0:0:
73,50,203667,2,0,B|132:37|132:37|192:64,1,120,4|8,1:0|0:0,0:0:0:0:
215,136,204429,1,0,1:0:0:0:
285,99,204733,1,4,1:0:0:0:
320,170,205038,2,0,B|403:169|419:88|419:88|405:169|484:203,1,280,4|4,1:2|1:2,0:0:0:0:
448,274,206409,1,8,1:0:0:0:
168,293,207474,6,0,B|244:273|244:273|344:275,1,160,4|0,1:0|1:0,0:0:0:0:
398,369,208540,2,0,P|456:377|491:254,1,200,4|0,1:2|1:0,0:0:0:0:
421,247,209606,1,12,0:0:0:0:
451,172,209911,2,0,P|440:118|430:81,1,80,0|10,1:0|0:0,0:0:0:0:
363,56,210520,1,0,1:0:0:0:
286,148,210977,2,0,P|207:153|162:141,1,120,4|10,1:2|0:0,0:0:0:0:
99,101,211738,2,0,P|101:42|96:3,1,80,0|10,1:0|0:0,0:0:0:0:
18,21,212347,6,0,P|16:79|21:118,1,80,4|12,1:0|0:0,0:0:0:0:
55,171,212956,2,0,L|42:303,2,120,0|4|12,1:0|1:2|0:0,0:0:0:0:
99,101,214174,1,0,1:0:0:0:
167,143,214479,1,8,3:2:0:0:
232,97,214784,2,0,P|243:155|246:215,1,120,0|0,1:0|0:0,0:0:0:0:
406,202,215850,2,0,P|395:260|392:320,1,120,4|8,1:3|0:0,0:0:0:0:
338,380,216611,2,0,L|257:373,1,80,2|8,1:3|0:0,0:0:0:0:
229,298,217220,6,0,B|305:278|305:278|405:280,1,160,4|0,1:0|1:0,0:0:0:0:
492,222,218286,2,0,P|500:164|377:129,1,200,4|0,1:2|1:0,0:0:0:0:
406,202,219352,1,12,0:0:0:0:
329,177,219657,2,0,B|253:157|253:157|153:159,1,160,0|0,1:0|1:0,0:0:0:0:
154,277,220723,2,0,P|74:282|30:270,1,120,4|10,1:2|0:0,0:0:0:0:
14,195,221484,2,0,P|16:155|14:115,1,80,0|10,1:0|0:0,0:0:0:0:
61,50,222093,5,4,1:0:0:0:
137,74,222398,1,12,0:0:0:0:
186,11,222703,2,0,L|318:-2,2,120,0|4|12,1:0|1:0|0:0,0:0:0:0:
137,74,223921,1,0,1:0:0:0:
162,149,224225,1,8,3:2:0:0:
239,169,224530,2,0,P|297:145|365:152,1,120,4|0,1:0|0:0,0:0:0:0:
466,261,225596,2,0,P|406:258|351:281,1,120,4|4,1:3|1:0,0:0:0:0:
326,356,226357,1,6,1:3:0:0:
253,322,226662,1,8,0:0:0:0:
196,378,226966,5,4,1:0:0:0:
196,378,229403,6,0,P|188:313|153:236,1,120,4|4,1:0|1:2,0:0:0:0:
113,154,230317,2,0,P|172:179|256:188,1,120,4|4,1:0|1:2,0:0:0:0:
347,193,231231,2,0,B|295:231|295:231|245:300,1,120,4|4,1:0|1:2,0:0:0:0:
