osu file format v14

[General]
AudioFilename: audio.mp3
AudioLeadIn: 0
PreviewTime: 68591
Countdown: 0
SampleSet: Soft
StackLeniency: 0.8
Mode: 0
LetterboxInBreaks: 0
WidescreenStoryboard: 0

[Editor]
Bookmarks: 217,10116,29608,34481,39354,44227,49100,68593,88085,97832,107578,112451,117324,122197,127070,146562,166055,175801,187984,207476,226968,231689
DistanceSpacing: 3
BeatDivisor: 4
GridSize: 4
TimelineZoom: 2.2

[Metadata]
Title:Ryuu to Sakura Miko
TitleUnicode:龍と桜巫女
Artist:Hatsuki Yura
ArtistUnicode:葉月ゆら
Creator:KKipalt
Version:Another
Source:
Tags:yoiyami rensou kitan 宵闇恋想奇譚 drop どろっぷ seifuumeigatsu 清風明月 hanazawa_kana kana 1112deng suzuki_1112 1112 otosaka-yu narcissu AIR tomadoi agatsu 和風民族音楽 japanese folk pop
BeatmapID:2014636
BeatmapSetID:962172

[Difficulty]
HPDrainRate:5.4
CircleSize:3.3
OverallDifficulty:8.4
ApproachRate:9.3
SliderMultiplier:1.6
SliderTickRate:1

[Events]
//Background and Video events
0,0,"BGme.jpg",0,0
//Break Periods
2,166253,173861
//Storyboard Layer 0 (Background)
//Storyboard Layer 1 (Fail)
//Storyboard Layer 2 (Pass)
//Storyboard Layer 3 (Foreground)
//Storyboard Layer 4 (Overlay)
//Storyboard Sound Samples

[TimingPoints]
-850,304.568527918782,4,2,1,70,1,0
215,-125,4,2,1,70,0,0
368,-125,4,2,1,70,0,0
8743,-125,4,2,1,70,0,0
10114,-100,4,2,2,70,0,0
29454,-66.6666666666667,4,2,2,70,0,0
29606,-142.857142857143,4,2,1,70,0,0
34479,-90.9090909090909,4,2,3,70,0,0
38895,-90.9090909090909,4,2,2,70,0,0
38896,-90.9090909090909,4,2,2,70,0,0
39200,-90.9090909090909,4,2,1,70,0,0
39353,-142.857142857143,4,2,1,70,0,0
44226,-90.9090909090909,4,2,3,70,0,0
48641,-90.9090909090909,4,2,2,70,0,0
48642,-90.9090909090909,4,2,2,70,0,0
48946,-90.9090909090909,4,2,1,70,0,0
49099,-83.3333333333333,4,3,4,70,0,0
53667,-83.3333333333333,4,2,1,70,0,0
53972,-83.3333333333333,4,3,5,70,0,0
55038,-83.3333333333333,4,2,1,70,0,0
55190,-83.3333333333333,4,3,5,70,0,0
56408,-83.3333333333333,4,2,3,70,0,0
57474,-83.3333333333333,4,2,1,70,0,0
57779,-83.3333333333333,4,2,2,70,0,0
58693,-83.3333333333333,4,3,4,70,0,0
63413,-83.3333333333333,4,2,1,70,0,0
63718,-83.3333333333333,4,2,3,70,0,0
66155,-83.3333333333333,4,2,1,70,0,0
68287,-55.5555555555556,4,2,1,70,0,0
68591,-71.4285714285714,4,2,3,80,0,1
71028,-71.4285714285714,4,2,3,80,0,1
72094,-71.4285714285714,4,2,2,80,0,1
72246,-71.4285714285714,4,2,3,80,0,1
73007,-71.4285714285714,4,2,1,80,0,1
73464,-71.4285714285714,4,2,2,80,0,1
73921,-71.4285714285714,4,2,1,80,0,1
74834,-71.4285714285714,4,2,2,80,0,1
74835,-71.4285714285714,4,2,2,80,0,1
75596,-71.4285714285714,4,2,1,80,0,1
76205,-71.4285714285714,4,2,2,80,0,1
76358,-71.4285714285714,4,2,1,80,0,1
78033,-71.4285714285714,4,2,1,80,0,0
78337,-71.4285714285714,4,2,3,80,0,1
81840,-71.4285714285714,4,2,2,80,0,1
81992,-71.4285714285714,4,2,3,80,0,1
82906,-71.4285714285714,4,2,1,80,0,1
83210,-71.4285714285714,4,2,2,80,0,1
83667,-71.4285714285714,4,2,1,80,0,1
84580,-71.4285714285714,4,2,2,80,0,1
84581,-71.4285714285714,4,2,2,80,0,1
85342,-71.4285714285714,4,2,1,80,0,1
88084,-100,4,2,2,70,0,0
107271,-71.4285714285714,4,2,2,70,0,0
107576,-142.857142857143,4,2,1,70,0,0
112449,-90.9090909090909,4,2,3,70,0,0
116865,-90.9090909090909,4,2,2,70,0,0
117170,-90.9090909090909,4,2,1,70,0,0
117322,-142.857142857143,4,2,1,70,0,0
122195,-90.9090909090909,4,2,3,70,0,0
126611,-90.9090909090909,4,2,2,70,0,0
126916,-90.9090909090909,4,2,1,70,0,0
127068,-83.3333333333333,4,3,4,70,0,0
131637,-83.3333333333333,4,2,1,70,0,0
131941,-83.3333333333333,4,3,5,70,0,0
133007,-83.3333333333333,4,2,1,70,0,0
133160,-83.3333333333333,4,3,5,70,0,0
134378,-83.3333333333333,4,2,3,70,0,0
135444,-83.3333333333333,4,2,1,70,0,0
135672,-83.3333333333333,4,2,2,70,0,0
136662,-83.3333333333333,4,3,4,70,0,0
141383,-83.3333333333333,4,2,1,70,0,0
141688,-83.3333333333333,4,2,3,70,0,0
144124,-83.3333333333333,4,2,1,70,0,0
146256,-55.5555555555556,4,2,1,70,0,0
146561,-71.4285714285714,4,2,3,80,0,1
150063,-71.4285714285714,4,2,2,80,0,1
150215,-71.4285714285714,4,2,3,80,0,1
150977,-71.4285714285714,4,2,1,80,0,1
151434,-71.4285714285714,4,2,2,80,0,1
151891,-71.4285714285714,4,2,1,80,0,1
152804,-71.4285714285714,4,2,2,80,0,1
153566,-71.4285714285714,4,2,1,80,0,1
154175,-71.4285714285714,4,2,2,80,0,1
154327,-71.4285714285714,4,2,1,80,0,1
156002,-71.4285714285714,4,2,1,80,0,0
156307,-71.4285714285714,4,2,3,80,0,1
160723,-71.4285714285714,4,2,1,80,0,1
161180,-71.4285714285714,4,2,2,80,0,1
161637,-71.4285714285714,4,2,1,80,0,1
162550,-71.4285714285714,4,2,2,80,0,1
162551,-71.4285714285714,4,2,2,80,0,1
163312,-71.4285714285714,4,2,1,80,0,1
165748,-55.5555555555556,4,2,1,80,0,1
166053,-142.857142857143,4,2,2,60,0,0
167119,-142.857142857143,4,2,3,60,0,0
167576,-142.857142857143,4,2,2,60,0,0
167880,-142.857142857143,4,2,3,60,0,0
168185,-142.857142857143,4,2,2,60,0,0
168490,-142.857142857143,4,2,3,60,0,0
169099,-142.857142857143,4,2,2,60,0,0
169556,-142.857142857143,4,2,3,60,0,0
169860,-142.857142857143,4,2,2,60,0,0
170012,-142.857142857143,4,2,3,60,0,0
170317,-142.857142857143,4,2,2,60,0,0
170622,-142.857142857143,4,2,3,60,0,0
171231,-142.857142857143,4,2,2,60,0,0
171992,-142.857142857143,4,2,3,60,0,0
172297,-142.857142857143,4,2,2,60,0,0
172449,-142.857142857143,4,2,3,60,0,0
172754,-142.857142857143,4,2,2,60,0,0
174733,-142.857142857143,4,2,1,60,0,0
175495,-83.3333333333333,4,2,1,60,0,0
175799,-83.3333333333333,4,2,2,70,0,0
185545,-83.3333333333333,4,2,1,70,0,0
187677,-55.5555555555556,4,2,1,70,0,0
187982,-71.4285714285714,4,2,3,80,0,1
191485,-71.4285714285714,4,2,2,80,0,1
191637,-71.4285714285714,4,2,3,80,0,1
192551,-71.4285714285714,4,2,1,80,0,1
192855,-71.4285714285714,4,2,2,80,0,1
193312,-71.4285714285714,4,2,1,80,0,1
194225,-71.4285714285714,4,2,2,80,0,1
194226,-71.4285714285714,4,2,2,80,0,1
194987,-71.4285714285714,4,2,1,80,0,1
195596,-71.4285714285714,4,2,2,80,0,1
195748,-71.4285714285714,4,2,1,80,0,1
197424,-71.4285714285714,4,2,1,80,0,0
197728,-71.4285714285714,4,2,3,80,0,1
201231,-71.4285714285714,4,2,2,80,0,1
201383,-71.4285714285714,4,2,3,80,0,1
202297,-71.4285714285714,4,2,1,80,0,1
202601,-71.4285714285714,4,2,2,80,0,1
203058,-71.4285714285714,4,2,1,80,0,1
203061,-71.4285714285714,4,2,1,80,0,1
203971,-71.4285714285714,4,2,2,80,0,1
203972,-71.4285714285714,4,2,2,80,0,1
204733,-71.4285714285714,4,2,1,80,0,1
207474,-100,4,2,2,70,0,0
226814,-66.6666666666667,4,2,2,70,0,0
226967,-125,4,2,3,70,0,0
227271,-125,4,2,2,70,0,0
227576,-125,4,2,1,70,0,0
228337,-125,4,2,2,70,0,0
228490,-125,4,2,1,70,0,0
228642,-125,4,2,2,70,0,0
228794,-125,4,2,1,70,0,0
228946,-125,4,2,2,70,0,0
229099,-83.3333333333333,4,2,1,70,0,0
229403,-83.3333333333333,4,2,1,70,0,0
231688,-83.3333333333333,4,1,3,70,0,0

[Colours]
Combo1 : 225,157,89
Combo2 : 255,170,170
Combo3 : 181,125,204
Combo4 : 212,212,212

[HitObjects]
165,314,215,6,0,L|185:318,3,21.3333333333333,8|8|8|4,0:0|0:0|0:0|3:2,0:0:0:0:
95,357,520,2,0,P|79:255|101:234,1,128,2|2,0:3|0:3,0:0:0:0:
0,139,977,2,0,B|31:170|31:170|121:154,1,128,8|2,0:3|0:3,0:0:0:0:
189,118,1434,6,0,B|220:87|220:87|310:103,1,128,0|8,3:0|0:3,0:0:0:0:
359,163,1891,1,2,0:3:0:0:
359,163,2195,2,0,P|334:112|366:41,1,128,8|2,0:3|0:3,0:0:0:0:
440,101,2652,6,0,L|419:105,3,21.3333333333333,8|8|8|0,0:0|0:0|0:0|3:0,0:0:0:0:
512,151,2957,2,0,L|501:282,1,128,2|2,0:3|0:3,0:0:0:0:
387,262,3413,2,0,B|469:247|469:247|500:278,1,128,8|2,0:3|0:3,0:0:0:0:
455,349,3870,6,0,B|372:363|372:363|341:332,1,128,0|8,3:0|0:3,0:0:0:0:
264,295,4327,2,0,L|272:227,1,64,2|0,0:3|3:0,0:0:0:0:
209,358,4632,2,0,P|124:363|92:324,1,128,8|2,0:3|0:3,0:0:0:0:
20,216,5089,6,0,L|0:220,3,21.3333333333333,8|8|8|4,0:0|0:0|0:0|3:1,0:0:0:0:
94,259,5394,2,0,P|110:157|88:136,1,128,2|2,0:3|0:3,0:0:0:0:
221,131,5851,2,0,B|158:159|158:159|100:146,1,128,8|2,0:3|0:3,0:0:0:0:
0,75,6307,1,0,3:0:0:0:
0,75,6459,6,0,L|73:63,1,64,0|8,0:0|0:3,0:0:0:0:
127,7,6765,1,2,0:3:0:0:
308,174,7069,2,0,P|283:123|315:52,1,128,8|2,0:3|0:3,0:0:0:0:
450,90,7526,6,0,L|429:94,3,21.3333333333333,8|0|0|4,0:3|0:0|0:0|3:2,0:0:0:0:
512,33,7831,2,0,L|501:164,1,128,2|2,0:3|0:3,0:0:0:0:
428,208,8287,2,0,L|439:339,1,128,8|2,0:3|0:3,0:0:0:0:
304,361,8743,6,0,P|336:366|366:378,1,64,4|0,3:1|0:0,0:0:0:0:
241,298,9048,1,8,0:3:0:0:
255,290,9124,1,8,0:3:0:0:
269,284,9200,1,8,0:3:0:0:
220,379,9353,1,0,3:0:0:0:
187,234,9505,1,8,0:3:0:0:
304,361,9658,1,8,0:1:0:0:
358,171,9809,1,8,0:3:0:0:
241,298,9962,1,8,0:0:0:0:
131,167,10114,6,0,P|77:156|3:192,1,120,4|0,1:0|0:0,0:0:0:0:
0,206,10419,2,0,P|10:150|11:108,1,80,10|0,0:0|0:0,0:0:0:0:
132,3,10723,2,0,P|135:42|143:82,1,80,0|0,1:0|0:0,0:0:0:0:
143,82,11028,1,12,0:0:0:0:
426,113,11180,6,0,P|361:73|289:100,1,160,4|0,1:2|1:0,0:0:0:0:
211,137,11637,2,0,P|211:195|204:227,1,80,10|0,0:0|0:0,0:0:0:0:
122,290,11941,2,0,P|187:258|285:257,1,160,0|12,1:0|0:0,0:0:0:0:
361,330,12398,5,0,0:0:0:0:
361,330,12474,1,0,0:0:0:0:
361,330,12551,2,0,P|355:276|355:232,1,80,0|0,1:0|0:0,0:0:0:0:
512,119,12855,2,0,P|510:158|395:169,1,160,10|0,0:0|1:0,0:0:0:0:
429,94,13312,1,0,0:0:0:0:
429,94,13465,1,12,0:0:0:0:
157,67,13617,6,0,P|238:26|300:60,1,160,4|0,1:2|1:0,0:0:0:0:
274,140,14074,2,0,P|234:145|194:144,1,80,10|0,0:0|0:0,0:0:0:0:
45,178,14378,1,0,1:0:0:0:
142,208,14530,1,0,0:0:0:0:
0,357,14682,2,0,B|58:332|58:332|135:345,1,120,10|0,0:0|0:0,0:0:0:0:
133,362,14987,6,0,P|187:373|261:337,1,120,4|0,1:0|0:0,0:0:0:0:
267,355,15292,2,0,P|257:299|256:257,1,80,12|0,0:0|0:0,0:0:0:0:
388,198,15596,1,0,1:0:0:0:
301,201,15748,1,0,0:0:0:0:
262,124,15901,1,8,3:2:0:0:
354,384,16053,6,0,P|366:307|434:271,1,160,4|0,1:2|1:0,0:0:0:0:
507,184,16510,2,0,P|512:144|511:104,1,80,12|0,0:0|0:0,0:0:0:0:
294,19,16814,1,0,1:0:0:0:
397,155,16967,1,0,0:0:0:0:
458,24,17119,1,8,3:2:0:0:
458,24,17271,6,0,L|454:56,2,26.6666666666667
417,45,17424,2,0,P|377:43|337:38,1,80,0|0,1:0|0:0,0:0:0:0:
92,167,17728,1,4,1:0:0:0:
167,209,17881,2,0,P|206:207|246:202,1,80,0|0,0:0|1:0,0:0:0:0:
446,315,18185,1,0,0:0:0:0:
339,264,18338,1,10,0:0:0:0:
145,360,18490,6,0,P|235:368|314:335,1,160,4|0,1:3|0:0,0:0:0:0:
339,264,18946,1,8,0:0:0:0:
339,264,19099,1,0,0:0:0:0:
180,199,19251,1,2,1:3:0:0:
299,344,19403,1,0,0:0:0:0:
401,139,19556,5,8,0:0:0:0:
401,139,19632,1,0,0:0:0:0:
401,139,19708,2,0,B|411:195,1,53.3333333333333
398,204,19860,2,0,P|400:277|456:318,1,120,4|0,1:0|0:0,0:0:0:0:
441,324,20165,2,0,P|465:272|476:232,1,80,10|0,0:0|0:0,0:0:0:0:
292,138,20469,2,4,P|301:178|304:218,1,80,0|0,1:0|0:0,0:0:0:0:
304,217,20774,1,12,0:0:0:0:
512,64,20926,6,0,P|431:105|369:71,1,160,4|0,1:2|1:0,0:0:0:0:
304,27,21383,2,0,P|246:27|214:34,1,80,10|0,0:0|0:0,0:0:0:0:
80,164,21687,2,0,P|40:166|1:157,2,80,0|0|12,1:0|0:0|0:0,0:0:0:0:
132,104,22144,5,0,0:0:0:0:
132,104,22221,1,0,0:0:0:0:
132,104,22297,2,0,P|133:143|138:183,1,80,0|0,1:0|0:0,0:0:0:0:
0,326,22601,2,0,P|1:286|117:276,1,160,10|0,0:0|1:0,0:0:0:0:
141,333,23058,1,0,0:0:0:0:
141,333,23211,1,12,0:0:0:0:
376,328,23363,6,0,P|374:288|259:278,1,160,4|0,1:2|1:0,0:0:0:0:
136,191,23820,2,0,P|175:192|215:186,1,80,10|0,0:0|0:0,0:0:0:0:
338,117,24124,2,0,P|298:118|258:112,1,80,0|0,1:0|0:0,0:0:0:0:
358,245,24428,2,0,B|416:220|416:220|493:233,1,120,10|0,0:0|0:0,0:0:0:0:
492,214,24733,6,0,P|513:269|503:327,1,120,4|0,1:0|0:0,0:0:0:0:
496,342,25038,2,0,P|440:332|398:331,1,80,12|0,0:0|0:0,0:0:0:0:
271,222,25342,1,0,1:0:0:0:
293,304,25494,1,0,0:0:0:0:
358,245,25647,1,8,3:2:0:0:
213,23,25799,6,0,P|225:99|293:135,1,160,4|0,1:0|1:0,0:0:0:0:
355,76,26256,2,0,P|391:65|464:81,1,80,12|0,0:0|0:0,0:0:0:0:
189,99,26560,1,0,1:0:0:0:
293,135,26713,1,0,0:0:0:0:
55,139,26865,1,8,3:2:0:0:
55,139,27017,6,0,L|51:171,2,26.6666666666667
88,114,27170,2,0,P|86:74|81:34,1,80,4|0,1:0|0:0,0:0:0:0:
242,237,27474,1,4,1:3:0:0:
182,178,27627,2,0,P|183:138|188:98,1,80,0|4,0:0|1:0,0:0:0:0:
0,317,27931,1,0,0:0:0:0:
119,265,28084,1,10,0:0:0:0:
265,372,28236,6,0,P|355:380|434:347,1,160,4|0,1:3|0:0,0:0:0:0:
428,264,28692,1,4,1:0:0:0:
428,264,28845,1,0,0:0:0:0:
512,384,28997,1,6,1:3:0:0:
335,332,29149,1,8,1:3:0:0:
512,229,29302,5,8,0:0:0:0:
512,229,29378,1,0,0:0:0:0:
512,229,29454,1,8,1:3:0:0:
512,229,29530,1,0,0:0:0:0:
512,229,29606,2,0,P|513:168|464:125,1,111.999996582031,4|8,3:2|0:3,0:0:0:0:
400,140,30063,1,8,0:0:0:0:
400,140,30215,2,0,L|330:148,2,55.9999982910157,0|0|8,3:0|0:0|0:3,0:0:0:0:
446,0,30672,6,0,B|409:34|409:34|412:121,1,111.999996582031,0|2,3:0|3:0,0:0:0:0:
388,246,31129,2,0,P|354:283|277:263,2,111.999996582031,8|0|8,0:3|3:0|0:3,0:0:0:0:
189,279,31891,1,0,0:0:0:0:
243,217,32043,6,0,L|259:87,1,111.999996582031,0|8,3:0|0:3,0:0:0:0:
256,105,32652,2,0,L|182:119,1,55.9999982910157,0|8,3:0|0:0,0:0:0:0:
97,50,32957,1,8,0:3:0:0:
151,210,33109,6,0,P|100:228|55:199,1,111.999996582031,0|2,3:0|3:0,0:0:0:0:
0,140,33566,1,8,0:3:0:0:
0,140,33870,2,0,L|10:63,1,55.9999982910157,0|0,3:0|3:0,0:0:0:0:
4,62,34099,1,0,3:0:0:0:
0,35,34175,1,12,0:1:0:0:
0,344,34479,6,0,P|69:296|161:324,1,176.000005371094,4|10,1:2|0:0,0:0:0:0:
250,384,34936,2,0,B|234:351|234:351|260:188,1,176.000005371094
182,179,35393,1,10,0:1:0:0:
321,336,35545,6,0,P|376:288|507:307,1,176.000005371094,8|8,0:3|0:3,0:0:0:0:
512,363,36002,1,8,0:0:0:0:
512,363,36307,2,0,P|493:292|497:270,1,88.000002685547,0|0,1:0|0:0,0:0:0:0:
383,197,36611,2,0,P|414:130|431:116,1,88.000002685547,10|0,0:0|0:0,0:0:0:0:
297,25,36916,6,0,P|392:38|462:28,1,132.00000402832,4|0,1:0|0:0,0:0:0:0:
456,17,37221,1,10,0:1:0:0:
209,0,37373,1,0,0:0:0:0:
209,0,37525,2,0,L|227:98,1,88.000002685547,4|0,0:3|0:0,0:0:0:0:
169,149,37830,1,10,0:0:0:0:
32,96,37982,6,0,P|122:97|164:169,1,176.000005371094,4|0,1:2|1:0,0:0:0:0:
24,238,38439,1,8,0:0:0:0:
24,238,38591,1,0,0:0:0:0:
184,238,38743,1,8,0:3:0:0:
0,319,38895,1,0,3:0:0:0:
205,319,39048,1,2,3:0:0:0:
81,175,39200,5,2,0:3:0:0:
81,175,39276,1,2,0:3:0:0:
81,175,39353,2,0,P|75:234|81:295,1,111.999996582031,4|8,3:2|0:3,0:0:0:0:
128,366,39809,1,8,0:0:0:0:
128,366,39961,2,0,L|58:374,2,55.9999982910157,0|0|8,3:0|0:0|0:3,0:0:0:0:
306,309,40418,6,0,B|247:292|247:292|205:319,1,111.999996582031,0|2,3:0|3:0,0:0:0:0:
388,335,40875,2,0,P|422:372|499:352,2,111.999996582031,8|0|8,0:3|3:0|0:3,0:0:0:0:
512,290,41637,1,0,0:0:0:0:
512,290,41789,6,0,L|496:160,1,111.999996582031,0|8,3:0|0:3,0:0:0:0:
498,178,42398,2,0,L|424:192,1,55.9999982910157,0|8,3:0|0:0,0:0:0:0:
512,59,42703,1,8,0:3:0:0:
355,175,42855,6,0,P|325:129|343:78,1,111.999996582031,0|2,3:0|3:0,0:0:0:0:
293,13,43312,1,8,0:3:0:0:
293,13,43616,2,0,L|370:23,1,55.9999982910157,0|0,3:0|3:0,0:0:0:0:
371,17,43845,1,0,3:0:0:0:
398,13,43921,1,12,0:1:0:0:
124,208,44226,6,0,P|207:187|278:236,1,176.000005371094,4|10,1:2|0:0,0:0:0:0:
261,327,44682,2,0,P|178:348|107:299,1,176.000005371094
25,322,45139,1,10,0:1:0:0:
0,163,45291,6,0,B|32:214|116:223|116:223|192:196,1,176.000005371094,8|8,0:3|0:3,0:0:0:0:
232,116,45748,1,8,0:0:0:0:
232,116,46053,2,0,P|251:45|265:27,1,88.000002685547,0|0,1:0|0:0,0:0:0:0:
108,136,46358,2,0,P|56:84|48:62,1,88.000002685547,10|0,0:0|0:0,0:0:0:0:
317,96,46662,6,0,P|412:109|482:99,1,132.00000402832,4|0,1:0|0:0,0:0:0:0:
476,88,46967,1,10,0:1:0:0:
496,248,47119,1,0,0:0:0:0:
496,248,47271,2,0,L|514:150,1,88.000002685547,4|0,0:3|0:0,0:0:0:0:
476,88,47576,1,10,0:0:0:0:
293,235,47728,6,0,P|383:234|425:162,1,176.000005371094,4|0,1:2|1:0,0:0:0:0:
248,159,48185,1,8,0:0:0:0:
248,159,48337,1,0,0:0:0:0:
290,318,48489,1,0,1:0:0:0:
347,164,48641,1,0,3:0:0:0:
293,235,48794,1,2,3:0:0:0:
144,79,48946,5,2,0:3:0:0:
144,79,49022,1,2,0:3:0:0:
144,79,49099,2,0,P|85:73|28:79,1,95.9999970703126,4|0,0:2|0:0,0:0:0:0:
0,278,49403,2,0,P|47:280|95:274,1,95.9999970703126,2|0,0:0|0:0,0:0:0:0:
219,145,49708,2,0,P|222:55|219:24,2,95.9999970703126,4|0|2,0:0|0:0|0:0,0:0:0:0:
73,198,50165,6,0,P|151:168|237:260,1,191.999994140625,2|0,0:0|0:0,0:0:0:0:
294,371,50622,2,0,P|347:384|398:379,1,95.9999970703126,2|0,0:0|0:0,0:0:0:0:
141,319,50926,2,0,P|187:306|235:309,1,95.9999970703126,4|4,0:0|0:0,0:0:0:0:
387,381,51231,1,2,0:0:0:0:
387,381,51383,1,0,0:0:0:0:
457,210,51535,6,0,P|348:239|351:311,1,191.999994140625,4|2,0:0|0:0,0:0:0:0:
512,380,51992,1,0,0:0:0:0:
512,380,52144,2,0,P|502:320|504:271,1,95.9999970703126,4|4,0:0|0:0,0:0:0:0:
457,210,52449,1,2,0:0:0:0:
512,80,52601,6,0,B|427:127|427:127|329:98,1,191.999994140625,2|0,0:0|0:0,0:0:0:0:
183,45,53058,2,0,P|252:32|299:36,1,95.9999970703126,2|0,0:0|0:0,0:0:0:0:
335,192,53363,2,0,P|266:179|219:183,1,95.9999970703126,2|4,0:0|0:0,0:0:0:0:
83,275,53667,1,4,1:0:0:0:
83,275,53972,6,0,B|113:246|113:246|201:254,2,95.9999970703126,6|0|8,0:0|0:0|0:0,0:0:0:0:
139,335,54429,1,2,0:2:0:0:
0,135,54581,2,0,P|48:150|105:152,1,95.9999970703126,2|0,0:0|0:0,0:0:0:0:
161,108,54886,1,8,0:0:0:0:
139,335,55038,6,0,P|159:245|247:219,1,191.999994140625,4|0,1:0|0:0,0:0:0:0:
354,264,55495,1,8,0:0:0:0:
227,299,55647,1,2,0:2:0:0:
368,341,55799,1,2,0:0:0:0:
247,219,55952,1,2,0:0:0:0:
206,384,56104,1,8,0:0:0:0:
354,264,56256,1,2,0:2:0:0:
481,378,56408,6,0,P|453:319|456:212,1,143.999995605469,4|0,1:2|0:0,0:0:0:0:
472,229,56713,1,10,0:1:0:0:
354,264,56865,1,2,0:0:0:0:
236,128,57018,1,8,0:3:0:0:
319,173,57170,1,0,0:0:0:0:
244,219,57322,1,8,0:0:0:0:
484,67,57474,6,0,P|397:114|359:78,1,159.999995117188,4|0,1:2|0:0,0:0:0:0:
354,58,57779,2,0,P|310:39|304:38,3,31.9999990234375,0|0|0|8,3:0|0:0|0:0|0:0,0:0:0:0:
414,0,58084,1,2,0:0:0:0:
311,152,58236,2,0,B|287:101|287:101|303:59,1,95.9999970703126,0|0,1:0|1:0,0:0:0:0:
85,80,58540,1,8,0:0:0:0:
144,154,58693,5,0,0:3:0:0:
144,154,58769,1,0,0:3:0:0:
144,154,58845,2,0,P|103:119|8:200,1,191.999994140625,4|2,0:2|0:0,0:0:0:0:
73,228,59302,1,0,0:0:0:0:
95,365,59455,2,0,P|5:362|-26:365,2,95.9999970703126,4|0|2,0:0|0:0|0:0,0:0:0:0:
157,237,59912,6,0,P|235:207|321:299,1,191.999994140625,2|0,0:0|0:0,0:0:0:0:
362,369,60369,2,0,P|415:382|466:377,1,95.9999970703126,2|0,0:0|0:0,0:0:0:0:
512,253,60673,2,0,P|464:250|418:263,1,95.9999970703126,4|4,0:0|0:0,0:0:0:0:
362,369,60978,1,2,0:0:0:0:
362,369,61130,1,0,0:0:0:0:
512,253,61282,6,0,L|479:64,1,191.999994140625,4|2,0:0|0:0,0:0:0:0:
379,0,61739,1,0,0:0:0:0:
379,0,61891,2,0,P|369:60|371:109,1,95.9999970703126,4|4,0:0|0:0,0:0:0:0:
512,176,62196,1,2,0:0:0:0:
369,95,62348,6,0,B|284:142|284:142|186:113,1,191.999994140625,2|0,0:0|0:0,0:0:0:0:
159,35,62805,2,0,P|111:36|65:48,1,95.9999970703126,2|0,0:0|0:0,0:0:0:0:
195,195,63110,2,0,P|126:182|79:186,1,95.9999970703126,2|4,0:0|0:0,0:0:0:0:
118,327,63414,1,4,1:0:0:0:
118,327,63719,6,0,B|88:298|88:298|0:306,2,95.9999970703126,4|0|10,1:0|0:0|0:0,0:0:0:0:
57,384,64176,1,0,0:0:0:0:
261,340,64328,2,0,P|264:292|278:246,1,95.9999970703126,0|0,1:0|0:0,0:0:0:0:
205,182,64633,1,8,0:0:0:0:
391,325,64785,6,0,P|468:276|464:185,1,191.999994140625,4|0,1:2|0:0,0:0:0:0:
316,126,65242,1,8,0:0:0:0:
392,235,65394,1,0,0:0:0:0:
494,105,65546,1,8,0:3:0:0:
392,235,65699,1,2,0:1:0:0:
263,69,65850,1,8,0:0:0:0:
271,55,65926,1,0,0:0:0:0:
277,41,66002,2,0,L|289:131,1,47.9999985351563,2|0,0:0|0:0,0:0:0:0:
307,217,66155,5,4,1:0:0:0:
307,217,66307,2,0,P|263:200|215:199,1,95.9999970703126,0|0,3:0|3:0,0:0:0:0:
419,321,66611,1,4,1:2:0:0:
419,321,66764,2,0,P|466:338|521:337,1,95.9999970703126,0|0,3:0|3:0,0:0:0:0:
253,289,67069,5,4,1:0:0:0:
191,341,67221,1,0,0:0:0:0:
268,367,67373,1,0,3:0:0:0:
112,152,67525,2,0,B|172:165,1,47.9999985351563,4|0,1:2|0:0,0:0:0:0:
119,145,67677,2,0,L|110:240,1,95.9999970703126,0|0,0:0|3:0,0:0:0:0:
0,355,67983,5,4,1:0:0:0:
154,324,68134,2,0,L|98:316,1,47.9999985351563,0|0,3:0|3:0,0:0:0:0:
0,355,68287,2,0,P|81:324|28:217,1,215.999993408203,4|0,1:2|0:0,0:0:0:0:
2,155,68591,6,0,P|95:188|117:124,1,167.999994873047,4|0,1:2|0:0,0:0:0:0:
86,67,68896,1,10,0:1:0:0:
216,199,69048,2,0,P|273:198|347:66,1,223.999993164063
283,9,69505,1,8,0:0:0:0:
283,9,69657,1,2,0:0:0:0:
356,152,69809,5,0,1:0:0:0:
462,127,69962,1,0,0:0:0:0:
421,207,70114,1,8,0:0:0:0:
512,230,70266,1,0,0:0:0:0:
324,328,70419,1,8,0:3:0:0:
452,291,70571,1,2,0:1:0:0:
321,353,70723,2,0,P|245:354|218:276,1,167.999994873047,8|0,0:1|0:0,0:0:0:0:
275,208,71028,6,0,P|233:96|141:127,2,223.999993164063,0|10|4,3:0|0:0|0:3,0:0:0:0:
275,208,71789,1,0,0:0:0:0:
38,287,71941,1,8,0:0:0:0:
217,277,72094,1,0,3:0:0:0:
151,200,72246,6,0,P|126:249|132:328,1,111.999996582031,0|2,1:0|0:0,0:0:0:0:
130,326,72474,1,0,0:0:0:0:
143,343,72551,1,8,0:0:0:0:
75,47,72703,1,0,0:0:0:0:
0,106,72855,2,0,P|80:136|132:132,1,111.999996582031,0|0,1:0|3:0,0:0:0:0:
133,130,73084,1,0,3:0:0:0:
157,116,73160,1,12,1:0:0:0:
157,116,73464,6,0,B|176:72|235:53|283:65|310:106|310:106|313:179,1,223.999993164063,4|10,1:0|0:0,0:0:0:0:
433,81,73921,1,8,0:0:0:0:
236,151,74073,1,2,1:3:0:0:
499,200,74226,1,2,0:3:0:0:
376,147,74378,1,8,0:3:0:0:
181,279,74530,6,0,P|245:299|295:165,1,223.999993164063,4|2,1:0|0:0,0:0:0:0:
236,151,74987,1,8,0:0:0:0:
345,279,75139,1,4,0:0:0:0:
376,147,75292,1,0,1:0:0:0:
262,251,75444,1,2,0:0:0:0:
67,45,75596,1,4,1:2:0:0:
67,45,75748,1,0,0:0:0:0:
150,1,75901,6,0,P|148:62|139:125,1,111.999996582031,4|0,1:0|0:0,0:0:0:0:
30,308,76205,1,12,0:0:0:0:
107,351,76358,2,0,P|105:290|96:227,1,111.999996582031,8|2,0:0|3:0,0:0:0:0:
16,153,76662,1,2,0:3:0:0:
178,243,76814,1,10,0:3:0:0:
304,148,76967,6,0,P|362:131|435:258,1,223.999993164063,4|2,1:2|0:3,0:0:0:0:
345,288,77424,1,8,0:3:0:0:
512,278,77576,1,4,1:0:0:0:
304,148,77728,1,2,0:3:0:0:
392,363,77880,1,2,0:3:0:0:
148,310,78033,1,4,1:2:0:0:
144,323,78109,1,8,0:3:0:0:
145,337,78185,1,8,0:3:0:0:
152,349,78261,1,8,0:3:0:0:
163,358,78337,6,0,P|129:289|38:305,1,167.999994873047,4|0,1:2|0:0,0:0:0:0:
9,372,78642,1,10,0:1:0:0:
248,384,78794,2,0,P|293:349|243:208,1,223.999993164063
168,213,79251,1,8,0:0:0:0:
168,213,79403,1,2,0:0:0:0:
66,28,79555,5,0,1:0:0:0:
41,134,79708,1,0,0:0:0:0:
218,120,79860,1,8,0:0:0:0:
127,97,80012,1,0,0:0:0:0:
296,176,80165,1,8,0:3:0:0:
168,213,80317,1,2,0:1:0:0:
352,330,80469,2,0,P|276:331|249:253,1,167.999994873047,8|0,0:1|0:0,0:0:0:0:
296,176,80774,6,0,B|344:225|401:194|401:194|462:160|502:200,2,223.999993164063,0|10|4,3:0|0:0|0:3,0:0:0:0:
296,176,81535,1,0,0:0:0:0:
303,22,81687,1,8,0:0:0:0:
407,151,81840,1,0,3:0:0:0:
235,108,81992,6,0,P|186:133|107:127,1,111.999996582031,0|2,1:0|0:0,0:0:0:0:
109,129,82220,1,0,0:0:0:0:
91,116,82297,2,0,L|107:0,1,111.999996582031,8|0,0:0|0:0,0:0:0:0:
5,351,82601,2,0,P|85:321|137:325,1,111.999996582031,0|0,1:0|3:0,0:0:0:0:
138,327,82830,1,0,3:0:0:0:
162,341,82906,1,12,1:0:0:0:
162,341,83210,6,0,B|208:366|252:333|252:333|264:340|264:340|302:288|367:304,1,223.999993164063,4|10,1:0|0:0,0:0:0:0:
300,199,83667,1,8,0:0:0:0:
438,346,83819,1,2,1:3:0:0:
337,384,83972,1,2,0:3:0:0:
436,261,84124,1,8,0:3:0:0:
244,135,84276,6,0,P|264:71|393:89,1,223.999993164063,4|2,1:0|0:0,0:0:0:0:
298,200,84733,1,8,0:0:0:0:
152,133,84885,1,4,0:0:0:0:
323,124,85038,1,0,1:0:0:0:
193,205,85190,1,2,0:0:0:0:
378,193,85342,1,4,1:0:0:0:
378,193,85494,1,8,0:0:0:0:
209,58,85647,5,4,1:2:0:0:
345,262,85799,1,8,0:0:0:0:
405,115,85952,1,12,1:0:0:0:
233,271,86104,1,8,0:0:0:0:
92,105,86256,5,8,1:0:0:0:
133,101,86332,1,8,0:3:0:0:
170,120,86408,1,8,1:0:0:0:
191,156,86484,1,8,0:3:0:0:
189,198,86560,1,8,1:0:0:0:
129,255,86713,1,4,1:2:0:0:
129,255,87018,5,8,1:0:0:0:
414,276,87170,1,8,1:0:0:0:
414,276,87627,5,0,3:0:0:0:
396,358,87779,2,0,P|330:368|299:252,1,167.999994873047,12|8,1:0|0:0,0:0:0:0:
343,237,88084,6,0,P|369:162|354:64,1,160,4|10,1:0|0:0,0:0:0:0:
361,82,88540,1,0,0:0:0:0:
199,55,88693,2,0,P|172:130|180:209,1,160,0|12,1:0|0:0,0:0:0:0:
259,196,89150,1,4,1:2:0:0:
176,297,89302,6,0,P|103:285|73:275,1,80,0|0,0:0|1:0,0:0:0:0:
24,332,89606,1,10,0:0:0:0:
24,332,89911,2,0,P|116:324|142:394,1,160,0|12,1:0|0:0,0:0:0:0:
241,340,90368,6,0,L|247:365,2,26.6666666666667
248,328,90520,2,0,P|293:325|401:379,1,160,0|10,1:0|0:0,0:0:0:0:
394,372,90977,1,0,0:0:0:0:
507,265,91129,2,0,P|500:225|486:188,1,80,0|0,1:0|0:0,0:0:0:0:
407,148,91434,1,12,0:0:0:0:
321,174,91586,1,4,1:2:0:0:
270,101,91738,5,0,0:0:0:0:
323,29,91891,1,0,1:0:0:0:
408,58,92043,1,10,0:0:0:0:
408,58,92347,2,0,P|301:67|198:40,1,160,0|10,1:0|0:0,0:0:0:0:
161,60,92804,6,0,L|157:13,2,26.6666666666667
169,67,92957,2,0,P|101:26|16:42,1,160,0|12,1:0|0:0,0:0:0:0:
2,122,93413,1,0,0:0:0:0:
74,172,93566,2,0,P|151:161|172:166,2,80,0|0|8,1:0|0:0|3:2,0:0:0:0:
19,241,94023,1,0,1:0:0:0:
162,367,94175,5,0,0:0:0:0:
131,289,94327,1,0,1:0:0:0:
0,357,94479,1,12,0:0:0:0:
0,360,94784,2,0,P|65:350|97:359,1,80,0|0,1:0|0:0,0:0:0:0:
155,282,95089,2,0,P|216:305|239:329,1,80,8|0,3:2|0:0,0:0:0:0:
317,364,95393,6,0,L|324:265,1,80,0|0,1:0|0:0,0:0:0:0:
494,271,95698,2,0,L|487:172,1,80,4|0,1:0|0:0,0:0:0:0:
400,153,96002,1,0,1:0:0:0:
314,197,96155,1,0,0:0:0:0:
248,126,96307,1,10,0:0:0:0:
410,64,96459,6,0,P|345:82|252:96,1,160,4|0,1:3|0:0,0:0:0:0:
62,54,96916,2,0,B|59:97|59:97|79:139,1,80,8|0,0:0|0:0,0:0:0:0:
238,206,97221,2,0,B|253:172|253:172|250:129,1,80,2|0,1:3|0:0,0:0:0:0:
46,210,97525,5,8,0:0:0:0:
46,210,97601,1,0,0:0:0:0:
46,210,97677,1,8,0:0:0:0:
46,210,97754,1,0,0:0:0:0:
46,210,97830,6,0,P|150:183|164:118,1,160,4|10,1:0|0:0,0:0:0:0:
165,142,98287,1,0,0:0:0:0:
334,213,98440,2,0,P|307:288|358:362,1,160,0|12,1:0|0:0,0:0:0:0:
396,278,98897,1,4,1:2:0:0:
511,311,99049,6,0,P|507:237|511:205,1,80,0|0,0:0|1:0,0:0:0:0:
439,164,99353,1,10,0:0:0:0:
439,164,99658,2,0,P|347:172|321:102,1,160,0|12,1:0|0:0,0:0:0:0:
266,45,100115,6,0,L|272:20,2,26.6666666666667
252,51,100266,2,0,P|178:33|132:93,1,160,0|10,1:0|0:0,0:0:0:0:
132,92,100724,1,0,0:0:0:0:
0,137,100876,2,0,P|10:98|12:58,1,80,0|0,1:0|0:0,0:0:0:0:
90,180,101181,1,12,0:0:0:0:
165,130,101333,1,4,1:2:0:0:
234,186,101486,5,0,0:0:0:0:
204,270,101638,1,0,1:0:0:0:
114,269,101790,1,10,0:0:0:0:
114,269,102094,2,0,P|221:260|251:299,1,160,0|10,1:0|0:0,0:0:0:0:
325,336,102551,6,0,L|329:383,2,26.6666666666667
329,324,102703,2,0,P|436:333|466:294,1,160,4|12,1:0|0:0,0:0:0:0:
469,203,103160,1,0,0:0:0:0:
395,141,103312,2,0,L|401:44,1,80,0|0,1:0|0:0,0:0:0:0:
477,4,103617,1,8,3:2:0:0:
477,4,103770,1,0,1:0:0:0:
273,127,103922,5,0,0:0:0:0:
368,130,104074,1,0,1:0:0:0:
320,46,104226,1,12,0:0:0:0:
320,46,104531,2,0,P|255:56|223:47,1,80,0|0,1:0|0:0,0:0:0:0:
154,133,104835,5,8,3:2:0:0:
135,126,104911,1,0,0:0:0:0:
115,122,104987,1,0,0:0:0:0:
95,122,105063,1,0,0:0:0:0:
75,125,105139,6,0,B|54:158|54:158|80:224,2,80,4|0|2,1:0|0:0|0:0,0:0:0:0:
14,50,105596,1,4,1:3:0:0:
0,275,105749,1,0,0:0:0:0:
159,284,105902,1,0,0:0:0:0:
81,226,106054,1,4,1:0:0:0:
142,378,106206,6,0,P|221:366|298:346,1,160,0|4,1:0|1:3,0:0:0:0:
429,359,106662,1,0,1:0:0:0:
283,260,106814,1,0,1:0:0:0:
461,281,106967,1,4,1:0:0:0:
298,346,107119,1,8,1:3:0:0:
512,348,107271,1,4,1:3:0:0:
512,348,107424,1,8,1:3:0:0:
413,217,107576,6,0,P|412:156|461:113,1,111.999996582031,4|8,3:2|0:3,0:0:0:0:
447,30,108033,1,8,0:0:0:0:
447,30,108185,2,0,L|377:38,2,55.9999982910157,0|0|8,3:0|0:0|0:3,0:0:0:0:
444,120,108642,6,0,B|401:146|401:146|318:121,1,111.999996582031,0|2,3:0|3:0,0:0:0:0:
305,49,109099,2,0,P|271:12|194:32,2,111.999996582031,8|0|8,0:3|3:0|0:3,0:0:0:0:
158,111,109861,1,0,0:0:0:0:
158,111,110013,6,0,L|142:-19,1,111.999996582031,0|8,3:0|0:3,0:0:0:0:
144,6,110622,2,0,L|70:20,1,55.9999982910157,0|8,3:0|0:0,0:0:0:0:
11,6,110927,1,8,0:3:0:0:
0,148,111079,6,0,P|51:130|96:159,1,111.999996582031,0|2,3:0|3:0,0:0:0:0:
46,227,111536,1,8,0:3:0:0:
46,227,111840,2,0,L|56:304,1,55.9999982910157,0|0,3:0|3:0,0:0:0:0:
50,305,112069,1,0,3:0:0:0:
46,332,112145,1,12,0:1:0:0:
323,339,112449,6,0,P|388:285|476:323,1,176.000005371094,4|10,1:2|0:0,0:0:0:0:
405,370,112906,2,0,B|393:296|393:296|421:265|421:265|406:175,1,176.000005371094
334,166,113363,1,10,0:1:0:0:
512,29,113515,6,0,P|457:77|326:58,1,176.000005371094,8|8,0:3|0:3,0:0:0:0:
314,6,113972,1,8,0:0:0:0:
314,6,114277,2,0,P|243:25|221:21,1,88.000002685547,0|0,1:0|0:0,0:0:0:0:
195,182,114581,2,0,P|226:115|243:101,1,88.000002685547,10|0,0:0|0:0,0:0:0:0:
159,66,114886,6,0,P|64:53|-6:63,1,132.00000402832,4|0,1:0|0:0,0:0:0:0:
0,74,115191,1,12,0:0:0:0:
203,184,115343,1,0,0:0:0:0:
203,184,115495,2,0,L|185:282,1,88.000002685547,4|0,0:3|0:0,0:0:0:0:
241,335,115800,1,10,0:0:0:0:
41,349,115952,6,0,P|131:348|173:276,1,176.000005371094,4|0,1:2|1:0,0:0:0:0:
83,267,116409,1,8,0:0:0:0:
83,267,116561,1,0,0:0:0:0:
241,335,116713,1,8,0:3:0:0:
144,370,116865,1,0,3:0:0:0:
280,241,117018,1,2,3:0:0:0:
355,384,117170,5,2,0:3:0:0:
355,384,117246,1,2,0:3:0:0:
355,384,117323,2,0,P|349:325|355:264,1,111.999996582031,4|8,3:2|0:3,0:0:0:0:
426,232,117779,1,8,0:0:0:0:
426,232,117931,2,0,L|418:162,2,55.9999982910157,0|0|8,3:0|0:0|0:3,0:0:0:0:
336,153,118388,6,0,B|378:126|378:126|461:151,1,111.999996582031,0|2,3:0|3:0,0:0:0:0:
509,96,118845,2,0,P|513:41|475:3,2,111.999996582031,8|0|8,0:3|3:0|0:3,0:0:0:0:
326,68,119607,1,0,0:0:0:0:
326,68,119759,6,0,L|196:52,1,111.999996582031,0|8,3:0|0:3,0:0:0:0:
214,54,120368,2,0,L|140:68,1,55.9999982910157,0|8,3:0|0:0,0:0:0:0:
83,26,120673,1,8,0:3:0:0:
212,140,120825,6,0,P|229:191|199:236,1,111.999996582031,0|2,3:0|3:0,0:0:0:0:
148,303,121282,1,8,0:3:0:0:
148,303,121586,2,0,L|71:313,1,55.9999982910157,0|0,3:0|3:0,0:0:0:0:
70,307,121815,1,0,3:0:0:0:
43,303,121891,1,12,0:1:0:0:
357,228,122196,6,0,P|440:207|511:256,1,176.000005371094,4|10,1:2|0:0,0:0:0:0:
466,337,122652,2,0,P|383:316|312:365,1,176.000005371094
227,354,123109,1,10,0:1:0:0:
202,181,123261,6,0,B|234:232|318:241|318:241|394:214,1,176.000005371094,8|8,0:3|0:3,0:0:0:0:
412,155,123718,1,8,0:0:0:0:
412,155,124023,2,0,P|431:84|445:66,1,88.000002685547,0|0,1:0|0:0,0:0:0:0:
305,4,124327,2,0,P|325:42|331:85,1,88.000002685547,10|0,0:0|0:0,0:0:0:0:
202,181,124632,6,0,P|107:168|37:178,1,132.00000402832,4|0,1:0|0:0,0:0:0:0:
43,189,124937,1,10,0:0:0:0:
209,17,125089,1,0,0:0:0:0:
209,17,125241,2,0,L|227:115,1,88.000002685547,4|0,0:3|0:0,0:0:0:0:
202,181,125546,1,10,0:0:0:0:
92,338,125698,6,0,P|139:268|224:271,1,176.000005371094,4|0,1:2|1:0,0:0:0:0:
258,354,126155,1,8,0:0:0:0:
258,354,126307,1,0,0:0:0:0:
202,181,126459,1,0,1:0:0:0:
177,339,126611,1,0,3:0:0:0:
311,252,126764,1,2,3:0:0:0:
380,384,126916,5,2,0:3:0:0:
380,384,126992,1,2,0:3:0:0:
380,384,127069,2,0,P|439:378|496:384,1,95.9999970703126,4|0,0:2|0:0,0:0:0:0:
498,233,127373,2,0,P|450:239|402:237,1,95.9999970703126,2|0,0:0|0:0,0:0:0:0:
313,95,127678,2,0,P|316:5|313:-26,2,95.9999970703126,4|0|2,0:0|0:0|0:0,0:0:0:0:
402,237,128135,6,0,P|331:177|244:206,1,191.999994140625,2|0,0:0|0:0,0:0:0:0:
107,272,128592,2,0,P|160:285|211:280,1,95.9999970703126,2|0,0:0|0:0,0:0:0:0:
122,163,128896,2,0,P|74:160|28:173,1,95.9999970703126,4|4,0:0|0:0,0:0:0:0:
0,259,129201,1,2,0:0:0:0:
0,259,129353,1,0,0:0:0:0:
19,62,129505,6,0,P|32:150|121:162,1,191.999994140625,4|2,0:0|0:0,0:0:0:0:
234,105,129962,1,0,0:0:0:0:
234,105,130114,2,0,P|224:45|226:-4,1,95.9999970703126,4|4,0:0|0:0,0:0:0:0:
142,0,130419,1,2,0:0:0:0:
210,186,130571,6,0,B|295:139|295:139|393:168,1,191.999994140625,2|0,0:0|0:0,0:0:0:0:
501,71,131028,2,0,P|453:71|406:83,1,95.9999970703126,2|0,0:0|0:0,0:0:0:0:
512,255,131333,2,0,P|443:242|396:246,1,95.9999970703126,2|4,0:0|0:0,0:0:0:0:
268,343,131637,1,4,1:0:0:0:
268,343,131942,6,0,B|298:372|298:372|386:364,2,95.9999970703126,6|0|8,0:0|0:0|0:0,0:0:0:0:
331,288,132399,1,2,0:2:0:0:
191,375,132551,2,0,P|143:360|86:358,1,95.9999970703126,2|0,0:0|0:0,0:0:0:0:
3,383,132856,1,8,0:0:0:0:
204,240,133008,6,0,P|184:330|96:356,1,191.999994140625,4|0,1:0|0:0,0:0:0:0:
0,243,133465,1,8,0:0:0:0:
121,265,133617,1,2,0:2:0:0:
5,160,133769,1,2,0:0:0:0:
204,240,133922,1,2,0:0:0:0:
0,243,134073,1,8,0:0:0:0:
182,327,134226,1,2,0:2:0:0:
226,153,134378,6,0,P|285:125|392:128,1,143.999995605469,4|0,1:2|0:0,0:0:0:0:
375,144,134683,1,10,0:1:0:0:
321,229,134835,1,2,0:0:0:0:
429,329,134988,1,8,0:3:0:0:
437,238,135140,1,0,0:0:0:0:
512,284,135292,1,8,0:0:0:0:
509,45,135444,6,0,P|422:-2|384:34,1,159.999995117188,4|0,1:2|0:0,0:0:0:0:
379,54,135749,2,0,P|335:73|329:74,3,31.9999990234375,0|0|0|8,3:0|0:0|0:0|0:0,0:0:0:0:
450,101,136054,1,2,0:0:0:0:
264,31,136205,2,0,B|257:86|257:86|278:135,1,95.9999970703126,0|0,1:0|1:0,0:0:0:0:
128,8,136510,1,8,0:0:0:0:
14,122,136663,5,0,0:3:0:0:
14,122,136739,1,0,0:3:0:0:
14,122,136815,2,0,P|55:157|150:76,1,191.999994140625,4|2,0:2|0:0,0:0:0:0:
236,150,137272,1,0,0:0:0:0:
97,304,137425,2,0,P|7:301|-24:304,2,95.9999970703126,4|0|2,0:0|0:0|0:0,0:0:0:0:
154,234,137880,6,0,P|232:204|318:296,1,191.999994140625,2|0,0:0|0:0,0:0:0:0:
379,384,138337,2,0,P|392:331|387:280,1,95.9999970703126,2|0,0:0|0:0,0:0:0:0:
499,196,138642,2,0,P|496:243|509:289,1,95.9999970703126,4|4,0:0|0:0,0:0:0:0:
385,384,138946,1,2,0:0:0:0:
385,384,139099,1,0,0:0:0:0:
223,289,139252,6,0,L|256:100,1,191.999994140625,4|2,0:0|0:0,0:0:0:0:
154,0,139709,1,0,0:0:0:0:
154,0,139861,2,0,P|164:60|162:109,1,95.9999970703126,4|4,0:0|0:0,0:0:0:0:
307,31,140166,1,2,0:0:0:0:
176,187,140318,6,0,B|266:213|266:213|351:166,1,191.999994140625,2|0,0:0|0:0,0:0:0:0:
163,95,140775,2,0,P|115:96|69:108,1,95.9999970703126,2|0,0:0|0:0,0:0:0:0:
0,222,141078,2,0,P|47:222|94:234,1,95.9999970703126,2|4,0:0|0:0,0:0:0:0:
208,357,141384,1,4,1:0:0:0:
208,357,141689,6,0,B|178:386|178:386|90:378,2,95.9999970703126,4|0|10,1:0|0:0|0:0,0:0:0:0:
141,298,142144,1,0,0:0:0:0:
295,384,142298,2,0,P|298:336|312:290,1,95.9999970703126,0|0,1:0|0:0,0:0:0:0:
272,212,142601,1,8,0:0:0:0:
440,384,142755,6,0,P|517:335|513:244,1,191.999994140625,4|0,1:2|0:0,0:0:0:0:
364,213,143210,1,8,0:0:0:0:
444,293,143363,1,0,0:0:0:0:
508,120,143515,1,8,0:3:0:0:
444,293,143667,1,2,0:1:0:0:
301,130,143820,1,8,0:0:0:0:
309,116,143896,1,0,0:0:0:0:
315,102,143972,2,0,L|301:176,1,47.9999985351563,2|0,0:0|0:0,0:0:0:0:
218,279,144125,5,4,1:0:0:0:
218,279,144277,2,0,P|235:235|236:187,1,95.9999970703126,0|0,3:0|3:0,0:0:0:0:
296,384,144581,1,4,1:2:0:0:
296,384,144734,2,0,P|345:375|392:346,1,95.9999970703126,0|0,3:0|3:0,0:0:0:0:
218,279,145039,5,4,1:0:0:0:
130,300,145191,1,0,0:0:0:0:
154,217,145343,1,0,3:0:0:0:
3,349,145495,2,0,B|63:336,1,47.9999985351563,4|0,1:2|0:0,0:0:0:0:
10,356,145647,2,0,L|1:261,1,95.9999970703126,0|0,0:0|3:0,0:0:0:0:
4,49,145953,5,4,1:0:0:0:
158,80,146104,2,0,L|102:88,1,47.9999985351563,0|0,3:0|3:0,0:0:0:0:
4,49,146257,2,0,P|85:80|32:187,1,215.999993408203,4|0,1:2|0:0,0:0:0:0:
0,260,146561,6,0,P|57:217|152:220,1,167.999994873047,4|0,1:2|0:0,0:0:0:0:
213,280,146866,1,10,0:1:0:0:
238,91,147018,2,0,P|329:136|289:230,1,223.999993164063
213,280,147475,1,8,0:0:0:0:
213,280,147627,1,2,0:0:0:0:
408,307,147779,5,0,1:0:0:0:
317,284,147931,1,0,0:0:0:0:
471,364,148083,1,8,0:0:0:0:
377,384,148236,1,0,0:0:0:0:
512,190,148389,1,8,0:3:0:0:
384,227,148541,1,2,0:1:0:0:
512,164,148693,2,0,P|513:107|409:87,1,167.999994873047,8|0,0:1|0:0,0:0:0:0:
359,135,148998,6,0,P|256:141|235:41,2,223.999993164063,0|10|4,3:0|0:0|0:3,0:0:0:0:
345,51,149759,1,0,0:0:0:0:
250,264,149911,2,0,P|242:197|245:150,1,111.999996582031,8|0,0:0|3:0,0:0:0:0:
92,164,150216,6,0,P|128:123|143:45,1,111.999996582031,0|2,1:0|0:0,0:0:0:0:
145,47,150444,1,0,0:0:0:0:
137,27,150521,1,8,0:0:0:0:
43,331,150673,1,0,0:0:0:0:
0,248,150825,2,0,P|84:262|127:291,1,111.999996582031,0|0,1:0|3:0,0:0:0:0:
129,293,151054,1,0,3:0:0:0:
142,317,151130,1,12,1:0:0:0:
142,317,151434,6,0,B|186:265|267:279|295:327|295:327|281:295|299:261,1,223.999993164063,4|10,1:0|0:0,0:0:0:0:
424,238,151891,1,8,0:0:0:0:
279,347,152043,1,2,1:3:0:0:
408,384,152196,1,2,0:3:0:0:
218,255,152348,1,8,0:3:0:0:
496,201,152500,6,0,P|473:301|370:297,1,223.999993164063,4|2,1:0|0:0,0:0:0:0:
313,138,152957,1,8,0:0:0:0:
424,238,153109,1,4,0:0:0:0:
419,107,153262,1,0,1:0:0:0:
290,281,153414,1,2,0:0:0:0:
170,13,153566,1,4,1:2:0:0:
170,13,153718,1,0,0:0:0:0:
237,94,153871,6,0,P|176:96|113:105,1,111.999996582031,4|0,1:0|0:0,0:0:0:0:
72,358,154175,1,12,0:0:0:0:
10,274,154328,2,0,P|71:272|134:263,1,111.999996582031,8|2,0:0|3:0,0:0:0:0:
207,299,154632,1,2,0:3:0:0:
66,180,154784,1,10,0:3:0:0:
166,368,154937,6,0,P|259:363|268:243,1,223.999993164063,4|2,1:2|0:3,0:0:0:0:
373,369,155394,1,8,0:3:0:0:
207,299,155546,1,4,1:0:0:0:
335,186,155698,1,2,0:3:0:0:
207,299,155850,1,2,0:3:0:0:
104,113,156003,1,4,1:2:0:0:
108,126,156079,1,8,0:3:0:0:
107,140,156155,1,8,0:3:0:0:
100,152,156231,1,8,0:3:0:0:
89,160,156307,6,0,P|123:91|214:107,1,167.999994873047,4|0,1:2|0:0,0:0:0:0:
243,175,156612,1,10,0:1:0:0:
391,22,156764,2,0,P|421:70|326:185,1,223.999993164063
243,175,157221,1,8,0:0:0:0:
243,175,157373,1,2,0:0:0:0:
512,91,157525,5,0,1:0:0:0:
406,116,157678,1,0,0:0:0:0:
499,272,157830,1,8,0:0:0:0:
486,185,157982,1,0,0:0:0:0:
418,354,158135,1,8,0:3:0:0:
486,185,158287,1,2,0:1:0:0:
441,365,158439,2,0,P|365:366|338:288,1,167.999994873047,8|0,0:1|0:0,0:0:0:0:
262,264,158744,6,0,B|214:313|157:282|157:282|96:248|56:288,2,223.999993164063,0|10|4,3:0|0:0|0:3,0:0:0:0:
246,121,159505,1,0,0:0:0:0:
92,240,159657,2,0,P|141:215|220:221,1,111.999996582031,8|0,0:0|3:0,0:0:0:0:
197,32,159962,6,0,P|246:57|325:51,1,111.999996582031,0|2,1:0|0:0,0:0:0:0:
323,53,160190,1,0,0:0:0:0:
341,40,160266,2,0,P|370:32|466:32,1,111.999996582031,8|0,0:0|0:0,0:0:0:0:
198,210,160571,2,0,P|118:180|66:184,1,111.999996582031,0|0,1:0|3:0,0:0:0:0:
65,186,160800,1,0,3:0:0:0:
41,200,160876,1,12,1:0:0:0:
41,200,161180,6,0,B|94:226|91:295|59:325|59:325|110:318|136:368,1,223.999993164063,4|10,1:0|0:0,0:0:0:0:
277,331,161637,1,8,0:0:0:0:
205,384,161789,1,2,1:3:0:0:
255,225,161942,1,2,0:3:0:0:
343,384,162094,1,8,0:3:0:0:
469,188,162246,6,0,P|490:251|374:311,1,223.999993164063,4|2,1:0|0:0,0:0:0:0:
298,147,162703,1,8,0:0:0:0:
414,242,162855,1,4,0:0:0:0:
464,110,163008,1,0,1:0:0:0:
279,244,163160,1,2,0:0:0:0:
255,3,163312,1,4,1:0:0:0:
255,3,163464,1,8,0:0:0:0:
467,186,163617,5,4,1:2:0:0:
217,124,163769,1,8,0:0:0:0:
398,66,163922,1,12,1:0:0:0:
199,203,164074,1,8,0:0:0:0:
361,362,164226,5,8,1:0:0:0:
396,341,164302,1,8,0:3:0:0:
416,304,164378,1,8,1:0:0:0:
412,263,164454,1,8,0:3:0:0:
387,230,164530,1,8,1:0:0:0:
294,223,164683,5,4,1:2:0:0:
298,227,164988,5,8,1:0:0:0:
82,384,165140,1,8,1:0:0:0:
82,384,165597,5,0,3:0:0:0:
56,241,165749,2,0,P|159:252|166:355,1,215.999993408203,12|8,1:0|0:0,0:0:0:0:
82,384,166053,5,4,1:0:0:0:
120,239,174429,6,0,P|176:195|231:206,1,111.999996582031,4|8,1:3|0:1,0:0:0:0:
232,204,174809,1,8,0:1:0:0:
246,217,174886,1,8,0:3:0:0:
192,276,175038,1,8,0:1:0:0:
159,115,175190,1,8,0:3:0:0:
270,292,175342,1,8,0:1:0:0:
406,169,175495,2,0,L|400:133,6,23.9999992675781,8|0|8|0|8|0|8,0:3|0:0|0:3|0:0|0:1|0:0|0:1,0:0:0:0:
341,225,175799,6,0,P|421:207|503:212,1,143.999995605469,4|0,1:0|0:0,0:0:0:0:
507,223,176104,2,0,L|494:328,1,95.9999970703126,10|0,0:0|0:0,0:0:0:0:
284,161,176408,2,0,P|282:108|295:65,1,95.9999970703126,0|0,1:0|0:0,0:0:0:0:
370,8,176713,1,12,0:0:0:0:
194,102,176865,6,0,B|98:107|98:107|-15:67,1,191.999994140625,4|0,1:2|1:0,0:0:0:0:
0,245,177322,2,0,P|57:215|99:214,1,95.9999970703126,10|0,0:0|0:0,0:0:0:0:
271,299,177627,1,0,1:0:0:0:
271,299,177779,1,0,0:0:0:0:
156,372,177931,2,0,P|159:297|174:250,1,95.9999970703126,12|0,0:0|0:0,0:0:0:0:
287,209,178236,6,0,P|290:284|424:310,1,191.999994140625,0|10,1:0|0:0,0:0:0:0:
479,114,178693,2,0,P|482:162|471:209,2,95.9999970703126,0|0|0,0:0|1:0|0:0,0:0:0:0:
512,284,179150,1,12,0:0:0:0:
390,98,179302,6,0,B|330:112|330:112|200:98,1,191.999994140625,4|0,1:2|1:0,0:0:0:0:
156,219,179759,2,0,P|218:187|265:186,1,95.9999970703126,10|0,0:0|0:0,0:0:0:0:
144,9,180063,2,0,P|116:47|116:94,1,95.9999970703126,0|0,1:0|0:0,0:0:0:0:
123,113,180292,1,0,0:0:0:0:
136,127,180369,1,10,0:0:0:0:
26,297,180520,6,0,P|65:213|13:138,1,191.999994140625
31,384,180977,2,0,P|98:364|154:368,1,95.9999970703126,12|0,0:0|0:0,0:0:0:0:
269,243,181281,1,0,1:0:0:0:
195,296,181434,1,0,0:0:0:0:
219,384,181586,1,8,3:2:0:0:
352,280,181738,6,0,L|333:80,1,191.999994140625,4|0,1:0|1:0,0:0:0:0:
499,42,182195,2,0,P|454:96|411:105,1,95.9999970703126,12|0,0:0|0:0,0:0:0:0:
341,91,182500,1,0,1:0:0:0:
341,91,182652,1,0,0:0:0:0:
407,205,182804,2,0,P|338:191|297:191,1,95.9999970703126,8|0,3:2|0:0,0:0:0:0:
175,296,183109,6,0,B|116:332|40:325|40:325|-7:289,1,191.999994140625,0|4,1:0|1:2,0:0:0:0:
212,102,183566,2,0,P|285:93|323:88,2,95.9999970703126,0|0|0,0:0|1:0|0:0,0:0:0:0:
135,27,184023,1,10,0:0:0:0:
77,239,184175,6,0,P|119:147|48:88,1,191.999994140625,6|0,1:3|3:0,0:0:0:0:
40,165,184632,1,8,0:0:0:0:
225,232,184784,1,0,3:0:0:0:
77,239,184936,1,0,1:0:0:0:
248,156,185088,1,0,3:0:0:0:
206,346,185241,1,8,0:0:0:0:
222,328,185317,1,0,0:0:0:0:
243,316,185393,1,8,0:0:0:0:
266,310,185469,1,0,0:0:0:0:
290,312,185545,5,4,1:0:0:0:
352,366,185698,2,0,P|396:383|444:384,1,95.9999970703126,0|0,3:0|3:0,0:0:0:0:
468,153,186002,1,4,1:2:0:0:
441,230,186155,2,0,P|399:253|352:261,1,95.9999970703126,0|0,3:0|3:0,0:0:0:0:
160,135,186460,5,4,1:0:0:0:
248,156,186612,1,0,0:0:0:0:
304,89,186764,1,0,3:0:0:0:
49,84,186916,2,0,B|-11:97,1,47.9999985351563,4|0,1:2|0:0,0:0:0:0:
42,77,187068,2,0,L|51:172,1,95.9999970703126,0|0,0:0|3:0,0:0:0:0:
166,359,187374,5,4,1:0:0:0:
135,205,187525,2,0,L|127:261,1,47.9999985351563,0|0,3:0|3:0,0:0:0:0:
166,359,187678,2,0,P|135:278|28:331,1,215.999993408203,4|0,1:2|0:0,0:0:0:0:
87,384,187982,6,0,P|183:371|275:372,1,167.999994873047,4|0,1:2|0:0,0:0:0:0:
333,384,188287,1,10,0:1:0:0:
217,241,188439,2,0,P|260:176|419:200,1,223.999993164063
433,257,188896,1,8,0:0:0:0:
433,257,189048,1,2,0:0:0:0:
353,40,189200,5,0,1:0:0:0:
330,131,189352,1,0,0:0:0:0:
484,184,189505,1,8,0:0:0:0:
466,104,189657,1,0,0:0:0:0:
226,22,189810,1,8,0:3:0:0:
280,202,189962,1,2,0:1:0:0:
197,10,190114,2,0,P|188:87|111:101,1,167.999994873047,8|0,0:1|0:0,0:0:0:0:
39,57,190419,6,0,P|-5:148|92:182,2,223.999993164063,0|10|4,3:0|0:0|0:3,0:0:0:0:
111,104,191180,1,0,0:0:0:0:
149,306,191332,1,8,0:0:0:0:
9,295,191485,1,0,3:0:0:0:
173,212,191637,6,0,P|214:248|292:263,1,111.999996582031,0|2,1:0|0:0,0:0:0:0:
290,265,191865,1,0,0:0:0:0:
310,257,191942,1,8,0:0:0:0:
512,384,192094,1,0,0:0:0:0:
495,290,192246,2,0,P|411:304|368:333,1,111.999996582031,0|0,1:0|3:0,0:0:0:0:
366,335,192475,1,0,3:0:0:0:
353,359,192551,1,12,1:0:0:0:
341,25,192855,6,0,B|289:69|303:150|351:178|351:178|346:147|363:119,1,223.999993164063,4|10,1:0|0:0,0:0:0:0:
507,106,193312,1,8,0:0:0:0:
428,164,193464,1,2,1:3:0:0:
493,311,193617,1,2,0:3:0:0:
356,132,193769,1,8,0:3:0:0:
493,311,193921,6,0,P|470:211|367:215,1,223.999993164063,4|2,1:0|0:0,0:0:0:0:
275,203,194378,1,8,0:0:0:0:
424,273,194530,1,4,0:0:0:0:
236,283,194683,1,0,1:0:0:0:
428,164,194835,1,2,0:0:0:0:
98,61,194987,1,4,1:2:0:0:
98,61,195139,1,0,0:0:0:0:
178,111,195292,6,0,P|176:50|167:-13,1,111.999996582031,4|0,1:0|0:0,0:0:0:0:
83,265,195596,1,12,0:0:0:0:
14,322,195749,2,0,P|6:266|5:210,1,111.999996582031,8|2,0:0|3:0,0:0:0:0:
238,282,196053,1,2,0:3:0:0:
14,194,196205,1,10,0:3:0:0:
197,351,196358,6,0,P|290:346|299:226,1,223.999993164063,4|2,1:2|0:3,0:0:0:0:
92,178,196815,1,8,0:3:0:0:
238,282,196967,1,4,1:0:0:0:
372,189,197119,1,2,0:3:0:0:
156,281,197271,1,2,0:3:0:0:
114,76,197424,1,4,1:2:0:0:
118,63,197500,1,8,0:3:0:0:
127,52,197576,1,8,0:3:0:0:
139,46,197652,1,8,0:3:0:0:
150,44,197728,6,0,P|116:113|25:97,1,167.999994873047,4|0,1:2|0:0,0:0:0:0:
0,34,198033,1,10,0:1:0:0:
244,2,198185,2,0,P|323:70|278:163,1,223.999993164063
199,174,198642,1,8,0:0:0:0:
199,174,198794,1,2,0:0:0:0:
456,54,198946,5,0,1:0:0:0:
350,79,199099,1,0,0:0:0:0:
423,266,199251,1,8,0:0:0:0:
440,144,199403,1,0,0:0:0:0:
512,246,199556,1,8,0:3:0:0:
350,216,199708,1,2,0:1:0:0:
203,358,199860,2,0,P|127:359|100:281,1,167.999994873047,8|0,0:1|0:0,0:0:0:0:
167,227,200165,6,0,B|118:179|149:122|149:122|183:61|143:21,2,223.999993164063,0|10|4,3:0|0:0|0:3,0:0:0:0:
249,238,200926,1,0,0:0:0:0:
61,181,201078,1,8,0:0:0:0:
217,163,201231,1,0,3:0:0:0:
0,72,201383,6,0,P|49:97|128:91,1,111.999996582031,0|2,1:0|0:0,0:0:0:0:
126,93,201611,1,0,0:0:0:0:
144,80,201688,1,8,0:0:0:0:
225,332,201840,1,0,0:0:0:0:
254,245,201992,2,0,P|334:215|386:219,1,111.999996582031,0|0,1:0|3:0,0:0:0:0:
387,221,202221,1,0,3:0:0:0:
411,235,202297,1,12,1:0:0:0:
36,361,202601,6,0,B|89:332|86:263|54:233|54:233|56:267|99:289,1,223.999993164063,4|10,1:0|0:0,0:0:0:0:
253,336,203058,1,8,0:0:0:0:
128,377,203210,1,2,1:3:0:0:
295,162,203363,1,2,0:3:0:0:
329,384,203515,1,8,0:3:0:0:
154,112,203667,6,0,P|133:175|249:235,1,223.999993164063,4|2,1:0|0:0,0:0:0:0:
353,84,204124,1,8,0:0:0:0:
213,165,204276,1,4,0:0:0:0:
424,166,204429,1,0,1:0:0:0:
154,112,204581,1,2,0:0:0:0:
425,37,204733,1,4,1:0:0:0:
425,37,204885,1,8,0:0:0:0:
250,234,205038,5,4,1:2:0:0:
165,28,205190,1,8,0:0:0:0:
369,230,205343,1,12,1:0:0:0:
425,37,205495,1,8,0:0:0:0:
310,290,205647,5,8,1:0:0:0:
277,315,205723,1,8,0:3:0:0:
236,319,205799,1,8,1:0:0:0:
199,299,205875,1,8,0:3:0:0:
178,264,205951,1,8,1:0:0:0:
322,170,206104,5,4,1:2:0:0:
322,170,206409,5,8,1:0:0:0:
512,336,206561,1,8,1:0:0:0:
512,336,207018,5,0,3:0:0:0:
325,376,207170,1,12,1:0:0:0:
325,376,207474,6,0,P|314:322|350:248,1,120,4|0,1:0|0:0,0:0:0:0:
357,250,207779,2,0,P|367:194|368:152,1,80,10|0,0:0|0:0,0:0:0:0:
501,76,208083,2,4,P|504:115|512:155,1,80,0|0,1:0|0:0,0:0:0:0:
445,213,208388,1,12,0:0:0:0:
294,11,208540,6,0,P|229:1|182:92,1,160,4|0,1:2|1:0,0:0:0:0:
116,178,208997,2,0,P|174:178|206:185,1,80,10|0,0:0|0:0,0:0:0:0:
258,96,209301,2,0,P|178:94|94:64,1,160,0|12,1:0|0:0,0:0:0:0:
36,222,209759,5,0,0:0:0:0:
36,222,209835,1,0,0:0:0:0:
36,222,209911,2,0,P|42:276|42:320,1,80,0|0,1:0|0:0,0:0:0:0:
213,302,210215,2,0,P|211:341|96:352,1,160,10|0,0:0|1:0,0:0:0:0:
124,281,210672,1,0,0:0:0:0:
124,281,210825,1,12,0:0:0:0:
426,357,210977,6,0,P|354:330|289:371,1,160,4|0,1:2|1:0,0:0:0:0:
469,213,211434,2,0,P|429:218|389:217,1,80,10|0,0:0|0:0,0:0:0:0:
512,384,211738,1,0,1:0:0:0:
489,303,211890,1,0,0:0:0:0:
286,268,212042,2,0,B|311:210|311:210|298:133,1,120,10|0,0:0|0:0,0:0:0:0:
281,135,212347,6,0,P|270:81|306:7,1,120,4|0,1:0|0:0,0:0:0:0:
288,1,212652,2,0,P|344:11|386:12,1,80,12|0,0:0|0:0,0:0:0:0:
512,132,212956,1,0,1:0:0:0:
459,69,213108,1,0,0:0:0:0:
512,0,213261,1,8,3:2:0:0:
220,121,213413,6,0,P|297:133|334:201,1,160,4|0,1:2|1:0,0:0:0:0:
134,202,213870,2,0,P|139:162|138:122,1,80,12|0,0:0|0:0,0:0:0:0:
23,3,214174,1,0,1:0:0:0:
180,52,214327,1,0,0:0:0:0:
382,3,214479,1,8,3:2:0:0:
382,3,214631,6,0,L|378:35,2,26.6666666666667
341,24,214784,2,0,P|301:22|261:17,1,80,0|0,1:0|0:0,0:0:0:0:
59,160,215088,1,4,1:0:0:0:
134,202,215241,2,0,P|173:200|213:195,1,80,0|0,0:0|1:0,0:0:0:0:
439,327,215545,1,0,0:0:0:0:
339,264,215698,1,10,0:0:0:0:
145,360,215850,6,0,P|235:368|314:335,1,160,4|0,1:3|0:0,0:0:0:0:
339,264,216306,1,8,0:0:0:0:
339,264,216459,1,0,0:0:0:0:
213,194,216611,1,2,1:3:0:0:
299,344,216763,1,0,0:0:0:0:
473,93,216916,5,8,0:0:0:0:
473,93,216992,1,0,0:0:0:0:
473,93,217068,2,0,B|463:149,1,53.3333333333333
477,154,217220,2,0,P|475:227|419:268,1,120,4|0,1:0|0:0,0:0:0:0:
429,264,217525,2,0,P|405:212|394:172,1,80,10|0,0:0|0:0,0:0:0:0:
239,122,217829,2,0,P|235:161|227:200,1,80,0|0,1:0|0:0,0:0:0:0:
150,253,218134,1,12,0:0:0:0:
342,0,218286,6,0,P|261:41|199:7,1,160,4|0,1:2|1:0,0:0:0:0:
57,72,218743,2,0,P|96:66|136:67,1,80,10|0,0:0|0:0,0:0:0:0:
213,194,219048,2,0,P|173:196|129:205,2,80,0|0|12,1:0|0:0|0:0,0:0:0:0:
56,208,219505,5,0,0:0:0:0:
56,208,219581,1,0,0:0:0:0:
56,208,219657,2,0,P|55:247|50:287,1,80,0|0,1:0|0:0,0:0:0:0:
283,276,219961,2,0,P|208:275|183:345,1,160,10|0,0:0|1:0,0:0:0:0:
101,369,220418,1,0,0:0:0:0:
101,369,220571,1,12,0:0:0:0:
439,322,220723,6,0,P|360:313|284:290,1,160,4|0,1:2|1:0,0:0:0:0:
512,206,221180,2,0,P|472:212|432:211,1,80,10|0,0:0|0:0,0:0:0:0:
278,150,221484,2,0,P|317:155|357:154,1,80,0|0,1:0|0:0,0:0:0:0:
509,40,221789,2,0,B|452:30|452:30|394:55,1,120,10|0,0:0|0:0,0:0:0:0:
383,70,222094,6,0,P|324:80|269:59,1,120,4|0,1:0|0:0,0:0:0:0:
258,43,222398,2,0,P|202:33|160:32,1,80,12|0,0:0|0:0,0:0:0:0:
120,230,222702,1,0,1:0:0:0:
33,253,222854,1,0,0:0:0:0:
93,317,223007,1,8,3:2:0:0:
178,31,223159,6,0,P|166:107|98:143,1,160,4|0,1:0|1:0,0:0:0:0:
33,253,223616,2,0,P|64:233|139:229,1,80,12|0,0:0|0:0,0:0:0:0:
227,304,223920,1,0,1:0:0:0:
282,180,224073,1,0,0:0:0:0:
418,204,224225,1,8,3:2:0:0:
418,204,224378,6,0,L|414:236,2,26.6666666666667
442,169,224530,2,0,P|447:209|449:249,1,80,4|0,1:0|0:0,0:0:0:0:
226,311,224834,1,4,1:3:0:0:
302,357,224987,2,0,P|303:317|308:277,1,80,0|4,0:0|1:0,0:0:0:0:
330,116,225291,1,0,0:0:0:0:
382,317,225444,1,10,0:0:0:0:
253,77,225596,6,0,P|343:85|422:52,1,160,4|0,1:3|0:0,0:0:0:0:
471,13,226053,2,0,L|512:17,2,40,4|0|0,1:0|0:0|0:0,0:0:0:0:
185,145,226358,1,6,1:3:0:0:
266,176,226510,2,0,P|220:187|150:191,1,80,8|8,1:3|0:0,0:0:0:0:
78,71,226814,6,0,L|86:20,2,40.000001525879,8|0|0,1:3|0:0|0:0,0:0:0:0:
100,84,226967,2,0,P|101:145|39:191,1,128,4|2,1:0|0:0,0:0:0:0:
15,261,227424,1,0,1:0:0:0:
61,329,227576,2,0,P|130:302|132:302,1,64,8|0,1:0|0:0,0:0:0:0:
192,340,227880,1,2,0:3:0:0:
262,225,228033,6,0,P|328:228|365:299,1,128,2|0,1:3|3:0,0:0:0:0:
321,379,228490,1,2,1:3:0:0:
444,262,228642,1,0,3:0:0:0:
258,146,228794,1,8,1:0:0:0:
413,341,228946,1,0,3:0:0:0:
486,166,229099,5,8,0:1:0:0:
494,152,229175,1,8,0:3:0:0:
500,138,229251,2,0,L|486:212,1,47.9999985351563,8|8,0:1|0:3,0:0:0:0:
413,341,229403,5,4,1:0:0:0:
413,341,229556,2,0,P|369:358|321:359,1,95.9999970703126,0|0,3:0|3:0,0:0:0:0:
100,293,229860,5,4,1:2:0:0:
100,293,230013,2,0,P|147:297|194:286,1,95.9999970703126,0|0,3:0|3:0,0:0:0:0:
356,92,230318,5,4,1:0:0:0:
412,159,230470,1,0,0:0:0:0:
444,74,230622,1,0,3:0:0:0:
88,81,230774,5,4,1:2:0:0:
143,215,230926,1,0,0:0:0:0:
240,102,231078,1,0,3:0:0:0:
413,341,231231,6,0,P|337:330|268:352,1,143.999995605469,4|0,1:0|3:0,0:0:0:0:
254,369,231535,6,0,P|268:323|268:316,1,47.9999985351563,4|0,1:2|0:0,0:0:0:0:
259,188,231688,5,4,1:2:0:0:
