osu file format v14

[General]
AudioFilename: audio.mp3
AudioLeadIn: 0
PreviewTime: 68591
Countdown: 0
SampleSet: Soft
StackLeniency: 0.8
Mode: 0
LetterboxInBreaks: 0
WidescreenStoryboard: 1

[Editor]
DistanceSpacing: 0.8
BeatDivisor: 6
GridSize: 32
TimelineZoom: 2.799999

[Metadata]
Title:Ryuu to Sakura Miko
TitleUnicode:龍と桜巫女
Artist:Hatsuki Yura
ArtistUnicode:葉月ゆら
Creator:KKipalt
Version:AIR's Extra
Source:
Tags:yoiyami rensou kitan 宵闇恋想奇譚 drop どろっぷ seifuumeigatsu 清風明月 hanazawa_kana kana 1112deng suzuki_1112 1112 otosaka-yu narcissu AIR tomadoi agatsu 和風民族音楽 japanese folk pop
BeatmapID:2018363
BeatmapSetID:962172

[Difficulty]
HPDrainRate:5.5
CircleSize:4
OverallDifficulty:8.5
ApproachRate:9.3
SliderMultiplier:1.8
SliderTickRate:1

[Events]
//Background and Video events
0,0,"BG.jpg",0,0
//Break Periods
//Storyboard Layer 0 (Background)
//Storyboard Layer 1 (Fail)
//Storyboard Layer 2 (Pass)
//Storyboard Layer 3 (Foreground)
//Storyboard Layer 4 (Overlay)
//Storyboard Sound Samples

[TimingPoints]
-850,304.568527918782,4,2,1,70,1,0
215,-125,4,2,1,70,0,0
10114,-100,4,2,2,70,0,0
11941,-76.9230769230769,4,2,2,70,0,0
12246,-100,4,2,2,70,0,0
13617,-76.9230769230769,4,2,2,70,0,0
13921,-100,4,2,2,70,0,0
21992,-76.9230769230769,4,2,2,70,0,0
22297,-100,4,2,2,70,0,0
28693,-76.9230769230769,4,2,2,70,0,0
29606,-125,4,2,1,70,0,0
34175,-100,4,2,1,70,0,0
34479,-76.9230769230769,4,2,3,70,0,0
34784,-125,4,2,3,70,0,0
36611,-83.3333333333333,4,2,3,70,0,0
36916,-125,4,2,3,70,0,0
38896,-125,4,2,2,70,0,0
39200,-125,4,2,1,70,0,0
43921,-100,4,2,1,70,0,0
44226,-76.9230769230769,4,2,3,70,0,0
44530,-125,4,2,3,70,0,0
46358,-83.3333333333333,4,2,3,70,0,0
46662,-125,4,2,3,70,0,0
48642,-125,4,2,2,70,0,0
48946,-125,4,2,1,70,0,0
49099,-125,4,3,4,70,0,0
53667,-125,4,2,1,70,0,0
53972,-125,4,3,5,70,0,0
55038,-100,4,2,1,70,0,0
55190,-100,4,3,5,70,0,0
55495,-83.3333333333333,4,3,5,70,0,0
55799,-71.4285714285714,4,3,5,70,0,0
56104,-100,4,3,5,70,0,0
56408,-125,4,2,3,70,0,0
57474,-76.9230769230769,4,2,1,70,0,0
57778,-76.9230769230769,4,2,2,70,0,0
57779,-125,4,2,2,70,0,0
58693,-125,4,3,4,70,0,0
63413,-125,4,2,1,70,0,0
63718,-125,4,2,3,70,0,0
66155,-125,4,2,1,70,0,0
67525,-333.333333333333,4,2,1,70,0,0
67830,-76.9230769230769,4,2,1,70,0,0
68591,-90.9090909090909,4,2,3,80,0,1
69809,-83.3333333333333,4,2,3,80,0,1
70266,-90.9090909090909,4,2,3,80,0,1
70723,-76.9230769230769,4,2,3,80,0,1
71028,-66.6666666666667,4,2,3,80,0,1
71332,-83.3333333333333,4,2,3,80,0,1
72093,-83.3333333333333,4,2,2,80,0,1
72094,-83.3333333333333,4,2,2,80,0,1
72246,-71.4285714285714,4,2,3,80,0,1
72551,-83.3333333333333,4,2,3,80,0,1
73007,-83.3333333333333,4,2,1,80,0,1
73160,-66.6666666666667,4,2,1,80,0,1
73464,-90.9090909090909,4,2,2,80,0,1
73921,-90.9090909090909,4,2,1,80,0,1
74834,-90.9090909090909,4,2,2,80,0,1
74835,-90.9090909090909,4,2,2,80,0,1
75596,-66.6666666666667,4,2,1,80,0,1
75901,-90.9090909090909,4,2,1,80,0,1
76205,-90.9090909090909,4,2,2,80,0,1
76358,-90.9090909090909,4,2,1,80,0,1
78337,-90.9090909090909,4,2,3,80,0,1
79556,-83.3333333333333,4,2,3,80,0,1
80012,-90.9090909090909,4,2,3,80,0,1
80774,-76.9230769230769,4,2,3,80,0,1
81078,-90.9090909090909,4,2,3,80,0,1
81840,-90.9090909090909,4,2,2,80,0,1
81992,-90.9090909090909,4,2,3,80,0,1
82906,-90.9090909090909,4,2,1,80,0,1
83210,-90.9090909090909,4,2,2,80,0,1
83667,-90.9090909090909,4,2,1,80,0,1
84580,-90.9090909090909,4,2,2,80,0,1
84581,-90.9090909090909,4,2,2,80,0,1
85342,-90.9090909090909,4,2,1,80,0,1
86713,-142.857142857143,4,2,1,80,0,1
87627,-100,4,2,1,80,0,1
88084,-111.111111111111,4,2,2,70,0,0
107576,-111.111111111111,4,2,1,70,0,0
112144,-83.3333333333333,4,2,1,70,0,0
112449,-71.4285714285714,4,2,3,70,0,0
112754,-111.111111111111,4,2,3,70,0,0
114581,-76.9230769230769,4,2,3,70,0,0
114886,-111.111111111111,4,2,3,70,0,0
116865,-111.111111111111,4,2,2,70,0,0
117170,-111.111111111111,4,2,1,70,0,0
121891,-76.9230769230769,4,2,1,70,0,0
122195,-66.6666666666667,4,2,3,70,0,0
122500,-111.111111111111,4,2,3,70,0,0
124327,-76.9230769230769,4,2,3,70,0,0
124632,-111.111111111111,4,2,3,70,0,0
126611,-111.111111111111,4,2,2,70,0,0
126916,-111.111111111111,4,2,1,70,0,0
127068,-111.111111111111,4,3,4,70,0,0
131637,-111.111111111111,4,2,1,70,0,0
131941,-111.111111111111,4,3,5,70,0,0
133007,-111.111111111111,4,2,1,70,0,0
133160,-111.111111111111,4,3,5,70,0,0
134378,-111.111111111111,4,2,3,70,0,0
135444,-111.111111111111,4,2,1,70,0,0
135672,-111.111111111111,4,2,2,70,0,0
136662,-111.111111111111,4,3,4,70,0,0
141383,-111.111111111111,4,2,1,70,0,0
141688,-111.111111111111,4,2,3,70,0,0
144124,-111.111111111111,4,2,1,70,0,0
145495,-333.333333333332,4,2,1,70,0,0
145799,-76.9230769230769,4,2,1,70,0,0
146561,-90.9090909090909,4,2,3,80,0,1
147779,-76.9230769230769,4,2,3,80,0,1
148084,-90.9090909090909,4,2,3,80,0,1
148693,-71.4285714285714,4,2,3,80,0,1
148997,-90.9090909090909,4,2,3,80,0,1
150063,-90.9090909090909,4,2,2,80,0,1
150215,-76.9230769230769,4,2,3,80,0,1
150520,-90.9090909090909,4,2,3,80,0,1
150977,-90.9090909090909,4,2,1,80,0,1
151129,-71.4285714285714,4,2,1,80,0,1
151434,-90.9090909090909,4,2,2,80,0,1
151891,-90.9090909090909,4,2,1,80,0,1
152500,-76.9230769230769,4,2,1,80,0,1
152804,-90.9090909090909,4,2,2,80,0,1
153566,-66.6666666666667,4,2,1,80,0,1
153870,-76.9230769230769,4,2,1,80,0,1
154175,-90.9090909090909,4,2,2,80,0,1
154327,-90.9090909090909,4,2,1,80,0,1
154936,-76.9230769230769,4,2,1,80,0,1
155241,-90.9090909090909,4,2,1,80,0,1
156307,-90.9090909090909,4,2,3,80,0,1
157525,-76.9230769230769,4,2,3,80,0,1
157830,-90.9090909090909,4,2,3,80,0,1
158439,-71.4285714285714,4,2,3,80,0,1
158743,-90.9090909090909,4,2,3,80,0,1
160723,-90.9090909090909,4,2,1,80,0,1
160875,-76.9230769230769,4,2,1,80,0,1
161180,-90.9090909090909,4,2,2,80,0,1
161637,-90.9090909090909,4,2,1,80,0,1
162550,-90.9090909090909,4,2,2,80,0,1
162551,-90.9090909090909,4,2,2,80,0,1
163312,-90.9090909090909,4,2,1,80,0,1
164987,-142.857142857143,4,2,1,80,0,1
165596,-100,4,2,1,80,0,1
166053,-142.857142857143,4,2,2,60,0,0
167119,-142.857142857143,4,2,3,60,0,0
167576,-142.857142857143,4,2,2,60,0,0
167880,-142.857142857143,4,2,3,60,0,0
168185,-142.857142857143,4,2,2,60,0,0
168490,-142.857142857143,4,2,3,60,0,0
169099,-142.857142857143,4,2,2,60,0,0
169556,-142.857142857143,4,2,3,60,0,0
169860,-142.857142857143,4,2,2,60,0,0
170012,-142.857142857143,4,2,3,60,0,0
170317,-142.857142857143,4,2,2,60,0,0
170622,-142.857142857143,4,2,3,60,0,0
170774,-142.857142857143,4,2,2,60,0,0
170926,-142.857142857143,4,2,3,60,0,0
171231,-142.857142857143,4,2,2,60,0,0
171992,-142.857142857143,4,2,3,60,0,0
172296,-142.857142857143,4,2,2,60,0,0
172297,-142.857142857143,4,2,2,60,0,0
172449,-142.857142857143,4,2,3,60,0,0
172754,-142.857142857143,4,2,2,60,0,0
174429,-100,4,2,2,60,0,0
174733,-100,4,2,1,60,0,0
175799,-100,4,2,2,70,0,0
185545,-100,4,2,1,70,0,0
187373,-76.9230769230769,4,2,1,70,0,0
187982,-90.9090909090909,4,2,3,80,0,1
189200,-76.9230769230769,4,2,3,80,0,1
190419,-90.9090909090909,4,2,3,80,0,1
191484,-90.9090909090909,4,2,2,80,0,1
191485,-90.9090909090909,4,2,2,80,0,1
191637,-76.9230769230769,4,2,3,80,0,1
191941,-90.9090909090909,4,2,3,80,0,1
192551,-76.9230769230769,4,2,1,80,0,1
192855,-90.9090909090909,4,2,2,80,0,1
193312,-90.9090909090909,4,2,1,80,0,1
194226,-90.9090909090909,4,2,2,80,0,1
194987,-90.9090909090909,4,2,1,80,0,1
195596,-90.9090909090909,4,2,2,80,0,1
195748,-90.9090909090909,4,2,1,80,0,1
196358,-71.4285714285714,4,2,1,80,0,1
196662,-90.9090909090909,4,2,1,80,0,1
197728,-90.9090909090909,4,2,3,80,0,1
198946,-76.9230769230769,4,2,3,80,0,1
199251,-90.9090909090909,4,2,3,80,0,1
199860,-76.9230769230769,4,2,3,80,0,1
200165,-90.9090909090909,4,2,3,80,0,1
200469,-83.3333333333333,4,2,3,80,0,1
200774,-76.9230769230769,4,2,3,80,0,1
201078,-71.4285714285714,4,2,3,80,0,1
201230,-71.4285714285714,4,2,2,80,0,1
201231,-71.4285714285714,4,2,2,80,0,1
201383,-83.3333333333333,4,2,3,80,0,1
202297,-76.9230769230769,4,2,1,80,0,1
202601,-90.9090909090909,4,2,2,80,0,1
203058,-90.9090909090909,4,2,1,80,0,1
203061,-90.9090909090909,4,2,1,80,0,1
203971,-90.9090909090909,4,2,2,80,0,1
203972,-90.9090909090909,4,2,2,80,0,1
204733,-90.9090909090909,4,2,1,80,0,1
206561,-125,4,2,1,80,0,1
207474,-111.111111111111,4,2,2,70,0,1
209606,-76.9230769230769,4,2,2,70,0,1
209911,-111.111111111111,4,2,2,70,0,1
212043,-71.4285714285714,4,2,2,70,0,1
212347,-111.111111111111,4,2,2,70,0,1
215850,-76.9230769230769,4,2,2,70,0,1
216155,-111.111111111111,4,2,2,70,0,1
221789,-76.9230769230769,4,2,2,70,0,1
222094,-111.111111111111,4,2,2,70,0,1
225596,-71.4285714285714,4,2,2,70,0,1
225901,-111.111111111111,4,2,2,70,0,1
226967,-111.111111111111,4,2,3,70,0,0
227271,-111.111111111111,4,2,2,70,0,0
227576,-111.111111111111,4,2,1,70,0,0
228337,-111.111111111111,4,2,2,70,0,0
228490,-111.111111111111,4,2,1,70,0,0
228642,-111.111111111111,4,2,2,70,0,0
228794,-111.111111111111,4,2,1,70,0,0
228946,-111.111111111111,4,2,2,70,0,0
229099,-111.111111111111,4,2,1,70,0,0
231688,-111.111111111111,4,1,3,70,0,0

[Colours]
Combo1 : 255,128,255
Combo2 : 128,255,255
Combo3 : 255,255,128
Combo4 : 128,128,255

[HitObjects]
147,264,215,6,0,L|143:300,2,24,8|8|8,0:0|0:0|0:0,0:0:0:0:
70,312,368,2,0,L|45:144,1,144,4|0,3:2|0:0,0:0:0:0:
465,252,977,1,8,0:3:0:0:
323,237,1129,2,0,L|334:101,1,108
398,97,1434,2,0,L|468:121,1,72,0|0,3:0|0:0,0:0:0:0:
237,204,1738,1,8,0:3:0:0:
394,230,1891,2,0,L|310:238,1,72,2|0,0:3|3:0,0:0:0:0:
163,146,2195,1,8,0:3:0:0:
266,300,2347,1,0,0:0:0:0:
237,204,2500,1,2,0:3:0:0:
362,309,2652,6,0,L|369:338,3,24,8|8|8|0,0:0|0:0|0:0|3:0,0:0:0:0:
237,204,2957,2,0,L|278:57,1,144,2|2,0:3|0:3,0:0:0:0:
163,146,3413,1,8,0:3:0:0:
60,68,3566,2,0,L|87:180,1,108
163,146,3870,2,0,L|170:71,1,72,0|0,3:0|0:0,0:0:0:0:
370,31,4175,1,8,0:3:0:0:
371,174,4327,2,0,L|472:188,1,72,2|0,0:3|3:0,0:0:0:0:
499,329,4632,1,8,0:3:0:0:
278,246,4784,1,0,0:0:0:0:
370,31,4936,1,2,0:3:0:0:
482,93,5089,6,0,L|516:89,3,24,8|8|8|4,0:0|0:0|0:0|3:1,0:0:0:0:
371,174,5393,2,0,L|521:231,1,144,2|2,0:3|0:3,0:0:0:0:
439,44,5850,1,8,0:3:0:0:
279,377,6155,1,2,0:3:0:0:
341,317,6307,2,0,L|422:323,1,72,0|0,3:0|0:0,0:0:0:0:
246,280,6611,1,8,0:3:0:0:
246,280,6688,1,0,0:0:0:0:
246,280,6764,1,2,0:3:0:0:
45,246,6916,1,0,3:0:0:0:
170,331,7068,2,0,L|15:352,1,144,8|2,0:3|0:3,0:0:0:0:
195,191,7525,6,0,L|190:153,3,24,8|8|8|4,0:3|0:3|0:3|3:2,0:3:0:0:
45,246,7830,2,0,L|70:80,1,144,2|2,0:3|0:3,0:0:0:0:
6,17,8287,1,8,0:3:0:0:
170,104,8439,1,0,0:0:0:0:
128,252,8591,1,2,0:3:0:0:
117,40,8743,1,4,3:1:0:0:
308,140,8896,5,0,0:0:0:0:
170,104,9048,1,8,0:3:0:0:
170,104,9124,1,8,0:3:0:0:
170,104,9200,1,8,0:3:0:0:
397,214,9353,1,0,3:0:0:0:
230,49,9505,1,8,0:3:0:0:
431,288,9657,1,8,0:1:0:0:
303,29,9809,1,8,0:3:0:0:
341,129,9962,2,0,L|386:130,2,24,8|8|8,0:0|0:0|0:0,0:0:0:0:
295,109,10114,6,0,L|400:76,1,90,4|0,1:0|0:0,0:0:0:0:
217,213,10419,2,0,L|113:202,1,90,10|0,0:0|0:0,0:0:0:0:
304,329,10723,1,0,1:0:0:0:
152,293,10875,2,0,L|49:281,1,90,0|12,0:0|0:0,0:0:0:0:
328,250,11180,2,0,L|523:223,1,180,4|0,1:2|1:0,0:0:0:0:
414,276,11637,2,0,L|312:245,1,90,10|0,0:0|0:0,0:0:0:0:
167,83,11941,6,0,P|167:64|192:107,1,175.499991966248,0|0,1:0|0:0,0:0:0:0:
107,73,12246,6,0,L|287:54,1,180,12|0,0:0|1:0,0:0:0:0:
381,13,12703,1,0,0:0:0:0:
340,126,12855,1,10,0:0:0:0:
167,83,13007,1,0,0:0:0:0:
435,86,13160,1,0,1:0:0:0:
340,126,13312,2,0,L|337:217,1,90,0|12,0:0|0:0,0:0:0:0:
217,366,13617,6,0,P|245:313|178:362,1,233.999989288331,4|0,1:2|1:0,0:0:0:0:
111,252,14073,6,0,P|84:275|93:335,1,90,10|0,0:0|0:0,0:0:0:0:
11,244,14378,1,0,1:0:0:0:
317,287,14530,1,0,0:0:0:0:
217,366,14682,1,10,0:0:0:0:
394,309,14835,1,0,0:0:0:0:
394,309,14911,1,0,0:0:0:0:
394,309,14987,6,0,L|414:208,1,90,4|0,1:0|0:0,0:0:0:0:
152,177,15292,2,0,L|137:70,1,90,12|0,0:0|0:0,0:0:0:0:
483,133,15596,1,0,1:0:0:0:
358,133,15748,2,0,L|376:21,1,90,0|8,0:0|3:2,0:0:0:0:
104,3,16053,2,0,L|152:179,1,180,4|0,1:2|1:0,0:0:0:0:
92,92,16510,2,0,L|105:-8,1,90,12|0,0:0|0:0,0:0:0:0:
244,153,16814,1,0,1:0:0:0:
3,123,16967,1,0,0:0:0:0:
230,68,17119,1,8,3:2:0:0:
13,2,17271,2,0,L|63:-2,2,30
12,33,17424,6,0,L|2:130,1,90,0|0,1:0|0:0,0:0:0:0:
243,177,17728,2,0,L|242:278,1,90,4|0,1:0|0:0,0:0:0:0:
470,88,18033,1,0,1:0:0:0:
382,48,18185,2,0,L|392:145,1,90,0|10,0:0|0:0,0:0:0:0:
223,343,18490,6,0,B|103:315|103:315|168:308,1,180,4|0,1:3|0:0,0:0:0:0:
432,315,18946,1,8,0:0:0:0:
258,271,19099,1,0,0:0:0:0:
258,271,19175,1,0,0:0:0:0:
258,271,19251,2,0,L|321:268,1,45,2|0,1:3|0:0,0:0:0:0:
205,195,19403,2,0,L|263:198,1,45
315,337,19556,2,0,L|371:330,1,45,8|0,0:0|0:0,0:0:0:0:
453,189,19708,2,0,L|483:184,2,30
387,210,19860,6,0,L|407:99,1,90,4|0,1:0|0:0,0:0:0:0:
225,31,20165,2,0,L|236:134,1,90,10|0,0:0|0:0,0:0:0:0:
104,273,20469,1,0,1:0:0:0:
10,216,20622,2,0,L|1:118,1,90,0|12,0:0|0:0,0:0:0:0:
274,197,20926,2,0,L|185:366,1,180,4|0,1:2|1:0,0:0:0:0:
277,333,21383,2,0,L|173:360,1,90,10|0,0:0|0:0,0:0:0:0:
119,183,21688,1,0,1:0:0:0:
357,355,21840,1,0,0:0:0:0:
122,346,21992,6,0,P|207:304|291:349,1,175.499991966248,12|0,0:0|0:0,0:0:0:0:
357,355,22297,6,0,P|414:375|437:346,1,90,0|0,1:0|0:0,0:0:0:0:
343,60,22601,2,0,L|234:84,1,90,10|0,0:0|0:0,0:0:0:0:
441,133,22906,2,0,L|490:168,2,45,0|0|0,1:0|0:0|0:0,0:0:0:0:
473,9,23210,1,12,0:0:0:0:
346,159,23363,2,0,L|149:199,1,180,4|0,1:2|1:0,0:0:0:0:
328,247,23820,2,0,L|347:152,1,90,10|0,0:0|0:0,0:0:0:0:
141,115,24124,1,0,1:0:0:0:
248,257,24276,1,0,0:0:0:0:
54,62,24429,1,10,0:0:0:0:
258,89,24581,1,0,0:0:0:0:
301,53,24657,1,0,0:0:0:0:
287,8,24733,6,0,L|182:20,1,90,4|0,1:0|0:0,0:0:0:0:
248,257,25038,2,0,L|137:251,1,90,12|0,0:0|0:0,0:0:0:0:
345,158,25342,1,0,1:0:0:0:
187,172,25495,2,0,L|75:167,1,90,0|8,0:0|3:2,0:0:0:0:
290,329,25799,2,0,L|479:320,1,180,4|0,1:0|1:0,0:0:0:0:
370,368,26256,2,0,L|281:324,1,90,12|0,0:0|0:0,0:0:0:0:
428,236,26561,1,0,1:0:0:0:
213,364,26713,1,0,0:0:0:0:
78,281,26865,2,0,L|45:269,5,30,8|0|0|0|0|0,3:2|0:0|0:0|0:0|0:0|0:0,0:0:0:0:
5,255,27170,5,4,1:0:0:0:
28,354,27322,1,0,0:0:0:0:
178,185,27474,1,4,1:3:0:0:
155,86,27626,1,0,0:0:0:0:
387,274,27779,1,4,1:0:0:0:
364,175,27931,1,0,0:0:0:0:
88,145,28084,1,10,0:0:0:0:
313,78,28236,2,0,P|313:38|276:95,1,180,4|0,1:3|0:0,0:0:0:0:
364,175,28693,6,0,B|483:197|483:197|422:172,1,175.499991966248,4|0,1:0|0:0,0:0:0:0:
310,233,28997,2,0,B|203:285|203:285|272:277,1,175.499991966248,6|0,1:3|0:0,0:0:0:0:
290,162,29302,2,0,B|317:201|317:201|337:211|337:211|340:235|340:235|357:248|357:248|408:328,1,175.499991966248,8|0,0:0|0:0,0:0:0:0:
446,352,29606,6,0,P|470:368|455:306,1,144,4|8,3:2|0:3,0:0:0:0:
45,368,30215,2,0,P|19:327|1:203,1,144,0|8,3:0|0:3,0:0:0:0:
80,332,30672,2,0,P|75:270|110:183,1,144,0|2,3:0|3:0,0:0:0:0:
136,328,31129,2,0,P|143:291|158:260,1,72,8|0,0:3|0:0,0:0:0:0:
192,356,31434,2,0,P|201:338|241:364,1,72,0|0,3:0|3:0,0:0:0:0:
345,141,31738,2,0,P|306:149|259:149,1,72,8|0,0:3|0:0,0:0:0:0:
400,69,32043,6,0,P|462:102|514:175,1,144,0|8,3:0|0:3,0:0:0:0:
512,29,32500,1,0,0:0:0:0:
25,365,32804,1,8,0:0:0:0:
241,352,32957,1,8,0:3:0:0:
158,309,33109,2,0,L|18:367,1,144,0|2,3:0|3:0,0:0:0:0:
341,296,33566,2,0,L|432:290,1,72,8|8,0:3|0:0,0:0:0:0:
296,258,33870,2,0,L|371:238,1,72,0|0,3:0|3:0,0:0:0:0:
257,207,34099,1,0,3:0:0:0:
226,204,34175,6,0,P|154:179|60:175,1,135,12|0,0:1|0:0,0:0:0:0:
56,175,34479,6,0,P|12:153|103:133,1,233.999989288331,4|10,1:2|0:0,0:0:0:0:
226,204,34936,6,0,L|248:378,1,144
144,238,35393,1,10,0:1:0:0:
306,156,35545,2,0,L|327:322,1,144,8|8,0:3|0:3,0:0:0:0:
415,51,36002,2,0,L|502:37,1,72,8|0,0:0|0:0,0:0:0:0:
290,28,36307,1,0,1:0:0:0:
485,160,36459,1,0,0:0:0:0:
486,39,36611,6,0,L|317:29,1,161.999995056153,10|0,0:0|0:0,0:0:0:0:
290,28,36916,6,0,L|377:53,1,72,4|0,1:0|0:0,0:0:0:0:
153,131,37221,1,10,0:1:0:0:
409,111,37373,2,0,L|311:135,1,72,0|4,0:0|0:3,0:0:0:0:
153,131,37677,2,0,L|228:151,1,72,0|10,0:0|0:0,0:0:0:0:
355,313,37982,2,0,L|500:357,1,144,4|0,1:2|1:0,0:0:0:0:
483,307,38439,5,8,0:0:0:0:
442,259,38591,1,0,0:0:0:0:
357,203,38743,1,8,0:3:0:0:
244,183,38896,1,0,3:0:0:0:
113,222,39048,1,2,3:0:0:0:
25,364,39200,1,2,0:3:0:0:
25,364,39276,1,2,0:3:0:0:
25,364,39353,5,4,3:2:0:0:
391,44,39657,2,0,P|434:24|480:20,1,72,8|8,0:3|0:0,0:0:0:0:
346,77,39962,2,0,P|306:44|214:25,1,144,0|8,3:0|0:3,0:0:0:0:
371,120,40419,2,0,P|380:79|467:18,1,144,0|2,3:0|3:0,0:0:0:0:
346,77,40875,2,0,P|314:56|281:53,1,72,8|0,0:3|0:0,0:0:0:0:
462,123,41180,2,0,P|478:143|508:109,1,72,0|0,3:0|3:0,0:0:0:0:
371,120,41485,2,0,P|346:153|350:206,1,72,8|0,0:3|0:0,0:0:0:0:
462,123,41789,6,0,P|485:167|467:287,1,144,0|8,3:0|0:3,0:0:0:0:
428,373,42246,1,0,0:0:0:0:
30,27,42551,1,8,0:0:0:0:
265,16,42703,1,8,0:3:0:0:
172,49,42855,2,0,L|27:26,1,144,0|2,3:0|3:0,0:0:0:0:
217,91,43312,2,0,L|291:130,1,72,8|8,0:3|0:0,0:0:0:0:
159,116,43617,2,0,L|72:140,1,72,0|0,3:0|3:0,0:0:0:0:
197,174,43845,1,0,3:0:0:0:
208,183,43921,6,0,P|272:209|295:293,1,135,12|0,0:1|0:0,0:0:0:0:
226,289,44226,6,0,P|168:300|237:238,1,233.999989288331,4|10,1:2|0:0,0:0:0:0:
100,361,44682,6,0,L|34:224,1,144
226,289,45139,1,10,0:1:0:0:
365,344,45292,2,0,L|387:171,1,144,8|8,0:3|0:3,0:0:0:0:
436,344,45748,2,0,L|347:343,1,72,8|0,0:0|0:0,0:0:0:0:
312,118,46053,1,0,1:0:0:0:
497,211,46205,1,0,0:0:0:0:
383,201,46358,6,0,P|418:93|397:44,1,161.999995056153,10|0,0:0|0:0,0:0:0:0:
406,107,46662,6,0,P|424:154|501:212,1,144,4|10,1:0|0:1,0:0:0:0:
312,118,47119,2,0,P|260:161|257:109,1,144
402,52,47576,1,10,0:0:0:0:
208,35,47728,2,0,L|42:45,1,144,4|0,1:2|1:0,0:0:0:0:
5,26,48185,5,8,0:0:0:0:
25,93,48337,1,0,0:0:0:0:
106,152,48490,1,0,1:0:0:0:
227,187,48642,1,0,3:0:0:0:
367,149,48794,1,2,3:0:0:0:
477,24,48946,1,2,0:3:0:0:
477,24,49023,1,2,0:3:0:0:
477,24,49099,1,4,0:2:0:0:
139,263,49403,5,2,0:0:0:0:
301,316,49556,1,0,0:0:0:0:
191,328,49708,2,0,L|45:348,1,144,4|2,0:0|0:0,0:0:0:0:
139,263,50165,2,0,L|226:288,2,72,2|4|0,0:0|0:0|0:0,0:0:0:0:
301,316,50622,2,0,L|398:349,1,72,2|0,0:0|0:0,0:0:0:0:
397,217,50926,2,0,L|305:234,1,72,4|4,0:0|0:0,0:0:0:0:
436,128,51231,2,0,L|520:113,1,72,2|0,0:0|0:0,0:0:0:0:
397,217,51535,6,0,L|226:207,1,144,4|2,0:0|0:0,0:0:0:0:
253,208,51992,1,0,0:0:0:0:
253,208,52297,5,4,0:0:0:0:
263,18,52449,1,2,0:0:0:0:
214,84,52601,2,0,L|43:75,1,144,2|0,0:0|0:0,0:0:0:0:
263,18,53058,2,0,L|334:44,1,72,2|0,0:0|0:0,0:0:0:0:
135,107,53363,2,0,L|46:65,1,72,2|4,0:0|0:0,0:0:0:0:
143,249,53667,1,4,1:0:0:0:
156,8,53820,1,0,0:0:0:0:
93,186,53972,6,0,L|252:160,1,144,6|8,0:0|0:0,0:0:0:0:
143,249,54429,1,2,0:2:0:0:
9,156,54581,1,2,0:0:0:0:
108,321,54733,1,0,0:0:0:0:
135,107,54886,1,8,0:0:0:0:
333,220,55038,6,0,L|526:239,1,180,4|0,1:0|0:0,0:0:0:0:
403,282,55495,6,0,P|412:220|331:222,1,161.999995056153,8|0,0:0|0:0,0:0:0:0:
319,302,55799,6,0,P|257:302|317:249,1,188.999994232178,2|0,0:0|0:0,0:0:0:0:
319,302,56104,6,0,P|339:251|314:149,1,135,8|0,0:0|0:0,0:0:0:0:
280,119,56408,5,4,1:2:0:0:
356,77,56561,1,2,0:2:0:0:
260,50,56713,1,10,0:1:0:0:
368,77,56865,1,2,0:0:0:0:
268,122,57018,1,8,0:3:0:0:
379,78,57170,1,0,0:0:0:0:
252,48,57322,1,8,0:0:0:0:
415,11,57474,6,0,L|159:54,1,233.999989288331,4|0,1:2|3:0,0:0:0:0:
105,18,57931,5,8,0:0:0:0:
161,24,58084,1,2,0:0:0:0:
252,48,58236,1,0,1:0:0:0:
329,139,58388,1,0,1:0:0:0:
320,273,58540,1,8,0:0:0:0:
210,384,58693,1,0,0:3:0:0:
210,384,58769,1,0,0:3:0:0:
210,384,58845,1,4,0:2:0:0:
0,191,59150,5,2,0:0:0:0:
236,208,59302,1,0,0:0:0:0:
92,224,59454,2,0,L|258:205,1,144,4|2,0:0|0:0,0:0:0:0:
74,129,59911,2,0,L|46:48,2,72,2|4|0,0:0|0:0|0:0,0:0:0:0:
92,224,60444,2,0,L|59:300,1,72
161,113,60672,2,0,L|126:22,1,72,4|4,0:0|0:0,0:0:0:0:
164,285,60977,2,0,L|129:366,1,72,2|0,0:0|0:0,0:0:0:0:
235,207,61281,6,0,L|403:238,1,144,4|2,0:0|0:0,0:0:0:0:
376,233,61738,1,0,0:0:0:0:
376,233,62043,5,4,0:0:0:0:
491,2,62195,1,2,0:0:0:0:
440,73,62347,2,0,L|497:222,1,144,2|0,0:0|0:0,0:0:0:0:
360,79,62804,2,0,L|367:-6,1,72,2|0,0:0|0:0,0:0:0:0:
491,207,63109,2,0,L|500:118,1,72,2|4,0:0|0:0,0:0:0:0:
428,184,63337,1,4,0:0:0:0:
434,196,63413,2,0,L|454:84,1,108,4|0,1:0|0:0,0:0:0:0:
374,158,63718,6,0,P|441:217|451:299,1,144,4|10,1:0|0:0,0:0:0:0:
305,193,64175,1,0,0:0:0:0:
319,104,64327,1,0,1:0:0:0:
356,250,64479,1,0,0:0:0:0:
251,140,64632,1,8,0:0:0:0:
305,193,64784,2,0,L|145:185,1,144,4|0,1:2|0:0,0:0:0:0:
251,140,65241,2,0,L|262:215,1,72,8|0,0:0|0:0,0:0:0:0:
60,90,65545,2,0,L|71:171,1,72,8|2,0:3|0:1,0:0:0:0:
11,295,65850,1,8,0:0:0:0:
170,101,66002,1,2,0:0:0:0:
170,101,66078,1,0,0:0:0:0:
170,101,66155,5,4,1:0:0:0:
96,296,66307,1,0,3:0:0:0:
211,169,66459,1,0,3:0:0:0:
174,306,66611,1,4,1:2:0:0:
261,224,66764,1,0,3:0:0:0:
245,320,66916,1,0,3:0:0:0:
335,247,67068,1,4,1:0:0:0:
153,229,67221,1,0,0:0:0:0:
304,372,67373,1,0,3:0:0:0:
417,243,67525,6,0,L|472:238,1,53.9999983520508,4|0,1:2|3:0,0:0:0:0:
262,121,67982,6,0,P|166:140|132:60,1,175.499991966248,4|0,1:0|3:0,0:0:0:0:
182,24,68287,2,0,B|333:-14|199:78|362:29,1,175.499991966248,4|0,1:2|0:0,0:0:0:0:
419,17,68591,6,0,P|475:46|495:209,1,198.000006042481,4|10,1:2|0:1,0:0:0:0:
495,17,69048,2,0,P|523:102|485:214,1,198.000006042481
217,274,69505,1,8,0:0:0:0:
411,176,69657,1,2,0:0:0:0:
217,274,69809,6,0,P|157:235|137:168,1,107.999996704102,0|0,1:0|0:0,0:0:0:0:
335,289,70114,2,0,P|395:274|454:285,1,107.999996704102,8|0,0:0|0:0,0:0:0:0:
231,349,70419,6,0,P|182:364|126:357,1,99.0000030212403,8|2,0:3|0:1,0:0:0:0:
284,228,70723,6,0,P|310:170|361:133,1,116.999994644165,8|0,0:1|0:0,0:0:0:0:
448,346,71028,6,0,P|399:299|319:292,1,135.000005149842,0|0,3:0|0:0,0:0:0:0:
477,41,71332,6,0,P|392:63|336:44,1,107.999996704102,10|0,0:0|0:0,0:0:0:0:
219,225,71637,2,0,P|147:204|91:221,1,107.999996704102,4|0,0:3|0:0,0:0:0:0:
255,71,71941,2,0,P|203:71|148:31,1,107.999996704102,8|0,0:0|3:0,0:0:0:0:
43,300,72246,6,0,P|64:229|231:242,1,251.999992309571,0|8,1:0|0:0,0:0:0:0:
123,286,72703,1,0,0:0:0:0:
0,120,72855,1,0,1:0:0:0:
206,301,73007,1,0,3:0:0:0:
170,112,73160,6,0,P|254:62|349:144,1,202.500007724762,12|0,1:0|0:0,0:0:0:0:
378,154,73464,6,0,P|406:66|474:11,1,148.50000453186,4|0,1:0|0:0,0:0:0:0:
499,76,73769,1,10,0:0:0:0:
428,250,73921,2,0,P|478:300|489:337,1,99.0000030212403,8|2,0:0|1:3,0:0:0:0:
327,240,74226,2,0,P|265:264|219:255,1,99.0000030212403,2|8,0:3|0:3,0:0:0:0:
463,162,74530,2,0,P|521:237|472:335,1,198.000006042481,4|2,1:0|0:0,0:0:0:0:
355,318,74987,1,8,0:0:0:0:
257,169,75139,1,4,0:0:0:0:
286,362,75292,1,0,1:0:0:0:
178,177,75444,1,2,0:0:0:0:
210,365,75596,5,4,1:2:0:0:
73,246,75748,2,0,P|37:201|34:173,1,67.5000025749208
22,117,75901,6,0,P|64:164|65:269,1,148.50000453186,4|0,1:0|0:0,0:0:0:0:
14,300,76205,1,12,0:0:0:0:
124,91,76358,2,0,P|169:61|169:16,1,99.0000030212403,8|2,0:0|3:0,0:0:0:0:
246,158,76662,2,0,P|313:149|319:109,1,99.0000030212403,2|10,0:3|0:3,0:0:0:0:
62,5,76967,2,0,P|91:74|159:-10,1,198.000006042481,4|2,1:2|0:3,0:0:0:0:
363,9,77424,1,8,0:3:0:0:
235,64,77576,1,4,1:0:0:0:
441,109,77728,1,2,0:3:0:0:
354,17,77880,1,2,0:3:0:0:
226,77,78033,1,4,1:2:0:0:
239,81,78109,1,8,0:3:0:0:
252,85,78185,1,8,0:3:0:0:
265,90,78261,1,8,0:3:0:0:
331,112,78337,6,0,P|363:189|464:265,1,198.000006042481,4|10,1:2|0:1,0:0:0:0:
308,193,78794,2,0,P|380:243|508:260,1,198.000006042481
250,278,79251,1,8,0:0:0:0:
460,169,79403,1,2,0:0:0:0:
213,194,79556,6,0,P|148:168|94:166,1,107.999996704102,0|0,1:0|0:0,0:0:0:0:
366,154,79860,2,0,P|407:93|429:40,1,107.999996704102,8|0,0:0|0:0,0:0:0:0:
250,278,80165,6,0,P|230:338|230:392,1,99.0000030212403,8|2,0:3|0:1,0:0:0:0:
279,118,80469,2,0,P|237:60|197:41,1,99.0000030212403,8|0,0:1|0:0,0:0:0:0:
359,259,80774,6,0,P|405:295|487:309,1,116.999994644165,0|0,3:0|0:0,0:0:0:0:
507,51,81078,6,0,P|434:42|375:62,1,99.0000030212403,10|0,0:0|0:0,0:0:0:0:
213,194,81383,2,0,P|274:203|329:177,1,99.0000030212403,4|0,0:3|0:0,0:0:0:0:
113,244,81688,2,0,P|81:298|67:350,1,99.0000030212403,8|0,0:0|3:0,0:0:0:0:
128,131,81992,6,0,P|100:54|-18:0,1,198.000006042481,0|8,1:0|0:0,0:0:0:0:
35,140,82449,1,0,0:0:0:0:
235,72,82601,1,0,1:0:0:0:
67,211,82754,1,0,3:0:0:0:
204,211,82906,2,0,P|218:277|187:358,1,148.50000453186,12|0,1:0|0:0,0:0:0:0:
150,359,83210,6,0,P|246:323|320:332,1,148.50000453186,4|0,1:0|0:0,0:0:0:0:
372,358,83515,1,10,0:0:0:0:
211,260,83667,2,0,P|183:182|183:130,1,99.0000030212403,8|2,0:0|1:3,0:0:0:0:
382,17,83972,1,2,0:3:0:0:
435,282,84124,1,8,0:3:0:0:
455,106,84276,6,0,P|481:208|397:300,1,198.000006042481,4|2,1:0|0:0,0:0:0:0:
363,119,84733,1,8,0:0:0:0:
506,310,84886,1,4,0:0:0:0:
319,184,85038,1,0,1:0:0:0:
395,364,85190,1,2,0:0:0:0:
247,216,85342,1,4,1:0:0:0:
259,369,85495,1,8,0:0:0:0:
108,298,85647,5,4,1:2:0:0:
186,291,85799,1,8,0:0:0:0:
26,268,85952,1,12,1:0:0:0:
192,295,86104,1,8,0:0:0:0:
16,275,86256,1,8,1:0:0:0:
288,274,86408,1,8,1:0:0:0:
0,198,86561,1,8,1:0:0:0:
350,322,86713,5,4,1:2:0:0:
350,322,87018,2,0,L|396:313,1,31.4999990386963,8|0,1:0|0:0,0:0:0:0:
470,275,87170,2,0,L|516:266,1,31.4999990386963,8|0,1:0|0:0,0:0:0:0:
175,93,87627,5,0,3:0:0:0:
175,93,87703,1,0,3:0:0:0:
175,93,87779,2,0,L|1:81,1,135,12|8,1:0|0:0,0:0:0:0:
14,72,88084,6,0,L|187:94,1,161.999995056153,4|10,1:0|0:0,0:0:0:0:
510,54,88693,1,0,1:0:0:0:
439,66,88845,1,0,0:0:0:0:
368,78,88997,1,12,0:0:0:0:
10,206,89302,1,0,0:0:0:0:
83,221,89454,1,0,1:0:0:0:
155,235,89606,1,10,0:0:0:0:
226,249,89759,1,0,0:0:0:0:
78,230,89911,1,0,1:0:0:0:
159,229,90063,1,0,0:0:0:0:
237,231,90215,1,12,0:0:0:0:
232,349,90368,2,0,L|261:362,2,26.9999991760254
169,317,90520,6,0,L|-1:357,1,161.999995056153,0|10,1:0|0:0,0:0:0:0:
367,283,91129,1,0,1:0:0:0:
440,306,91281,1,0,0:0:0:0:
512,329,91434,1,12,0:0:0:0:
271,116,91738,1,0,0:0:0:0:
195,128,91891,1,0,1:0:0:0:
121,143,92043,1,10,0:0:0:0:
195,113,92195,1,0,0:0:0:0:
274,128,92347,1,0,1:0:0:0:
352,148,92500,1,0,0:0:0:0:
428,164,92652,1,10,0:0:0:0:
237,33,92804,2,0,L|237:77,2,26.9999991760254
299,40,92957,6,0,L|239:211,1,161.999995056153,0|12,1:0|0:0,0:0:0:0:
8,59,93566,1,0,1:0:0:0:
80,46,93718,1,0,0:0:0:0:
151,33,93870,1,8,3:2:0:0:
252,313,94175,1,0,0:0:0:0:
178,300,94327,1,0,1:0:0:0:
312,256,94479,1,12,0:0:0:0:
238,243,94631,1,0,0:0:0:0:
376,202,94784,1,0,1:0:0:0:
302,189,94936,1,0,0:0:0:0:
450,219,95089,1,8,3:2:0:0:
257,350,95241,2,0,L|283:349,2,26.9999991760254
351,348,95393,6,0,L|520:343,1,161.999995056153,0|4,1:0|1:0,0:0:0:0:
145,190,96002,1,0,1:0:0:0:
75,229,96155,1,0,0:0:0:0:
9,271,96307,1,10,0:0:0:0:
279,45,96611,1,0,0:0:0:0:
355,82,96764,1,0,0:0:0:0:
430,121,96916,1,8,0:0:0:0:
508,95,97068,1,0,0:0:0:0:
437,128,97221,1,2,1:3:0:0:
365,168,97373,1,0,0:0:0:0:
442,211,97525,1,8,0:0:0:0:
472,17,97677,1,8,0:0:0:0:
417,29,97754,1,8,0:0:0:0:
359,40,97830,6,0,L|177:31,1,161.999995056153,4|10,1:0|0:0,0:0:0:0:
78,347,98439,1,0,1:0:0:0:
163,367,98591,1,0,0:0:0:0:
246,384,98743,1,12,0:0:0:0:
65,99,99048,1,0,0:0:0:0:
10,166,99200,1,0,1:0:0:0:
143,108,99353,1,10,0:0:0:0:
88,175,99505,1,0,0:0:0:0:
224,118,99657,1,0,1:0:0:0:
169,185,99809,1,0,0:0:0:0:
254,195,99962,1,12,0:0:0:0:
427,152,100114,2,0,L|446:175,2,26.9999991760254
386,160,100266,6,0,L|521:291,1,161.999995056153,0|10,1:0|0:0,0:0:0:0:
152,24,100875,1,0,1:0:0:0:
81,50,101028,1,0,0:0:0:0:
9,80,101180,1,12,0:0:0:0:
241,285,101485,1,0,0:0:0:0:
311,255,101637,1,0,1:0:0:0:
381,221,101789,1,10,0:0:0:0:
303,248,101941,1,0,0:0:0:0:
224,272,102094,1,0,1:0:0:0:
287,318,102246,1,0,0:0:0:0:
354,362,102398,1,10,0:0:0:0:
223,168,102551,2,0,L|263:157,2,26.9999991760254
256,186,102703,6,0,L|81:241,1,161.999995056153,4|12,1:0|0:0,0:0:0:0:
390,340,103312,1,0,1:0:0:0:
462,365,103464,1,0,0:0:0:0:
503,301,103617,1,8,3:2:0:0:
390,44,103921,1,0,0:0:0:0:
462,19,104073,1,0,1:0:0:0:
503,83,104226,1,12,0:0:0:0:
428,201,104378,1,0,0:0:0:0:
356,226,104530,1,0,1:0:0:0:
315,162,104683,1,0,0:0:0:0:
207,107,104835,1,8,3:2:0:0:
163,98,104911,1,0,0:0:0:0:
119,108,104987,1,0,0:0:0:0:
84,146,105063,1,0,0:0:0:0:
38,189,105139,6,0,P|10:149|84:163,1,161.999995056153,4|2,1:0|0:0,0:0:0:0:
139,273,105596,2,0,L|317:295,1,161.999995056153,4|0,1:3|0:0,0:0:0:0:
403,366,106053,1,4,1:0:0:0:
304,218,106205,1,0,1:0:0:0:
486,348,106358,1,0,0:0:0:0:
381,238,106510,1,4,1:3:0:0:
493,151,106662,2,0,L|508:63,1,80.9999975280763,0|0,1:0|1:0,0:0:0:0:
255,158,106967,2,0,L|255:56,1,80.9999975280763,4|8,1:0|1:3,0:0:0:0:
19,151,107271,2,0,L|4:63,1,80.9999975280763,4|8,1:3|1:3,0:0:0:0:
151,95,107576,6,0,L|131:261,1,161.999995056153,4|8,3:2|0:3,0:0:0:0:
458,206,108185,1,0,3:0:0:0:
388,356,108337,1,0,0:0:0:0:
482,290,108490,1,8,0:3:0:0:
369,223,108642,2,0,L|340:47,1,161.999995056153,0|2,3:0|3:0,0:0:0:0:
369,223,109099,2,0,L|289:250,1,80.9999975280763,8|0,0:3|0:0,0:0:0:0:
199,317,109403,2,0,L|302:342,1,80.9999975280763,0|0,3:0|3:0,0:0:0:0:
125,279,109708,2,0,L|21:310,1,80.9999975280763,8|0,0:3|0:0,0:0:0:0:
10,172,110012,6,0,P|32:126|146:117,1,161.999995056153,0|8,3:0|0:3,0:0:0:0:
62,76,110469,2,0,P|113:89|138:117,1,80.9999975280763,0|0,0:0|3:0,0:0:0:0:
96,188,110774,1,8,0:0:0:0:
261,79,110926,1,8,0:3:0:0:
208,140,111078,2,0,P|262:164|340:82,1,161.999995056153,0|2,3:0|3:0,0:0:0:0:
261,79,111535,1,8,0:3:0:0:
411,233,111688,1,8,0:0:0:0:
313,13,111840,1,0,3:0:0:0:
491,58,111992,1,0,3:0:0:0:
491,58,112068,1,0,3:0:0:0:
491,58,112144,6,0,P|459:122|494:230,1,161.999995056153,12|0,0:1|0:0,0:0:0:0:
411,233,112449,6,0,P|461:257|361:274,1,251.999992309571,4|10,1:2|0:0,0:0:0:0:
249,303,112906,6,0,P|250:266|283:283,1,80.9999975280763,0|4,0:0|0:3,0:0:0:0:
121,379,113210,1,0,0:0:0:0:
37,229,113363,1,10,0:1:0:0:
281,276,113515,2,0,L|110:297,1,161.999995056153,8|8,0:3|0:3,0:0:0:0:
37,229,113972,2,0,L|149:225,1,80.9999975280763,8|0,0:0|0:0,0:0:0:0:
8,143,114276,2,0,L|117:162,1,80.9999975280763,0|0,1:0|0:0,0:0:0:0:
239,68,114581,6,0,L|50:85,1,175.499991966248,10|0,0:0|0:0,0:0:0:0:
8,143,114886,6,0,L|146:151,1,121.499996292114,4|0,1:0|0:0,0:0:0:0:
191,155,115190,1,12,0:0:0:0:
358,84,115342,2,0,L|465:102,1,80.9999975280763,0|4,0:0|0:3,0:0:0:0:
293,286,115647,2,0,L|199:298,1,80.9999975280763,0|10,0:0|0:0,0:0:0:0:
390,194,115952,2,0,L|486:346,1,161.999995056153,4|0,1:2|1:0,0:0:0:0:
430,371,116408,1,8,0:0:0:0:
372,346,116561,1,0,0:0:0:0:
318,259,116713,1,8,0:3:0:0:
333,153,116865,1,0,3:0:0:0:
453,84,117018,1,2,3:0:0:0:
500,208,117170,1,2,0:3:0:0:
500,208,117246,1,2,0:3:0:0:
500,208,117322,5,4,3:2:0:0:
30,266,117627,1,8,0:3:0:0:
106,100,117779,1,8,0:0:0:0:
30,266,117931,2,0,L|158:375,1,161.999995056153,0|8,3:0|0:3,0:0:0:0:
109,249,118388,2,0,L|10:270,1,80.9999975280763,0|0,3:0|0:0,0:0:0:0:
0,89,118693,1,2,3:0:0:0:
106,100,118845,2,0,L|194:106,1,80.9999975280763,8|0,0:3|0:0,0:0:0:0:
44,156,119150,2,0,L|-10:74,1,80.9999975280763,0|0,3:0|3:0,0:0:0:0:
266,58,119454,2,0,L|263:156,1,80.9999975280763,8|0,0:3|0:0,0:0:0:0:
186,28,119759,6,0,L|360:41,1,161.999995056153,0|8,3:0|0:3,0:0:0:0:
263,138,120215,2,0,L|361:145,1,80.9999975280763,0|0,0:0|3:0,0:0:0:0:
218,229,120520,1,8,0:0:0:0:
424,230,120672,1,8,0:3:0:0:
302,244,120825,2,0,L|112:254,1,161.999995056153,0|2,3:0|3:0,0:0:0:0:
223,364,121281,1,8,0:3:0:0:
32,288,121434,1,8,0:0:0:0:
300,323,121586,1,0,3:0:0:0:
31,345,121738,1,0,3:0:0:0:
31,345,121814,1,0,3:0:0:0:
31,345,121891,6,0,P|93:358|204:297,1,175.499991966248,12|0,0:1|0:0,0:0:0:0:
246,244,122195,6,0,B|246:216|208:201|208:201|250:170|296:178|296:178|271:158|259:140|259:140|265:51,1,270.000010299683,4|10,1:2|0:0,0:0:0:0:
148,28,122652,6,0,P|80:15|39:26,1,80.9999975280763,0|4,0:0|0:3,0:0:0:0:
177,133,122957,1,0,0:0:0:0:
394,70,123109,1,10,0:1:0:0:
356,217,123261,2,0,P|419:211|501:142,1,161.999995056153,8|8,0:3|0:3,0:0:0:0:
177,133,123718,2,0,L|168:227,1,80.9999975280763,8|0,0:0|0:0,0:0:0:0:
356,217,124023,2,0,L|364:312,1,80.9999975280763,0|0,1:0|0:0,0:0:0:0:
161,123,124327,6,0,L|141:322,1,175.499991966248,10|0,0:0|0:0,0:0:0:0:
235,296,124632,6,0,P|257:188|303:170,1,161.999995056153,4|10,1:0|0:0,0:0:0:0:
161,123,125089,2,0,L|77:134,1,80.9999975280763,0|4,0:0|0:3,0:0:0:0:
8,68,125393,1,0,0:0:0:0:
245,123,125545,1,10,0:0:0:0:
321,57,125698,2,0,L|491:38,1,161.999995056153,4|0,1:2|1:0,0:0:0:0:
501,94,126155,1,8,0:0:0:0:
464,142,126307,1,0,0:0:0:0:
363,150,126459,1,0,1:0:0:0:
271,72,126611,1,0,3:0:0:0:
154,27,126764,1,2,3:0:0:0:
10,98,126916,1,2,0:3:0:0:
10,98,126992,1,2,0:3:0:0:
10,98,127068,5,4,0:2:0:0:
418,313,127373,1,2,0:0:0:0:
299,270,127525,1,0,0:0:0:0:
494,244,127677,2,0,L|305:271,1,161.999995056153,4|2,0:0|0:0,0:0:0:0:
418,313,128134,2,0,P|466:346|489:329,1,80.9999975280763,2|4,0:0|0:0,0:0:0:0:
372,180,128439,1,0,0:0:0:0:
299,270,128591,2,0,L|200:307,1,80.9999975280763,2|0,0:0|0:0,0:0:0:0:
94,313,128896,2,0,P|46:346|23:329,1,80.9999975280763,4|4,0:0|0:0,0:0:0:0:
223,298,129200,2,0,L|310:333,1,80.9999975280763,2|0,0:0|0:0,0:0:0:0:
184,205,129505,6,0,P|118:230|100:330,1,161.999995056153,4|2,0:0|0:0,0:0:0:0:
223,298,129962,1,0,0:0:0:0:
0,112,130266,1,4,0:0:0:0:
182,110,130419,1,2,0:0:0:0:
21,128,130571,2,0,L|197:109,1,161.999995056153,2|0,0:0|0:0,0:0:0:0:
0,112,131028,2,0,L|32:28,1,80.9999975280763,2|0,0:0|0:0,0:0:0:0:
234,136,131332,2,0,L|274:40,1,80.9999975280763,2|4,0:0|0:0,0:0:0:0:
134,33,131637,1,4,1:0:0:0:
325,143,131789,1,0,0:0:0:0:
182,110,131941,6,0,L|251:277,1,161.999995056153,6|8,0:0|0:0,0:0:0:0:
234,136,132398,1,2,0:2:0:0:
119,184,132551,2,0,L|25:196,2,80.9999975280763,2|0|8,0:0|0:0|0:0,0:0:0:0:
325,143,133007,2,0,P|408:182|476:182,1,161.999995056153,4|0,1:0|0:0,0:0:0:0:
504,87,133464,1,8,0:0:0:0:
420,105,133617,1,2,0:2:0:0:
332,278,133769,1,2,0:0:0:0:
417,291,133921,1,2,0:0:0:0:
250,178,134073,1,8,0:0:0:0:
163,169,134226,1,2,0:2:0:0:
257,322,134378,5,4,1:2:0:0:
349,169,134530,1,2,0:2:0:0:
197,245,134682,1,10,0:1:0:0:
315,245,134835,1,2,0:0:0:0:
200,96,134987,1,8,0:3:0:0:
312,96,135139,1,0,0:0:0:0:
122,236,135292,1,8,0:0:0:0:
390,236,135444,1,4,1:2:0:0:
3,300,135748,5,0,3:0:0:0:
54,325,135901,1,8,0:0:0:0:
52,218,136053,1,2,0:0:0:0:
128,219,136205,1,0,1:0:0:0:
92,116,136358,1,0,1:0:0:0:
184,107,136510,1,8,0:0:0:0:
81,12,136662,1,0,0:3:0:0:
81,12,136738,1,0,0:3:0:0:
81,12,136814,5,4,0:2:0:0:
415,326,137119,2,0,L|512:352,1,80.9999975280763,2|0,0:0|0:0,0:0:0:0:
359,276,137424,2,0,L|205:349,1,161.999995056153,4|2,0:0|0:0,0:0:0:0:
415,326,137880,2,0,P|435:298|430:251,2,80.9999975280763,2|4|0,0:0|0:0|0:0,0:0:0:0:
284,244,138337,2,0,L|380:284,1,80.9999975280763,2|0,0:0|0:0,0:0:0:0:
509,151,138642,2,0,L|405:167,1,80.9999975280763,4|4,0:0|0:0,0:0:0:0:
415,326,138946,2,0,L|514:310,1,80.9999975280763,2|0,0:0|0:0,0:0:0:0:
284,244,139251,6,0,L|88:271,1,161.999995056153,4|2,0:0|0:0,0:0:0:0:
8,281,139708,1,0,0:0:0:0:
325,47,140012,1,4,0:0:0:0:
155,33,140165,1,2,0:0:0:0:
254,86,140317,2,0,L|437:55,1,161.999995056153,2|0,0:0|0:0,0:0:0:0:
325,47,140774,2,0,L|357:148,1,80.9999975280763,2|0,0:0|0:0,0:0:0:0:
155,33,141078,2,0,L|190:142,1,80.9999975280763,2|4,0:0|0:0,0:0:0:0:
325,47,141383,1,4,1:0:0:0:
254,86,141535,1,0,0:0:0:0:
233,173,141688,6,0,L|200:355,1,161.999995056153,4|10,1:0|0:0,0:0:0:0:
323,314,142144,1,0,0:0:0:0:
147,238,142297,2,0,P|108:284|111:313,2,80.9999975280763,0|0|8,1:0|0:0|0:0,0:0:0:0:
323,314,142754,2,0,P|313:255|210:219,1,161.999995056153,4|0,1:2|0:0,0:0:0:0:
414,292,143210,2,0,L|510:306,1,80.9999975280763,8|0,0:0|0:0,0:0:0:0:
357,134,143515,2,0,L|461:150,1,80.9999975280763,8|2,0:3|0:1,0:0:0:0:
506,22,143820,1,8,0:0:0:0:
255,140,143972,1,2,0:0:0:0:
479,229,144124,5,4,1:0:0:0:
437,146,144276,1,0,3:0:0:0:
511,102,144429,1,0,3:0:0:0:
248,40,144581,1,4,1:2:0:0:
163,78,144733,1,0,3:0:0:0:
255,140,144886,1,0,3:0:0:0:
4,71,145038,1,4,1:0:0:0:
83,34,145190,1,0,0:0:0:0:
79,124,145342,1,0,3:0:0:0:
255,140,145495,6,0,L|266:204,1,53.9999983520508,4|0,1:2|3:0,0:0:0:0:
23,297,145952,6,0,P|76:238|187:266,1,175.499991966248,4|0,1:0|3:0,0:0:0:0:
236,291,146256,2,0,P|325:313|396:228,1,175.499991966248,4|0,1:2|0:0,0:0:0:0:
462,193,146561,6,0,L|233:193,1,198.000006042481,4|10,1:2|0:1,0:0:0:0:
381,167,147018,2,0,L|156:168,1,198.000006042481
383,90,147474,1,8,0:0:0:0:
264,193,147627,1,2,0:0:0:0:
118,119,147779,6,0,B|78:63|78:63|125:93,1,116.999994644165,0|0,1:0|0:0,0:0:0:0:
264,193,148084,6,0,B|326:200|326:200|268:218,1,99.0000030212403,8|0,0:0|0:0,0:0:0:0:
130,289,148388,2,0,B|102:342|102:342|107:294,1,99.0000030212403,8|2,0:3|0:1,0:0:0:0:
264,293,148693,6,0,L|390:336,1,125.999996154785,8|0,0:1|0:0,0:0:0:0:
152,196,148997,6,0,L|61:241,1,99.0000030212403,0|0,3:0|0:0,0:0:0:0:
309,145,149302,2,0,L|331:37,1,99.0000030212403,10|0,0:0|0:0,0:0:0:0:
448,184,149606,2,0,B|498:175|498:175|434:143,1,99.0000030212403,4|0,0:3|0:0,0:0:0:0:
260,206,149911,2,0,B|214:224|214:224|273:246,1,99.0000030212403,8|0,0:0|3:0,0:0:0:0:
349,154,150215,6,0,B|425:269|273:265|375:380,1,233.999989288331,0|8,1:0|0:0,0:0:0:0:
453,307,150672,1,0,0:0:0:0:
260,206,150825,1,0,1:0:0:0:
443,83,150977,1,0,3:0:0:0:
447,184,151129,6,0,L|253:206,1,188.999994232178,12|0,1:0|0:0,0:0:0:0:
201,211,151434,6,0,L|385:238,1,148.50000453186,4|0,1:0|0:0,0:0:0:0:
359,305,151738,1,10,0:0:0:0:
132,262,151891,2,0,L|116:148,1,99.0000030212403,8|2,0:0|1:3,0:0:0:0:
347,232,152195,2,0,L|331:114,1,99.0000030212403,2|8,0:3|0:3,0:0:0:0:
201,211,152500,6,0,P|231:273|98:333,1,233.999989288331,4|2,1:0|0:0,0:0:0:0:
132,262,152957,1,8,0:0:0:0:
249,136,153109,1,4,0:0:0:0:
34,102,153261,1,0,1:0:0:0:
109,269,153413,1,2,0:0:0:0:
258,122,153566,5,4,1:2:0:0:
28,85,153718,2,0,P|61:115|102:118,1,67.5000025749208
145,111,153870,6,0,P|189:66|308:50,1,175.499991966248,4|0,1:0|0:0,0:0:0:0:
364,84,154175,5,12,0:0:0:0:
289,207,154327,2,0,P|253:143|262:111,1,99.0000030212403,8|2,0:0|3:0,0:0:0:0:
506,93,154632,2,0,L|495:215,1,99.0000030212403,2|10,0:3|0:3,0:0:0:0:
285,217,154936,6,0,P|241:155|350:86,1,233.999989288331,4|2,1:2|0:3,0:0:0:0:
386,188,155393,5,8,0:3:0:0:
168,297,155545,1,4,1:0:0:0:
244,292,155698,1,2,0:3:0:0:
17,218,155850,1,2,0:3:0:0:
97,211,156002,1,4,1:2:0:0:
92,197,156078,1,8,0:3:0:0:
87,182,156155,1,8,0:3:0:0:
82,168,156231,1,8,0:3:0:0:
18,108,156307,6,0,L|227:128,1,198.000006042481,4|10,1:2|0:1,0:0:0:0:
112,82,156764,2,0,L|323:102,1,198.000006042481
153,14,157221,1,8,0:0:0:0:
307,174,157373,1,2,0:0:0:0:
432,51,157525,6,0,B|474:11|474:11|461:82,1,116.999994644165,0|0,1:0|0:0,0:0:0:0:
432,333,157830,6,0,B|474:373|474:373|464:308,1,99.0000030212403,8|0,0:0|0:0,0:0:0:0:
307,174,158134,2,0,B|241:189|241:189|291:200,1,99.0000030212403,8|2,0:3|0:1,0:0:0:0:
492,208,158439,6,0,B|510:159|510:159|428:205,1,125.999996154785,8|0,0:1|0:0,0:0:0:0:
253,284,158743,6,0,P|192:309|142:307,1,99.0000030212403,0|0,3:0|0:0,0:0:0:0:
271,195,159048,2,0,P|336:222|369:260,1,99.0000030212403,10|0,0:0|0:0,0:0:0:0:
194,218,159353,2,0,P|168:164|166:113,1,99.0000030212403,4|0,0:3|0:0,0:0:0:0:
65,173,159657,2,0,P|65:118|83:59,1,99.0000030212403,8|0,0:0|3:0,0:0:0:0:
271,195,159962,6,0,P|295:252|276:392,1,198.000006042481,0|8,1:0|0:0,0:0:0:0:
159,309,160419,1,0,0:0:0:0:
410,290,160571,1,0,1:0:0:0:
194,218,160723,1,0,3:0:0:0:
159,309,160875,6,0,B|32:340|32:340|65:297,1,175.499991966248,12|0,1:0|0:0,0:0:0:0:
103,242,161180,6,0,L|269:278,1,148.50000453186,4|0,1:0|0:0,0:0:0:0:
321,289,161485,1,10,0:0:0:0:
194,218,161637,2,0,L|180:98,1,99.0000030212403,8|2,0:0|1:3,0:0:0:0:
6,20,161941,1,2,0:3:0:0:
225,55,162094,1,8,0:3:0:0:
100,79,162246,6,0,B|45:101|45:101|201:122,1,198.000006042481,4|2,1:0|0:0,0:0:0:0:
301,102,162703,1,8,0:0:0:0:
356,158,162855,1,4,0:0:0:0:
385,49,163007,1,0,1:0:0:0:
466,114,163160,1,2,0:0:0:0:
259,133,163312,1,4,1:0:0:0:
404,241,163464,1,8,0:0:0:0:
356,158,163617,5,4,1:2:0:0:
292,214,163769,1,8,0:0:0:0:
479,202,163921,1,12,1:0:0:0:
275,229,164073,1,8,0:0:0:0:
507,284,164226,1,8,1:0:0:0:
212,195,164378,1,8,1:0:0:0:
481,213,164530,1,8,1:0:0:0:
164,249,164682,1,4,1:2:0:0:
164,249,164987,6,0,L|109:253,1,31.4999990386963,8|0,1:0|0:0,0:0:0:0:
43,251,165139,2,0,L|-12:255,1,31.4999990386963,8|0,1:0|0:0,0:0:0:0:
378,31,165596,5,0,3:0:0:0:
378,31,165672,1,0,3:0:0:0:
378,31,165748,2,0,L|546:40,1,135,12|8,1:0|0:0,0:0:0:0:
459,109,166053,6,0,P|414:167|412:236,1,125.999996154785,4|4,1:0|0:0,0:0:0:0:
53,109,166662,2,0,P|98:167|100:236,1,125.999996154785,8|2,0:0|0:0,0:0:0:0:
172,106,167119,2,0,L|179:189,1,62.9999980773926,2|0,3:2|0:0,0:0:0:0:
22,219,167424,2,0,L|29:302,1,62.9999980773926,0|8,3:0|0:0,0:0:0:0:
485,281,167880,1,0,3:0:0:0:
190,258,168185,1,0,3:0:0:0:
256,318,168337,1,0,0:0:0:0:
322,258,168490,5,0,3:0:0:0:
256,318,168642,2,0,L|256:386,1,62.9999980773926,0|2,0:0|0:0,0:0:0:0:
383,173,169099,2,0,L|427:304,1,125.999996154785,8|4,0:0|0:0,0:0:0:0:
464,167,169556,2,0,L|479:99,1,62.9999980773926,0|0,3:0|0:0,0:0:0:0:
303,152,169860,2,0,L|318:84,1,62.9999980773926,8|4,0:0|0:3,0:0:0:0:
81,122,170317,2,0,P|51:163|1:158,1,94.499997116089,8|0,0:0|0:0,0:0:0:0:
199,184,170774,1,0,0:0:0:0:
126,30,170926,5,4,3:2:0:0:
126,30,171078,1,0,0:0:0:0:
399,366,171535,1,8,0:0:0:0:
145,272,171840,1,4,0:0:0:0:
253,247,171992,2,0,L|268:377,1,125.999996154785,0|8,3:0|0:0,0:0:0:0:
331,288,172449,2,0,P|366:246|336:204,1,94.499997116089,0|0,3:0|0:0,0:0:0:0:
310,195,172754,2,0,L|454:212,1,125.999996154785,8|0,0:0|3:0,0:0:0:0:
506,136,173210,1,0,0:0:0:0:
352,214,173363,6,0,L|421:222,1,62.9999980773926,4|0,1:0|0:0,0:0:0:0:
203,58,173972,2,0,L|49:75,1,125.999996154785,8|0,0:0|3:0,0:0:0:0:
0,36,174429,1,4,1:3:0:0:
446,69,174733,1,8,0:1:0:0:
446,69,174809,1,8,0:1:0:0:
446,69,174886,1,8,0:3:0:0:
504,11,175038,1,8,0:1:0:0:
321,91,175190,1,8,0:3:0:0:
387,40,175342,1,8,0:1:0:0:
232,117,175495,2,0,L|161:115,1,45,8|8,0:3|0:3,0:0:0:0:
330,195,175647,2,0,L|337:249,1,45,8|8,0:1|0:1,0:0:0:0:
193,214,175799,6,0,L|8:219,2,180,4|10|0,1:0|0:0|1:0,0:0:0:0:
177,354,176561,2,0,P|132:319|138:275,1,90,0|12,0:0|0:0,0:0:0:0:
274,252,176865,1,4,1:2:0:0:
274,252,177018,2,0,L|281:355,1,90,0|0,0:0|1:0,0:0:0:0:
479,251,177322,2,0,L|472:357,1,90,10|0,0:0|0:0,0:0:0:0:
421,172,177627,2,0,P|426:118|386:86,1,90,0|0,1:0|0:0,0:0:0:0:
277,146,177931,2,0,P|293:202|371:197,1,135,12|0,0:0|0:0,0:0:0:0:
421,172,178236,6,0,P|425:71|352:70,2,180,0|10|0,1:0|0:0|1:0,0:0:0:0:
277,146,178997,2,0,L|166:140,1,90,0|12,0:0|0:0,0:0:0:0:
86,59,179302,1,4,1:2:0:0:
86,59,179454,2,0,P|36:68|45:23,1,90,0|0,0:0|1:0,0:0:0:0:
187,141,179759,2,0,P|223:164|239:109,1,90,10|0,0:0|0:0,0:0:0:0:
91,168,180063,2,0,L|-7:204,1,90,0|0,1:0|0:0,0:0:0:0:
187,252,180368,2,0,L|280:286,1,90,10|0,0:0|0:0,0:0:0:0:
68,309,180672,6,0,L|239:380,2,180,4|12|0,1:0|0:0|1:0,0:0:0:0:
187,252,181434,1,0,0:0:0:0:
6,199,181586,1,8,3:2:0:0:
228,174,181738,2,0,B|261:169|286:150|286:150|316:168|337:175|337:175|366:148|411:124,1,180,4|0,1:0|1:0,0:0:0:0:
451,237,182195,2,0,B|442:283|442:283|471:251,1,90,12|0,0:0|0:0,0:0:0:0:
349,49,182500,2,0,B|313:22|313:22|325:70,1,90,0|0,1:0|0:0,0:0:0:0:
468,107,182804,2,0,L|357:149,1,90,8|0,3:2|0:0,0:0:0:0:
325,155,183033,1,0,0:0:0:0:
333,144,183109,6,0,L|439:176,1,90,0|0,1:0|0:0,0:0:0:0:
238,128,183413,2,0,L|344:160,1,90,4|0,1:2|0:0,0:0:0:0:
110,232,183718,1,0,1:0:0:0:
213,31,183870,1,0,0:0:0:0:
369,228,184023,1,10,0:0:0:0:
66,157,184175,1,6,1:3:0:0:
476,322,184479,5,0,3:0:0:0:
369,228,184632,1,8,0:0:0:0:
484,224,184784,1,0,3:0:0:0:
304,299,184936,1,0,1:0:0:0:
177,194,185089,1,0,3:0:0:0:
170,288,185241,1,8,0:0:0:0:
134,285,185317,1,0,0:0:0:0:
98,282,185393,1,8,0:0:0:0:
62,279,185469,1,0,0:0:0:0:
26,276,185545,5,4,1:0:0:0:
147,367,185698,2,0,L|255:360,1,90,0|0,3:0|3:0,0:0:0:0:
266,111,186002,2,0,L|480:97,1,180,4|0,1:2|3:0,0:0:0:0:
196,60,186459,2,0,B|187:14|187:14|224:42,2,90,4|0|0,1:0|0:0|3:0,0:0:0:0:
241,187,186916,2,0,L|37:172,1,180,4|0,1:2|3:0,0:0:0:0:
309,257,187373,6,0,P|384:228|485:306,1,175.499991966248,4|0,1:0|3:0,0:0:0:0:
391,220,187677,2,0,P|299:250|286:359,1,175.499991966248,4|0,1:2|0:0,0:0:0:0:
374,323,187982,6,0,P|392:213|307:169,1,198.000006042481,4|10,1:2|0:1,0:0:0:0:
181,169,188439,2,0,P|111:232|138:323,1,198.000006042481
86,138,188896,2,0,P|32:117|6:160,1,99.0000030212403,8|2,0:0|0:0,0:0:0:0:
194,257,189200,6,0,P|271:244|277:179,1,116.999994644165,0|0,1:0|0:0,0:0:0:0:
426,138,189505,2,0,P|480:117|506:178,1,116.999994644165,8|0,0:0|0:0,0:0:0:0:
208,109,189809,2,0,P|161:62|199:8,1,116.999994644165,8|2,0:3|0:1,0:0:0:0:
283,215,190114,2,0,P|330:262|292:316,1,116.999994644165,8|0,0:1|0:0,0:0:0:0:
263,52,190419,6,0,L|385:69,1,99.0000030212403,0|0,3:0|0:0,0:0:0:0:
194,257,190723,2,0,L|72:240,1,99.0000030212403,10|0,0:0|0:0,0:0:0:0:
330,149,191028,2,0,L|446:139,1,99.0000030212403,4|0,0:3|0:0,0:0:0:0:
134,332,191332,2,0,L|35:323,1,99.0000030212403,8|0,0:0|3:0,0:0:0:0:
314,302,191637,6,0,B|332:248|390:237|390:237|431:283|489:290,1,175.499991966248,0|0,1:0|0:0,0:0:0:0:
502,298,191941,6,0,P|524:233|484:225,1,99.0000030212403,8|0,0:0|0:0,0:0:0:0:
252,278,192246,2,0,P|294:319|309:267,1,99.0000030212403,0|0,1:0|3:0,0:0:0:0:
228,119,192551,6,0,B|180:125|180:125|163:119|163:119|142:131|142:131|120:130|120:130|25:142,1,175.499991966248,12|0,1:0|0:0,0:0:0:0:
70,67,192855,6,0,P|193:65|230:152,1,198.000006042481,4|10,1:0|0:0,0:0:0:0:
87,216,193312,2,0,P|49:175|72:123,1,99.0000030212403,8|2,0:0|1:3,0:0:0:0:
296,167,193617,2,0,P|334:126|311:74,1,99.0000030212403,2|8,0:3|0:3,0:0:0:0:
247,308,193921,2,0,P|201:268|263:184,1,148.50000453186,4|0,1:0|0:0,0:0:0:0:
296,167,194226,2,0,P|354:196|357:253,2,99.0000030212403,2|8|4,0:0|0:0|0:0,0:0:0:0:
473,315,194682,2,0,L|356:304,1,99.0000030212403,0|2,1:0|0:0,0:0:0:0:
473,69,194987,2,0,L|356:80,1,99.0000030212403,4|0,1:2|0:0,0:0:0:0:
281,243,195292,6,0,P|337:188|467:215,1,198.000006042481,4|12,1:0|0:0,0:0:0:0:
212,201,195748,2,0,P|149:183|119:136,1,99.0000030212403,8|2,0:0|3:0,0:0:0:0:
62,260,196053,2,0,P|26:214|52:210,1,99.0000030212403,2|10,0:3|0:3,0:0:0:0:
266,46,196358,6,0,B|298:55|313:85|313:85|293:108|265:99|301:83|304:116|304:116|277:260,1,251.999992309571,4|2,1:2|0:3,0:0:0:0:
198,89,196814,6,0,L|77:91,1,99.0000030212403,8|4,0:3|1:0,0:0:0:0:
365,202,197119,2,0,L|496:200,1,99.0000030212403,2|2,0:3|0:3,0:0:0:0:
199,315,197424,2,0,L|71:322,1,99.0000030212403,4|8,1:2|0:3,0:0:0:0:
15,109,197728,6,0,P|44:171|186:193,1,198.000006042481,4|10,1:2|0:1,0:0:0:0:
350,180,198185,2,0,P|445:193|497:275,1,198.000006042481
276,224,198642,2,0,P|235:268|267:325,1,99.0000030212403,8|2,0:0|0:0,0:0:0:0:
257,82,198946,6,0,L|123:71,1,116.999994644165,0|0,1:0|0:0,0:0:0:0:
314,291,199251,6,0,L|439:300,1,99.0000030212403,8|0,0:0|0:0,0:0:0:0:
167,172,199556,2,0,L|55:165,1,99.0000030212403,8|2,0:3|0:1,0:0:0:0:
254,362,199860,6,0,L|390:375,1,116.999994644165,8|0,0:1|0:0,0:0:0:0:
184,278,200165,6,0,P|125:313|121:364,1,99.0000030212403,0|0,3:0|0:0,0:0:0:0:
22,214,200469,6,0,P|81:220|139:263,1,107.999996704102,10|0,0:0|0:0,0:0:0:0:
207,138,200774,6,0,P|134:140|57:175,1,116.999994644165,4|0,0:3|0:0,0:0:0:0:
22,54,201078,6,0,P|97:72|166:119,1,125.999996154785,8|0,0:0|3:0,0:0:0:0:
352,106,201383,6,0,P|404:58|506:22,1,161.999995056153,0|0,1:0|0:0,0:0:0:0:
428,0,201688,2,0,L|308:14,1,107.999996704102,8|0,0:0|0:0,0:0:0:0:
265,193,201992,2,0,L|135:210,1,107.999996704102,0|0,1:0|3:0,0:0:0:0:
374,321,202297,6,0,B|421:255|549:265|509:343|472:301,1,175.499991966248,12|0,1:0|0:0,0:0:0:0:
435,242,202601,6,0,P|425:198|427:122,2,99.0000030212403,4|0|10,1:0|0:0|0:0,0:0:0:0:
349,86,203058,2,0,P|337:141|302:135,1,99.0000030212403,8|2,0:0|1:3,0:0:0:0:
47,138,203363,2,0,P|59:75|53:17,1,99.0000030212403,2|8,0:3|0:3,0:0:0:0:
188,252,203667,2,0,P|101:267|160:198,1,198.000006042481,4|2,1:0|0:0,0:0:0:0:
243,332,204124,2,0,P|292:339|377:359,1,99.0000030212403,8|4,0:0|0:0,0:0:0:0:
223,120,204429,2,0,P|177:116|111:104,1,99.0000030212403,0|2,1:0|0:0,0:0:0:0:
395,218,204733,2,0,P|470:200|514:181,1,99.0000030212403,4|8,1:0|0:0,0:0:0:0:
188,252,205038,6,0,L|130:267,1,49.5000015106202,4|0,1:2|0:0,0:0:0:0:
311,161,205190,2,0,L|358:148,1,49.5000015106202,8|0,0:0|0:0,0:0:0:0:
140,264,205342,6,0,L|76:260,1,49.5000015106202,12|0,1:0|0:0,0:0:0:0:
358,148,205495,2,0,L|407:151,1,49.5000015106202,8|0,0:0|0:0,0:0:0:0:
90,261,205647,6,0,L|17:213,1,49.5000015106202,8|8,1:0|0:3,0:0:0:0:
407,151,205799,2,0,L|448:178,1,49.5000015106202,8|8,1:0|0:3,0:0:0:0:
147,184,205952,6,0,L|134:122,1,49.5000015106202,8|8,1:0|0:3,0:0:0:0:
350,218,206104,2,0,L|377:48,1,148.50000453186,4|0,1:2|0:0,0:0:0:0:
383,10,206408,2,0,L|446:28,1,49.5000015106202,8|0,1:0|0:0,0:0:0:0:
191,51,206561,6,0,L|41:60,1,144,8|0,1:0|0:0,0:0:0:0:
252,133,207018,2,0,L|265:222,1,72,0|12,3:0|1:0,0:0:0:0:
115,368,207322,2,0,P|96:377|85:373,2,24,8|0|0,0:0|0:0|0:0,0:0:0:0:
32,342,207474,6,0,L|52:243,1,80.9999975280763,4|0,1:0|0:0,0:0:0:0:
230,297,207779,2,0,L|319:326,1,80.9999975280763,10|0,0:0|0:0,0:0:0:0:
480,342,208084,2,0,L|460:243,1,80.9999975280763,0|0,1:0|0:0,0:0:0:0:
225,380,208388,1,12,0:0:0:0:
307,322,208540,2,0,L|136:340,1,161.999995056153,4|0,1:2|1:0,0:0:0:0:
285,182,208997,1,10,0:0:0:0:
382,346,209150,1,0,0:0:0:0:
216,229,209302,2,0,P|194:177|234:118,1,121.499996292114,0|0,1:0|0:0,0:0:0:0:
288,100,209606,6,0,P|351:121|345:237,1,175.499991966248,12|0,0:0|0:0,0:0:0:0:
447,224,209911,6,0,L|465:126,1,80.9999975280763,0|0,1:0|0:0,0:0:0:0:
217,43,210215,2,0,L|224:131,1,80.9999975280763,10|0,0:0|0:0,0:0:0:0:
345,17,210520,1,0,1:0:0:0:
136,25,210672,2,0,L|146:137,1,80.9999975280763,0|12,0:0|0:0,0:0:0:0:
40,258,210977,2,0,P|22:186|84:211,1,161.999995056153,4|0,1:2|1:0,0:0:0:0:
151,289,211434,1,10,0:0:0:0:
77,334,211586,1,0,0:0:0:0:
182,181,211738,1,0,1:0:0:0:
257,212,211891,1,0,0:0:0:0:
90,77,212043,1,10,0:0:0:0:
17,111,212195,1,0,0:0:0:0:
182,181,212347,6,0,L|201:95,1,80.9999975280763,4|0,1:0|0:0,0:0:0:0:
328,288,212652,2,0,L|348:190,1,80.9999975280763,12|0,0:0|0:0,0:0:0:0:
219,383,212957,2,0,L|249:243,1,121.499996292114,0|0,1:0|0:0,0:0:0:0:
257,212,213261,1,8,3:2:0:0:
455,97,213413,2,0,P|500:141|465:243,1,161.999995056153,4|0,1:2|1:0,0:0:0:0:
368,70,213870,1,12,0:0:0:0:
445,19,214023,1,0,0:0:0:0:
402,217,214175,1,0,1:0:0:0:
319,249,214327,1,0,0:0:0:0:
185,117,214479,2,0,L|148:110,5,26.9999991760254,8|0|0|0|0|0,3:2|0:0|0:0|0:0|0:0|0:0,0:0:0:0:
108,104,214784,5,0,1:0:0:0:
297,172,214936,1,0,0:0:0:0:
60,45,215089,1,4,1:0:0:0:
230,206,215241,1,0,0:0:0:0:
30,116,215393,1,0,1:0:0:0:
172,253,215545,1,0,0:0:0:0:
185,117,215698,1,10,0:0:0:0:
68,261,215850,6,0,P|24:343|115:315,1,233.999989288331,4|0,1:3|0:0,0:0:0:0:
237,321,216307,6,0,L|344:340,1,80.9999975280763,8|0,0:0|0:0,0:0:0:0:
392,193,216611,2,0,L|502:193,1,80.9999975280763,2|0,1:3|0:0,0:0:0:0:
237,63,216916,1,8,0:0:0:0:
260,58,216992,1,0,0:0:0:0:
284,54,217068,1,0,0:0:0:0:
308,50,217144,1,0,0:0:0:0:
375,37,217221,6,0,L|352:134,1,80.9999975280763,4|0,1:0|0:0,0:0:0:0:
137,37,217525,2,0,L|160:134,1,80.9999975280763,10|0,0:0|0:0,0:0:0:0:
286,211,217830,1,0,1:0:0:0:
174,259,217982,2,0,L|157:353,1,80.9999975280763,0|12,0:0|0:0,0:0:0:0:
50,201,218287,2,0,L|238:178,1,161.999995056153,4|0,1:2|1:0,0:0:0:0:
174,259,218743,1,10,0:0:0:0:
259,282,218896,1,0,0:0:0:0:
332,110,219048,1,0,1:0:0:0:
419,98,219200,1,0,0:0:0:0:
177,63,219353,1,12,0:0:0:0:
90,45,219505,1,0,0:0:0:0:
257,141,219657,6,0,L|266:54,1,80.9999975280763,0|0,1:0|0:0,0:0:0:0:
375,224,219962,2,0,L|467:255,1,80.9999975280763,10|0,0:0|0:0,0:0:0:0:
259,282,220266,2,0,L|239:343,2,40.4999987640381,0|0|0,1:0|0:0|0:0,0:0:0:0:
364,322,220571,1,12,0:0:0:0:
201,226,220723,2,0,L|150:363,1,121.499996292114,4|0,1:2|0:0,0:0:0:0:
101,356,221028,1,0,1:0:0:0:
8,207,221180,2,0,L|100:228,1,80.9999975280763,10|0,0:0|0:0,0:0:0:0:
195,84,221485,2,0,L|108:96,1,80.9999975280763,0|0,1:0|0:0,0:0:0:0:
279,174,221789,6,0,B|472:171,1,175.499991966248,10|0,0:0|0:0,0:0:0:0:
499,170,222094,6,0,L|429:223,1,80.9999975280763,4|0,1:0|0:0,0:0:0:0:
334,76,222398,2,0,L|405:20,1,80.9999975280763,12|0,0:0|0:0,0:0:0:0:
359,268,222703,2,0,L|285:329,1,80.9999975280763,0|0,1:0|0:0,0:0:0:0:
254,356,222931,1,0,0:0:0:0:
254,356,223007,1,8,3:2:0:0:
434,218,223160,2,0,L|252:196,1,161.999995056153,4|0,1:0|1:0,0:0:0:0:
155,253,223617,1,12,0:0:0:0:
238,288,223769,1,0,0:0:0:0:
357,85,223921,1,0,1:0:0:0:
275,87,224073,1,0,0:0:0:0:
446,131,224226,2,0,L|466:101,5,26.9999991760254,8|0|0|0|0|0,3:2|0:0|0:0|0:0|0:0|0:0,0:0:0:0:
494,68,224530,5,4,1:0:0:0:
506,265,224682,1,0,0:0:0:0:
368,152,224835,1,4,1:3:0:0:
366,309,224987,1,0,0:0:0:0:
227,189,225139,1,4,1:0:0:0:
224,221,225215,1,0,0:0:0:0:
221,253,225292,1,0,0:0:0:0:
219,285,225368,1,0,0:0:0:0:
217,317,225444,1,10,0:0:0:0:
69,317,225596,6,0,P|26:268|85:155,1,188.999994232178,4|0,1:3|0:0,0:0:0:0:
136,183,225901,5,0,0:0:0:0:
314,258,226053,2,0,P|308:309|258:337,1,80.9999975280763,4|0,1:0|0:0,0:0:0:0:
136,183,226358,2,0,P|202:143|219:73,1,121.499996292114,6|0,1:3|0:0,0:0:0:0:
195,32,226662,2,0,L|305:57,1,80.9999975280763,8|8,0:0|1:3,0:0:0:0:
352,149,226967,6,0,L|528:190,1,161.999995056153,4|2,1:0|0:0,0:0:0:0:
512,78,227424,2,0,L|423:88,1,80.9999975280763,0|8,1:0|1:0,0:0:0:0:
26,240,227880,1,2,0:3:0:0:
204,302,228033,1,2,1:3:0:0:
35,318,228185,1,0,0:0:0:0:
145,246,228337,1,0,3:0:0:0:
261,354,228490,2,0,P|310:305|388:313,1,121.499996292114,2|0,1:3|0:0,0:0:0:0:
422,348,228794,2,0,L|450:255,1,80.9999975280763,8|0,1:0|3:0,0:0:0:0:
246,189,229099,1,8,0:1:0:0:
245,156,229175,1,8,0:3:0:0:
244,123,229251,1,8,0:1:0:0:
243,90,229327,1,8,0:3:0:0:
243,57,229403,5,4,1:0:0:0:
456,28,229556,1,0,3:0:0:0:
358,237,229708,1,0,3:0:0:0:
458,160,229860,1,4,1:2:0:0:
153,103,230012,1,0,3:0:0:0:
359,103,230165,1,0,3:0:0:0:
243,57,230317,5,4,1:0:0:0:
154,237,230469,1,0,0:0:0:0:
56,28,230622,1,0,3:0:0:0:
54,160,230774,1,4,1:2:0:0:
54,160,230850,1,0,0:0:0:0:
54,160,230926,1,0,0:0:0:0:
246,189,231078,1,0,3:0:0:0:
512,90,231231,5,4,1:0:0:0:
0,87,231535,1,4,1:2:0:0:
246,189,231688,1,4,1:2:0:0:
