osu file format v14

[General]
AudioFilename: audio.mp3
AudioLeadIn: 0
PreviewTime: 56677
Countdown: 0
SampleSet: None
StackLeniency: 0.2
Mode: 0
LetterboxInBreaks: 0
WidescreenStoryboard: 0

[Editor]
DistanceSpacing: 0.5
BeatDivisor: 4
GridSize: 4
TimelineZoom: 1.7

[Metadata]
Title:Red Wonderland
TitleUnicode:Red Wonderland
Artist:Hatsuki Yura
ArtistUnicode:葉月ゆら
Creator:Xenok
Version:Alice
Source:
Tags:Japanese rock female vocal pop
BeatmapID:1696350
BeatmapSetID:808369

[Difficulty]
HPDrainRate:5
CircleSize:3.8
OverallDifficulty:9.6
ApproachRate:9.8
SliderMultiplier:1.9
SliderTickRate:1

[Events]
//Background and Video events
0,0,"Red Wonderland.png",0,0
//Break Periods
//Storyboard Layer 0 (Background)
//Storyboard Layer 1 (Fail)
//Storyboard Layer 2 (Pass)
//Storyboard Layer 3 (Foreground)
//Storyboard Sound Samples

[TimingPoints]
52,250,4,3,0,65,1,0
1052,-142.857142857143,4,3,0,65,0,0
8052,-100,4,3,0,65,0,0
12052,-76.9230769230769,4,3,0,65,0,0
12239,-76.9230769230769,4,2,0,5,0,0
12302,-76.9230769230769,4,3,0,65,0,0
12489,-76.9230769230769,4,2,0,5,0,0
12552,-76.9230769230769,4,3,0,65,0,0
12739,-76.9230769230769,4,2,0,5,0,0
12802,-76.9230769230769,4,3,0,65,0,0
12989,-76.9230769230769,4,2,0,5,0,0
13052,-100,4,3,0,65,0,0
13614,-100,4,2,0,5,0,0
13677,-100,4,3,0,65,0,0
14614,-100,4,2,0,5,0,0
14677,-100,4,3,0,65,0,0
15052,-76.9230769230769,4,3,0,65,0,0
15239,-76.9230769230769,4,2,0,5,0,0
15302,-100,4,3,0,65,0,0
20052,-76.9230769230769,4,3,0,65,0,0
20239,-76.9230769230769,4,2,0,5,0,0
20302,-76.9230769230769,4,3,0,65,0,0
20489,-76.9230769230769,4,2,0,5,0,0
20552,-76.9230769230769,4,3,0,65,0,0
20739,-76.9230769230769,4,2,0,5,0,0
20802,-76.9230769230769,4,3,0,65,0,0
20989,-76.9230769230769,4,2,0,5,0,0
21052,-100,4,3,0,65,0,0
25052,-125,4,3,0,65,0,0
29052,-100,4,3,0,65,0,0
33052,-125,4,3,0,65,0,0
37052,-100,4,3,0,65,0,0
55052,-111.111111111111,4,3,0,65,0,0
55677,-111.111111111111,4,3,0,65,0,0
55864,-111.111111111111,4,2,0,5,0,0
55927,-111.111111111111,4,3,0,65,0,0
57052,-83.3333333333333,4,3,0,65,0,1
64302,-125,4,3,0,65,0,1
64552,-83.3333333333333,4,3,0,65,0,1
73052,-100,4,3,0,65,0,0
76052,-76.9230769230769,4,3,0,65,0,0
76239,-76.9230769230769,4,2,0,5,0,0
76302,-76.9230769230769,4,3,0,65,0,0
76489,-76.9230769230769,4,2,0,5,0,0
76552,-76.9230769230769,4,3,0,65,0,0
76739,-76.9230769230769,4,2,0,5,0,0
76802,-76.9230769230769,4,3,0,65,0,0
76989,-76.9230769230769,4,2,0,5,0,0
77052,-100,4,3,0,65,0,0
79052,-76.9230769230769,4,3,0,65,0,0
79239,-76.9230769230769,4,2,0,5,0,0
79302,-100,4,3,0,65,0,0
84052,-76.9230769230769,4,3,0,65,0,0
84239,-76.9230769230769,4,2,0,5,0,0
84302,-76.9230769230769,4,3,0,65,0,0
84489,-76.9230769230769,4,2,0,5,0,0
84552,-76.9230769230769,4,3,0,65,0,0
84739,-76.9230769230769,4,2,0,5,0,0
84802,-76.9230769230769,4,3,0,65,0,0
84989,-76.9230769230769,4,2,0,5,0,0
85052,-100,4,3,0,65,0,0
89052,-500,4,3,0,65,0,0
89239,-500,4,2,0,5,0,0
89302,-500,4,3,0,65,0,0
89614,-500,4,2,0,5,0,0
89677,-500,4,3,0,65,0,0
90302,-500,4,2,0,5,0,0

[Colours]
Combo1 : 255,189,157
Combo2 : 255,40,255
Combo3 : 255,121,121
Combo4 : 255,183,219

[HitObjects]
104,139,1052,6,0,L|168:124,1,66.4999979705811
98,264,1302,1,0,0:0:0:0:
122,241,1427,1,0,0:0:0:0:
148,220,1552,2,0,L|222:216,1,66.4999979705811
400,184,1802,1,0,0:0:0:0:
370,168,1927,2,0,L|296:164,1,66.4999979705811
261,71,2177,1,0,0:0:0:0:
231,87,2302,2,0,L|157:91,1,66.4999979705811
56,24,2552,2,0,B|64:59|51:99|51:99|65:139|65:139|48:177|60:232,1,199.499993911743
90,365,3052,6,0,L|80:297,1,66.4999979705811
223,366,3302,1,0,0:0:0:0:
204,338,3427,1,0,0:0:0:0:
187,311,3552,2,0,L|188:242,1,66.4999979705811
287,123,3802,1,0,0:0:0:0:
272,151,3927,2,0,L|279:219,1,66.4999979705811
172,60,4177,1,0,0:0:0:0:
187,88,4302,2,0,L|179:156,1,66.4999979705811
270,34,4552,2,0,B|305:33|305:33|364:53,1,66.4999979705811
481,90,4802,2,0,B|446:91|446:91|387:71,1,66.4999979705811
458,2,5052,5,0,0:0:0:0:
483,238,5302,1,0,0:0:0:0:
456,217,5427,1,0,0:0:0:0:
430,196,5552,2,0,L|345:206,1,66.4999979705811
238,271,5802,1,0,0:0:0:0:
257,244,5927,2,0,L|265:173,1,66.4999979705811
354,120,6177,1,0,0:0:0:0:
335,93,6302,2,0,L|327:22,1,66.4999979705811
67,47,6552,2,0,B|148:59|148:59|216:45|216:45|201:86|202:113,1,199.499993911743
184,272,7052,6,0,L|175:204,1,66.4999979705811
313,296,7302,1,0,0:0:0:0:
298,266,7427,1,0,0:0:0:0:
284,237,7552,2,0,L|286:168,1,66.4999979705811
393,46,7802,2,0,L|391:112,1,66.4999979705811
433,248,8052,5,0,0:0:0:0:
368,192,8177,1,0,0:0:0:0:
427,334,8302,1,0,0:0:0:0:
508,157,8427,1,0,0:0:0:0:
284,273,8552,1,0,0:0:0:0:
500,296,8677,1,0,0:0:0:0:
262,173,8802,1,0,0:0:0:0:
305,381,8927,1,0,0:0:0:0:
333,65,9052,5,0,0:0:0:0:
363,162,9177,1,0,0:0:0:0:
438,90,9302,1,0,0:0:0:0:
69,117,9427,5,0,0:0:0:0:
175,137,9552,1,0,0:0:0:0:
106,219,9677,1,0,0:0:0:0:
240,0,9802,6,0,L|254:106,1,95
311,341,10052,5,0,0:0:0:0:
260,249,10177,1,0,0:0:0:0:
367,257,10302,1,0,0:0:0:0:
47,270,10427,5,0,0:0:0:0:
143,324,10552,1,0,0:0:0:0:
151,215,10677,1,0,0:0:0:0:
27,354,10802,6,0,L|22:253,1,95
120,30,11052,5,0,0:0:0:0:
82,145,11177,1,0,0:0:0:0:
0,59,11302,1,0,0:0:0:0:
319,144,11427,5,0,0:0:0:0:
198,106,11552,1,0,0:0:0:0:
225,227,11677,1,0,0:0:0:0:
386,43,11802,6,0,L|283:53,1,95
32,216,12052,6,0,B|121:192|121:192|232:224,1,185.249991519928
303,251,12302,6,0,P|293:163|215:119,1,185.249991519928
333,176,12552,6,0,B|365:159|396:157|396:157|436:211|383:283,1,185.249991519928
217,367,12802,6,0,B|187:303|219:238|219:238|231:259|227:297,1,185.249991519928
303,251,13052,5,0,0:0:0:0:
334,355,13177,1,0,0:0:0:0:
393,268,13302,1,0,0:0:0:0:
214,268,13427,2,0,P|231:196|319:160,1,142.5
360,179,13677,1,0,0:0:0:0:
303,251,13802,1,0,0:0:0:0:
279,82,13927,1,0,0:0:0:0:
65,114,14052,5,0,0:0:0:0:
156,146,14177,1,0,0:0:0:0:
137,53,14302,1,0,0:0:0:0:
84,207,14427,2,0,P|78:266|91:358,1,142.5
156,384,14677,1,0,0:0:0:0:
37,279,14802,1,0,0:0:0:0:
249,267,14927,1,0,0:0:0:0:
65,114,15052,6,0,B|136:111|136:111|185:121|185:121|282:117,1,185.249991519928
330,9,15302,5,0,0:0:0:0:
319,81,15427,1,0,0:0:0:0:
255,29,15552,5,0,0:0:0:0:
367,150,15677,1,0,0:0:0:0:
395,76,15802,5,0,0:0:0:0:
294,281,15927,1,0,0:0:0:0:
447,139,16051,6,0,P|475:98|476:50,2,63.3333333333333
397,203,16302,6,0,P|369:162|368:114,2,63.3333333333333
452,337,16552,5,0,0:0:0:0:
457,257,16635,2,0,P|487:265|512:285,1,63.3333333333333
296,308,16802,5,0,0:0:0:0:
370,280,16885,2,0,P|375:310|369:341,1,63.3333333333333
221,361,17052,5,0,0:0:0:0:
231,250,17177,1,0,0:0:0:0:
133,296,17302,1,0,0:0:0:0:
504,152,17427,5,0,0:0:0:0:
434,232,17552,1,0,0:0:0:0:
395,135,17677,1,0,0:0:0:0:
490,341,17802,6,0,L|385:329,1,95
129,337,18052,5,0,0:0:0:0:
207,260,18177,1,0,0:0:0:0:
235,365,18302,1,0,0:0:0:0:
27,133,18427,5,0,0:0:0:0:
114,202,18552,1,0,0:0:0:0:
127,98,18677,1,0,0:0:0:0:
19,268,18802,6,0,L|38:364,1,95
311,181,19052,5,0,0:0:0:0:
230,274,19177,1,0,0:0:0:0:
187,159,19302,1,0,0:0:0:0:
476,258,19427,5,0,0:0:0:0:
348,280,19552,1,0,0:0:0:0:
434,378,19677,1,0,0:0:0:0:
441,172,19802,6,0,L|440:72,1,95
316,71,20052,6,0,B|226:106|219:39|125:86,1,185.249991519928
187,159,20302,6,0,B|183:200|146:230|146:230|143:239|143:239|137:230|137:230|94:201|89:167,1,185.249991519928
39,270,20552,6,0,B|47:294|33:336|33:336|92:319|92:319|115:335|172:334,1,185.249991519928
300,297,20802,6,0,P|234:319|278:265,1,185.249991519928
363,243,21052,5,0,0:0:0:0:
477,232,21177,1,0,0:0:0:0:
431,326,21302,1,0,0:0:0:0:
389,161,21427,2,0,P|358:114|254:120,1,142.5
311,176,21677,1,0,0:0:0:0:
282,19,21802,1,0,0:0:0:0:
354,67,21927,1,0,0:0:0:0:
160,106,22052,5,0,0:0:0:0:
233,183,22177,1,0,0:0:0:0:
128,182,22302,1,0,0:0:0:0:
276,106,22427,2,0,P|315:148|298:243,1,142.5
256,283,22677,1,0,0:0:0:0:
233,183,22802,1,0,0:0:0:0:
385,308,22927,1,0,0:0:0:0:
144,241,23052,5,0,0:0:0:0:
129,222,23114,1,0,0:0:0:0:
122,199,23177,1,0,0:0:0:0:
123,175,23239,1,0,0:0:0:0:
131,153,23301,5,0,0:0:0:0:
139,130,23364,1,0,0:0:0:0:
139,107,23426,1,0,0:0:0:0:
132,84,23489,1,0,0:0:0:0:
118,65,23552,5,0,0:0:0:0:
97,54,23614,1,0,0:0:0:0:
73,51,23677,1,0,0:0:0:0:
50,57,23739,1,0,0:0:0:0:
31,70,23802,5,0,0:0:0:0:
18,90,23864,1,0,0:0:0:0:
13,113,23927,1,0,0:0:0:0:
17,137,23989,1,0,0:0:0:0:
29,157,24052,5,0,0:0:0:0:
293,7,24177,1,0,0:0:0:0:
97,54,24302,5,0,0:0:0:0:
292,159,24427,1,0,0:0:0:0:
93,268,24552,5,0,0:0:0:0:
193,214,24677,1,0,0:0:0:0:
191,371,24802,5,0,0:0:0:0:
176,296,24927,1,0,0:0:0:0:
118,384,25052,6,0,L|293:375,1,152
269,376,25677,1,0,0:0:0:0:
361,247,25802,1,0,0:0:0:0:
343,325,25927,1,0,0:0:0:0:
317,172,26052,6,0,P|360:163|410:172,1,76
242,106,26302,1,0,0:0:0:0:
242,106,26427,2,0,P|280:85|334:79,1,76
463,104,26677,2,0,P|424:83|370:77,1,76
242,106,26927,1,0,0:0:0:0:
500,39,27052,6,0,L|491:217,1,152
492,190,27677,1,0,0:0:0:0:
376,261,27802,1,0,0:0:0:0:
454,258,27927,1,0,0:0:0:0:
302,211,28052,6,0,P|290:268|293:298,1,76
178,170,28302,1,0,0:0:0:0:
178,170,28427,2,0,P|195:220|181:340,1,152
101,358,28802,2,0,P|92:316|106:266,1,76
221,100,29052,6,0,P|167:95|113:108,1,95
270,179,29302,1,0,0:0:0:0:
364,65,29427,2,0,P|317:39|168:0,1,190
368,156,29802,2,0,P|413:148|479:121,1,95
348,361,30052,5,0,0:0:0:0:
422,298,30177,1,0,0:0:0:0:
329,271,30302,2,0,P|274:269|200:290,1,95
115,330,30552,2,0,P|144:283|163:208,1,95
171,116,30802,2,0,P|196:164|251:218,1,95
355,66,31052,6,0,P|304:58|256:71,1,95
78,118,31302,2,0,P|129:126|177:113,1,95
355,66,31552,2,0,L|349:167,1,95
449,220,31802,2,0,L|443:125,1,95
504,288,32052,6,0,P|448:304|399:290,1,95
335,247,32302,1,0,0:0:0:0:
335,247,32427,2,0,P|279:231|230:245,2,95
192,311,32802,2,0,P|158:274|153:212,1,95
205,137,33052,6,0,P|142:122|52:176,1,152
66,158,33677,1,0,0:0:0:0:
124,304,33802,1,0,0:0:0:0:
149,231,33927,1,0,0:0:0:0:
64,360,34052,6,0,P|106:383|158:379,1,76
277,313,34302,1,0,0:0:0:0:
277,313,34427,2,0,P|239:317|207:337,1,76
350,369,34677,2,0,P|367:322|360:279,1,76
299,221,34927,1,0,0:0:0:0:
468,351,35052,6,0,L|480:197,1,152
479,199,35677,1,0,0:0:0:0:
316,108,35802,1,0,0:0:0:0:
413,120,35927,1,0,0:0:0:0:
253,165,36052,6,0,P|232:125|232:75,1,76
119,131,36302,1,0,0:0:0:0:
119,131,36427,2,0,P|140:91|140:41,1,76
40,161,36677,1,0,0:0:0:0:
100,211,36802,2,0,P|145:209|188:184,1,76
381,226,37052,6,0,P|332:219|275:228,1,95
151,361,37302,1,0,0:0:0:0:
151,361,37427,2,0,P|180:322|189:174,1,190
149,105,37802,2,0,P|192:96|251:117,1,95
408,40,38052,2,0,P|345:47|309:75,1,95
381,226,38302,6,0,L|386:127,1,95
286,282,38552,2,0,L|367:334,1,95
286,172,38802,2,0,L|198:216,1,95
68,329,39052,6,0,L|85:235,1,95
0,73,39302,2,0,L|17:170,1,95
68,329,39552,2,0,P|107:318|175:322,1,95
334,377,39802,2,0,P|286:378|240:366,1,95
281,215,40052,5,0,0:0:0:0:
295,229,40302,1,0,0:0:0:0:
248,123,40427,1,0,0:0:0:0:
393,237,40552,1,0,0:0:0:0:
187,214,40677,1,0,0:0:0:0:
421,76,40802,1,0,0:0:0:0:
395,325,40927,1,0,0:0:0:0:
248,123,41052,6,0,P|204:103|142:111,1,95
124,281,41302,2,0,P|183:227|192:192,1,95
50,95,41552,2,0,P|54:143|92:192,1,95
366,251,41802,1,0,0:0:0:0:
290,199,41927,6,0,B|252:289|323:295|283:388,1,190
71,308,42302,5,0,0:0:0:0:
210,330,42427,1,0,0:0:0:0:
76,226,42552,5,0,0:0:0:0:
134,363,42677,1,0,0:0:0:0:
149,184,42802,5,0,0:0:0:0:
2,265,42927,1,0,0:0:0:0:
226,240,43052,6,0,P|241:188|225:126,1,95
146,0,43302,2,0,P|140:46|155:91,1,95
348,58,43552,2,0,P|313:46|250:44,1,95
360,253,43802,1,0,0:0:0:0:
430,186,43927,6,0,P|384:161|301:174,1,95
166,300,44177,1,0,0:0:0:0:
259,327,44302,2,0,P|257:274|204:209,1,95
106,72,44552,2,0,L|125:182,1,95
19,315,44802,2,0,L|35:221,1,95
106,72,45052,5,0,0:0:0:0:
93,65,45302,2,0,P|143:49|200:54,1,95
342,126,45552,2,0,P|294:126|249:111,1,95
496,66,45802,1,0,0:0:0:0:
419,8,45927,6,0,B|411:79|411:79|423:119|423:119|412:215,1,190
276,260,46302,5,0,0:0:0:0:
415,196,46427,1,0,0:0:0:0:
168,268,46552,5,0,0:0:0:0:
365,328,46677,1,0,0:0:0:0:
127,178,46802,5,0,0:0:0:0:
155,362,46927,1,0,0:0:0:0:
61,148,47052,6,0,B|218:129|218:129|182:157,1,190
113,36,47427,2,0,B|157:25|157:25|195:30|195:30|247:7|324:36,1,190
452,122,47802,1,0,0:0:0:0:
365,136,47927,6,0,P|376:77|415:41,1,95
433,294,48177,1,0,0:0:0:0:
376,231,48302,2,0,P|432:211|483:226,1,95
305,300,48552,1,0,0:0:0:0:
376,231,48677,1,0,0:0:0:0:
370,378,48802,1,0,0:0:0:0:
195,229,48927,1,0,0:0:0:0:
463,130,49052,6,0,L|360:124,1,95
142,115,49302,1,0,0:0:0:0:
253,163,49427,2,0,P|264:104|249:53,1,95
31,67,49677,2,0,P|20:126|35:177,1,95
216,299,49927,6,0,P|151:288|107:300,1,95
16,369,50177,1,0,0:0:0:0:
317,370,50302,2,0,P|340:318|319:247,2,95
271,174,50677,1,0,0:0:0:0:
336,281,50802,1,0,0:0:0:0:
172,222,50927,1,0,0:0:0:0:
395,196,51052,6,0,P|453:197|510:228,1,95
172,222,51302,1,0,0:0:0:0:
271,174,51427,2,0,P|320:140|341:93,1,95
168,0,51677,2,0,P|181:44|216:75,1,95
411,27,51927,6,0,P|360:4|295:3,1,95
486,210,52177,1,0,0:0:0:0:
499,118,52302,2,0,L|513:17,1,95
415,279,52552,2,0,P|457:307|513:311,1,95
324,239,52802,2,0,P|277:246|238:272,1,95
124,356,53052,6,0,B|147:290|123:218|123:218|106:240|97:281,1,190
171,94,53427,2,0,P|187:145|217:62,1,190
66,54,53802,2,0,P|55:131|62:166,1,95
252,80,54052,6,0,P|312:72|356:79,1,95
325,279,54302,2,0,L|305:172,1,95
487,169,54552,1,0,0:0:0:0:
408,231,54677,1,0,0:0:0:0:
509,77,54802,1,0,0:0:0:0:
512,266,54927,1,0,0:0:0:0:
171,151,55052,6,0,P|127:149|66:168,1,85.4999973907472
270,205,55302,1,0,0:0:0:0:
67,287,55427,6,0,P|99:255|184:241,1,128.249996086121
153,359,55677,2,0,P|178:322|177:235,1,128.249996086121
69,364,55927,1,0,0:0:0:0:
57,360,56177,5,0,0:0:0:0:
321,242,56302,1,0,0:0:0:0:
334,256,56552,5,0,0:0:0:0:
179,186,56677,1,0,0:0:0:0:
390,173,56802,1,0,0:0:0:0:
268,362,56927,2,0,L|279:293,1,42.7499986953736
338,59,57052,6,0,P|284:49|209:82,1,113.999996520996
1,267,57302,1,0,0:0:0:0:
107,191,57427,2,0,P|131:253|49:389,1,227.999993041992
21,109,57802,2,0,P|68:79|125:76,1,113.999996520996
435,362,58052,5,0,0:0:0:0:
355,260,58177,1,0,0:0:0:0:
486,248,58302,1,0,0:0:0:0:
269,333,58427,2,0,P|240:266|337:146,1,227.999993041992
497,56,58802,2,0,P|430:42|362:49,1,113.999996520996
131,9,59052,5,0,0:0:0:0:
142,274,59177,1,0,0:0:0:0:
277,8,59302,5,0,0:0:0:0:
31,170,59427,1,0,0:0:0:0:
288,290,59552,5,0,0:0:0:0:
207,82,59677,1,0,0:0:0:0:
190,368,59802,5,0,0:0:0:0:
298,145,59927,1,0,0:0:0:0:
420,384,60052,6,0,P|446:320|441:239,1,113.999996520996
368,21,60302,1,0,0:0:0:0:
512,142,60427,2,0,B|450:121|367:145|367:145|324:129|263:144,1,227.999993041992
8,308,60802,2,0,P|74:329|134:319,1,113.999996520996
86,86,61052,6,0,P|80:155|90:225,1,113.999996520996
183,29,61302,1,0,0:0:0:0:
257,274,61427,2,0,B|281:181|243:130|243:130|209:152|228:213,1,227.999993041992
372,350,61802,1,0,0:0:0:0:
431,175,61927,1,0,0:0:0:0:
37,297,62052,6,0,P|102:277|183:286,1,113.999996520996
384,355,62302,1,0,0:0:0:0:
374,223,62427,2,0,P|306:247|259:390,1,227.999993041992
225,105,62802,1,0,0:0:0:0:
274,245,62927,1,0,0:0:0:0:
12,99,63052,6,0,P|62:81|136:76,1,113.999996520996
455,156,63302,2,0,P|405:138|331:133,1,113.999996520996
47,269,63552,2,0,P|91:227|153:205,1,113.999996520996
369,320,63802,1,0,0:0:0:0:
243,366,63927,2,0,B|233:284|233:284|254:237|254:237|241:134,1,227.999993041992
439,0,64302,2,0,L|431:87,1,76
414,228,64552,1,0,0:0:0:0:
348,134,64677,5,0,0:0:0:0:
512,106,64802,1,0,0:0:0:0:
371,330,64927,1,0,0:0:0:0:
179,25,65052,6,0,P|166:63|157:137,1,113.999996520996
239,359,65302,1,0,0:0:0:0:
292,257,65427,2,0,B|261:240|233:237|233:237|148:277|59:224,1,227.999993041992
401,312,65802,2,0,P|460:325|521:316,1,113.999996520996
357,48,66052,5,0,0:0:0:0:
438,176,66177,1,0,0:0:0:0:
512,44,66302,1,0,0:0:0:0:
188,77,66427,2,0,B|198:40|230:29|230:29|262:95|228:199,1,227.999993041992
57,334,66739,2,0,P|92:305|177:295,1,113.999996520996
351,330,67052,5,0,0:0:0:0:
76,176,67177,1,0,0:0:0:0:
413,168,67302,5,0,0:0:0:0:
168,301,67427,1,0,0:0:0:0:
315,77,67552,5,0,0:0:0:0:
458,318,67677,1,0,0:0:0:0:
453,62,67802,5,0,0:0:0:0:
306,241,67927,1,0,0:0:0:0:
166,7,68052,6,0,P|151:71|151:138,1,113.999996520996
264,339,68302,1,0,0:0:0:0:
314,232,68427,2,0,B|264:222|222:226|222:226|180:245|180:245|136:229|58:237,1,227.999993041992
284,121,68802,2,0,P|335:109|421:108,1,113.999996520996
481,323,69052,6,0,P|424:320|368:307,1,113.999996520996
168,161,69302,1,0,0:0:0:0:
255,335,69427,2,0,B|262:303|255:268|255:268|276:236|276:236|288:157|266:102,1,227.999993041992
46,261,69802,1,0,0:0:0:0:
155,302,69927,1,0,0:0:0:0:
66,6,70052,6,0,P|50:78|57:137,1,113.999996520996
160,312,70302,1,0,0:0:0:0:
226,213,70427,2,0,P|166:193|90:212,1,113.999996520996
443,305,70677,1,0,0:0:0:0:
377,212,70802,1,0,0:0:0:0:
319,316,70927,1,0,0:0:0:0:
449,129,71052,6,0,P|398:104|320:118,1,113.999996520996
154,230,71302,2,0,P|210:233|260:208,1,113.999996520996
178,0,71552,2,0,L|191:118,1,113.999996520996
229,318,71802,1,0,0:0:0:0:
268,196,71927,1,0,0:0:0:0:
39,269,72052,6,0,P|45:197|78:135,1,113.999996520996
365,0,72302,1,0,0:0:0:0:
389,104,72427,2,0,P|316:98|257:43,1,113.999996520996
455,347,72677,5,0,0:0:0:0:
462,268,72802,1,0,0:0:0:0:
470,190,72927,1,0,0:0:0:0:
198,290,73052,5,0,0:0:0:0:
307,274,73177,1,0,0:0:0:0:
266,376,73302,1,0,0:0:0:0:
363,70,73427,5,0,0:0:0:0:
273,134,73552,1,0,0:0:0:0:
372,183,73677,1,0,0:0:0:0:
192,32,73802,6,0,L|93:59,1,95
67,298,74052,5,0,0:0:0:0:
151,229,74177,1,0,0:0:0:0:
52,186,74302,1,0,0:0:0:0:
336,284,74427,5,0,0:0:0:0:
228,303,74552,1,0,0:0:0:0:
299,383,74677,1,0,0:0:0:0:
268,172,74802,6,0,L|266:61,1,95
475,102,75052,5,0,0:0:0:0:
369,130,75177,1,0,0:0:0:0:
401,26,75302,1,0,0:0:0:0:
342,356,75427,5,0,0:0:0:0:
403,265,75552,1,0,0:0:0:0:
295,256,75677,1,0,0:0:0:0:
507,333,75802,6,0,L|513:233,1,95
387,120,76052,6,0,B|341:127|341:127|262:107|262:107|231:124|231:124|269:136,1,185.249991519928
155,180,76302,6,0,B|131:152|130:106|150:74|150:74|139:50|139:50|151:25|147:-2,1,185.249991519928
19,125,76552,6,0,B|39:83|39:83|50:136|36:232,1,185.249991519928
7,310,76802,6,0,B|54:325|98:299|98:299|143:293|211:311,1,185.249991519928
271,338,77052,5,0,0:0:0:0:
239,220,77177,1,0,0:0:0:0:
152,383,77302,1,0,0:0:0:0:
338,210,77427,2,0,P|318:151|224:125,1,142.5
172,140,77677,1,0,0:0:0:0:
330,103,77802,1,0,0:0:0:0:
154,41,77927,1,0,0:0:0:0:
192,235,78052,5,0,0:0:0:0:
82,170,78177,1,0,0:0:0:0:
248,120,78302,1,0,0:0:0:0:
47,251,78427,2,0,L|38:95,1,142.5
36,31,78677,1,0,0:0:0:0:
0,182,78802,1,0,0:0:0:0:
151,0,78927,1,0,0:0:0:0:
173,171,79052,6,0,B|161:242|161:242|175:279|175:279|160:367,1,185.249991519928
24,335,79302,5,0,0:0:0:0:
93,298,79427,1,0,0:0:0:0:
23,253,79552,5,0,0:0:0:0:
91,377,79677,1,0,0:0:0:0:
12,336,79802,5,0,0:0:0:0:
234,291,79927,1,0,0:0:0:0:
79,177,80052,6,0,P|29:162|-40:180,2,63.3333333333333
170,85,80302,6,0,P|120:100|51:82,2,63.3333333333333
332,51,80552,5,0,0:0:0:0:
262,87,80635,2,0,P|255:56|257:24,1,63.3333333333333
337,239,80802,5,0,0:0:0:0:
269,199,80885,2,0,P|291:177|319:161,1,63.3333333333333
467,62,81052,5,0,0:0:0:0:
405,152,81177,1,0,0:0:0:0:
512,164,81302,1,0,0:0:0:0:
209,167,81427,5,0,0:0:0:0:
294,100,81552,1,0,0:0:0:0:
310,207,81677,1,0,0:0:0:0:
156,58,81802,6,0,L|35:83,1,95
48,264,82052,5,0,0:0:0:0:
114,176,82177,1,0,0:0:0:0:
5,161,82302,1,0,0:0:0:0:
266,292,82427,5,0,0:0:0:0:
189,369,82552,1,0,0:0:0:0:
155,266,82677,1,0,0:0:0:0:
328,380,82802,6,0,L|432:350,1,95
443,157,83052,5,0,0:0:0:0:
343,202,83177,1,0,0:0:0:0:
430,266,83302,1,0,0:0:0:0:
235,39,83427,5,0,0:0:0:0:
320,107,83552,1,0,0:0:0:0:
218,142,83677,1,0,0:0:0:0:
401,40,83802,6,0,L|497:52,1,95
461,147,84052,6,0,B|445:236|459:287|459:287|475:253|471:218,1,185.249991519928
497,378,84302,6,0,B|449:391|408:373|408:373|362:382|362:382|299:375,1,185.249991519928
276,286,84552,6,0,P|318:224|322:316,1,185.249991519928
186,317,84802,6,0,P|181:247|271:137,1,185.249991519928
330,138,85052,5,0,0:0:0:0:
227,53,85177,1,0,0:0:0:0:
395,82,85302,1,0,0:0:0:0:
149,107,85427,2,0,P|90:102|1:150,1,142.5
11,216,85677,1,0,0:0:0:0:
123,312,85802,1,0,0:0:0:0:
98,234,85927,1,0,0:0:0:0:
14,323,86052,5,0,0:0:0:0:
189,248,86177,1,0,0:0:0:0:
0,210,86302,1,0,0:0:0:0:
255,180,86427,2,0,P|330:167|404:110,1,142.5
414,59,86677,1,0,0:0:0:0:
291,87,86802,1,0,0:0:0:0:
476,123,86927,1,0,0:0:0:0:
219,39,87052,5,0,0:0:0:0:
207,59,87114,1,0,0:0:0:0:
203,82,87177,1,0,0:0:0:0:
204,106,87239,1,0,0:0:0:0:
214,128,87302,5,0,0:0:0:0:
222,150,87365,1,0,0:0:0:0:
223,173,87427,1,0,0:0:0:0:
219,196,87490,1,0,0:0:0:0:
209,218,87552,5,0,0:0:0:0:
191,234,87614,1,0,0:0:0:0:
169,241,87677,1,0,0:0:0:0:
145,238,87739,1,0,0:0:0:0:
125,226,87802,5,0,0:0:0:0:
112,206,87864,1,0,0:0:0:0:
108,183,87927,1,0,0:0:0:0:
114,161,87989,1,0,0:0:0:0:
130,142,88052,5,0,0:0:0:0:
205,378,88177,1,0,0:0:0:0:
219,196,88302,5,0,0:0:0:0:
79,330,88427,1,0,0:0:0:0:
401,308,88552,5,0,0:0:0:0:
279,273,88677,1,0,0:0:0:0:
430,188,88802,5,0,0:0:0:0:
358,222,88927,1,0,0:0:0:0:
475,259,89052,6,0,L|507:257,1,28.5
410,317,89302,5,0,0:0:0:0:
223,192,89427,2,0,L|192:190,1,28.5
288,250,89677,5,0,0:0:0:0:
475,125,89802,1,0,0:0:0:0:
256,192,89864,12,0,90927,0:0:0:0:
