osu file format v14

[General]
AudioFilename: audio.mp3
AudioLeadIn: 0
PreviewTime: 213984
Countdown: 0
SampleSet: Soft
StackLeniency: 0.7
Mode: 3
LetterboxInBreaks: 0
SpecialStyle: 0
WidescreenStoryboard: 0

[Editor]
DistanceSpacing: 1.5
BeatDivisor: 4
GridSize: 4
TimelineZoom: 3.500004

[Metadata]
Title:Onyx Veil -Boukyaku no Yami-
TitleUnicode:Onyx Veil -忘却の闇-
Artist:Hatsuki Yura
ArtistUnicode:葉月ゆら
Creator:Virtue-
Version:Dark Abyss
Source:
Tags:Drop C95 Comiket 95 スタジオグレース Studio Grace Bōkyaku japanese jpop j-pop pop instrumental gothic HATU-039
BeatmapID:3143428
BeatmapSetID:1537394

[Difficulty]
HPDrainRate:8
CircleSize:4
OverallDifficulty:8
ApproachRate:5
SliderMultiplier:1.4
SliderTickRate:1

[Events]
//Background and Video events
0,0,"wallbgonyx.jpg",0,0
//Break Periods
//Storyboard Layer 0 (Background)
//Storyboard Layer 1 (Fail)
//Storyboard Layer 2 (Pass)
//Storyboard Layer 3 (Foreground)
//Storyboard Layer 4 (Overlay)
//Storyboard Sound Samples

[TimingPoints]
651,416.666666666667,4,2,1,50,1,0
55234,-10,4,2,1,50,0,0
55260,-1000,4,2,1,50,0,0
55442,-500,4,2,1,50,0,0
55460,-285.714285714286,4,2,1,50,0,0
55478,-200,4,2,1,50,0,0
55496,-153.846153846154,4,2,1,50,0,0
55514,-125,4,2,1,50,0,0
55533,-105.263157894737,4,2,1,50,0,0
55551,-90.9090909090909,4,2,1,50,0,0
55569,-80,4,2,1,50,0,0
55587,-71.4285714285714,4,2,1,50,0,0
55605,-64.5161290322581,4,2,1,50,0,0
55624,-58.8235294117647,4,2,1,50,0,0
55651,-100,4,2,1,50,0,0
70234,-10,4,2,1,50,0,0
70260,-1000,4,2,1,50,0,0
70442,-500,4,2,1,50,0,0
70460,-285.714285714286,4,2,1,50,0,0
70478,-200,4,2,1,50,0,0
70496,-153.846153846154,4,2,1,50,0,0
70514,-125,4,2,1,50,0,0
70533,-105.263157894737,4,2,1,50,0,0
70551,-90.9090909090909,4,2,1,50,0,0
70569,-80,4,2,1,50,0,0
70587,-71.4285714285714,4,2,1,50,0,0
70605,-64.5161290322581,4,2,1,50,0,0
70624,-58.8235294117647,4,2,1,50,0,0
70651,-100,4,2,1,50,0,1
97317,-100,4,2,1,50,0,0
123567,-10,4,2,1,50,0,0
123593,-1000,4,2,1,50,0,0
123776,-500,4,2,1,50,0,0
123794,-285.714285714286,4,2,1,50,0,0
123812,-200,4,2,1,50,0,0
123830,-153.846153846154,4,2,1,50,0,0
123848,-125,4,2,1,50,0,0
123867,-105.263157894737,4,2,1,50,0,0
123885,-90.9090909090909,4,2,1,50,0,0
123903,-80,4,2,1,50,0,0
123921,-71.4285714285714,4,2,1,50,0,0
123939,-64.5161290322581,4,2,1,50,0,0
123958,-58.8235294117647,4,2,1,50,0,0
123984,-100,4,2,1,50,0,0
156901,-10,4,2,1,50,0,0
156927,-1000,4,2,1,50,0,0
157109,-500,4,2,1,50,0,0
157127,-285.714285714286,4,2,1,50,0,0
157145,-200,4,2,1,50,0,0
157163,-153.846153846154,4,2,1,50,0,0
157181,-125,4,2,1,50,0,0
157200,-105.263157894737,4,2,1,50,0,0
157218,-90.9090909090909,4,2,1,50,0,0
157236,-80,4,2,1,50,0,0
157254,-71.4285714285714,4,2,1,50,0,0
157272,-64.5161290322581,4,2,1,50,0,0
157291,-58.8235294117647,4,2,1,50,0,0
157317,-100,4,2,1,50,0,1
183984,-100,4,2,1,50,0,0
212317,-101.010101010101,4,2,1,50,0,0
212370.896551724,-102.040816326531,4,2,1,50,0,0
212424.793103448,-103.092783505155,4,2,1,50,0,0
212478.689655172,-104.166666666667,4,2,1,50,0,0
212532.586206897,-105.263157894737,4,2,1,50,0,0
212586.482758621,-106.382978723404,4,2,1,50,0,0
212640.379310345,-107.52688172043,4,2,1,50,0,0
212694.275862069,-108.695652173913,4,2,1,50,0,0
212748.172413793,-109.89010989011,4,2,1,50,0,0
212802.068965517,-111.111111111111,4,2,1,50,0,0
212855.965517241,-112.359550561798,4,2,1,50,0,0
212909.862068966,-113.636363636364,4,2,1,50,0,0
212963.75862069,-114.942528735632,4,2,1,50,0,0
213017.655172414,-116.279069767442,4,2,1,50,0,0
213071.551724138,-117.647058823529,4,2,1,50,0,0
213125.448275862,-119.047619047619,4,2,1,50,0,0
213179.344827586,-120.481927710843,4,2,1,50,0,0
213233.24137931,-121.951219512195,4,2,1,50,0,0
213287.137931034,-123.456790123457,4,2,1,50,0,0
213341.034482759,-125,4,2,1,50,0,0
213394.931034483,-126.582278481013,4,2,1,50,0,0
213448.827586207,-128.205128205128,4,2,1,50,0,0
213502.724137931,-129.87012987013,4,2,1,50,0,0
213556.620689655,-131.578947368421,4,2,1,50,0,0
213610.517241379,-133.333333333333,4,2,1,50,0,0
213664.413793103,-135.135135135135,4,2,1,50,0,0
213718.310344828,-136.986301369863,4,2,1,50,0,0
213772.206896552,-138.888888888889,4,2,1,50,0,0
213826.103448276,-140.845070422535,4,2,1,50,0,0
213880,-142.857142857143,4,2,1,50,0,0
214817,-140.845070422535,4,2,1,50,0,0
214833.469387755,-138.888888888889,4,2,1,50,0,0
214849.93877551,-136.986301369863,4,2,1,50,0,0
214866.408163265,-135.135135135135,4,2,1,50,0,0
214882.87755102,-133.333333333333,4,2,1,50,0,0
214899.346938776,-131.578947368421,4,2,1,50,0,0
214915.816326531,-129.87012987013,4,2,1,50,0,0
214932.285714286,-128.205128205128,4,2,1,50,0,0
214948.755102041,-126.582278481013,4,2,1,50,0,0
214965.224489796,-125,4,2,1,50,0,0
214981.693877551,-123.456790123457,4,2,1,50,0,0
214998.163265306,-121.951219512195,4,2,1,50,0,0
215014.632653061,-120.481927710843,4,2,1,50,0,0
215031.102040816,-119.047619047619,4,2,1,50,0,0
215047.571428571,-117.647058823529,4,2,1,50,0,0
215064.040816327,-116.279069767442,4,2,1,50,0,0
215080.510204082,-114.942528735632,4,2,1,50,0,0
215096.979591837,-113.636363636364,4,2,1,50,0,0
215113.448979592,-112.359550561798,4,2,1,50,0,0
215129.918367347,-111.111111111111,4,2,1,50,0,0
215146.387755102,-109.89010989011,4,2,1,50,0,0
215162.857142857,-108.695652173913,4,2,1,50,0,0
215179.326530612,-107.52688172043,4,2,1,50,0,0
215195.795918367,-106.382978723404,4,2,1,50,0,0
215212.265306122,-105.263157894737,4,2,1,50,0,0
215228.734693878,-104.166666666667,4,2,1,50,0,0
215245.204081633,-103.092783505155,4,2,1,50,0,0
215261.673469388,-102.040816326531,4,2,1,50,0,0
215278.142857143,-101.010101010101,4,2,1,50,0,0
215294.612244898,-100,4,2,1,50,0,0
215311.081632653,-99.009900990099,4,2,1,50,0,0
215327.551020408,-98.0392156862745,4,2,1,50,0,0
215344.020408163,-97.0873786407767,4,2,1,50,0,0
215360.489795918,-96.1538461538461,4,2,1,50,0,0
215376.959183673,-95.2380952380952,4,2,1,50,0,0
215393.428571429,-94.3396226415094,4,2,1,50,0,0
215409.897959184,-93.4579439252336,4,2,1,50,0,0
215426.367346939,-92.5925925925926,4,2,1,50,0,0
215442.836734694,-91.743119266055,4,2,1,50,0,0
215459.306122449,-90.9090909090909,4,2,1,50,0,0
215475.775510204,-90.0900900900901,4,2,1,50,0,0
215492.244897959,-89.2857142857143,4,2,1,50,0,0
215508.714285714,-88.495575221239,4,2,1,50,0,0
215525.183673469,-87.719298245614,4,2,1,50,0,0
215541.653061224,-86.9565217391304,4,2,1,50,0,0
215558.12244898,-86.2068965517241,4,2,1,50,0,0
215574.591836735,-85.4700854700855,4,2,1,50,0,0
215591.06122449,-84.7457627118644,4,2,1,50,0,0
215607.530612245,-84.0336134453782,4,2,1,50,0,0
215624,-83.3333333333333,4,2,1,50,0,0
215651,-20,4,2,1,50,0,0
215677,-200,4,2,1,50,0,0
215911,-100,4,2,1,50,0,0
215963,-20,4,2,1,50,0,0
215989,-200,4,2,1,50,0,0
216223,-100,4,2,1,50,0,0
216276,-20,4,2,1,50,0,0
216302,-200,4,2,1,50,0,0
216432,-100,4,2,1,50,0,0
216484,-20,4,2,1,50,0,0
216510,-200,4,2,1,50,0,0
216796,-76.9230769230769,4,2,1,50,0,0
216901,-10,4,2,1,50,0,0
216927,-1000,4,2,1,50,0,0
217109,-500,4,2,1,50,0,0
217127,-285.714285714286,4,2,1,50,0,0
217145,-200,4,2,1,50,0,0
217163,-153.846153846154,4,2,1,50,0,0
217181,-125,4,2,1,50,0,0
217200,-105.263157894737,4,2,1,50,0,0
217218,-90.9090909090909,4,2,1,50,0,0
217236,-80,4,2,1,50,0,0
217254,-71.4285714285714,4,2,1,50,0,0
217272,-64.5161290322581,4,2,1,50,0,0
217291,-58.8235294117647,4,2,1,50,0,0
217317,-100,4,2,1,50,0,1
267317,-100,4,2,1,50,0,0

[HitObjects]
64,192,651,128,0,2317:0:0:0:0:
320,192,651,1,0,0:0:0:0:
448,192,651,1,0,0:0:0:0:
192,192,2317,128,0,3984:0:0:0:0:
320,192,3984,128,0,5651:0:0:0:0:
448,192,5651,128,0,7317:0:0:0:0:
320,192,7317,128,0,8984:0:0:0:0:
192,192,8984,128,0,10651:0:0:0:0:
64,192,10651,128,0,12317:0:0:0:0:
320,192,12317,128,0,12456:0:0:0:0:
448,192,12317,128,0,12456:0:0:0:0:
192,192,12456,128,0,12595:0:0:0:0:
64,192,12595,128,0,12873:0:0:0:0:
448,192,12595,128,0,12664:0:0:0:0:
448,192,12734,128,0,12873:0:0:0:0:
320,192,12873,128,0,13012:0:0:0:0:
192,192,13012,128,0,13151:0:0:0:0:
64,192,13151,128,0,13289:0:0:0:0:
320,192,13289,128,0,13428:0:0:0:0:
448,192,13428,128,0,13706:0:0:0:0:
64,192,13428,128,0,13498:0:0:0:0:
64,192,13567,128,0,13706:0:0:0:0:
192,192,13706,128,0,13845:0:0:0:0:
320,192,13845,128,0,13984:0:0:0:0:
448,192,13984,1,0,0:0:0:0:
64,192,13984,128,0,14192:0:0:0:0:
192,192,13984,1,0,0:0:0:0:
448,192,14192,128,0,14296:0:0:0:0:
320,192,14296,128,0,14401:0:0:0:0:
192,192,14401,1,0,0:0:0:0:
448,192,14401,1,0,0:0:0:0:
64,192,14401,128,0,14505:0:0:0:0:
320,192,14505,128,0,14609:0:0:0:0:
192,192,14609,128,0,14713:0:0:0:0:
448,192,14713,128,0,14817:0:0:0:0:
320,192,14817,128,0,15234:0:0:0:0:
64,192,14817,1,0,0:0:0:0:
192,192,15026,1,0,0:0:0:0:
64,192,15234,1,0,0:0:0:0:
448,192,15234,128,0,15442:0:0:0:0:
192,192,15234,1,0,0:0:0:0:
320,192,15442,128,0,15651:0:0:0:0:
192,192,15651,128,0,15859:0:0:0:0:
64,192,15651,1,0,0:0:0:0:
448,192,15859,128,0,15963:0:0:0:0:
320,192,15963,128,0,16067:0:0:0:0:
64,192,16067,1,0,0:0:0:0:
448,192,16067,1,0,0:0:0:0:
192,192,16067,128,0,16171:0:0:0:0:
320,192,16171,128,0,16276:0:0:0:0:
192,192,16276,128,0,16380:0:0:0:0:
448,192,16380,128,0,16484:0:0:0:0:
320,192,16484,1,0,0:0:0:0:
64,192,16484,128,0,16588:0:0:0:0:
192,192,16588,128,0,16692:0:0:0:0:
320,192,16692,128,0,16796:0:0:0:0:
64,192,16796,128,0,16901:0:0:0:0:
448,192,16901,1,0,0:0:0:0:
320,192,16901,128,0,17005:0:0:0:0:
192,192,17005,128,0,17109:0:0:0:0:
64,192,17109,1,0,0:0:0:0:
448,192,17109,128,0,17213:0:0:0:0:
320,192,17213,128,0,17317:0:0:0:0:
64,192,17317,1,0,0:0:0:0:
448,192,17317,1,0,0:0:0:0:
192,192,17317,128,0,17421:0:0:0:0:
320,192,17421,128,0,17526:0:0:0:0:
192,192,17526,128,0,17630:0:0:0:0:
64,192,17630,128,0,17734:0:0:0:0:
320,192,17734,1,0,0:0:0:0:
448,192,17734,1,0,0:0:0:0:
192,192,17734,128,0,17838:0:0:0:0:
64,192,17838,128,0,17942:0:0:0:0:
448,192,17942,128,0,18046:0:0:0:0:
320,192,18046,128,0,18151:0:0:0:0:
64,192,18151,1,0,0:0:0:0:
192,192,18151,128,0,18255:0:0:0:0:
448,192,18255,128,0,18359:0:0:0:0:
320,192,18359,128,0,18463:0:0:0:0:
192,192,18463,128,0,18567:0:0:0:0:
320,192,18567,1,0,0:0:0:0:
448,192,18567,1,0,0:0:0:0:
64,192,18567,128,0,18671:0:0:0:0:
192,192,18671,128,0,18776:0:0:0:0:
320,192,18776,128,0,18880:0:0:0:0:
448,192,18880,128,0,18984:0:0:0:0:
192,192,18984,1,0,0:0:0:0:
64,192,18984,128,0,19192:0:0:0:0:
448,192,19192,128,0,19262:0:0:0:0:
320,192,19262,128,0,19331:0:0:0:0:
192,192,19331,128,0,19401:0:0:0:0:
64,192,19401,1,0,0:0:0:0:
448,192,19401,128,0,19609:0:0:0:0:
320,192,19401,1,0,0:0:0:0:
320,192,19609,128,0,19817:0:0:0:0:
64,192,19817,1,0,0:0:0:0:
192,192,19817,128,0,20026:0:0:0:0:
320,192,19921,1,0,0:0:0:0:
448,192,20026,1,0,0:0:0:0:
64,192,20026,128,0,20234:0:0:0:0:
320,192,20130,1,0,0:0:0:0:
448,192,20234,128,0,20651:0:0:0:0:
192,192,20234,1,0,0:0:0:0:
320,192,20338,1,0,0:0:0:0:
192,192,20442,1,0,0:0:0:0:
64,192,20442,1,0,0:0:0:0:
320,192,20546,1,0,0:0:0:0:
64,192,20651,1,0,0:0:0:0:
192,192,20651,128,0,20859:0:0:0:0:
448,192,20859,128,0,20963:0:0:0:0:
320,192,20963,128,0,21067:0:0:0:0:
448,192,21067,1,0,0:0:0:0:
64,192,21067,1,0,0:0:0:0:
192,192,21067,128,0,21171:0:0:0:0:
320,192,21171,128,0,21276:0:0:0:0:
64,192,21276,128,0,21380:0:0:0:0:
448,192,21380,128,0,21484:0:0:0:0:
320,192,21484,128,0,21901:0:0:0:0:
192,192,21484,1,0,0:0:0:0:
64,192,21692,1,0,0:0:0:0:
192,192,21901,128,0,22109:0:0:0:0:
448,192,21901,1,0,0:0:0:0:
64,192,21901,1,0,0:0:0:0:
64,192,22109,128,0,22317:0:0:0:0:
448,192,22317,128,0,22526:0:0:0:0:
320,192,22317,1,0,0:0:0:0:
64,192,22526,128,0,22630:0:0:0:0:
192,192,22630,128,0,22734:0:0:0:0:
448,192,22734,1,0,0:0:0:0:
64,192,22734,1,0,0:0:0:0:
320,192,22734,128,0,22838:0:0:0:0:
192,192,22838,128,0,22942:0:0:0:0:
320,192,22942,128,0,23046:0:0:0:0:
64,192,23046,128,0,23151:0:0:0:0:
448,192,23151,1,0,0:0:0:0:
192,192,23151,128,0,23255:0:0:0:0:
320,192,23255,128,0,23359:0:0:0:0:
64,192,23359,128,0,23463:0:0:0:0:
320,192,23463,1,0,0:0:0:0:
448,192,23463,128,0,23567:0:0:0:0:
64,192,23567,1,0,0:0:0:0:
192,192,23567,128,0,23671:0:0:0:0:
320,192,23671,128,0,23776:0:0:0:0:
64,192,23776,1,0,0:0:0:0:
448,192,23776,128,0,23880:0:0:0:0:
192,192,23880,128,0,23984:0:0:0:0:
448,192,23984,1,0,0:0:0:0:
64,192,23984,1,0,0:0:0:0:
320,192,23984,128,0,24088:0:0:0:0:
192,192,24088,128,0,24192:0:0:0:0:
448,192,24192,1,0,0:0:0:0:
320,192,24192,128,0,24296:0:0:0:0:
64,192,24296,128,0,24401:0:0:0:0:
320,192,24401,1,0,0:0:0:0:
192,192,24401,128,0,24505:0:0:0:0:
448,192,24505,128,0,24609:0:0:0:0:
192,192,24609,1,0,0:0:0:0:
64,192,24609,128,0,24713:0:0:0:0:
320,192,24713,128,0,24817:0:0:0:0:
64,192,24817,1,0,0:0:0:0:
448,192,24817,1,0,0:0:0:0:
192,192,24817,128,0,24921:0:0:0:0:
320,192,24921,128,0,25026:0:0:0:0:
64,192,25026,1,0,0:0:0:0:
448,192,25026,128,0,25130:0:0:0:0:
192,192,25130,128,0,25234:0:0:0:0:
448,192,25234,1,0,0:0:0:0:
320,192,25234,128,0,25338:0:0:0:0:
64,192,25338,128,0,25442:0:0:0:0:
448,192,25442,1,0,0:0:0:0:
192,192,25442,128,0,25546:0:0:0:0:
320,192,25546,128,0,25651:0:0:0:0:
64,192,25651,1,0,0:0:0:0:
192,192,25651,1,0,0:0:0:0:
448,192,25703,1,0,0:0:0:0:
320,192,25755,1,0,0:0:0:0:
192,192,25807,1,0,0:0:0:0:
448,192,25859,1,0,0:0:0:0:
64,192,25859,1,0,0:0:0:0:
320,192,25963,1,0,0:0:0:0:
192,192,25963,1,0,0:0:0:0:
64,192,26067,1,0,0:0:0:0:
448,192,26067,1,0,0:0:0:0:
320,192,26171,1,0,0:0:0:0:
192,192,26171,1,0,0:0:0:0:
64,192,26276,1,0,0:0:0:0:
448,192,26276,1,0,0:0:0:0:
192,192,26380,1,0,0:0:0:0:
320,192,26380,1,0,0:0:0:0:
64,192,26484,1,0,0:0:0:0:
448,192,26484,1,0,0:0:0:0:
320,192,26536,1,0,0:0:0:0:
192,192,26588,1,0,0:0:0:0:
64,192,26640,1,0,0:0:0:0:
320,192,26692,1,0,0:0:0:0:
448,192,26692,1,0,0:0:0:0:
192,192,26744,1,0,0:0:0:0:
64,192,26796,1,0,0:0:0:0:
448,192,26848,1,0,0:0:0:0:
320,192,26901,1,0,0:0:0:0:
192,192,26901,1,0,0:0:0:0:
64,192,26953,1,0,0:0:0:0:
448,192,27005,1,0,0:0:0:0:
320,192,27057,1,0,0:0:0:0:
192,192,27109,1,0,0:0:0:0:
64,192,27109,1,0,0:0:0:0:
448,192,27161,1,0,0:0:0:0:
320,192,27213,1,0,0:0:0:0:
192,192,27265,1,0,0:0:0:0:
64,192,27317,1,0,0:0:0:0:
448,192,27317,1,0,0:0:0:0:
320,192,27526,1,0,0:0:0:0:
192,192,27630,1,0,0:0:0:0:
64,192,27734,1,0,0:0:0:0:
448,192,27734,1,0,0:0:0:0:
320,192,27942,1,0,0:0:0:0:
192,192,28046,1,0,0:0:0:0:
448,192,28151,1,0,0:0:0:0:
64,192,28255,1,0,0:0:0:0:
320,192,28359,1,0,0:0:0:0:
192,192,28463,1,0,0:0:0:0:
64,192,28567,1,0,0:0:0:0:
448,192,28567,1,0,0:0:0:0:
320,192,28671,1,0,0:0:0:0:
192,192,28776,1,0,0:0:0:0:
320,192,28880,1,0,0:0:0:0:
64,192,28984,1,0,0:0:0:0:
448,192,28984,128,0,29401:0:0:0:0:
192,192,29192,1,0,0:0:0:0:
64,192,29401,1,0,0:0:0:0:
320,192,29401,128,0,29817:0:0:0:0:
448,192,29609,1,0,0:0:0:0:
192,192,29817,1,0,0:0:0:0:
64,192,29817,128,0,30234:0:0:0:0:
320,192,30026,1,0,0:0:0:0:
192,192,30234,1,0,0:0:0:0:
448,192,30234,1,0,0:0:0:0:
64,192,30442,128,0,30546:0:0:0:0:
192,192,30546,128,0,30651:0:0:0:0:
320,192,30651,1,0,0:0:0:0:
448,192,30651,128,0,30859:0:0:0:0:
192,192,30859,128,0,31067:0:0:0:0:
320,192,31067,1,0,0:0:0:0:
64,192,31067,128,0,31276:0:0:0:0:
192,192,31276,128,0,31484:0:0:0:0:
448,192,31484,1,0,0:0:0:0:
320,192,31484,128,0,31901:0:0:0:0:
192,192,31692,1,0,0:0:0:0:
448,192,31901,1,0,0:0:0:0:
64,192,31901,1,0,0:0:0:0:
192,192,32109,1,0,0:0:0:0:
320,192,32317,1,0,0:0:0:0:
64,192,32317,128,0,32526:0:0:0:0:
192,192,32526,128,0,32734:0:0:0:0:
320,192,32734,1,0,0:0:0:0:
448,192,32734,128,0,32942:0:0:0:0:
64,192,32942,128,0,33151:0:0:0:0:
192,192,33151,1,0,0:0:0:0:
448,192,33151,128,0,33567:0:0:0:0:
64,192,33359,1,0,0:0:0:0:
192,192,33567,1,0,0:0:0:0:
320,192,33567,128,0,33984:0:0:0:0:
448,192,33776,1,0,0:0:0:0:
64,192,33984,1,0,0:0:0:0:
192,192,33984,128,0,34609:0:0:0:0:
320,192,34192,1,0,0:0:0:0:
64,192,34401,1,0,0:0:0:0:
448,192,34401,1,0,0:0:0:0:
320,192,34609,128,0,34817:0:0:0:0:
448,192,34817,1,0,0:0:0:0:
64,192,34817,128,0,35442:0:0:0:0:
192,192,35026,1,0,0:0:0:0:
320,192,35130,1,0,0:0:0:0:
448,192,35234,1,0,0:0:0:0:
192,192,35234,1,0,0:0:0:0:
448,192,35442,1,0,0:0:0:0:
320,192,35442,1,0,0:0:0:0:
448,192,35651,128,0,36067:0:0:0:0:
64,192,35651,1,0,0:0:0:0:
320,192,35859,1,0,0:0:0:0:
192,192,36067,1,0,0:0:0:0:
64,192,36067,128,0,36484:0:0:0:0:
448,192,36276,1,0,0:0:0:0:
320,192,36484,1,0,0:0:0:0:
192,192,36484,128,0,36901:0:0:0:0:
64,192,36692,1,0,0:0:0:0:
320,192,36901,1,0,0:0:0:0:
448,192,36901,1,0,0:0:0:0:
64,192,37109,128,0,37213:0:0:0:0:
192,192,37213,128,0,37317:0:0:0:0:
448,192,37317,1,0,0:0:0:0:
320,192,37317,128,0,37526:0:0:0:0:
64,192,37526,128,0,37734:0:0:0:0:
448,192,37734,1,0,0:0:0:0:
192,192,37734,128,0,37942:0:0:0:0:
320,192,37942,128,0,38151:0:0:0:0:
64,192,38151,1,0,0:0:0:0:
448,192,38151,128,0,38567:0:0:0:0:
320,192,38359,1,0,0:0:0:0:
64,192,38567,1,0,0:0:0:0:
192,192,38567,1,0,0:0:0:0:
320,192,38776,128,0,38880:0:0:0:0:
448,192,38880,128,0,38984:0:0:0:0:
192,192,38984,1,0,0:0:0:0:
64,192,38984,128,0,39192:0:0:0:0:
320,192,39192,128,0,39401:0:0:0:0:
192,192,39401,1,0,0:0:0:0:
448,192,39401,128,0,39609:0:0:0:0:
64,192,39609,128,0,39817:0:0:0:0:
320,192,39817,1,0,0:0:0:0:
192,192,39817,128,0,40026:0:0:0:0:
448,192,40026,128,0,40234:0:0:0:0:
320,192,40234,1,0,0:0:0:0:
64,192,40234,128,0,40442:0:0:0:0:
192,192,40442,128,0,40651:0:0:0:0:
448,192,40651,1,0,0:0:0:0:
320,192,40651,128,0,41067:0:0:0:0:
192,192,40859,1,0,0:0:0:0:
448,192,41067,1,0,0:0:0:0:
64,192,41067,1,0,0:0:0:0:
192,192,41276,128,0,41484:0:0:0:0:
64,192,41484,1,0,0:0:0:0:
448,192,41484,128,0,41796:0:0:0:0:
192,192,41692,1,0,0:0:0:0:
64,192,41692,1,0,0:0:0:0:
192,192,41796,1,0,0:0:0:0:
64,192,41796,1,0,0:0:0:0:
320,192,41901,1,0,0:0:0:0:
448,192,41901,1,0,0:0:0:0:
192,192,42005,1,0,0:0:0:0:
64,192,42005,1,0,0:0:0:0:
448,192,42109,1,0,0:0:0:0:
320,192,42109,1,0,0:0:0:0:
320,192,42213,1,0,0:0:0:0:
448,192,42213,1,0,0:0:0:0:
192,192,42317,1,0,0:0:0:0:
64,192,42317,128,0,42734:0:0:0:0:
448,192,42317,1,0,0:0:0:0:
320,192,42526,1,0,0:0:0:0:
192,192,42734,128,0,43151:0:0:0:0:
448,192,42734,1,0,0:0:0:0:
320,192,42734,1,0,0:0:0:0:
64,192,42942,1,0,0:0:0:0:
320,192,43151,128,0,43567:0:0:0:0:
448,192,43151,1,0,0:0:0:0:
192,192,43359,1,0,0:0:0:0:
64,192,43567,1,0,0:0:0:0:
448,192,43567,1,0,0:0:0:0:
192,192,43567,1,0,0:0:0:0:
192,192,43776,128,0,43880:0:0:0:0:
320,192,43880,128,0,43984:0:0:0:0:
448,192,43984,128,0,44192:0:0:0:0:
64,192,43984,1,0,0:0:0:0:
320,192,44192,128,0,44401:0:0:0:0:
192,192,44401,128,0,44609:0:0:0:0:
448,192,44401,1,0,0:0:0:0:
64,192,44401,1,0,0:0:0:0:
64,192,44609,128,0,44817:0:0:0:0:
448,192,44817,128,0,45234:0:0:0:0:
320,192,44817,1,0,0:0:0:0:
192,192,45026,1,0,0:0:0:0:
64,192,45234,1,0,0:0:0:0:
192,192,45234,1,0,0:0:0:0:
320,192,45234,1,0,0:0:0:0:
448,192,45442,1,0,0:0:0:0:
320,192,45651,128,0,45859:0:0:0:0:
64,192,45651,1,0,0:0:0:0:
192,192,45859,128,0,46067:0:0:0:0:
64,192,46067,128,0,46276:0:0:0:0:
320,192,46067,1,0,0:0:0:0:
448,192,46067,1,0,0:0:0:0:
448,192,46276,128,0,46484:0:0:0:0:
64,192,46484,128,0,46901:0:0:0:0:
192,192,46484,1,0,0:0:0:0:
320,192,46692,1,0,0:0:0:0:
192,192,46901,128,0,47317:0:0:0:0:
448,192,46901,1,0,0:0:0:0:
320,192,46901,1,0,0:0:0:0:
64,192,47109,1,0,0:0:0:0:
320,192,47317,128,0,47734:0:0:0:0:
448,192,47317,1,0,0:0:0:0:
192,192,47526,1,0,0:0:0:0:
64,192,47734,1,0,0:0:0:0:
192,192,47734,1,0,0:0:0:0:
448,192,47734,1,0,0:0:0:0:
448,192,47942,128,0,48151:0:0:0:0:
64,192,48151,128,0,48567:0:0:0:0:
192,192,48151,1,0,0:0:0:0:
320,192,48359,1,0,0:0:0:0:
320,192,48567,1,0,0:0:0:0:
448,192,48567,1,0,0:0:0:0:
192,192,48567,1,0,0:0:0:0:
64,192,48776,1,0,0:0:0:0:
448,192,48776,1,0,0:0:0:0:
192,192,48776,1,0,0:0:0:0:
320,192,48984,128,0,49401:0:0:0:0:
192,192,48984,1,0,0:0:0:0:
64,192,49192,1,0,0:0:0:0:
192,192,49401,128,0,49817:0:0:0:0:
448,192,49401,1,0,0:0:0:0:
64,192,49401,1,0,0:0:0:0:
320,192,49609,1,0,0:0:0:0:
64,192,49817,128,0,50234:0:0:0:0:
448,192,49817,1,0,0:0:0:0:
192,192,50026,1,0,0:0:0:0:
320,192,50234,1,0,0:0:0:0:
448,192,50234,1,0,0:0:0:0:
192,192,50234,1,0,0:0:0:0:
448,192,50442,128,0,50546:0:0:0:0:
320,192,50546,128,0,50651:0:0:0:0:
192,192,50651,128,0,50859:0:0:0:0:
64,192,50651,1,0,0:0:0:0:
64,192,50859,128,0,51067:0:0:0:0:
192,192,51067,128,0,51276:0:0:0:0:
320,192,51067,1,0,0:0:0:0:
448,192,51067,1,0,0:0:0:0:
320,192,51276,128,0,51484:0:0:0:0:
448,192,51484,128,0,51901:0:0:0:0:
64,192,51484,1,0,0:0:0:0:
192,192,51692,1,0,0:0:0:0:
320,192,51901,1,0,0:0:0:0:
192,192,51901,1,0,0:0:0:0:
64,192,51901,1,0,0:0:0:0:
64,192,52109,128,0,52213:0:0:0:0:
192,192,52213,128,0,52317:0:0:0:0:
320,192,52317,128,0,52526:0:0:0:0:
448,192,52317,1,0,0:0:0:0:
192,192,52526,128,0,52734:0:0:0:0:
64,192,52734,128,0,52942:0:0:0:0:
320,192,52734,1,0,0:0:0:0:
448,192,52734,1,0,0:0:0:0:
192,192,52942,128,0,53151:0:0:0:0:
320,192,53151,128,0,53359:0:0:0:0:
64,192,53151,1,0,0:0:0:0:
448,192,53359,128,0,53567:0:0:0:0:
320,192,53567,128,0,53776:0:0:0:0:
192,192,53567,1,0,0:0:0:0:
64,192,53567,1,0,0:0:0:0:
192,192,53776,128,0,53984:0:0:0:0:
448,192,53984,1,0,0:0:0:0:
64,192,53984,1,0,0:0:0:0:
320,192,54088,1,0,0:0:0:0:
192,192,54192,1,0,0:0:0:0:
64,192,54192,1,0,0:0:0:0:
448,192,54296,1,0,0:0:0:0:
320,192,54401,1,0,0:0:0:0:
192,192,54401,1,0,0:0:0:0:
64,192,54505,1,0,0:0:0:0:
320,192,54609,1,0,0:0:0:0:
448,192,54609,1,0,0:0:0:0:
192,192,54713,1,0,0:0:0:0:
64,192,54817,1,0,0:0:0:0:
448,192,54817,1,0,0:0:0:0:
320,192,54921,1,0,0:0:0:0:
192,192,54921,1,0,0:0:0:0:
64,192,55026,1,0,0:0:0:0:
448,192,55026,1,0,0:0:0:0:
320,192,55130,1,0,0:0:0:0:
192,192,55130,1,0,0:0:0:0:
64,192,55234,1,0,0:0:0:0:
320,192,55234,1,0,0:0:0:0:
448,192,55234,1,0,0:0:0:0:
192,192,55651,1,0,0:0:0:0:
64,192,55651,1,0,0:0:0:0:
320,192,55651,1,0,0:0:0:0:
448,192,55651,1,0,0:0:0:0:
192,192,56067,128,0,56276:0:0:0:0:
320,192,56276,1,0,0:0:0:0:
448,192,56276,1,0,0:0:0:0:
192,192,56380,1,0,0:0:0:0:
64,192,56380,1,0,0:0:0:0:
192,192,56484,1,0,0:0:0:0:
64,192,56484,1,0,0:0:0:0:
448,192,56484,128,0,56796:0:0:0:0:
320,192,56796,128,0,57109:0:0:0:0:
64,192,56901,1,0,0:0:0:0:
192,192,57109,128,0,57317:0:0:0:0:
448,192,57109,1,0,0:0:0:0:
64,192,57317,128,0,57734:0:0:0:0:
320,192,57317,1,0,0:0:0:0:
448,192,57526,1,0,0:0:0:0:
320,192,57734,1,0,0:0:0:0:
192,192,57942,128,0,58151:0:0:0:0:
64,192,57942,128,0,58151:0:0:0:0:
448,192,58151,128,0,58984:0:0:0:0:
320,192,58151,128,0,58359:0:0:0:0:
192,192,58359,1,0,0:0:0:0:
64,192,58359,128,0,58567:0:0:0:0:
320,192,58567,128,0,58776:0:0:0:0:
192,192,58776,128,0,58984:0:0:0:0:
320,192,58984,1,0,0:0:0:0:
64,192,58984,1,0,0:0:0:0:
192,192,59192,1,0,0:0:0:0:
64,192,59401,128,0,59817:0:0:0:0:
448,192,59401,128,0,59609:0:0:0:0:
192,192,59609,128,0,59817:0:0:0:0:
320,192,59817,128,0,60234:0:0:0:0:
448,192,59817,128,0,60234:0:0:0:0:
192,192,60234,128,0,60651:0:0:0:0:
64,192,60234,128,0,60442:0:0:0:0:
320,192,60442,128,0,60651:0:0:0:0:
448,192,60651,1,0,0:0:0:0:
64,192,60651,128,0,61067:0:0:0:0:
320,192,60859,1,0,0:0:0:0:
192,192,61067,128,0,61484:0:0:0:0:
448,192,61276,1,0,0:0:0:0:
320,192,61276,1,0,0:0:0:0:
320,192,61484,128,0,61901:0:0:0:0:
64,192,61484,1,0,0:0:0:0:
448,192,61484,1,0,0:0:0:0:
192,192,61692,1,0,0:0:0:0:
64,192,61692,1,0,0:0:0:0:
448,192,61796,1,0,0:0:0:0:
64,192,61901,1,0,0:0:0:0:
192,192,61901,1,0,0:0:0:0:
320,192,62109,1,0,0:0:0:0:
448,192,62109,1,0,0:0:0:0:
192,192,62213,1,0,0:0:0:0:
64,192,62213,1,0,0:0:0:0:
320,192,62317,1,0,0:0:0:0:
448,192,62317,1,0,0:0:0:0:
64,192,62317,128,0,62734:0:0:0:0:
192,192,62526,1,0,0:0:0:0:
320,192,62526,1,0,0:0:0:0:
448,192,62734,1,0,0:0:0:0:
192,192,62734,1,0,0:0:0:0:
64,192,62942,1,0,0:0:0:0:
320,192,62942,128,0,63046:0:0:0:0:
448,192,63046,128,0,63151:0:0:0:0:
192,192,63151,1,0,0:0:0:0:
64,192,63151,128,0,63359:0:0:0:0:
320,192,63359,128,0,63463:0:0:0:0:
448,192,63359,1,0,0:0:0:0:
192,192,63463,128,0,63567:0:0:0:0:
448,192,63567,128,0,63776:0:0:0:0:
64,192,63567,1,0,0:0:0:0:
192,192,63776,1,0,0:0:0:0:
64,192,63776,1,0,0:0:0:0:
448,192,63828,1,0,0:0:0:0:
320,192,63880,1,0,0:0:0:0:
192,192,63932,1,0,0:0:0:0:
320,192,63984,1,0,0:0:0:0:
448,192,63984,1,0,0:0:0:0:
64,192,63984,128,0,64296:0:0:0:0:
192,192,64192,1,0,0:0:0:0:
320,192,64192,1,0,0:0:0:0:
64,192,64401,1,0,0:0:0:0:
192,192,64401,128,0,64713:0:0:0:0:
320,192,64609,1,0,0:0:0:0:
448,192,64609,1,0,0:0:0:0:
192,192,64817,1,0,0:0:0:0:
448,192,64817,128,0,64921:0:0:0:0:
64,192,65026,1,0,0:0:0:0:
320,192,65026,128,0,65130:0:0:0:0:
448,192,65234,1,0,0:0:0:0:
192,192,65234,128,0,65338:0:0:0:0:
192,192,65442,1,0,0:0:0:0:
64,192,65442,128,0,65651:0:0:0:0:
448,192,65494,1,0,0:0:0:0:
320,192,65546,1,0,0:0:0:0:
192,192,65598,1,0,0:0:0:0:
448,192,65651,1,0,0:0:0:0:
320,192,65651,128,0,65755:0:0:0:0:
192,192,65755,128,0,65859:0:0:0:0:
448,192,65859,1,0,0:0:0:0:
64,192,65859,128,0,65963:0:0:0:0:
320,192,65963,128,0,66067:0:0:0:0:
64,192,66067,1,0,0:0:0:0:
192,192,66067,128,0,66171:0:0:0:0:
448,192,66171,128,0,66276:0:0:0:0:
192,192,66276,1,0,0:0:0:0:
320,192,66276,128,0,66380:0:0:0:0:
64,192,66380,128,0,66484:0:0:0:0:
320,192,66484,5,0,0:0:0:0:
448,192,66484,128,0,66588:0:0:0:0:
64,192,66588,1,0,0:0:0:0:
192,192,66588,128,0,66692:0:0:0:0:
448,192,66692,1,0,0:0:0:0:
320,192,66692,128,0,66796:0:0:0:0:
192,192,66796,1,0,0:0:0:0:
64,192,66796,128,0,66901:0:0:0:0:
320,192,66901,1,0,0:0:0:0:
448,192,66901,1,0,0:0:0:0:
192,192,66953,1,0,0:0:0:0:
64,192,67005,1,0,0:0:0:0:
448,192,67057,1,0,0:0:0:0:
320,192,67109,1,0,0:0:0:0:
192,192,67109,1,0,0:0:0:0:
64,192,67161,1,0,0:0:0:0:
448,192,67213,1,0,0:0:0:0:
320,192,67265,1,0,0:0:0:0:
64,192,67317,128,0,68046:0:0:0:0:
192,192,67317,128,0,67630:0:0:0:0:
192,192,67734,128,0,68463:0:0:0:0:
320,192,67734,128,0,68046:0:0:0:0:
448,192,67734,128,0,68046:0:0:0:0:
320,192,68151,128,0,68880:0:0:0:0:
64,192,68151,128,0,68463:0:0:0:0:
448,192,68151,128,0,68463:0:0:0:0:
448,192,68567,128,0,68880:0:0:0:0:
192,192,68567,128,0,68880:0:0:0:0:
64,192,68567,128,0,68880:0:0:0:0:
64,192,68984,1,0,0:0:0:0:
448,192,68984,1,0,0:0:0:0:
320,192,69192,1,0,0:0:0:0:
192,192,69296,1,0,0:0:0:0:
64,192,69401,1,0,0:0:0:0:
448,192,69401,1,0,0:0:0:0:
320,192,69609,1,0,0:0:0:0:
192,192,69713,1,0,0:0:0:0:
448,192,69817,1,0,0:0:0:0:
64,192,69921,1,0,0:0:0:0:
320,192,70026,1,0,0:0:0:0:
192,192,70130,1,0,0:0:0:0:
64,192,70234,5,0,0:0:0:0:
320,192,70234,1,0,0:0:0:0:
448,192,70234,1,0,0:0:0:0:
448,192,70651,128,0,71067:0:0:0:0:
64,192,70651,1,0,0:0:0:0:
192,192,70651,1,0,0:0:0:0:
320,192,70755,1,0,0:0:0:0:
64,192,70859,1,0,0:0:0:0:
192,192,70963,1,0,0:0:0:0:
64,192,71067,1,0,0:0:0:0:
320,192,71067,1,0,0:0:0:0:
192,192,71171,1,0,0:0:0:0:
320,192,71276,128,0,71380:0:0:0:0:
192,192,71380,128,0,71484:0:0:0:0:
64,192,71484,128,0,71692:0:0:0:0:
448,192,71484,1,0,0:0:0:0:
320,192,71588,1,0,0:0:0:0:
192,192,71692,128,0,71901:0:0:0:0:
448,192,71796,1,0,0:0:0:0:
320,192,71901,128,0,72109:0:0:0:0:
64,192,71901,1,0,0:0:0:0:
192,192,72005,1,0,0:0:0:0:
448,192,72109,128,0,72317:0:0:0:0:
320,192,72213,1,0,0:0:0:0:
64,192,72317,128,0,72734:0:0:0:0:
192,192,72317,1,0,0:0:0:0:
448,192,72421,1,0,0:0:0:0:
320,192,72526,1,0,0:0:0:0:
192,192,72630,1,0,0:0:0:0:
320,192,72734,1,0,0:0:0:0:
448,192,72734,1,0,0:0:0:0:
64,192,72838,1,0,0:0:0:0:
192,192,72942,128,0,73046:0:0:0:0:
320,192,73046,128,0,73151:0:0:0:0:
448,192,73151,128,0,73567:0:0:0:0:
64,192,73151,1,0,0:0:0:0:
192,192,73255,1,0,0:0:0:0:
320,192,73359,1,0,0:0:0:0:
64,192,73463,1,0,0:0:0:0:
192,192,73567,1,0,0:0:0:0:
320,192,73567,1,0,0:0:0:0:
448,192,73671,1,0,0:0:0:0:
64,192,73776,1,0,0:0:0:0:
192,192,73880,1,0,0:0:0:0:
448,192,73984,1,0,0:0:0:0:
320,192,73984,128,0,74192:0:0:0:0:
64,192,74088,1,0,0:0:0:0:
448,192,74192,1,0,0:0:0:0:
192,192,74296,128,0,74505:0:0:0:0:
64,192,74401,1,0,0:0:0:0:
320,192,74401,1,0,0:0:0:0:
448,192,74505,1,0,0:0:0:0:
64,192,74609,128,0,74817:0:0:0:0:
192,192,74713,1,0,0:0:0:0:
448,192,74817,128,0,75130:0:0:0:0:
320,192,74817,1,0,0:0:0:0:
64,192,74921,1,0,0:0:0:0:
192,192,75026,1,0,0:0:0:0:
64,192,75130,1,0,0:0:0:0:
320,192,75234,128,0,75546:0:0:0:0:
448,192,75234,1,0,0:0:0:0:
192,192,75338,1,0,0:0:0:0:
64,192,75442,1,0,0:0:0:0:
448,192,75546,1,0,0:0:0:0:
192,192,75651,128,0,76067:0:0:0:0:
64,192,75651,1,0,0:0:0:0:
320,192,75755,1,0,0:0:0:0:
448,192,75859,1,0,0:0:0:0:
64,192,75963,1,0,0:0:0:0:
320,192,76067,1,0,0:0:0:0:
448,192,76067,1,0,0:0:0:0:
192,192,76171,1,0,0:0:0:0:
64,192,76276,128,0,76328:0:0:0:0:
64,192,76380,128,0,76484:0:0:0:0:
448,192,76484,128,0,76901:0:0:0:0:
320,192,76484,1,0,0:0:0:0:
192,192,76588,1,0,0:0:0:0:
64,192,76588,1,0,0:0:0:0:
192,192,76692,1,0,0:0:0:0:
64,192,76692,1,0,0:0:0:0:
320,192,76796,1,0,0:0:0:0:
192,192,76901,1,0,0:0:0:0:
64,192,76901,1,0,0:0:0:0:
320,192,77005,1,0,0:0:0:0:
448,192,77109,1,0,0:0:0:0:
64,192,77109,1,0,0:0:0:0:
192,192,77213,1,0,0:0:0:0:
320,192,77213,1,0,0:0:0:0:
448,192,77317,1,0,0:0:0:0:
320,192,77317,128,0,77734:0:0:0:0:
64,192,77317,1,0,0:0:0:0:
192,192,77421,1,0,0:0:0:0:
448,192,77526,1,0,0:0:0:0:
64,192,77630,1,0,0:0:0:0:
192,192,77734,1,0,0:0:0:0:
448,192,77734,1,0,0:0:0:0:
320,192,77838,1,0,0:0:0:0:
64,192,77942,128,0,78046:0:0:0:0:
192,192,78046,128,0,78151:0:0:0:0:
320,192,78151,128,0,78359:0:0:0:0:
448,192,78151,1,0,0:0:0:0:
64,192,78255,1,0,0:0:0:0:
448,192,78359,128,0,78567:0:0:0:0:
192,192,78463,1,0,0:0:0:0:
320,192,78567,128,0,78776:0:0:0:0:
64,192,78567,1,0,0:0:0:0:
448,192,78671,1,0,0:0:0:0:
192,192,78776,128,0,78984:0:0:0:0:
320,192,78880,1,0,0:0:0:0:
64,192,78984,128,0,79401:0:0:0:0:
448,192,78984,1,0,0:0:0:0:
192,192,79088,1,0,0:0:0:0:
320,192,79192,1,0,0:0:0:0:
192,192,79296,1,0,0:0:0:0:
448,192,79401,1,0,0:0:0:0:
320,192,79401,1,0,0:0:0:0:
64,192,79505,1,0,0:0:0:0:
448,192,79609,128,0,79713:0:0:0:0:
320,192,79713,128,0,79817:0:0:0:0:
192,192,79817,128,0,80234:0:0:0:0:
64,192,79817,1,0,0:0:0:0:
448,192,79921,1,0,0:0:0:0:
320,192,80026,1,0,0:0:0:0:
64,192,80130,1,0,0:0:0:0:
320,192,80234,1,0,0:0:0:0:
448,192,80234,1,0,0:0:0:0:
64,192,80338,1,0,0:0:0:0:
320,192,80442,128,0,80546:0:0:0:0:
192,192,80546,128,0,80651:0:0:0:0:
64,192,80651,128,0,80859:0:0:0:0:
320,192,80651,1,0,0:0:0:0:
448,192,80651,1,0,0:0:0:0:
192,192,80755,1,0,0:0:0:0:
448,192,80859,128,0,81067:0:0:0:0:
64,192,80963,1,0,0:0:0:0:
320,192,81067,128,0,81276:0:0:0:0:
192,192,81067,1,0,0:0:0:0:
448,192,81171,5,0,0:0:0:0:
192,192,81276,128,0,81484:0:0:0:0:
320,192,81380,1,0,0:0:0:0:
64,192,81484,128,0,81901:0:0:0:0:
448,192,81484,1,0,0:0:0:0:
192,192,81588,1,0,0:0:0:0:
320,192,81692,1,0,0:0:0:0:
192,192,81796,1,0,0:0:0:0:
320,192,81901,128,0,82109:0:0:0:0:
448,192,81901,1,0,0:0:0:0:
64,192,82005,1,0,0:0:0:0:
192,192,82109,1,0,0:0:0:0:
320,192,82213,1,0,0:0:0:0:
64,192,82317,5,0,0:0:0:0:
448,192,82317,1,0,0:0:0:0:
192,192,82317,1,0,0:0:0:0:
320,192,82421,1,0,0:0:0:0:
64,192,82526,1,0,0:0:0:0:
192,192,82630,1,0,0:0:0:0:
320,192,82734,1,0,0:0:0:0:
448,192,82734,1,0,0:0:0:0:
64,192,82734,1,0,0:0:0:0:
192,192,82838,1,0,0:0:0:0:
320,192,82942,1,0,0:0:0:0:
64,192,83046,1,0,0:0:0:0:
192,192,83046,1,0,0:0:0:0:
320,192,83151,1,0,0:0:0:0:
448,192,83151,1,0,0:0:0:0:
192,192,83255,1,0,0:0:0:0:
64,192,83359,1,0,0:0:0:0:
448,192,83359,1,0,0:0:0:0:
320,192,83463,1,0,0:0:0:0:
448,192,83567,1,0,0:0:0:0:
192,192,83567,1,0,0:0:0:0:
64,192,83567,1,0,0:0:0:0:
320,192,83671,1,0,0:0:0:0:
192,192,83776,1,0,0:0:0:0:
64,192,83776,1,0,0:0:0:0:
320,192,83880,1,0,0:0:0:0:
448,192,83880,1,0,0:0:0:0:
448,192,83984,128,0,84401:0:0:0:0:
192,192,83984,128,0,84088:0:0:0:0:
64,192,83984,128,0,84088:0:0:0:0:
320,192,84088,128,0,84192:0:0:0:0:
64,192,84192,128,0,84296:0:0:0:0:
192,192,84296,128,0,84401:0:0:0:0:
320,192,84401,128,0,84505:0:0:0:0:
64,192,84401,128,0,84505:0:0:0:0:
448,192,84505,128,0,84609:0:0:0:0:
64,192,84609,128,0,84817:0:0:0:0:
192,192,84609,128,0,84713:0:0:0:0:
320,192,84713,128,0,84817:0:0:0:0:
448,192,84817,128,0,85234:0:0:0:0:
192,192,84817,128,0,84921:0:0:0:0:
64,192,84921,128,0,85026:0:0:0:0:
320,192,85026,128,0,85130:0:0:0:0:
192,192,85130,128,0,85234:0:0:0:0:
64,192,85234,128,0,85338:0:0:0:0:
320,192,85234,128,0,85338:0:0:0:0:
448,192,85338,128,0,85442:0:0:0:0:
320,192,85442,128,0,85546:0:0:0:0:
192,192,85442,128,0,85546:0:0:0:0:
64,192,85546,128,0,85651:0:0:0:0:
320,192,85651,128,0,85859:0:0:0:0:
448,192,85651,128,0,85755:0:0:0:0:
192,192,85755,128,0,85859:0:0:0:0:
64,192,85859,128,0,85963:0:0:0:0:
192,192,85963,128,0,86171:0:0:0:0:
448,192,85963,128,0,86067:0:0:0:0:
320,192,86067,128,0,86171:0:0:0:0:
64,192,86067,128,0,86171:0:0:0:0:
448,192,86171,128,0,86276:0:0:0:0:
64,192,86276,128,0,86484:0:0:0:0:
320,192,86276,128,0,86380:0:0:0:0:
192,192,86380,128,0,86484:0:0:0:0:
320,192,86484,128,0,86796:0:0:0:0:
448,192,86484,128,0,86692:0:0:0:0:
192,192,86588,128,0,86796:0:0:0:0:
64,192,86692,128,0,86796:0:0:0:0:
448,192,86796,128,0,86901:0:0:0:0:
320,192,86901,128,0,87005:0:0:0:0:
192,192,86901,128,0,87109:0:0:0:0:
64,192,86901,128,0,87213:0:0:0:0:
448,192,87005,128,0,87213:0:0:0:0:
320,192,87109,128,0,87317:0:0:0:0:
192,192,87213,128,0,87317:0:0:0:0:
448,192,87317,128,0,87526:0:0:0:0:
64,192,87317,128,0,87421:0:0:0:0:
192,192,87421,128,0,87526:0:0:0:0:
320,192,87526,128,0,87734:0:0:0:0:
64,192,87526,128,0,87630:0:0:0:0:
448,192,87630,128,0,87734:0:0:0:0:
192,192,87734,128,0,87942:0:0:0:0:
64,192,87734,128,0,87838:0:0:0:0:
320,192,87838,128,0,87942:0:0:0:0:
64,192,87942,128,0,88151:0:0:0:0:
448,192,87942,128,0,88046:0:0:0:0:
320,192,88046,128,0,88151:0:0:0:0:
192,192,88151,128,0,88359:0:0:0:0:
448,192,88151,128,0,88255:0:0:0:0:
64,192,88255,128,0,88359:0:0:0:0:
320,192,88359,128,0,88567:0:0:0:0:
448,192,88359,128,0,88463:0:0:0:0:
192,192,88463,128,0,88567:0:0:0:0:
448,192,88567,128,0,88776:0:0:0:0:
64,192,88567,128,0,88671:0:0:0:0:
320,192,88671,128,0,88776:0:0:0:0:
64,192,88776,128,0,88984:0:0:0:0:
192,192,88776,128,0,88880:0:0:0:0:
320,192,88880,128,0,88984:0:0:0:0:
448,192,88984,128,0,89401:0:0:0:0:
192,192,88984,128,0,89088:0:0:0:0:
64,192,89088,128,0,89192:0:0:0:0:
320,192,89192,128,0,89296:0:0:0:0:
192,192,89296,128,0,89401:0:0:0:0:
64,192,89401,128,0,89505:0:0:0:0:
320,192,89401,128,0,89505:0:0:0:0:
448,192,89505,128,0,89609:0:0:0:0:
192,192,89609,128,0,89713:0:0:0:0:
64,192,89609,128,0,89713:0:0:0:0:
320,192,89713,128,0,89817:0:0:0:0:
64,192,89817,128,0,90338:0:0:0:0:
448,192,89817,128,0,90026:0:0:0:0:
192,192,89817,128,0,89921:0:0:0:0:
320,192,89921,128,0,90026:0:0:0:0:
192,192,90026,128,0,90234:0:0:0:0:
320,192,90130,1,0,0:0:0:0:
448,192,90130,1,0,0:0:0:0:
320,192,90234,128,0,90442:0:0:0:0:
448,192,90234,128,0,90338:0:0:0:0:
192,192,90338,128,0,90442:0:0:0:0:
448,192,90442,1,0,0:0:0:0:
64,192,90442,1,0,0:0:0:0:
320,192,90546,1,0,0:0:0:0:
192,192,90546,1,0,0:0:0:0:
320,192,90651,1,0,0:0:0:0:
64,192,90651,1,0,0:0:0:0:
448,192,90651,1,0,0:0:0:0:
192,192,90755,1,0,0:0:0:0:
320,192,90859,1,0,0:0:0:0:
448,192,90859,1,0,0:0:0:0:
64,192,90963,1,0,0:0:0:0:
192,192,91067,1,0,0:0:0:0:
320,192,91067,1,0,0:0:0:0:
448,192,91067,1,0,0:0:0:0:
64,192,91171,1,0,0:0:0:0:
192,192,91276,1,0,0:0:0:0:
320,192,91276,1,0,0:0:0:0:
448,192,91380,1,0,0:0:0:0:
320,192,91484,1,0,0:0:0:0:
192,192,91484,1,0,0:0:0:0:
64,192,91484,1,0,0:0:0:0:
448,192,91588,1,0,0:0:0:0:
64,192,91692,1,0,0:0:0:0:
192,192,91692,1,0,0:0:0:0:
320,192,91796,1,0,0:0:0:0:
448,192,91901,1,0,0:0:0:0:
64,192,91901,1,0,0:0:0:0:
192,192,91901,1,0,0:0:0:0:
320,192,92005,1,0,0:0:0:0:
448,192,92109,1,0,0:0:0:0:
64,192,92109,1,0,0:0:0:0:
192,192,92213,1,0,0:0:0:0:
320,192,92317,1,0,0:0:0:0:
448,192,92317,1,0,0:0:0:0:
64,192,92317,1,0,0:0:0:0:
192,192,92421,1,0,0:0:0:0:
64,192,92526,1,0,0:0:0:0:
448,192,92526,1,0,0:0:0:0:
320,192,92630,1,0,0:0:0:0:
192,192,92734,1,0,0:0:0:0:
64,192,92734,1,0,0:0:0:0:
448,192,92734,1,0,0:0:0:0:
320,192,92838,1,0,0:0:0:0:
192,192,92942,1,0,0:0:0:0:
64,192,92942,1,0,0:0:0:0:
448,192,93046,1,0,0:0:0:0:
320,192,93151,1,0,0:0:0:0:
192,192,93151,1,0,0:0:0:0:
64,192,93151,1,0,0:0:0:0:
448,192,93255,1,0,0:0:0:0:
320,192,93359,1,0,0:0:0:0:
192,192,93359,1,0,0:0:0:0:
64,192,93463,1,0,0:0:0:0:
320,192,93567,1,0,0:0:0:0:
448,192,93567,1,0,0:0:0:0:
192,192,93567,1,0,0:0:0:0:
64,192,93671,1,0,0:0:0:0:
320,192,93776,1,0,0:0:0:0:
448,192,93776,1,0,0:0:0:0:
64,192,93828,1,0,0:0:0:0:
192,192,93880,1,0,0:0:0:0:
320,192,93932,1,0,0:0:0:0:
448,192,93984,1,0,0:0:0:0:
64,192,93984,1,0,0:0:0:0:
192,192,93984,1,0,0:0:0:0:
320,192,94088,1,0,0:0:0:0:
64,192,94192,1,0,0:0:0:0:
192,192,94296,1,0,0:0:0:0:
448,192,94296,1,0,0:0:0:0:
320,192,94401,1,0,0:0:0:0:
64,192,94505,1,0,0:0:0:0:
448,192,94609,1,0,0:0:0:0:
320,192,94609,1,0,0:0:0:0:
192,192,94713,1,0,0:0:0:0:
448,192,94817,1,0,0:0:0:0:
320,192,94817,1,0,0:0:0:0:
64,192,94817,1,0,0:0:0:0:
192,192,94921,1,0,0:0:0:0:
448,192,95026,1,0,0:0:0:0:
320,192,95130,1,0,0:0:0:0:
64,192,95130,1,0,0:0:0:0:
192,192,95234,1,0,0:0:0:0:
320,192,95338,1,0,0:0:0:0:
64,192,95442,1,0,0:0:0:0:
192,192,95442,1,0,0:0:0:0:
448,192,95494,1,0,0:0:0:0:
320,192,95546,1,0,0:0:0:0:
192,192,95598,1,0,0:0:0:0:
64,192,95651,1,0,0:0:0:0:
448,192,95651,1,0,0:0:0:0:
320,192,95651,1,0,0:0:0:0:
192,192,95703,1,0,0:0:0:0:
448,192,95755,1,0,0:0:0:0:
320,192,95807,1,0,0:0:0:0:
192,192,95859,1,0,0:0:0:0:
64,192,95911,1,0,0:0:0:0:
448,192,95963,1,0,0:0:0:0:
320,192,96015,1,0,0:0:0:0:
64,192,96067,1,0,0:0:0:0:
192,192,96119,1,0,0:0:0:0:
320,192,96171,1,0,0:0:0:0:
448,192,96223,1,0,0:0:0:0:
192,192,96276,1,0,0:0:0:0:
320,192,96328,1,0,0:0:0:0:
64,192,96380,1,0,0:0:0:0:
192,192,96432,1,0,0:0:0:0:
320,192,96484,1,0,0:0:0:0:
448,192,96536,1,0,0:0:0:0:
192,192,96588,1,0,0:0:0:0:
64,192,96640,1,0,0:0:0:0:
448,192,96692,1,0,0:0:0:0:
320,192,96744,1,0,0:0:0:0:
192,192,96796,1,0,0:0:0:0:
64,192,96848,1,0,0:0:0:0:
320,192,96901,1,0,0:0:0:0:
448,192,96901,1,0,0:0:0:0:
64,192,97005,1,0,0:0:0:0:
192,192,97005,1,0,0:0:0:0:
320,192,97109,1,0,0:0:0:0:
448,192,97109,1,0,0:0:0:0:
192,192,97213,1,0,0:0:0:0:
320,192,97317,1,0,0:0:0:0:
64,192,97317,1,0,0:0:0:0:
448,192,97317,128,0,97734:0:0:0:0:
192,192,97421,1,0,0:0:0:0:
64,192,97526,1,0,0:0:0:0:
320,192,97630,1,0,0:0:0:0:
64,192,97734,1,0,0:0:0:0:
192,192,97734,1,0,0:0:0:0:
448,192,97838,1,0,0:0:0:0:
192,192,97942,1,0,0:0:0:0:
320,192,98046,1,0,0:0:0:0:
448,192,98151,1,0,0:0:0:0:
64,192,98151,1,0,0:0:0:0:
192,192,98255,1,0,0:0:0:0:
320,192,98359,128,0,98567:0:0:0:0:
64,192,98463,1,0,0:0:0:0:
192,192,98567,128,0,98776:0:0:0:0:
448,192,98567,1,0,0:0:0:0:
320,192,98671,1,0,0:0:0:0:
64,192,98776,128,0,98984:0:0:0:0:
192,192,98880,1,0,0:0:0:0:
448,192,98984,128,0,99817:0:0:0:0:
320,192,98984,1,0,0:0:0:0:
64,192,99088,1,0,0:0:0:0:
192,192,99192,1,0,0:0:0:0:
320,192,99296,1,0,0:0:0:0:
192,192,99401,1,0,0:0:0:0:
64,192,99401,1,0,0:0:0:0:
320,192,99505,1,0,0:0:0:0:
64,192,99609,1,0,0:0:0:0:
192,192,99713,1,0,0:0:0:0:
320,192,99817,128,0,100651:0:0:0:0:
64,192,99817,1,0,0:0:0:0:
448,192,99921,1,0,0:0:0:0:
64,192,100026,1,0,0:0:0:0:
192,192,100130,1,0,0:0:0:0:
448,192,100234,1,0,0:0:0:0:
64,192,100234,1,0,0:0:0:0:
192,192,100338,1,0,0:0:0:0:
448,192,100442,1,0,0:0:0:0:
64,192,100546,1,0,0:0:0:0:
192,192,100651,128,0,101484:0:0:0:0:
448,192,100651,1,0,0:0:0:0:
320,192,100755,1,0,0:0:0:0:
64,192,100859,1,0,0:0:0:0:
448,192,100963,1,0,0:0:0:0:
320,192,101067,1,0,0:0:0:0:
64,192,101067,1,0,0:0:0:0:
448,192,101171,1,0,0:0:0:0:
64,192,101276,1,0,0:0:0:0:
320,192,101380,1,0,0:0:0:0:
64,192,101484,128,0,102317:0:0:0:0:
448,192,101484,1,0,0:0:0:0:
192,192,101588,1,0,0:0:0:0:
320,192,101692,1,0,0:0:0:0:
448,192,101796,1,0,0:0:0:0:
192,192,101901,1,0,0:0:0:0:
320,192,101901,1,0,0:0:0:0:
448,192,102005,1,0,0:0:0:0:
192,192,102109,1,0,0:0:0:0:
320,192,102213,1,0,0:0:0:0:
192,192,102317,128,0,103151:0:0:0:0:
448,192,102317,1,0,0:0:0:0:
64,192,102421,1,0,0:0:0:0:
320,192,102526,1,0,0:0:0:0:
448,192,102630,1,0,0:0:0:0:
320,192,102734,1,0,0:0:0:0:
64,192,102734,1,0,0:0:0:0:
448,192,102838,1,0,0:0:0:0:
320,192,102942,1,0,0:0:0:0:
64,192,103046,1,0,0:0:0:0:
320,192,103151,128,0,103984:0:0:0:0:
448,192,103151,1,0,0:0:0:0:
192,192,103255,1,0,0:0:0:0:
64,192,103359,1,0,0:0:0:0:
448,192,103463,1,0,0:0:0:0:
192,192,103567,1,0,0:0:0:0:
64,192,103567,1,0,0:0:0:0:
448,192,103671,1,0,0:0:0:0:
192,192,103776,1,0,0:0:0:0:
64,192,103776,1,0,0:0:0:0:
448,192,103880,1,0,0:0:0:0:
64,192,103984,128,0,104817:0:0:0:0:
192,192,103984,1,0,0:0:0:0:
320,192,104088,1,0,0:0:0:0:
448,192,104192,1,0,0:0:0:0:
192,192,104296,1,0,0:0:0:0:
320,192,104401,1,0,0:0:0:0:
448,192,104401,1,0,0:0:0:0:
192,192,104505,1,0,0:0:0:0:
448,192,104609,1,0,0:0:0:0:
320,192,104713,1,0,0:0:0:0:
192,192,104817,1,0,0:0:0:0:
448,192,104817,1,0,0:0:0:0:
64,192,104921,1,0,0:0:0:0:
320,192,105026,128,0,105234:0:0:0:0:
448,192,105130,1,0,0:0:0:0:
192,192,105234,128,0,105442:0:0:0:0:
64,192,105234,1,0,0:0:0:0:
320,192,105338,1,0,0:0:0:0:
64,192,105442,128,0,105651:0:0:0:0:
192,192,105546,1,0,0:0:0:0:
448,192,105651,128,0,106484:0:0:0:0:
320,192,105651,1,0,0:0:0:0:
64,192,105755,1,0,0:0:0:0:
192,192,105859,1,0,0:0:0:0:
320,192,105963,1,0,0:0:0:0:
192,192,106067,1,0,0:0:0:0:
64,192,106067,1,0,0:0:0:0:
320,192,106171,1,0,0:0:0:0:
64,192,106276,1,0,0:0:0:0:
192,192,106380,1,0,0:0:0:0:
320,192,106484,128,0,107317:0:0:0:0:
64,192,106484,1,0,0:0:0:0:
192,192,106588,1,0,0:0:0:0:
448,192,106692,1,0,0:0:0:0:
64,192,106796,1,0,0:0:0:0:
192,192,106901,1,0,0:0:0:0:
448,192,106901,1,0,0:0:0:0:
64,192,107005,1,0,0:0:0:0:
192,192,107109,1,0,0:0:0:0:
448,192,107213,1,0,0:0:0:0:
192,192,107317,128,0,108046:0:0:0:0:
64,192,107317,1,0,0:0:0:0:
320,192,107421,1,0,0:0:0:0:
448,192,107526,1,0,0:0:0:0:
64,192,107630,1,0,0:0:0:0:
320,192,107734,1,0,0:0:0:0:
448,192,107734,1,0,0:0:0:0:
64,192,107838,1,0,0:0:0:0:
320,192,107942,128,0,108046:0:0:0:0:
64,192,108046,128,0,108151:0:0:0:0:
448,192,108151,128,0,108463:0:0:0:0:
320,192,108151,1,0,0:0:0:0:
64,192,108255,1,0,0:0:0:0:
192,192,108359,1,0,0:0:0:0:
320,192,108463,128,0,108776:0:0:0:0:
192,192,108567,1,0,0:0:0:0:
64,192,108567,1,0,0:0:0:0:
448,192,108671,1,0,0:0:0:0:
192,192,108776,128,0,108984:0:0:0:0:
320,192,108880,1,0,0:0:0:0:
64,192,108984,128,0,109609:0:0:0:0:
448,192,108984,1,0,0:0:0:0:
320,192,109192,1,0,0:0:0:0:
448,192,109192,1,0,0:0:0:0:
320,192,109401,1,0,0:0:0:0:
192,192,109401,1,0,0:0:0:0:
448,192,109609,1,0,0:0:0:0:
192,192,109609,128,0,109713:0:0:0:0:
320,192,109713,128,0,109817:0:0:0:0:
64,192,109817,1,0,0:0:0:0:
448,192,109817,1,0,0:0:0:0:
320,192,109921,1,0,0:0:0:0:
192,192,109921,1,0,0:0:0:0:
64,192,110026,1,0,0:0:0:0:
448,192,110026,1,0,0:0:0:0:
320,192,110130,1,0,0:0:0:0:
192,192,110130,1,0,0:0:0:0:
64,192,110234,1,0,0:0:0:0:
448,192,110234,1,0,0:0:0:0:
320,192,110338,1,0,0:0:0:0:
192,192,110338,1,0,0:0:0:0:
64,192,110442,1,0,0:0:0:0:
448,192,110442,1,0,0:0:0:0:
320,192,110546,1,0,0:0:0:0:
192,192,110546,1,0,0:0:0:0:
64,192,110651,1,0,0:0:0:0:
448,192,110651,1,0,0:0:0:0:
320,192,110651,128,0,111067:0:0:0:0:
192,192,110859,1,0,0:0:0:0:
64,192,111067,128,0,111484:0:0:0:0:
448,192,111067,1,0,0:0:0:0:
320,192,111276,1,0,0:0:0:0:
192,192,111484,128,0,111901:0:0:0:0:
64,192,111692,1,0,0:0:0:0:
448,192,111901,1,0,0:0:0:0:
320,192,111901,1,0,0:0:0:0:
64,192,112109,128,0,112213:0:0:0:0:
192,192,112213,128,0,112317:0:0:0:0:
320,192,112317,128,0,112526:0:0:0:0:
448,192,112526,128,0,112734:0:0:0:0:
320,192,112734,128,0,112942:0:0:0:0:
64,192,112734,1,0,0:0:0:0:
192,192,112942,128,0,113151:0:0:0:0:
64,192,113151,128,0,113567:0:0:0:0:
192,192,113359,1,0,0:0:0:0:
448,192,113567,1,0,0:0:0:0:
320,192,113567,1,0,0:0:0:0:
64,192,113776,1,0,0:0:0:0:
448,192,113984,128,0,114192:0:0:0:0:
320,192,114192,128,0,114401:0:0:0:0:
192,192,114401,128,0,114609:0:0:0:0:
448,192,114401,1,0,0:0:0:0:
64,192,114609,128,0,114817:0:0:0:0:
192,192,114817,128,0,115234:0:0:0:0:
64,192,115026,1,0,0:0:0:0:
320,192,115234,128,0,115651:0:0:0:0:
448,192,115234,1,0,0:0:0:0:
192,192,115442,1,0,0:0:0:0:
448,192,115651,128,0,116276:0:0:0:0:
320,192,115859,1,0,0:0:0:0:
64,192,116067,1,0,0:0:0:0:
192,192,116067,1,0,0:0:0:0:
320,192,116276,128,0,116484:0:0:0:0:
192,192,116484,128,0,117109:0:0:0:0:
320,192,116692,1,0,0:0:0:0:
64,192,116796,1,0,0:0:0:0:
320,192,116901,1,0,0:0:0:0:
448,192,116901,1,0,0:0:0:0:
64,192,117109,1,0,0:0:0:0:
448,192,117109,1,0,0:0:0:0:
192,192,117213,1,0,0:0:0:0:
320,192,117213,1,0,0:0:0:0:
64,192,117317,128,0,117734:0:0:0:0:
448,192,117317,1,0,0:0:0:0:
320,192,117526,1,0,0:0:0:0:
192,192,117734,128,0,118151:0:0:0:0:
448,192,117734,1,0,0:0:0:0:
320,192,117734,1,0,0:0:0:0:
64,192,117942,1,0,0:0:0:0:
320,192,118151,128,0,118567:0:0:0:0:
448,192,118151,1,0,0:0:0:0:
192,192,118359,1,0,0:0:0:0:
64,192,118567,1,0,0:0:0:0:
448,192,118567,1,0,0:0:0:0:
192,192,118567,1,0,0:0:0:0:
448,192,118776,128,0,118880:0:0:0:0:
320,192,118880,128,0,118984:0:0:0:0:
192,192,118984,128,0,119192:0:0:0:0:
64,192,118984,1,0,0:0:0:0:
64,192,119192,128,0,119401:0:0:0:0:
192,192,119401,128,0,119609:0:0:0:0:
320,192,119401,1,0,0:0:0:0:
448,192,119401,1,0,0:0:0:0:
320,192,119609,128,0,119817:0:0:0:0:
448,192,119817,128,0,120234:0:0:0:0:
64,192,119817,1,0,0:0:0:0:
192,192,120026,1,0,0:0:0:0:
320,192,120234,1,0,0:0:0:0:
192,192,120234,1,0,0:0:0:0:
64,192,120234,1,0,0:0:0:0:
64,192,120442,128,0,120546:0:0:0:0:
192,192,120546,128,0,120651:0:0:0:0:
320,192,120651,128,0,120859:0:0:0:0:
448,192,120651,1,0,0:0:0:0:
192,192,120859,128,0,121067:0:0:0:0:
64,192,121067,128,0,121276:0:0:0:0:
320,192,121067,1,0,0:0:0:0:
448,192,121067,1,0,0:0:0:0:
192,192,121276,128,0,121484:0:0:0:0:
320,192,121484,128,0,121692:0:0:0:0:
64,192,121484,1,0,0:0:0:0:
448,192,121692,128,0,121901:0:0:0:0:
320,192,121901,128,0,122109:0:0:0:0:
192,192,121901,1,0,0:0:0:0:
64,192,121901,1,0,0:0:0:0:
192,192,122109,128,0,122317:0:0:0:0:
448,192,122317,1,0,0:0:0:0:
64,192,122317,1,0,0:0:0:0:
320,192,122421,1,0,0:0:0:0:
192,192,122526,1,0,0:0:0:0:
64,192,122526,1,0,0:0:0:0:
448,192,122630,1,0,0:0:0:0:
320,192,122734,1,0,0:0:0:0:
192,192,122734,1,0,0:0:0:0:
64,192,122838,1,0,0:0:0:0:
320,192,122942,1,0,0:0:0:0:
448,192,122942,1,0,0:0:0:0:
192,192,123046,1,0,0:0:0:0:
64,192,123151,1,0,0:0:0:0:
448,192,123151,1,0,0:0:0:0:
320,192,123255,1,0,0:0:0:0:
192,192,123255,1,0,0:0:0:0:
64,192,123359,1,0,0:0:0:0:
448,192,123359,1,0,0:0:0:0:
320,192,123463,1,0,0:0:0:0:
192,192,123463,1,0,0:0:0:0:
64,192,123567,1,0,0:0:0:0:
320,192,123567,1,0,0:0:0:0:
448,192,123567,1,0,0:0:0:0:
64,192,123984,1,0,0:0:0:0:
448,192,123984,1,0,0:0:0:0:
320,192,123984,128,0,124192:0:0:0:0:
192,192,124192,128,0,124401:0:0:0:0:
64,192,124401,128,0,124609:0:0:0:0:
448,192,124401,1,0,0:0:0:0:
320,192,124401,1,0,0:0:0:0:
192,192,124609,128,0,124817:0:0:0:0:
320,192,124817,128,0,125026:0:0:0:0:
448,192,124817,1,0,0:0:0:0:
64,192,125026,128,0,125095:0:0:0:0:
192,192,125095,128,0,125164:0:0:0:0:
320,192,125164,128,0,125234:0:0:0:0:
64,192,125234,1,0,0:0:0:0:
192,192,125234,1,0,0:0:0:0:
448,192,125234,128,0,125442:0:0:0:0:
320,192,125442,128,0,125651:0:0:0:0:
192,192,125651,128,0,125859:0:0:0:0:
448,192,125651,1,0,0:0:0:0:
64,192,125859,128,0,126067:0:0:0:0:
192,192,126067,128,0,126276:0:0:0:0:
320,192,126067,1,0,0:0:0:0:
448,192,126067,1,0,0:0:0:0:
448,192,126276,128,0,126345:0:0:0:0:
320,192,126345,128,0,126414:0:0:0:0:
192,192,126414,128,0,126484:0:0:0:0:
64,192,126484,1,0,0:0:0:0:
320,192,126484,128,0,126901:0:0:0:0:
448,192,126692,1,0,0:0:0:0:
64,192,126901,128,0,127005:0:0:0:0:
448,192,126901,1,0,0:0:0:0:
192,192,126901,1,0,0:0:0:0:
192,192,127005,128,0,127109:0:0:0:0:
320,192,127109,128,0,127213:0:0:0:0:
448,192,127213,128,0,127317:0:0:0:0:
64,192,127317,128,0,127526:0:0:0:0:
192,192,127317,1,0,0:0:0:0:
320,192,127526,128,0,127630:0:0:0:0:
192,192,127630,128,0,127734:0:0:0:0:
448,192,127734,128,0,127942:0:0:0:0:
64,192,127734,1,0,0:0:0:0:
320,192,127734,1,0,0:0:0:0:
320,192,127942,128,0,128151:0:0:0:0:
192,192,128151,128,0,128359:0:0:0:0:
448,192,128151,1,0,0:0:0:0:
64,192,128359,128,0,128567:0:0:0:0:
192,192,128567,128,0,128671:0:0:0:0:
448,192,128567,1,0,0:0:0:0:
320,192,128567,1,0,0:0:0:0:
320,192,128671,128,0,128776:0:0:0:0:
448,192,128776,128,0,128984:0:0:0:0:
64,192,128984,128,0,129192:0:0:0:0:
320,192,128984,1,0,0:0:0:0:
448,192,129192,128,0,129401:0:0:0:0:
320,192,129192,1,0,0:0:0:0:
64,192,129401,1,0,0:0:0:0:
192,192,129401,128,0,129505:0:0:0:0:
448,192,129505,1,0,0:0:0:0:
320,192,129505,128,0,129609:0:0:0:0:
192,192,129609,128,0,129713:0:0:0:0:
64,192,129713,128,0,129817:0:0:0:0:
448,192,129817,128,0,130130:0:0:0:0:
320,192,129817,1,0,0:0:0:0:
64,192,130026,1,0,0:0:0:0:
192,192,130130,1,0,0:0:0:0:
320,192,130130,1,0,0:0:0:0:
448,192,130234,1,0,0:0:0:0:
64,192,130234,128,0,130338:0:0:0:0:
192,192,130338,128,0,130442:0:0:0:0:
320,192,130442,128,0,130546:0:0:0:0:
64,192,130442,1,0,0:0:0:0:
448,192,130546,128,0,130651:0:0:0:0:
192,192,130546,1,0,0:0:0:0:
320,192,130651,1,0,0:0:0:0:
64,192,130651,128,0,130859:0:0:0:0:
192,192,130859,128,0,131067:0:0:0:0:
320,192,131067,128,0,131276:0:0:0:0:
64,192,131067,1,0,0:0:0:0:
448,192,131067,1,0,0:0:0:0:
448,192,131276,128,0,131345:0:0:0:0:
320,192,131345,128,0,131414:0:0:0:0:
192,192,131414,128,0,131484:0:0:0:0:
448,192,131484,1,0,0:0:0:0:
64,192,131484,128,0,131692:0:0:0:0:
192,192,131692,128,0,131901:0:0:0:0:
320,192,131901,128,0,132109:0:0:0:0:
64,192,131901,1,0,0:0:0:0:
448,192,131901,1,0,0:0:0:0:
448,192,132109,128,0,132317:0:0:0:0:
320,192,132317,128,0,132526:0:0:0:0:
64,192,132317,1,0,0:0:0:0:
192,192,132526,128,0,132734:0:0:0:0:
64,192,132734,128,0,132942:0:0:0:0:
320,192,132734,1,0,0:0:0:0:
448,192,132734,1,0,0:0:0:0:
448,192,132942,128,0,133012:0:0:0:0:
320,192,133012,128,0,133081:0:0:0:0:
192,192,133081,128,0,133151:0:0:0:0:
64,192,133151,1,0,0:0:0:0:
448,192,133151,128,0,133359:0:0:0:0:
320,192,133359,128,0,133567:0:0:0:0:
192,192,133567,128,0,133776:0:0:0:0:
64,192,133567,1,0,0:0:0:0:
448,192,133567,1,0,0:0:0:0:
64,192,133776,128,0,133984:0:0:0:0:
448,192,133984,128,0,134192:0:0:0:0:
320,192,133984,1,0,0:0:0:0:
64,192,134192,128,0,134296:0:0:0:0:
192,192,134296,128,0,134401:0:0:0:0:
448,192,134401,1,0,0:0:0:0:
64,192,134401,1,0,0:0:0:0:
320,192,134401,128,0,134505:0:0:0:0:
192,192,134505,128,0,134609:0:0:0:0:
320,192,134609,128,0,134713:0:0:0:0:
64,192,134713,128,0,134817:0:0:0:0:
192,192,134817,1,0,0:0:0:0:
448,192,134817,128,0,134921:0:0:0:0:
320,192,134921,128,0,135026:0:0:0:0:
64,192,135026,128,0,135130:0:0:0:0:
192,192,135130,128,0,135234:0:0:0:0:
320,192,135234,1,0,0:0:0:0:
64,192,135234,1,0,0:0:0:0:
448,192,135234,128,0,135338:0:0:0:0:
192,192,135338,128,0,135442:0:0:0:0:
320,192,135442,128,0,135546:0:0:0:0:
64,192,135546,128,0,135651:0:0:0:0:
192,192,135651,1,0,0:0:0:0:
320,192,135651,1,0,0:0:0:0:
448,192,135651,128,0,137005:0:0:0:0:
192,192,135859,1,0,0:0:0:0:
64,192,135859,1,0,0:0:0:0:
64,192,136067,1,0,0:0:0:0:
320,192,136067,1,0,0:0:0:0:
192,192,136276,1,0,0:0:0:0:
320,192,136276,1,0,0:0:0:0:
192,192,136484,1,0,0:0:0:0:
64,192,136484,1,0,0:0:0:0:
320,192,136692,1,0,0:0:0:0:
64,192,136692,128,0,136796:0:0:0:0:
320,192,136901,1,0,0:0:0:0:
192,192,136901,128,0,137005:0:0:0:0:
320,192,137109,1,0,0:0:0:0:
448,192,137109,128,0,137213:0:0:0:0:
64,192,137161,1,0,0:0:0:0:
192,192,137213,1,0,0:0:0:0:
320,192,137265,1,0,0:0:0:0:
448,192,137317,1,0,0:0:0:0:
64,192,137317,128,0,138671:0:0:0:0:
192,192,137317,1,0,0:0:0:0:
320,192,137526,1,0,0:0:0:0:
448,192,137526,1,0,0:0:0:0:
192,192,137734,1,0,0:0:0:0:
448,192,137734,1,0,0:0:0:0:
320,192,137942,1,0,0:0:0:0:
192,192,137942,1,0,0:0:0:0:
320,192,138151,1,0,0:0:0:0:
448,192,138151,1,0,0:0:0:0:
192,192,138359,1,0,0:0:0:0:
448,192,138359,128,0,138463:0:0:0:0:
192,192,138567,1,0,0:0:0:0:
320,192,138567,128,0,138671:0:0:0:0:
192,192,138776,1,0,0:0:0:0:
64,192,138776,128,0,138880:0:0:0:0:
448,192,138828,1,0,0:0:0:0:
320,192,138880,1,0,0:0:0:0:
192,192,138932,1,0,0:0:0:0:
64,192,138984,1,0,0:0:0:0:
448,192,138984,1,0,0:0:0:0:
192,192,139088,1,0,0:0:0:0:
320,192,139088,1,0,0:0:0:0:
448,192,139192,1,0,0:0:0:0:
64,192,139192,1,0,0:0:0:0:
192,192,139296,1,0,0:0:0:0:
320,192,139296,1,0,0:0:0:0:
64,192,139401,1,0,0:0:0:0:
448,192,139401,1,0,0:0:0:0:
192,192,139505,1,0,0:0:0:0:
320,192,139505,1,0,0:0:0:0:
64,192,139609,1,0,0:0:0:0:
448,192,139609,1,0,0:0:0:0:
192,192,139713,1,0,0:0:0:0:
320,192,139713,1,0,0:0:0:0:
64,192,139817,1,0,0:0:0:0:
448,192,139817,1,0,0:0:0:0:
320,192,139869,1,0,0:0:0:0:
192,192,139921,1,0,0:0:0:0:
64,192,139973,1,0,0:0:0:0:
448,192,140026,1,0,0:0:0:0:
320,192,140078,1,0,0:0:0:0:
192,192,140130,1,0,0:0:0:0:
64,192,140182,1,0,0:0:0:0:
448,192,140234,1,0,0:0:0:0:
320,192,140234,1,0,0:0:0:0:
192,192,140286,1,0,0:0:0:0:
64,192,140338,1,0,0:0:0:0:
448,192,140390,1,0,0:0:0:0:
192,192,140442,1,0,0:0:0:0:
320,192,140442,1,0,0:0:0:0:
64,192,140494,1,0,0:0:0:0:
448,192,140546,1,0,0:0:0:0:
320,192,140598,1,0,0:0:0:0:
192,192,140651,1,0,0:0:0:0:
64,192,140651,1,0,0:0:0:0:
320,192,140755,1,0,0:0:0:0:
448,192,140859,1,0,0:0:0:0:
64,192,140859,1,0,0:0:0:0:
192,192,140963,1,0,0:0:0:0:
320,192,141067,1,0,0:0:0:0:
448,192,141067,1,0,0:0:0:0:
64,192,141067,1,0,0:0:0:0:
192,192,141171,1,0,0:0:0:0:
448,192,141276,1,0,0:0:0:0:
64,192,141276,1,0,0:0:0:0:
320,192,141380,1,0,0:0:0:0:
192,192,141484,1,0,0:0:0:0:
64,192,141484,1,0,0:0:0:0:
320,192,141588,1,0,0:0:0:0:
448,192,141588,1,0,0:0:0:0:
192,192,141692,1,0,0:0:0:0:
64,192,141692,1,0,0:0:0:0:
320,192,141796,1,0,0:0:0:0:
448,192,141796,1,0,0:0:0:0:
192,192,141901,1,0,0:0:0:0:
64,192,141901,1,0,0:0:0:0:
320,192,142005,1,0,0:0:0:0:
448,192,142005,1,0,0:0:0:0:
192,192,142109,1,0,0:0:0:0:
64,192,142109,1,0,0:0:0:0:
320,192,142213,1,0,0:0:0:0:
448,192,142213,1,0,0:0:0:0:
448,192,142317,1,0,0:0:0:0:
192,192,142317,1,0,0:0:0:0:
64,192,142317,1,0,0:0:0:0:
320,192,142317,1,0,0:0:0:0:
320,192,142734,128,0,142942:0:0:0:0:
192,192,142942,1,0,0:0:0:0:
64,192,142942,1,0,0:0:0:0:
320,192,143046,1,0,0:0:0:0:
448,192,143046,1,0,0:0:0:0:
320,192,143151,1,0,0:0:0:0:
448,192,143151,1,0,0:0:0:0:
64,192,143151,128,0,143463:0:0:0:0:
192,192,143463,128,0,143776:0:0:0:0:
448,192,143567,1,0,0:0:0:0:
320,192,143776,128,0,143984:0:0:0:0:
64,192,143776,1,0,0:0:0:0:
448,192,143984,128,0,144401:0:0:0:0:
192,192,143984,1,0,0:0:0:0:
64,192,144192,1,0,0:0:0:0:
192,192,144401,1,0,0:0:0:0:
320,192,144609,128,0,144817:0:0:0:0:
448,192,144609,128,0,144817:0:0:0:0:
64,192,144817,128,0,145651:0:0:0:0:
192,192,144817,128,0,145026:0:0:0:0:
320,192,145026,1,0,0:0:0:0:
448,192,145026,128,0,145234:0:0:0:0:
320,192,145234,128,0,145442:0:0:0:0:
192,192,145442,128,0,145651:0:0:0:0:
320,192,145651,1,0,0:0:0:0:
448,192,145651,1,0,0:0:0:0:
448,192,146067,128,0,146484:0:0:0:0:
64,192,146067,128,0,146276:0:0:0:0:
320,192,146276,128,0,146484:0:0:0:0:
192,192,146484,128,0,146901:0:0:0:0:
64,192,146484,128,0,146901:0:0:0:0:
320,192,146901,128,0,147317:0:0:0:0:
448,192,146901,128,0,147109:0:0:0:0:
192,192,147109,128,0,147317:0:0:0:0:
64,192,147317,1,0,0:0:0:0:
448,192,147317,128,0,147734:0:0:0:0:
192,192,147526,1,0,0:0:0:0:
320,192,147734,128,0,148151:0:0:0:0:
64,192,147942,1,0,0:0:0:0:
192,192,147942,1,0,0:0:0:0:
192,192,148151,128,0,148567:0:0:0:0:
448,192,148151,1,0,0:0:0:0:
64,192,148151,1,0,0:0:0:0:
320,192,148359,1,0,0:0:0:0:
448,192,148359,1,0,0:0:0:0:
64,192,148463,1,0,0:0:0:0:
448,192,148567,1,0,0:0:0:0:
320,192,148567,1,0,0:0:0:0:
192,192,148776,1,0,0:0:0:0:
64,192,148776,1,0,0:0:0:0:
320,192,148880,1,0,0:0:0:0:
448,192,148880,1,0,0:0:0:0:
192,192,148984,1,0,0:0:0:0:
64,192,148984,1,0,0:0:0:0:
448,192,148984,128,0,149401:0:0:0:0:
320,192,149192,1,0,0:0:0:0:
192,192,149192,1,0,0:0:0:0:
64,192,149401,1,0,0:0:0:0:
320,192,149401,1,0,0:0:0:0:
448,192,149609,1,0,0:0:0:0:
192,192,149609,128,0,149713:0:0:0:0:
64,192,149713,128,0,149817:0:0:0:0:
320,192,149817,1,0,0:0:0:0:
448,192,149817,128,0,150026:0:0:0:0:
192,192,150026,128,0,150130:0:0:0:0:
64,192,150026,1,0,0:0:0:0:
320,192,150130,128,0,150234:0:0:0:0:
64,192,150234,128,0,150442:0:0:0:0:
448,192,150234,1,0,0:0:0:0:
320,192,150442,1,0,0:0:0:0:
448,192,150442,1,0,0:0:0:0:
64,192,150494,1,0,0:0:0:0:
192,192,150546,1,0,0:0:0:0:
320,192,150598,1,0,0:0:0:0:
192,192,150651,1,0,0:0:0:0:
64,192,150651,1,0,0:0:0:0:
448,192,150651,128,0,150963:0:0:0:0:
320,192,150859,1,0,0:0:0:0:
192,192,150859,1,0,0:0:0:0:
448,192,151067,1,0,0:0:0:0:
320,192,151067,128,0,151380:0:0:0:0:
192,192,151276,1,0,0:0:0:0:
64,192,151276,1,0,0:0:0:0:
320,192,151484,1,0,0:0:0:0:
64,192,151484,128,0,151588:0:0:0:0:
448,192,151692,1,0,0:0:0:0:
192,192,151692,128,0,151796:0:0:0:0:
64,192,151901,1,0,0:0:0:0:
320,192,151901,128,0,152005:0:0:0:0:
320,192,152109,1,0,0:0:0:0:
448,192,152109,128,0,152317:0:0:0:0:
64,192,152161,1,0,0:0:0:0:
192,192,152213,1,0,0:0:0:0:
320,192,152265,1,0,0:0:0:0:
64,192,152317,1,0,0:0:0:0:
192,192,152317,128,0,152421:0:0:0:0:
320,192,152421,128,0,152526:0:0:0:0:
64,192,152526,1,0,0:0:0:0:
448,192,152526,128,0,152630:0:0:0:0:
192,192,152630,128,0,152734:0:0:0:0:
448,192,152734,1,0,0:0:0:0:
320,192,152734,128,0,152838:0:0:0:0:
64,192,152838,128,0,152942:0:0:0:0:
320,192,152942,1,0,0:0:0:0:
192,192,152942,128,0,153046:0:0:0:0:
448,192,153046,128,0,153151:0:0:0:0:
192,192,153151,5,0,0:0:0:0:
64,192,153151,128,0,153255:0:0:0:0:
448,192,153255,1,0,0:0:0:0:
320,192,153255,128,0,153359:0:0:0:0:
64,192,153359,1,0,0:0:0:0:
192,192,153359,128,0,153463:0:0:0:0:
320,192,153463,1,0,0:0:0:0:
448,192,153463,128,0,153567:0:0:0:0:
192,192,153567,1,0,0:0:0:0:
64,192,153567,1,0,0:0:0:0:
320,192,153619,1,0,0:0:0:0:
448,192,153671,1,0,0:0:0:0:
64,192,153723,1,0,0:0:0:0:
192,192,153776,1,0,0:0:0:0:
320,192,153776,1,0,0:0:0:0:
448,192,153828,1,0,0:0:0:0:
64,192,153880,1,0,0:0:0:0:
192,192,153932,1,0,0:0:0:0:
448,192,153984,128,0,154713:0:0:0:0:
320,192,153984,128,0,154296:0:0:0:0:
320,192,154401,128,0,155130:0:0:0:0:
192,192,154401,128,0,154713:0:0:0:0:
64,192,154401,128,0,154713:0:0:0:0:
192,192,154817,128,0,155546:0:0:0:0:
448,192,154817,128,0,155130:0:0:0:0:
64,192,154817,128,0,155130:0:0:0:0:
64,192,155234,128,0,155546:0:0:0:0:
320,192,155234,128,0,155546:0:0:0:0:
448,192,155234,128,0,155546:0:0:0:0:
448,192,155651,1,0,0:0:0:0:
64,192,155651,1,0,0:0:0:0:
192,192,155859,1,0,0:0:0:0:
320,192,155963,1,0,0:0:0:0:
448,192,156067,1,0,0:0:0:0:
64,192,156067,1,0,0:0:0:0:
192,192,156276,5,0,0:0:0:0:
320,192,156380,1,0,0:0:0:0:
64,192,156484,1,0,0:0:0:0:
448,192,156588,1,0,0:0:0:0:
192,192,156692,1,0,0:0:0:0:
320,192,156796,1,0,0:0:0:0:
448,192,156901,5,0,0:0:0:0:
192,192,156901,1,0,0:0:0:0:
64,192,156901,1,0,0:0:0:0:
64,192,157317,128,0,157734:0:0:0:0:
320,192,157317,1,0,0:0:0:0:
448,192,157317,1,0,0:0:0:0:
192,192,157421,1,0,0:0:0:0:
448,192,157526,1,0,0:0:0:0:
320,192,157630,1,0,0:0:0:0:
192,192,157734,1,0,0:0:0:0:
448,192,157734,1,0,0:0:0:0:
320,192,157838,1,0,0:0:0:0:
192,192,157942,128,0,158046:0:0:0:0:
320,192,158046,128,0,158151:0:0:0:0:
448,192,158151,128,0,158359:0:0:0:0:
64,192,158151,1,0,0:0:0:0:
192,192,158255,1,0,0:0:0:0:
320,192,158359,128,0,158567:0:0:0:0:
64,192,158463,1,0,0:0:0:0:
192,192,158567,128,0,158776:0:0:0:0:
448,192,158567,1,0,0:0:0:0:
320,192,158671,1,0,0:0:0:0:
64,192,158776,128,0,158984:0:0:0:0:
192,192,158880,1,0,0:0:0:0:
448,192,158984,128,0,159401:0:0:0:0:
320,192,158984,1,0,0:0:0:0:
64,192,159088,1,0,0:0:0:0:
192,192,159192,1,0,0:0:0:0:
320,192,159296,1,0,0:0:0:0:
192,192,159401,1,0,0:0:0:0:
64,192,159401,1,0,0:0:0:0:
448,192,159505,1,0,0:0:0:0:
320,192,159609,128,0,159713:0:0:0:0:
192,192,159713,128,0,159817:0:0:0:0:
64,192,159817,128,0,160234:0:0:0:0:
448,192,159817,1,0,0:0:0:0:
320,192,159921,1,0,0:0:0:0:
192,192,160026,1,0,0:0:0:0:
448,192,160130,1,0,0:0:0:0:
320,192,160234,1,0,0:0:0:0:
192,192,160234,1,0,0:0:0:0:
64,192,160338,1,0,0:0:0:0:
448,192,160442,1,0,0:0:0:0:
320,192,160546,1,0,0:0:0:0:
64,192,160651,1,0,0:0:0:0:
192,192,160651,128,0,160859:0:0:0:0:
448,192,160755,1,0,0:0:0:0:
64,192,160859,1,0,0:0:0:0:
320,192,160963,128,0,161171:0:0:0:0:
448,192,161067,1,0,0:0:0:0:
192,192,161067,1,0,0:0:0:0:
64,192,161171,1,0,0:0:0:0:
448,192,161276,128,0,161484:0:0:0:0:
320,192,161380,1,0,0:0:0:0:
64,192,161484,128,0,161796:0:0:0:0:
192,192,161484,1,0,0:0:0:0:
448,192,161588,1,0,0:0:0:0:
320,192,161692,1,0,0:0:0:0:
448,192,161796,1,0,0:0:0:0:
192,192,161901,128,0,162213:0:0:0:0:
64,192,161901,1,0,0:0:0:0:
320,192,162005,1,0,0:0:0:0:
448,192,162109,1,0,0:0:0:0:
64,192,162213,1,0,0:0:0:0:
320,192,162317,128,0,162734:0:0:0:0:
448,192,162317,1,0,0:0:0:0:
192,192,162421,1,0,0:0:0:0:
64,192,162526,1,0,0:0:0:0:
448,192,162630,1,0,0:0:0:0:
192,192,162734,1,0,0:0:0:0:
64,192,162734,1,0,0:0:0:0:
320,192,162838,1,0,0:0:0:0:
448,192,162942,128,0,163046:0:0:0:0:
320,192,163046,128,0,163151:0:0:0:0:
64,192,163151,128,0,163567:0:0:0:0:
192,192,163151,1,0,0:0:0:0:
320,192,163255,1,0,0:0:0:0:
448,192,163255,1,0,0:0:0:0:
320,192,163359,1,0,0:0:0:0:
448,192,163359,1,0,0:0:0:0:
192,192,163463,1,0,0:0:0:0:
320,192,163567,1,0,0:0:0:0:
448,192,163567,1,0,0:0:0:0:
192,192,163671,1,0,0:0:0:0:
64,192,163776,1,0,0:0:0:0:
448,192,163776,1,0,0:0:0:0:
320,192,163880,1,0,0:0:0:0:
192,192,163880,1,0,0:0:0:0:
64,192,163984,1,0,0:0:0:0:
192,192,163984,128,0,164401:0:0:0:0:
448,192,163984,1,0,0:0:0:0:
320,192,164088,1,0,0:0:0:0:
64,192,164192,1,0,0:0:0:0:
448,192,164296,1,0,0:0:0:0:
320,192,164401,1,0,0:0:0:0:
64,192,164401,1,0,0:0:0:0:
192,192,164505,1,0,0:0:0:0:
448,192,164609,128,0,164713:0:0:0:0:
320,192,164713,128,0,164817:0:0:0:0:
192,192,164817,128,0,165026:0:0:0:0:
64,192,164817,1,0,0:0:0:0:
320,192,164921,1,0,0:0:0:0:
64,192,165026,128,0,165234:0:0:0:0:
448,192,165130,1,0,0:0:0:0:
192,192,165234,128,0,165442:0:0:0:0:
320,192,165234,1,0,0:0:0:0:
64,192,165338,1,0,0:0:0:0:
320,192,165442,128,0,165651:0:0:0:0:
192,192,165546,1,0,0:0:0:0:
64,192,165651,1,0,0:0:0:0:
448,192,165651,128,0,166067:0:0:0:0:
320,192,165755,1,0,0:0:0:0:
192,192,165859,1,0,0:0:0:0:
320,192,165963,1,0,0:0:0:0:
64,192,166067,1,0,0:0:0:0:
192,192,166067,1,0,0:0:0:0:
448,192,166171,1,0,0:0:0:0:
64,192,166276,128,0,166380:0:0:0:0:
192,192,166380,128,0,166484:0:0:0:0:
320,192,166484,128,0,166901:0:0:0:0:
448,192,166484,1,0,0:0:0:0:
64,192,166588,1,0,0:0:0:0:
192,192,166692,1,0,0:0:0:0:
448,192,166796,1,0,0:0:0:0:
192,192,166901,1,0,0:0:0:0:
64,192,166901,1,0,0:0:0:0:
448,192,167005,1,0,0:0:0:0:
192,192,167109,128,0,167213:0:0:0:0:
320,192,167213,128,0,167317:0:0:0:0:
448,192,167317,128,0,167526:0:0:0:0:
192,192,167317,1,0,0:0:0:0:
64,192,167317,1,0,0:0:0:0:
320,192,167421,1,0,0:0:0:0:
64,192,167526,128,0,167734:0:0:0:0:
448,192,167630,1,0,0:0:0:0:
192,192,167734,128,0,167942:0:0:0:0:
320,192,167734,1,0,0:0:0:0:
64,192,167838,5,0,0:0:0:0:
320,192,167942,128,0,168151:0:0:0:0:
192,192,168046,1,0,0:0:0:0:
448,192,168151,128,0,168567:0:0:0:0:
64,192,168151,1,0,0:0:0:0:
320,192,168255,1,0,0:0:0:0:
192,192,168359,1,0,0:0:0:0:
320,192,168463,1,0,0:0:0:0:
192,192,168567,128,0,168776:0:0:0:0:
64,192,168567,1,0,0:0:0:0:
448,192,168671,1,0,0:0:0:0:
320,192,168776,1,0,0:0:0:0:
192,192,168880,1,0,0:0:0:0:
448,192,168984,5,0,0:0:0:0:
64,192,168984,1,0,0:0:0:0:
320,192,168984,1,0,0:0:0:0:
192,192,169088,1,0,0:0:0:0:
448,192,169192,1,0,0:0:0:0:
320,192,169296,1,0,0:0:0:0:
192,192,169401,1,0,0:0:0:0:
64,192,169401,1,0,0:0:0:0:
448,192,169401,1,0,0:0:0:0:
320,192,169505,1,0,0:0:0:0:
192,192,169609,1,0,0:0:0:0:
448,192,169713,1,0,0:0:0:0:
320,192,169713,1,0,0:0:0:0:
192,192,169817,1,0,0:0:0:0:
64,192,169817,1,0,0:0:0:0:
320,192,169921,1,0,0:0:0:0:
448,192,170026,1,0,0:0:0:0:
64,192,170026,1,0,0:0:0:0:
192,192,170130,1,0,0:0:0:0:
64,192,170234,1,0,0:0:0:0:
320,192,170234,1,0,0:0:0:0:
448,192,170234,1,0,0:0:0:0:
192,192,170338,1,0,0:0:0:0:
320,192,170442,1,0,0:0:0:0:
448,192,170442,1,0,0:0:0:0:
192,192,170546,1,0,0:0:0:0:
64,192,170546,1,0,0:0:0:0:
64,192,170651,128,0,171067:0:0:0:0:
320,192,170651,128,0,170755:0:0:0:0:
448,192,170651,128,0,170755:0:0:0:0:
192,192,170755,128,0,170859:0:0:0:0:
448,192,170859,128,0,170963:0:0:0:0:
320,192,170963,128,0,171067:0:0:0:0:
192,192,171067,128,0,171171:0:0:0:0:
448,192,171067,128,0,171171:0:0:0:0:
64,192,171171,128,0,171276:0:0:0:0:
448,192,171276,128,0,171484:0:0:0:0:
320,192,171276,128,0,171380:0:0:0:0:
192,192,171380,128,0,171484:0:0:0:0:
64,192,171484,128,0,171901:0:0:0:0:
320,192,171484,128,0,171588:0:0:0:0:
448,192,171588,128,0,171692:0:0:0:0:
320,192,171692,128,0,171796:0:0:0:0:
192,192,171796,128,0,171901:0:0:0:0:
448,192,171901,128,0,172005:0:0:0:0:
320,192,171901,128,0,172005:0:0:0:0:
64,192,172005,128,0,172109:0:0:0:0:
192,192,172109,128,0,172213:0:0:0:0:
448,192,172109,128,0,172213:0:0:0:0:
320,192,172213,128,0,172317:0:0:0:0:
192,192,172317,128,0,172526:0:0:0:0:
64,192,172317,128,0,172421:0:0:0:0:
320,192,172421,128,0,172526:0:0:0:0:
448,192,172526,128,0,172630:0:0:0:0:
320,192,172630,128,0,172838:0:0:0:0:
64,192,172630,128,0,172734:0:0:0:0:
192,192,172734,128,0,172838:0:0:0:0:
448,192,172734,128,0,172838:0:0:0:0:
64,192,172838,128,0,172942:0:0:0:0:
448,192,172942,128,0,173151:0:0:0:0:
192,192,172942,128,0,173046:0:0:0:0:
320,192,173046,128,0,173151:0:0:0:0:
192,192,173151,128,0,173463:0:0:0:0:
64,192,173151,128,0,173359:0:0:0:0:
320,192,173255,128,0,173463:0:0:0:0:
448,192,173359,128,0,173463:0:0:0:0:
64,192,173463,128,0,173567:0:0:0:0:
192,192,173567,128,0,173671:0:0:0:0:
320,192,173567,128,0,173776:0:0:0:0:
448,192,173567,128,0,173880:0:0:0:0:
64,192,173671,128,0,173880:0:0:0:0:
192,192,173776,128,0,173984:0:0:0:0:
320,192,173880,128,0,173984:0:0:0:0:
64,192,173984,128,0,174192:0:0:0:0:
448,192,173984,128,0,174088:0:0:0:0:
320,192,174088,128,0,174192:0:0:0:0:
192,192,174192,128,0,174401:0:0:0:0:
448,192,174192,128,0,174296:0:0:0:0:
64,192,174296,128,0,174401:0:0:0:0:
320,192,174401,128,0,174609:0:0:0:0:
448,192,174401,128,0,174505:0:0:0:0:
192,192,174505,128,0,174609:0:0:0:0:
448,192,174609,128,0,174817:0:0:0:0:
64,192,174609,128,0,174713:0:0:0:0:
192,192,174713,128,0,174817:0:0:0:0:
320,192,174817,128,0,175026:0:0:0:0:
64,192,174817,128,0,174921:0:0:0:0:
448,192,174921,128,0,175026:0:0:0:0:
192,192,175026,128,0,175234:0:0:0:0:
64,192,175026,128,0,175130:0:0:0:0:
320,192,175130,128,0,175234:0:0:0:0:
64,192,175234,128,0,175442:0:0:0:0:
448,192,175234,128,0,175338:0:0:0:0:
192,192,175338,128,0,175442:0:0:0:0:
448,192,175442,128,0,175651:0:0:0:0:
320,192,175442,128,0,175546:0:0:0:0:
192,192,175546,128,0,175651:0:0:0:0:
64,192,175651,128,0,176067:0:0:0:0:
320,192,175651,128,0,175755:0:0:0:0:
448,192,175755,128,0,175859:0:0:0:0:
192,192,175859,128,0,175963:0:0:0:0:
320,192,175963,128,0,176067:0:0:0:0:
448,192,176067,128,0,176171:0:0:0:0:
192,192,176067,128,0,176171:0:0:0:0:
64,192,176171,128,0,176276:0:0:0:0:
320,192,176276,128,0,176380:0:0:0:0:
448,192,176276,128,0,176380:0:0:0:0:
192,192,176380,128,0,176484:0:0:0:0:
448,192,176484,128,0,177005:0:0:0:0:
64,192,176484,128,0,176692:0:0:0:0:
320,192,176484,128,0,176588:0:0:0:0:
192,192,176588,128,0,176692:0:0:0:0:
320,192,176692,128,0,176901:0:0:0:0:
192,192,176796,1,0,0:0:0:0:
64,192,176796,1,0,0:0:0:0:
192,192,176901,128,0,177109:0:0:0:0:
64,192,176901,128,0,177005:0:0:0:0:
320,192,177005,128,0,177109:0:0:0:0:
64,192,177109,1,0,0:0:0:0:
448,192,177109,1,0,0:0:0:0:
192,192,177213,1,0,0:0:0:0:
320,192,177213,1,0,0:0:0:0:
192,192,177317,1,0,0:0:0:0:
448,192,177317,1,0,0:0:0:0:
64,192,177317,1,0,0:0:0:0:
320,192,177421,1,0,0:0:0:0:
192,192,177526,1,0,0:0:0:0:
64,192,177526,1,0,0:0:0:0:
448,192,177630,1,0,0:0:0:0:
320,192,177734,1,0,0:0:0:0:
192,192,177734,1,0,0:0:0:0:
64,192,177734,1,0,0:0:0:0:
448,192,177838,1,0,0:0:0:0:
320,192,177942,1,0,0:0:0:0:
192,192,177942,1,0,0:0:0:0:
64,192,178046,1,0,0:0:0:0:
192,192,178151,1,0,0:0:0:0:
320,192,178151,1,0,0:0:0:0:
448,192,178151,1,0,0:0:0:0:
64,192,178255,1,0,0:0:0:0:
448,192,178359,1,0,0:0:0:0:
320,192,178359,1,0,0:0:0:0:
192,192,178463,1,0,0:0:0:0:
64,192,178567,1,0,0:0:0:0:
448,192,178567,1,0,0:0:0:0:
320,192,178567,1,0,0:0:0:0:
192,192,178671,1,0,0:0:0:0:
64,192,178776,1,0,0:0:0:0:
448,192,178776,1,0,0:0:0:0:
320,192,178880,1,0,0:0:0:0:
192,192,178984,1,0,0:0:0:0:
64,192,178984,1,0,0:0:0:0:
448,192,178984,1,0,0:0:0:0:
320,192,179088,1,0,0:0:0:0:
448,192,179192,1,0,0:0:0:0:
64,192,179192,1,0,0:0:0:0:
192,192,179296,1,0,0:0:0:0:
320,192,179401,1,0,0:0:0:0:
448,192,179401,1,0,0:0:0:0:
64,192,179401,1,0,0:0:0:0:
192,192,179505,1,0,0:0:0:0:
320,192,179609,1,0,0:0:0:0:
448,192,179609,1,0,0:0:0:0:
64,192,179713,1,0,0:0:0:0:
192,192,179817,1,0,0:0:0:0:
320,192,179817,1,0,0:0:0:0:
448,192,179817,1,0,0:0:0:0:
64,192,179921,1,0,0:0:0:0:
192,192,180026,1,0,0:0:0:0:
320,192,180026,1,0,0:0:0:0:
448,192,180130,1,0,0:0:0:0:
192,192,180234,1,0,0:0:0:0:
64,192,180234,1,0,0:0:0:0:
320,192,180234,1,0,0:0:0:0:
448,192,180338,1,0,0:0:0:0:
192,192,180442,1,0,0:0:0:0:
64,192,180442,1,0,0:0:0:0:
448,192,180494,1,0,0:0:0:0:
320,192,180546,1,0,0:0:0:0:
192,192,180598,1,0,0:0:0:0:
64,192,180651,1,0,0:0:0:0:
448,192,180651,1,0,0:0:0:0:
320,192,180651,1,0,0:0:0:0:
192,192,180755,1,0,0:0:0:0:
448,192,180859,1,0,0:0:0:0:
320,192,180963,1,0,0:0:0:0:
64,192,180963,1,0,0:0:0:0:
192,192,181067,1,0,0:0:0:0:
448,192,181171,1,0,0:0:0:0:
64,192,181276,1,0,0:0:0:0:
192,192,181276,1,0,0:0:0:0:
320,192,181380,1,0,0:0:0:0:
64,192,181484,1,0,0:0:0:0:
192,192,181484,1,0,0:0:0:0:
448,192,181484,1,0,0:0:0:0:
320,192,181588,1,0,0:0:0:0:
64,192,181692,1,0,0:0:0:0:
192,192,181796,1,0,0:0:0:0:
448,192,181796,1,0,0:0:0:0:
320,192,181901,1,0,0:0:0:0:
192,192,182005,1,0,0:0:0:0:
448,192,182109,1,0,0:0:0:0:
320,192,182109,1,0,0:0:0:0:
64,192,182161,1,0,0:0:0:0:
192,192,182213,1,0,0:0:0:0:
320,192,182265,1,0,0:0:0:0:
448,192,182317,1,0,0:0:0:0:
64,192,182317,1,0,0:0:0:0:
192,192,182317,1,0,0:0:0:0:
320,192,182369,1,0,0:0:0:0:
64,192,182421,1,0,0:0:0:0:
192,192,182473,1,0,0:0:0:0:
320,192,182526,1,0,0:0:0:0:
448,192,182578,1,0,0:0:0:0:
64,192,182630,1,0,0:0:0:0:
192,192,182682,1,0,0:0:0:0:
448,192,182734,1,0,0:0:0:0:
320,192,182786,1,0,0:0:0:0:
192,192,182838,1,0,0:0:0:0:
64,192,182890,1,0,0:0:0:0:
320,192,182942,1,0,0:0:0:0:
192,192,182994,1,0,0:0:0:0:
448,192,183046,1,0,0:0:0:0:
320,192,183098,1,0,0:0:0:0:
192,192,183151,1,0,0:0:0:0:
64,192,183203,1,0,0:0:0:0:
320,192,183255,1,0,0:0:0:0:
448,192,183307,1,0,0:0:0:0:
64,192,183359,1,0,0:0:0:0:
192,192,183411,1,0,0:0:0:0:
320,192,183463,1,0,0:0:0:0:
448,192,183515,1,0,0:0:0:0:
192,192,183567,1,0,0:0:0:0:
64,192,183567,1,0,0:0:0:0:
448,192,183671,1,0,0:0:0:0:
320,192,183671,1,0,0:0:0:0:
192,192,183776,1,0,0:0:0:0:
64,192,183776,1,0,0:0:0:0:
320,192,183880,1,0,0:0:0:0:
192,192,183984,1,0,0:0:0:0:
448,192,183984,1,0,0:0:0:0:
64,192,183984,128,0,185651:0:0:0:0:
320,192,184192,1,0,0:0:0:0:
320,192,184401,1,0,0:0:0:0:
320,192,184609,1,0,0:0:0:0:
320,192,184817,1,0,0:0:0:0:
320,192,185026,1,0,0:0:0:0:
320,192,185234,1,0,0:0:0:0:
320,192,185442,1,0,0:0:0:0:
192,192,185651,128,0,187317:0:0:0:0:
320,192,185651,1,0,0:0:0:0:
448,192,185651,1,0,0:0:0:0:
448,192,185859,1,0,0:0:0:0:
448,192,186067,1,0,0:0:0:0:
448,192,186276,1,0,0:0:0:0:
448,192,186484,1,0,0:0:0:0:
448,192,186692,1,0,0:0:0:0:
448,192,186901,1,0,0:0:0:0:
448,192,187109,1,0,0:0:0:0:
320,192,187317,128,0,188984:0:0:0:0:
448,192,187317,1,0,0:0:0:0:
64,192,187317,1,0,0:0:0:0:
64,192,187526,1,0,0:0:0:0:
64,192,187734,1,0,0:0:0:0:
64,192,187942,1,0,0:0:0:0:
64,192,188151,1,0,0:0:0:0:
64,192,188359,1,0,0:0:0:0:
64,192,188567,1,0,0:0:0:0:
64,192,188776,1,0,0:0:0:0:
448,192,188984,128,0,190651:0:0:0:0:
64,192,188984,1,0,0:0:0:0:
192,192,188984,1,0,0:0:0:0:
192,192,189192,1,0,0:0:0:0:
192,192,189401,1,0,0:0:0:0:
192,192,189609,1,0,0:0:0:0:
192,192,189817,1,0,0:0:0:0:
192,192,190026,1,0,0:0:0:0:
192,192,190234,1,0,0:0:0:0:
192,192,190442,1,0,0:0:0:0:
320,192,190651,1,0,0:0:0:0:
64,192,190651,128,0,192317:0:0:0:0:
192,192,190651,1,0,0:0:0:0:
320,192,190859,1,0,0:0:0:0:
320,192,191067,1,0,0:0:0:0:
320,192,191276,1,0,0:0:0:0:
320,192,191484,1,0,0:0:0:0:
320,192,191692,1,0,0:0:0:0:
320,192,191901,1,0,0:0:0:0:
320,192,192109,1,0,0:0:0:0:
192,192,192317,1,0,0:0:0:0:
448,192,192317,128,0,193984:0:0:0:0:
320,192,192317,1,0,0:0:0:0:
192,192,192526,1,0,0:0:0:0:
192,192,192734,1,0,0:0:0:0:
192,192,192942,1,0,0:0:0:0:
192,192,193151,1,0,0:0:0:0:
192,192,193359,1,0,0:0:0:0:
192,192,193567,1,0,0:0:0:0:
192,192,193776,1,0,0:0:0:0:
64,192,193984,1,0,0:0:0:0:
320,192,193984,128,0,195651:0:0:0:0:
192,192,193984,1,0,0:0:0:0:
64,192,194192,1,0,0:0:0:0:
64,192,194401,1,0,0:0:0:0:
64,192,194609,1,0,0:0:0:0:
64,192,194817,1,0,0:0:0:0:
64,192,195026,1,0,0:0:0:0:
64,192,195234,1,0,0:0:0:0:
64,192,195442,1,0,0:0:0:0:
192,192,195651,128,0,196484:0:0:0:0:
448,192,195651,1,0,0:0:0:0:
64,192,195651,1,0,0:0:0:0:
448,192,195859,1,0,0:0:0:0:
448,192,196067,1,0,0:0:0:0:
448,192,196276,1,0,0:0:0:0:
64,192,196484,128,0,197317:0:0:0:0:
320,192,196484,1,0,0:0:0:0:
448,192,196484,1,0,0:0:0:0:
320,192,196692,1,0,0:0:0:0:
320,192,196901,1,0,0:0:0:0:
320,192,197109,1,0,0:0:0:0:
192,192,197317,1,0,0:0:0:0:
320,192,197317,1,0,0:0:0:0:
448,192,197317,128,0,197526:0:0:0:0:
192,192,197526,128,0,197630:0:0:0:0:
320,192,197630,128,0,197734:0:0:0:0:
64,192,197734,1,0,0:0:0:0:
448,192,197734,128,0,197838:0:0:0:0:
192,192,197838,128,0,197942:0:0:0:0:
320,192,197942,128,0,198046:0:0:0:0:
64,192,198046,128,0,198151:0:0:0:0:
448,192,198151,1,0,0:0:0:0:
320,192,198151,128,0,198567:0:0:0:0:
192,192,198359,1,0,0:0:0:0:
64,192,198567,128,0,198880:0:0:0:0:
192,192,198567,1,0,0:0:0:0:
448,192,198567,1,0,0:0:0:0:
320,192,198776,1,0,0:0:0:0:
64,192,198984,128,0,199401:0:0:0:0:
448,192,198984,1,0,0:0:0:0:
192,192,199192,1,0,0:0:0:0:
448,192,199401,1,0,0:0:0:0:
320,192,199401,128,0,199470:0:0:0:0:
192,192,199470,128,0,199539:0:0:0:0:
64,192,199539,128,0,199609:0:0:0:0:
448,192,199609,128,0,199713:0:0:0:0:
320,192,199713,128,0,199817:0:0:0:0:
192,192,199817,128,0,200234:0:0:0:0:
64,192,199817,1,0,0:0:0:0:
320,192,200026,1,0,0:0:0:0:
448,192,200234,1,0,0:0:0:0:
64,192,200234,1,0,0:0:0:0:
320,192,200234,128,0,200338:0:0:0:0:
192,192,200338,128,0,200442:0:0:0:0:
448,192,200442,128,0,200546:0:0:0:0:
320,192,200546,128,0,200651:0:0:0:0:
64,192,200651,128,0,200859:0:0:0:0:
192,192,200651,1,0,0:0:0:0:
192,192,200859,128,0,201067:0:0:0:0:
320,192,201067,128,0,201276:0:0:0:0:
64,192,201067,1,0,0:0:0:0:
448,192,201067,1,0,0:0:0:0:
448,192,201276,128,0,201484:0:0:0:0:
320,192,201484,128,0,201692:0:0:0:0:
64,192,201484,1,0,0:0:0:0:
64,192,201692,128,0,201762:0:0:0:0:
192,192,201762,128,0,201831:0:0:0:0:
320,192,201831,128,0,201901:0:0:0:0:
192,192,201901,1,0,0:0:0:0:
64,192,201901,1,0,0:0:0:0:
448,192,201901,128,0,202109:0:0:0:0:
320,192,202109,128,0,202317:0:0:0:0:
192,192,202317,128,0,202526:0:0:0:0:
448,192,202317,1,0,0:0:0:0:
64,192,202526,128,0,202734:0:0:0:0:
192,192,202734,128,0,202942:0:0:0:0:
320,192,202734,1,0,0:0:0:0:
448,192,202734,1,0,0:0:0:0:
320,192,202942,128,0,203151:0:0:0:0:
192,192,203151,1,0,0:0:0:0:
64,192,203151,1,0,0:0:0:0:
448,192,203255,1,0,0:0:0:0:
320,192,203255,1,0,0:0:0:0:
192,192,203359,1,0,0:0:0:0:
64,192,203359,1,0,0:0:0:0:
320,192,203463,1,0,0:0:0:0:
448,192,203567,1,0,0:0:0:0:
192,192,203567,1,0,0:0:0:0:
64,192,203567,1,0,0:0:0:0:
320,192,203776,1,0,0:0:0:0:
448,192,203776,1,0,0:0:0:0:
192,192,203880,1,0,0:0:0:0:
64,192,203880,1,0,0:0:0:0:
320,192,203984,1,0,0:0:0:0:
448,192,203984,1,0,0:0:0:0:
64,192,203984,128,0,204192:0:0:0:0:
192,192,204192,128,0,204296:0:0:0:0:
320,192,204296,128,0,204401:0:0:0:0:
448,192,204401,1,0,0:0:0:0:
64,192,204401,1,0,0:0:0:0:
192,192,204401,128,0,204505:0:0:0:0:
320,192,204505,128,0,204609:0:0:0:0:
448,192,204609,128,0,204713:0:0:0:0:
64,192,204713,128,0,204817:0:0:0:0:
448,192,204817,1,0,0:0:0:0:
192,192,204817,128,0,205234:0:0:0:0:
320,192,205026,1,0,0:0:0:0:
448,192,205234,128,0,205546:0:0:0:0:
64,192,205234,1,0,0:0:0:0:
320,192,205234,1,0,0:0:0:0:
192,192,205442,1,0,0:0:0:0:
448,192,205651,128,0,206067:0:0:0:0:
64,192,205651,1,0,0:0:0:0:
320,192,205859,1,0,0:0:0:0:
64,192,206067,1,0,0:0:0:0:
192,192,206067,128,0,206137:0:0:0:0:
320,192,206137,128,0,206206:0:0:0:0:
448,192,206206,128,0,206276:0:0:0:0:
64,192,206276,128,0,206380:0:0:0:0:
192,192,206380,128,0,206484:0:0:0:0:
64,192,206484,1,0,0:0:0:0:
448,192,206484,1,0,0:0:0:0:
320,192,206484,128,0,206901:0:0:0:0:
192,192,206692,1,0,0:0:0:0:
192,192,206901,1,0,0:0:0:0:
448,192,206901,1,0,0:0:0:0:
64,192,206901,128,0,207005:0:0:0:0:
192,192,207005,128,0,207109:0:0:0:0:
320,192,207109,128,0,207213:0:0:0:0:
448,192,207213,128,0,207317:0:0:0:0:
192,192,207317,1,0,0:0:0:0:
320,192,207317,1,0,0:0:0:0:
64,192,207317,128,0,207734:0:0:0:0:
448,192,207526,1,0,0:0:0:0:
320,192,207734,1,0,0:0:0:0:
448,192,207734,1,0,0:0:0:0:
192,192,207734,1,0,0:0:0:0:
320,192,207942,128,0,208046:0:0:0:0:
192,192,208046,128,0,208151:0:0:0:0:
320,192,208151,1,0,0:0:0:0:
64,192,208151,1,0,0:0:0:0:
448,192,208151,128,0,208567:0:0:0:0:
192,192,208359,1,0,0:0:0:0:
64,192,208567,1,0,0:0:0:0:
320,192,208567,1,0,0:0:0:0:
192,192,208567,1,0,0:0:0:0:
64,192,208776,128,0,208880:0:0:0:0:
192,192,208880,128,0,208984:0:0:0:0:
320,192,208984,128,0,209401:0:0:0:0:
448,192,208984,1,0,0:0:0:0:
64,192,208984,1,0,0:0:0:0:
192,192,209192,1,0,0:0:0:0:
64,192,209401,1,0,0:0:0:0:
448,192,209401,1,0,0:0:0:0:
192,192,209401,1,0,0:0:0:0:
320,192,209609,1,0,0:0:0:0:
64,192,209817,1,0,0:0:0:0:
448,192,209817,1,0,0:0:0:0:
192,192,209817,128,0,210026:0:0:0:0:
448,192,210026,1,0,0:0:0:0:
320,192,210130,128,0,210338:0:0:0:0:
192,192,210234,1,0,0:0:0:0:
64,192,210234,1,0,0:0:0:0:
448,192,210234,1,0,0:0:0:0:
448,192,210442,128,0,210651:0:0:0:0:
64,192,210442,1,0,0:0:0:0:
192,192,210651,1,0,0:0:0:0:
64,192,210651,1,0,0:0:0:0:
320,192,210651,1,0,0:0:0:0:
448,192,210755,1,0,0:0:0:0:
192,192,210859,1,0,0:0:0:0:
64,192,210859,1,0,0:0:0:0:
320,192,210963,1,0,0:0:0:0:
448,192,211067,1,0,0:0:0:0:
64,192,211067,1,0,0:0:0:0:
192,192,211067,1,0,0:0:0:0:
320,192,211171,1,0,0:0:0:0:
64,192,211276,1,0,0:0:0:0:
448,192,211276,1,0,0:0:0:0:
192,192,211380,1,0,0:0:0:0:
320,192,211484,1,0,0:0:0:0:
448,192,211484,1,0,0:0:0:0:
192,192,211588,1,0,0:0:0:0:
64,192,211588,1,0,0:0:0:0:
320,192,211692,1,0,0:0:0:0:
448,192,211692,1,0,0:0:0:0:
64,192,211796,1,0,0:0:0:0:
192,192,211796,1,0,0:0:0:0:
320,192,211901,1,0,0:0:0:0:
448,192,211901,1,0,0:0:0:0:
192,192,212005,1,0,0:0:0:0:
64,192,212005,1,0,0:0:0:0:
448,192,212109,1,0,0:0:0:0:
320,192,212109,1,0,0:0:0:0:
64,192,212213,1,0,0:0:0:0:
192,192,212213,1,0,0:0:0:0:
448,192,212317,128,0,213880:0:0:0:0:
320,192,212317,128,0,213880:0:0:0:0:
64,192,213984,128,0,214505:0:0:0:0:
448,192,213984,128,0,214505:0:0:0:0:
192,192,214609,128,0,214713:0:0:0:0:
320,192,214713,128,0,214817:0:0:0:0:
448,192,214817,128,0,215026:0:0:0:0:
320,192,215026,128,0,215234:0:0:0:0:
192,192,215234,128,0,215442:0:0:0:0:
64,192,215442,128,0,215651:0:0:0:0:
192,192,215651,1,0,0:0:0:0:
320,192,215651,1,0,0:0:0:0:
448,192,215651,1,0,0:0:0:0:
64,192,215963,1,0,0:0:0:0:
448,192,215963,1,0,0:0:0:0:
320,192,215963,1,0,0:0:0:0:
192,192,216276,1,0,0:0:0:0:
64,192,216276,1,0,0:0:0:0:
448,192,216276,1,0,0:0:0:0:
64,192,216484,128,0,216796:0:0:0:0:
192,192,216484,128,0,216796:0:0:0:0:
320,192,216484,128,0,216796:0:0:0:0:
448,192,216484,128,0,216796:0:0:0:0:
64,192,216901,5,0,0:0:0:0:
320,192,216901,1,0,0:0:0:0:
192,192,216901,1,0,0:0:0:0:
448,192,216901,1,0,0:0:0:0:
448,192,217317,5,0,0:0:0:0:
320,192,217317,128,0,217526:0:0:0:0:
64,192,217317,1,0,0:0:0:0:
192,192,217421,1,0,0:0:0:0:
448,192,217526,1,0,0:0:0:0:
192,192,217630,128,0,217838:0:0:0:0:
64,192,217734,1,0,0:0:0:0:
320,192,217734,1,0,0:0:0:0:
448,192,217838,1,0,0:0:0:0:
64,192,217942,128,0,218151:0:0:0:0:
192,192,218046,1,0,0:0:0:0:
448,192,218151,128,0,218463:0:0:0:0:
320,192,218151,1,0,0:0:0:0:
64,192,218255,1,0,0:0:0:0:
192,192,218359,1,0,0:0:0:0:
64,192,218463,1,0,0:0:0:0:
320,192,218567,128,0,218880:0:0:0:0:
448,192,218567,1,0,0:0:0:0:
192,192,218671,1,0,0:0:0:0:
64,192,218776,1,0,0:0:0:0:
448,192,218880,1,0,0:0:0:0:
192,192,218984,128,0,219401:0:0:0:0:
64,192,218984,1,0,0:0:0:0:
320,192,219088,1,0,0:0:0:0:
448,192,219192,1,0,0:0:0:0:
64,192,219296,1,0,0:0:0:0:
320,192,219401,1,0,0:0:0:0:
448,192,219401,1,0,0:0:0:0:
192,192,219505,1,0,0:0:0:0:
64,192,219609,128,0,219713:0:0:0:0:
192,192,219713,128,0,219817:0:0:0:0:
448,192,219817,128,0,220234:0:0:0:0:
320,192,219817,1,0,0:0:0:0:
192,192,219921,1,0,0:0:0:0:
64,192,219921,1,0,0:0:0:0:
192,192,220026,1,0,0:0:0:0:
64,192,220026,1,0,0:0:0:0:
320,192,220130,1,0,0:0:0:0:
192,192,220234,1,0,0:0:0:0:
64,192,220234,1,0,0:0:0:0:
320,192,220338,1,0,0:0:0:0:
448,192,220442,1,0,0:0:0:0:
64,192,220442,1,0,0:0:0:0:
192,192,220546,1,0,0:0:0:0:
320,192,220546,1,0,0:0:0:0:
448,192,220651,1,0,0:0:0:0:
320,192,220651,128,0,221067:0:0:0:0:
64,192,220651,1,0,0:0:0:0:
192,192,220755,1,0,0:0:0:0:
448,192,220859,1,0,0:0:0:0:
64,192,220963,1,0,0:0:0:0:
192,192,221067,1,0,0:0:0:0:
448,192,221067,1,0,0:0:0:0:
320,192,221171,1,0,0:0:0:0:
64,192,221276,128,0,221380:0:0:0:0:
192,192,221380,128,0,221484:0:0:0:0:
320,192,221484,128,0,221692:0:0:0:0:
448,192,221484,1,0,0:0:0:0:
64,192,221588,1,0,0:0:0:0:
448,192,221692,128,0,221901:0:0:0:0:
192,192,221796,1,0,0:0:0:0:
320,192,221901,128,0,222109:0:0:0:0:
64,192,221901,1,0,0:0:0:0:
448,192,222005,1,0,0:0:0:0:
192,192,222109,128,0,222317:0:0:0:0:
320,192,222213,1,0,0:0:0:0:
64,192,222317,128,0,222734:0:0:0:0:
448,192,222317,1,0,0:0:0:0:
192,192,222421,1,0,0:0:0:0:
320,192,222526,1,0,0:0:0:0:
192,192,222630,1,0,0:0:0:0:
448,192,222734,1,0,0:0:0:0:
320,192,222734,1,0,0:0:0:0:
64,192,222838,1,0,0:0:0:0:
448,192,222942,128,0,223046:0:0:0:0:
320,192,223046,128,0,223151:0:0:0:0:
192,192,223151,128,0,223567:0:0:0:0:
64,192,223151,1,0,0:0:0:0:
448,192,223255,1,0,0:0:0:0:
320,192,223359,1,0,0:0:0:0:
64,192,223463,1,0,0:0:0:0:
320,192,223567,1,0,0:0:0:0:
448,192,223567,1,0,0:0:0:0:
64,192,223671,1,0,0:0:0:0:
320,192,223776,128,0,223880:0:0:0:0:
192,192,223880,128,0,223984:0:0:0:0:
64,192,223984,128,0,224192:0:0:0:0:
320,192,223984,1,0,0:0:0:0:
448,192,223984,1,0,0:0:0:0:
192,192,224088,1,0,0:0:0:0:
448,192,224192,128,0,224401:0:0:0:0:
64,192,224296,1,0,0:0:0:0:
320,192,224401,128,0,224609:0:0:0:0:
192,192,224401,1,0,0:0:0:0:
448,192,224505,5,0,0:0:0:0:
192,192,224609,128,0,224817:0:0:0:0:
320,192,224713,1,0,0:0:0:0:
64,192,224817,128,0,225234:0:0:0:0:
448,192,224817,1,0,0:0:0:0:
192,192,224921,1,0,0:0:0:0:
320,192,225026,1,0,0:0:0:0:
192,192,225130,1,0,0:0:0:0:
320,192,225234,128,0,225442:0:0:0:0:
448,192,225234,1,0,0:0:0:0:
64,192,225338,1,0,0:0:0:0:
192,192,225442,1,0,0:0:0:0:
320,192,225546,1,0,0:0:0:0:
64,192,225651,5,0,0:0:0:0:
448,192,225651,1,0,0:0:0:0:
192,192,225651,1,0,0:0:0:0:
320,192,225755,1,0,0:0:0:0:
64,192,225859,1,0,0:0:0:0:
192,192,225963,1,0,0:0:0:0:
320,192,226067,1,0,0:0:0:0:
448,192,226067,1,0,0:0:0:0:
64,192,226067,1,0,0:0:0:0:
192,192,226171,1,0,0:0:0:0:
320,192,226276,1,0,0:0:0:0:
64,192,226380,1,0,0:0:0:0:
192,192,226380,1,0,0:0:0:0:
320,192,226484,1,0,0:0:0:0:
448,192,226484,1,0,0:0:0:0:
192,192,226588,1,0,0:0:0:0:
64,192,226692,1,0,0:0:0:0:
448,192,226692,1,0,0:0:0:0:
320,192,226796,1,0,0:0:0:0:
448,192,226901,1,0,0:0:0:0:
192,192,226901,1,0,0:0:0:0:
64,192,226901,1,0,0:0:0:0:
320,192,227005,1,0,0:0:0:0:
192,192,227109,1,0,0:0:0:0:
64,192,227109,1,0,0:0:0:0:
320,192,227213,1,0,0:0:0:0:
448,192,227213,1,0,0:0:0:0:
448,192,227317,128,0,227734:0:0:0:0:
192,192,227317,128,0,227421:0:0:0:0:
64,192,227317,128,0,227421:0:0:0:0:
320,192,227421,128,0,227526:0:0:0:0:
64,192,227526,128,0,227630:0:0:0:0:
192,192,227630,128,0,227734:0:0:0:0:
320,192,227734,128,0,227838:0:0:0:0:
64,192,227734,128,0,227838:0:0:0:0:
448,192,227838,128,0,227942:0:0:0:0:
64,192,227942,128,0,228151:0:0:0:0:
192,192,227942,128,0,228046:0:0:0:0:
320,192,228046,128,0,228151:0:0:0:0:
448,192,228151,128,0,228567:0:0:0:0:
192,192,228151,128,0,228255:0:0:0:0:
64,192,228255,128,0,228359:0:0:0:0:
320,192,228359,128,0,228463:0:0:0:0:
64,192,228463,128,0,228567:0:0:0:0:
192,192,228567,128,0,228671:0:0:0:0:
320,192,228567,128,0,228671:0:0:0:0:
448,192,228671,128,0,228776:0:0:0:0:
64,192,228776,128,0,228880:0:0:0:0:
320,192,228776,128,0,228880:0:0:0:0:
192,192,228880,128,0,228984:0:0:0:0:
320,192,228984,128,0,229192:0:0:0:0:
448,192,228984,128,0,229088:0:0:0:0:
192,192,229088,128,0,229192:0:0:0:0:
64,192,229192,128,0,229296:0:0:0:0:
192,192,229296,128,0,229505:0:0:0:0:
448,192,229296,128,0,229401:0:0:0:0:
320,192,229401,128,0,229505:0:0:0:0:
64,192,229401,128,0,229505:0:0:0:0:
448,192,229505,128,0,229609:0:0:0:0:
64,192,229609,128,0,229817:0:0:0:0:
320,192,229609,128,0,229713:0:0:0:0:
192,192,229713,128,0,229817:0:0:0:0:
320,192,229817,128,0,230130:0:0:0:0:
448,192,229817,128,0,230026:0:0:0:0:
192,192,229921,128,0,230130:0:0:0:0:
64,192,230026,128,0,230130:0:0:0:0:
448,192,230130,128,0,230234:0:0:0:0:
320,192,230234,128,0,230338:0:0:0:0:
192,192,230234,128,0,230442:0:0:0:0:
64,192,230234,128,0,230546:0:0:0:0:
448,192,230338,128,0,230546:0:0:0:0:
320,192,230442,128,0,230651:0:0:0:0:
192,192,230546,128,0,230651:0:0:0:0:
448,192,230651,128,0,230859:0:0:0:0:
64,192,230651,128,0,230755:0:0:0:0:
192,192,230755,128,0,230859:0:0:0:0:
320,192,230859,128,0,231067:0:0:0:0:
64,192,230859,128,0,230963:0:0:0:0:
448,192,230963,128,0,231067:0:0:0:0:
192,192,231067,128,0,231276:0:0:0:0:
64,192,231067,128,0,231171:0:0:0:0:
320,192,231171,128,0,231276:0:0:0:0:
64,192,231276,128,0,231484:0:0:0:0:
448,192,231276,128,0,231380:0:0:0:0:
320,192,231380,128,0,231484:0:0:0:0:
192,192,231484,128,0,231692:0:0:0:0:
448,192,231484,128,0,231588:0:0:0:0:
64,192,231588,128,0,231692:0:0:0:0:
320,192,231692,128,0,231901:0:0:0:0:
448,192,231692,128,0,231796:0:0:0:0:
192,192,231796,128,0,231901:0:0:0:0:
448,192,231901,128,0,232109:0:0:0:0:
64,192,231901,128,0,232005:0:0:0:0:
320,192,232005,128,0,232109:0:0:0:0:
64,192,232109,128,0,232317:0:0:0:0:
192,192,232109,128,0,232213:0:0:0:0:
320,192,232213,128,0,232317:0:0:0:0:
448,192,232317,128,0,232734:0:0:0:0:
192,192,232317,128,0,232421:0:0:0:0:
64,192,232421,128,0,232526:0:0:0:0:
320,192,232526,128,0,232630:0:0:0:0:
192,192,232630,128,0,232734:0:0:0:0:
64,192,232734,128,0,232838:0:0:0:0:
320,192,232734,128,0,232838:0:0:0:0:
448,192,232838,128,0,232942:0:0:0:0:
192,192,232942,128,0,233046:0:0:0:0:
64,192,232942,128,0,233046:0:0:0:0:
320,192,233046,128,0,233151:0:0:0:0:
64,192,233151,128,0,233671:0:0:0:0:
448,192,233151,128,0,233359:0:0:0:0:
192,192,233151,128,0,233255:0:0:0:0:
320,192,233255,128,0,233359:0:0:0:0:
192,192,233359,128,0,233567:0:0:0:0:
320,192,233463,1,0,0:0:0:0:
448,192,233463,1,0,0:0:0:0:
320,192,233567,128,0,233776:0:0:0:0:
448,192,233567,128,0,233671:0:0:0:0:
192,192,233671,128,0,233776:0:0:0:0:
448,192,233776,1,0,0:0:0:0:
64,192,233776,1,0,0:0:0:0:
320,192,233880,1,0,0:0:0:0:
192,192,233880,1,0,0:0:0:0:
320,192,233984,1,0,0:0:0:0:
64,192,233984,1,0,0:0:0:0:
448,192,233984,1,0,0:0:0:0:
192,192,234088,1,0,0:0:0:0:
320,192,234192,1,0,0:0:0:0:
448,192,234192,1,0,0:0:0:0:
64,192,234296,1,0,0:0:0:0:
192,192,234401,1,0,0:0:0:0:
320,192,234401,1,0,0:0:0:0:
448,192,234401,1,0,0:0:0:0:
64,192,234505,1,0,0:0:0:0:
192,192,234609,1,0,0:0:0:0:
320,192,234609,1,0,0:0:0:0:
448,192,234713,1,0,0:0:0:0:
320,192,234817,1,0,0:0:0:0:
192,192,234817,1,0,0:0:0:0:
64,192,234817,1,0,0:0:0:0:
448,192,234921,1,0,0:0:0:0:
64,192,235026,1,0,0:0:0:0:
192,192,235026,1,0,0:0:0:0:
320,192,235130,1,0,0:0:0:0:
448,192,235234,1,0,0:0:0:0:
64,192,235234,1,0,0:0:0:0:
192,192,235234,1,0,0:0:0:0:
320,192,235338,1,0,0:0:0:0:
448,192,235442,1,0,0:0:0:0:
64,192,235442,1,0,0:0:0:0:
192,192,235546,1,0,0:0:0:0:
320,192,235651,1,0,0:0:0:0:
448,192,235651,1,0,0:0:0:0:
64,192,235651,1,0,0:0:0:0:
192,192,235755,1,0,0:0:0:0:
64,192,235859,1,0,0:0:0:0:
448,192,235859,1,0,0:0:0:0:
320,192,235963,1,0,0:0:0:0:
192,192,236067,1,0,0:0:0:0:
64,192,236067,1,0,0:0:0:0:
448,192,236067,1,0,0:0:0:0:
320,192,236171,1,0,0:0:0:0:
192,192,236276,1,0,0:0:0:0:
64,192,236276,1,0,0:0:0:0:
448,192,236380,1,0,0:0:0:0:
320,192,236484,1,0,0:0:0:0:
192,192,236484,1,0,0:0:0:0:
64,192,236484,1,0,0:0:0:0:
448,192,236588,1,0,0:0:0:0:
320,192,236692,1,0,0:0:0:0:
192,192,236692,1,0,0:0:0:0:
64,192,236796,1,0,0:0:0:0:
320,192,236901,1,0,0:0:0:0:
448,192,236901,1,0,0:0:0:0:
192,192,236901,1,0,0:0:0:0:
64,192,237005,1,0,0:0:0:0:
320,192,237109,1,0,0:0:0:0:
448,192,237109,1,0,0:0:0:0:
64,192,237161,1,0,0:0:0:0:
192,192,237213,1,0,0:0:0:0:
320,192,237265,1,0,0:0:0:0:
448,192,237317,1,0,0:0:0:0:
64,192,237317,1,0,0:0:0:0:
192,192,237317,1,0,0:0:0:0:
320,192,237421,1,0,0:0:0:0:
64,192,237526,1,0,0:0:0:0:
192,192,237630,1,0,0:0:0:0:
448,192,237630,1,0,0:0:0:0:
320,192,237734,1,0,0:0:0:0:
64,192,237838,1,0,0:0:0:0:
448,192,237942,1,0,0:0:0:0:
320,192,237942,1,0,0:0:0:0:
192,192,238046,1,0,0:0:0:0:
448,192,238151,1,0,0:0:0:0:
320,192,238151,1,0,0:0:0:0:
64,192,238151,1,0,0:0:0:0:
192,192,238255,1,0,0:0:0:0:
448,192,238359,1,0,0:0:0:0:
320,192,238463,1,0,0:0:0:0:
64,192,238463,1,0,0:0:0:0:
192,192,238567,1,0,0:0:0:0:
320,192,238671,1,0,0:0:0:0:
64,192,238776,1,0,0:0:0:0:
192,192,238776,1,0,0:0:0:0:
448,192,238828,1,0,0:0:0:0:
320,192,238880,1,0,0:0:0:0:
192,192,238932,1,0,0:0:0:0:
448,192,238984,1,0,0:0:0:0:
320,192,238984,1,0,0:0:0:0:
64,192,238984,1,0,0:0:0:0:
192,192,239036,1,0,0:0:0:0:
448,192,239088,1,0,0:0:0:0:
320,192,239140,1,0,0:0:0:0:
192,192,239192,1,0,0:0:0:0:
64,192,239244,1,0,0:0:0:0:
448,192,239296,1,0,0:0:0:0:
320,192,239348,1,0,0:0:0:0:
64,192,239401,1,0,0:0:0:0:
192,192,239453,1,0,0:0:0:0:
320,192,239505,1,0,0:0:0:0:
448,192,239557,1,0,0:0:0:0:
64,192,239609,1,0,0:0:0:0:
192,192,239661,1,0,0:0:0:0:
448,192,239713,1,0,0:0:0:0:
320,192,239765,1,0,0:0:0:0:
192,192,239817,1,0,0:0:0:0:
64,192,239869,1,0,0:0:0:0:
448,192,239921,1,0,0:0:0:0:
320,192,239973,1,0,0:0:0:0:
64,192,240026,1,0,0:0:0:0:
192,192,240026,1,0,0:0:0:0:
320,192,240130,1,0,0:0:0:0:
448,192,240130,1,0,0:0:0:0:
64,192,240234,1,0,0:0:0:0:
192,192,240234,1,0,0:0:0:0:
320,192,240338,1,0,0:0:0:0:
448,192,240338,1,0,0:0:0:0:
64,192,240442,1,0,0:0:0:0:
192,192,240442,1,0,0:0:0:0:
320,192,240546,1,0,0:0:0:0:
192,192,240651,128,0,240755:0:0:0:0:
64,192,240651,128,0,240755:0:0:0:0:
448,192,240651,128,0,240963:0:0:0:0:
320,192,240755,128,0,240859:0:0:0:0:
64,192,240859,128,0,240963:0:0:0:0:
192,192,240963,128,0,241067:0:0:0:0:
64,192,241067,128,0,241171:0:0:0:0:
448,192,241067,128,0,241171:0:0:0:0:
320,192,241067,128,0,241171:0:0:0:0:
192,192,241171,128,0,241276:0:0:0:0:
448,192,241276,128,0,241380:0:0:0:0:
320,192,241276,128,0,241380:0:0:0:0:
64,192,241380,128,0,241484:0:0:0:0:
448,192,241484,128,0,241588:0:0:0:0:
192,192,241484,128,0,241692:0:0:0:0:
64,192,241588,128,0,241692:0:0:0:0:
448,192,241692,128,0,241796:0:0:0:0:
320,192,241692,128,0,241901:0:0:0:0:
192,192,241796,128,0,241901:0:0:0:0:
64,192,241901,128,0,242005:0:0:0:0:
448,192,241901,128,0,242109:0:0:0:0:
320,192,242005,128,0,242109:0:0:0:0:
192,192,242109,128,0,242213:0:0:0:0:
64,192,242109,128,0,242317:0:0:0:0:
320,192,242213,128,0,242317:0:0:0:0:
192,192,242317,128,0,242421:0:0:0:0:
448,192,242317,128,0,242630:0:0:0:0:
64,192,242421,128,0,242526:0:0:0:0:
320,192,242526,128,0,242630:0:0:0:0:
192,192,242630,128,0,242734:0:0:0:0:
448,192,242734,128,0,242838:0:0:0:0:
320,192,242734,128,0,242838:0:0:0:0:
64,192,242734,128,0,242838:0:0:0:0:
192,192,242838,128,0,242942:0:0:0:0:
448,192,242942,128,0,243046:0:0:0:0:
64,192,242942,128,0,243046:0:0:0:0:
320,192,243046,128,0,243151:0:0:0:0:
192,192,243151,128,0,243255:0:0:0:0:
64,192,243151,128,0,243463:0:0:0:0:
448,192,243255,128,0,243359:0:0:0:0:
320,192,243359,128,0,243463:0:0:0:0:
192,192,243463,128,0,243567:0:0:0:0:
448,192,243567,128,0,243671:0:0:0:0:
320,192,243567,128,0,243671:0:0:0:0:
64,192,243567,128,0,243671:0:0:0:0:
192,192,243671,128,0,243776:0:0:0:0:
320,192,243776,128,0,243880:0:0:0:0:
64,192,243880,128,0,243984:0:0:0:0:
448,192,243984,128,0,244088:0:0:0:0:
320,192,243984,128,0,244192:0:0:0:0:
192,192,244088,128,0,244192:0:0:0:0:
64,192,244192,128,0,244296:0:0:0:0:
320,192,244296,128,0,244401:0:0:0:0:
192,192,244296,128,0,244505:0:0:0:0:
448,192,244401,128,0,244505:0:0:0:0:
64,192,244401,128,0,244505:0:0:0:0:
320,192,244505,128,0,244609:0:0:0:0:
64,192,244609,128,0,244817:0:0:0:0:
192,192,244609,128,0,244713:0:0:0:0:
320,192,244713,128,0,244817:0:0:0:0:
192,192,244817,128,0,244921:0:0:0:0:
448,192,244817,128,0,245130:0:0:0:0:
64,192,244921,128,0,245026:0:0:0:0:
320,192,245026,128,0,245130:0:0:0:0:
192,192,245130,128,0,245234:0:0:0:0:
448,192,245234,128,0,245338:0:0:0:0:
64,192,245234,128,0,245338:0:0:0:0:
320,192,245234,128,0,245651:0:0:0:0:
192,192,245338,128,0,245442:0:0:0:0:
64,192,245442,128,0,245546:0:0:0:0:
448,192,245546,128,0,245651:0:0:0:0:
64,192,245651,128,0,245755:0:0:0:0:
192,192,245651,128,0,245963:0:0:0:0:
320,192,245755,128,0,245859:0:0:0:0:
448,192,245859,128,0,245963:0:0:0:0:
320,192,245963,128,0,246067:0:0:0:0:
448,192,246067,128,0,246171:0:0:0:0:
64,192,246067,128,0,246171:0:0:0:0:
192,192,246067,128,0,246171:0:0:0:0:
320,192,246171,128,0,246276:0:0:0:0:
64,192,246276,128,0,246380:0:0:0:0:
448,192,246276,128,0,246380:0:0:0:0:
192,192,246380,128,0,246484:0:0:0:0:
320,192,246484,128,0,246588:0:0:0:0:
448,192,246484,128,0,246796:0:0:0:0:
64,192,246588,1,0,0:0:0:0:
192,192,246588,1,0,0:0:0:0:
192,192,246692,128,0,246796:0:0:0:0:
64,192,246692,128,0,246796:0:0:0:0:
320,192,246796,128,0,246901:0:0:0:0:
192,192,246901,128,0,247005:0:0:0:0:
64,192,246901,128,0,247005:0:0:0:0:
448,192,246901,128,0,247005:0:0:0:0:
320,192,247005,128,0,247109:0:0:0:0:
64,192,247109,128,0,247213:0:0:0:0:
448,192,247109,128,0,247213:0:0:0:0:
192,192,247213,128,0,247317:0:0:0:0:
448,192,247317,128,0,247421:0:0:0:0:
64,192,247317,128,0,247421:0:0:0:0:
320,192,247317,128,0,247630:0:0:0:0:
192,192,247421,128,0,247526:0:0:0:0:
448,192,247526,128,0,247630:0:0:0:0:
64,192,247630,128,0,247734:0:0:0:0:
448,192,247734,128,0,247838:0:0:0:0:
320,192,247734,128,0,247838:0:0:0:0:
192,192,247734,128,0,247838:0:0:0:0:
64,192,247838,128,0,247942:0:0:0:0:
448,192,247942,128,0,248046:0:0:0:0:
320,192,247942,128,0,248046:0:0:0:0:
192,192,248046,128,0,248151:0:0:0:0:
64,192,248151,128,0,248255:0:0:0:0:
448,192,248151,128,0,248359:0:0:0:0:
192,192,248255,128,0,248359:0:0:0:0:
64,192,248359,128,0,248463:0:0:0:0:
320,192,248359,128,0,248567:0:0:0:0:
448,192,248463,128,0,248567:0:0:0:0:
64,192,248567,128,0,248671:0:0:0:0:
192,192,248567,128,0,248776:0:0:0:0:
320,192,248671,128,0,248776:0:0:0:0:
448,192,248776,128,0,248880:0:0:0:0:
64,192,248776,128,0,248984:0:0:0:0:
192,192,248880,128,0,248984:0:0:0:0:
320,192,248984,128,0,249088:0:0:0:0:
448,192,248984,128,0,249296:0:0:0:0:
64,192,249088,128,0,249192:0:0:0:0:
192,192,249192,128,0,249296:0:0:0:0:
320,192,249296,128,0,249401:0:0:0:0:
448,192,249401,128,0,249505:0:0:0:0:
64,192,249401,128,0,249505:0:0:0:0:
192,192,249401,128,0,249505:0:0:0:0:
320,192,249505,128,0,249609:0:0:0:0:
448,192,249609,128,0,249713:0:0:0:0:
64,192,249609,128,0,249713:0:0:0:0:
192,192,249713,128,0,249817:0:0:0:0:
64,192,249817,128,0,249921:0:0:0:0:
320,192,249817,128,0,250130:0:0:0:0:
448,192,249921,128,0,250026:0:0:0:0:
64,192,250026,128,0,250130:0:0:0:0:
192,192,250130,128,0,250234:0:0:0:0:
448,192,250234,128,0,250338:0:0:0:0:
320,192,250234,128,0,250338:0:0:0:0:
64,192,250234,128,0,250338:0:0:0:0:
192,192,250338,128,0,250442:0:0:0:0:
448,192,250442,128,0,250546:0:0:0:0:
64,192,250442,128,0,250546:0:0:0:0:
320,192,250546,128,0,250651:0:0:0:0:
448,192,250651,128,0,250755:0:0:0:0:
192,192,250651,128,0,250755:0:0:0:0:
64,192,250651,128,0,250859:0:0:0:0:
320,192,250755,128,0,250859:0:0:0:0:
192,192,250859,128,0,250963:0:0:0:0:
448,192,250859,128,0,251067:0:0:0:0:
64,192,250963,128,0,251067:0:0:0:0:
192,192,251067,128,0,251171:0:0:0:0:
320,192,251067,128,0,251276:0:0:0:0:
64,192,251171,128,0,251276:0:0:0:0:
448,192,251276,128,0,251380:0:0:0:0:
192,192,251276,128,0,251484:0:0:0:0:
320,192,251380,128,0,251484:0:0:0:0:
448,192,251484,128,0,251588:0:0:0:0:
64,192,251484,128,0,251901:0:0:0:0:
192,192,251588,128,0,251692:0:0:0:0:
320,192,251692,128,0,251796:0:0:0:0:
192,192,251796,128,0,251901:0:0:0:0:
320,192,251901,128,0,252005:0:0:0:0:
448,192,251901,128,0,252213:0:0:0:0:
64,192,252005,128,0,252109:0:0:0:0:
192,192,252109,128,0,252213:0:0:0:0:
320,192,252213,128,0,252317:0:0:0:0:
64,192,252317,128,0,252421:0:0:0:0:
192,192,252317,128,0,252421:0:0:0:0:
448,192,252317,128,0,252421:0:0:0:0:
320,192,252421,128,0,252526:0:0:0:0:
64,192,252526,128,0,252630:0:0:0:0:
192,192,252630,128,0,252734:0:0:0:0:
320,192,252734,128,0,252838:0:0:0:0:
448,192,252734,128,0,252838:0:0:0:0:
64,192,252734,128,0,252838:0:0:0:0:
192,192,252838,128,0,252942:0:0:0:0:
320,192,252942,128,0,253046:0:0:0:0:
192,192,253046,128,0,253151:0:0:0:0:
64,192,253046,128,0,253151:0:0:0:0:
320,192,253151,128,0,253255:0:0:0:0:
448,192,253151,128,0,253255:0:0:0:0:
192,192,253255,128,0,253359:0:0:0:0:
64,192,253359,128,0,253463:0:0:0:0:
448,192,253359,128,0,253463:0:0:0:0:
320,192,253463,128,0,253567:0:0:0:0:
192,192,253567,128,0,253671:0:0:0:0:
64,192,253567,128,0,253671:0:0:0:0:
448,192,253567,128,0,253671:0:0:0:0:
320,192,253671,128,0,253776:0:0:0:0:
448,192,253776,128,0,253880:0:0:0:0:
64,192,253776,128,0,253880:0:0:0:0:
192,192,253880,128,0,253984:0:0:0:0:
64,192,253984,128,0,254505:0:0:0:0:
320,192,253984,128,0,254192:0:0:0:0:
448,192,253984,128,0,254088:0:0:0:0:
192,192,254088,128,0,254296:0:0:0:0:
448,192,254192,128,0,254296:0:0:0:0:
320,192,254296,128,0,254401:0:0:0:0:
192,192,254401,128,0,254609:0:0:0:0:
448,192,254401,128,0,254505:0:0:0:0:
320,192,254505,128,0,254713:0:0:0:0:
64,192,254609,128,0,254817:0:0:0:0:
448,192,254609,128,0,254713:0:0:0:0:
192,192,254713,128,0,254817:0:0:0:0:
320,192,254817,128,0,254921:0:0:0:0:
448,192,254817,128,0,255130:0:0:0:0:
192,192,254921,128,0,255026:0:0:0:0:
64,192,255026,128,0,255130:0:0:0:0:
192,192,255130,128,0,255234:0:0:0:0:
448,192,255234,128,0,255338:0:0:0:0:
64,192,255234,128,0,255338:0:0:0:0:
320,192,255234,128,0,255338:0:0:0:0:
192,192,255338,128,0,255442:0:0:0:0:
448,192,255442,128,0,255546:0:0:0:0:
320,192,255442,128,0,255546:0:0:0:0:
64,192,255546,128,0,255651:0:0:0:0:
192,192,255651,128,0,255755:0:0:0:0:
320,192,255651,128,0,255859:0:0:0:0:
448,192,255755,128,0,255859:0:0:0:0:
64,192,255859,128,0,255963:0:0:0:0:
448,192,255963,128,0,256067:0:0:0:0:
192,192,255963,128,0,256171:0:0:0:0:
64,192,256067,128,0,256171:0:0:0:0:
320,192,256067,128,0,256171:0:0:0:0:
448,192,256171,128,0,256276:0:0:0:0:
320,192,256276,128,0,256380:0:0:0:0:
64,192,256276,128,0,256484:0:0:0:0:
192,192,256380,128,0,256484:0:0:0:0:
448,192,256484,128,0,256692:0:0:0:0:
320,192,256484,128,0,256796:0:0:0:0:
192,192,256588,128,0,256796:0:0:0:0:
64,192,256692,128,0,256796:0:0:0:0:
448,192,256796,128,0,256901:0:0:0:0:
64,192,256901,128,0,257213:0:0:0:0:
192,192,256901,128,0,257109:0:0:0:0:
320,192,256901,128,0,257005:0:0:0:0:
448,192,257005,128,0,257213:0:0:0:0:
320,192,257109,128,0,257421:0:0:0:0:
192,192,257213,128,0,257317:0:0:0:0:
64,192,257317,128,0,257421:0:0:0:0:
448,192,257317,128,0,257526:0:0:0:0:
192,192,257421,128,0,257630:0:0:0:0:
64,192,257526,128,0,257630:0:0:0:0:
320,192,257526,128,0,257734:0:0:0:0:
448,192,257630,128,0,257838:0:0:0:0:
64,192,257734,128,0,257838:0:0:0:0:
192,192,257734,128,0,258046:0:0:0:0:
320,192,257838,128,0,257942:0:0:0:0:
448,192,257942,128,0,258046:0:0:0:0:
64,192,257942,128,0,258151:0:0:0:0:
320,192,258046,128,0,258255:0:0:0:0:
448,192,258151,128,0,258255:0:0:0:0:
192,192,258151,128,0,258359:0:0:0:0:
64,192,258255,128,0,258463:0:0:0:0:
448,192,258359,128,0,258463:0:0:0:0:
320,192,258359,128,0,258567:0:0:0:0:
192,192,258463,128,0,258671:0:0:0:0:
64,192,258567,128,0,258671:0:0:0:0:
448,192,258567,128,0,258880:0:0:0:0:
320,192,258671,128,0,258776:0:0:0:0:
192,192,258776,128,0,258880:0:0:0:0:
64,192,258776,128,0,258984:0:0:0:0:
320,192,258880,128,0,258984:0:0:0:0:
192,192,258984,128,0,259088:0:0:0:0:
448,192,258984,128,0,259296:0:0:0:0:
64,192,259088,128,0,259192:0:0:0:0:
320,192,259192,128,0,259296:0:0:0:0:
192,192,259296,128,0,259401:0:0:0:0:
320,192,259401,128,0,259505:0:0:0:0:
64,192,259401,128,0,259505:0:0:0:0:
448,192,259401,128,0,259505:0:0:0:0:
192,192,259505,128,0,259609:0:0:0:0:
64,192,259609,128,0,259713:0:0:0:0:
448,192,259609,128,0,259713:0:0:0:0:
320,192,259713,128,0,259817:0:0:0:0:
192,192,259817,128,0,259921:0:0:0:0:
448,192,259817,128,0,260026:0:0:0:0:
64,192,259817,128,0,260338:0:0:0:0:
320,192,259921,128,0,260026:0:0:0:0:
192,192,260026,128,0,260234:0:0:0:0:
448,192,260130,1,0,0:0:0:0:
320,192,260130,1,0,0:0:0:0:
448,192,260234,128,0,260338:0:0:0:0:
320,192,260234,128,0,260442:0:0:0:0:
192,192,260338,128,0,260442:0:0:0:0:
64,192,260442,1,0,0:0:0:0:
448,192,260442,1,0,0:0:0:0:
192,192,260546,1,0,0:0:0:0:
320,192,260546,1,0,0:0:0:0:
64,192,260651,128,0,260755:0:0:0:0:
320,192,260651,128,0,260755:0:0:0:0:
448,192,260651,128,0,260755:0:0:0:0:
192,192,260755,128,0,260859:0:0:0:0:
320,192,260859,128,0,260963:0:0:0:0:
448,192,260859,128,0,260963:0:0:0:0:
64,192,260963,128,0,261067:0:0:0:0:
192,192,261067,128,0,261171:0:0:0:0:
320,192,261067,128,0,261171:0:0:0:0:
448,192,261067,128,0,261171:0:0:0:0:
64,192,261171,128,0,261276:0:0:0:0:
192,192,261276,128,0,261380:0:0:0:0:
320,192,261276,128,0,261380:0:0:0:0:
448,192,261380,128,0,261484:0:0:0:0:
64,192,261484,128,0,261588:0:0:0:0:
192,192,261484,128,0,261588:0:0:0:0:
320,192,261484,128,0,261588:0:0:0:0:
448,192,261588,128,0,261692:0:0:0:0:
192,192,261692,128,0,261796:0:0:0:0:
64,192,261692,128,0,261796:0:0:0:0:
320,192,261796,128,0,261901:0:0:0:0:
192,192,261901,128,0,262005:0:0:0:0:
64,192,261901,128,0,262005:0:0:0:0:
448,192,261901,128,0,262005:0:0:0:0:
320,192,262005,128,0,262109:0:0:0:0:
448,192,262109,128,0,262213:0:0:0:0:
64,192,262109,128,0,262213:0:0:0:0:
192,192,262213,128,0,262317:0:0:0:0:
64,192,262317,128,0,262421:0:0:0:0:
320,192,262317,128,0,262421:0:0:0:0:
448,192,262317,128,0,262421:0:0:0:0:
192,192,262421,128,0,262526:0:0:0:0:
64,192,262526,128,0,262630:0:0:0:0:
448,192,262526,128,0,262630:0:0:0:0:
320,192,262630,128,0,262734:0:0:0:0:
192,192,262734,128,0,262838:0:0:0:0:
64,192,262734,128,0,262838:0:0:0:0:
448,192,262734,128,0,262838:0:0:0:0:
320,192,262838,128,0,262942:0:0:0:0:
192,192,262942,128,0,263046:0:0:0:0:
64,192,262942,128,0,263046:0:0:0:0:
448,192,263046,128,0,263151:0:0:0:0:
64,192,263151,128,0,263255:0:0:0:0:
192,192,263151,128,0,263255:0:0:0:0:
320,192,263151,128,0,263255:0:0:0:0:
448,192,263255,128,0,263359:0:0:0:0:
320,192,263359,128,0,263463:0:0:0:0:
192,192,263359,128,0,263463:0:0:0:0:
64,192,263463,128,0,263567:0:0:0:0:
192,192,263567,128,0,263671:0:0:0:0:
320,192,263567,128,0,263671:0:0:0:0:
448,192,263567,128,0,263671:0:0:0:0:
64,192,263671,128,0,263776:0:0:0:0:
320,192,263776,128,0,263880:0:0:0:0:
448,192,263776,128,0,263880:0:0:0:0:
64,192,263828,1,0,0:0:0:0:
192,192,263880,1,0,0:0:0:0:
320,192,263932,1,0,0:0:0:0:
64,192,263984,128,0,264088:0:0:0:0:
192,192,263984,128,0,264088:0:0:0:0:
448,192,263984,128,0,264088:0:0:0:0:
320,192,264088,128,0,264192:0:0:0:0:
64,192,264192,128,0,264296:0:0:0:0:
192,192,264296,128,0,264401:0:0:0:0:
448,192,264296,128,0,264401:0:0:0:0:
320,192,264401,128,0,264505:0:0:0:0:
64,192,264505,128,0,264609:0:0:0:0:
320,192,264609,128,0,264713:0:0:0:0:
448,192,264609,128,0,264713:0:0:0:0:
192,192,264713,128,0,264817:0:0:0:0:
64,192,264817,128,0,264921:0:0:0:0:
320,192,264817,128,0,264921:0:0:0:0:
448,192,264817,128,0,264921:0:0:0:0:
192,192,264921,128,0,265026:0:0:0:0:
448,192,265026,128,0,265130:0:0:0:0:
320,192,265130,128,0,265234:0:0:0:0:
64,192,265130,128,0,265234:0:0:0:0:
192,192,265234,128,0,265338:0:0:0:0:
320,192,265338,128,0,265442:0:0:0:0:
192,192,265442,128,0,265546:0:0:0:0:
64,192,265442,128,0,265546:0:0:0:0:
448,192,265494,1,0,0:0:0:0:
320,192,265546,1,0,0:0:0:0:
192,192,265598,1,0,0:0:0:0:
448,192,265651,1,0,0:0:0:0:
320,192,265651,1,0,0:0:0:0:
64,192,265651,1,0,0:0:0:0:
192,192,265703,1,0,0:0:0:0:
448,192,265755,1,0,0:0:0:0:
320,192,265807,1,0,0:0:0:0:
192,192,265859,1,0,0:0:0:0:
64,192,265911,1,0,0:0:0:0:
448,192,265963,1,0,0:0:0:0:
320,192,266015,1,0,0:0:0:0:
64,192,266067,1,0,0:0:0:0:
192,192,266119,1,0,0:0:0:0:
320,192,266171,1,0,0:0:0:0:
448,192,266223,1,0,0:0:0:0:
64,192,266276,1,0,0:0:0:0:
192,192,266328,1,0,0:0:0:0:
448,192,266380,1,0,0:0:0:0:
320,192,266432,1,0,0:0:0:0:
192,192,266484,1,0,0:0:0:0:
64,192,266536,1,0,0:0:0:0:
448,192,266588,1,0,0:0:0:0:
320,192,266640,1,0,0:0:0:0:
64,192,266692,1,0,0:0:0:0:
192,192,266692,1,0,0:0:0:0:
320,192,266796,1,0,0:0:0:0:
448,192,266796,1,0,0:0:0:0:
64,192,266901,1,0,0:0:0:0:
192,192,266901,1,0,0:0:0:0:
320,192,267005,1,0,0:0:0:0:
448,192,267005,1,0,0:0:0:0:
64,192,267109,1,0,0:0:0:0:
192,192,267109,1,0,0:0:0:0:
320,192,267213,1,0,0:0:0:0:
448,192,267317,5,0,0:0:0:0:
192,192,267317,128,0,267526:0:0:0:0:
64,192,267317,128,0,267526:0:0:0:0:
448,192,267526,128,0,267630:0:0:0:0:
320,192,267630,128,0,267734:0:0:0:0:
64,192,267734,128,0,267838:0:0:0:0:
448,192,267734,128,0,267838:0:0:0:0:
192,192,267734,128,0,267838:0:0:0:0:
320,192,267838,128,0,267942:0:0:0:0:
192,192,267942,128,0,268046:0:0:0:0:
320,192,268046,128,0,268151:0:0:0:0:
448,192,268151,128,0,268567:0:0:0:0:
64,192,268151,128,0,268567:0:0:0:0:
192,192,268359,1,0,0:0:0:0:
192,192,268567,128,0,268776:0:0:0:0:
320,192,268567,128,0,268776:0:0:0:0:
448,192,268776,128,0,268984:0:0:0:0:
192,192,268984,128,0,269192:0:0:0:0:
64,192,268984,128,0,269192:0:0:0:0:
448,192,269192,128,0,269296:0:0:0:0:
320,192,269296,128,0,269401:0:0:0:0:
192,192,269401,128,0,269505:0:0:0:0:
448,192,269401,128,0,269505:0:0:0:0:
64,192,269401,128,0,269505:0:0:0:0:
320,192,269505,128,0,269609:0:0:0:0:
192,192,269609,128,0,269713:0:0:0:0:
448,192,269713,128,0,269817:0:0:0:0:
64,192,269817,128,0,269921:0:0:0:0:
320,192,269817,128,0,269921:0:0:0:0:
192,192,269921,128,0,270026:0:0:0:0:
448,192,270026,128,0,270130:0:0:0:0:
64,192,270130,128,0,270234:0:0:0:0:
192,192,270234,128,0,270338:0:0:0:0:
448,192,270234,128,0,270338:0:0:0:0:
320,192,270234,128,0,270338:0:0:0:0:
64,192,270338,128,0,270442:0:0:0:0:
448,192,270442,128,0,270546:0:0:0:0:
192,192,270442,128,0,270546:0:0:0:0:
320,192,270546,128,0,270651:0:0:0:0:
192,192,270651,128,0,270755:0:0:0:0:
448,192,270651,128,0,270963:0:0:0:0:
64,192,270651,128,0,270755:0:0:0:0:
320,192,270755,128,0,270859:0:0:0:0:
64,192,270859,128,0,270963:0:0:0:0:
192,192,270963,128,0,271067:0:0:0:0:
320,192,271067,128,0,271380:0:0:0:0:
64,192,271067,128,0,271171:0:0:0:0:
448,192,271067,128,0,271171:0:0:0:0:
192,192,271171,128,0,271276:0:0:0:0:
448,192,271276,128,0,271380:0:0:0:0:
192,192,271380,128,0,271484:0:0:0:0:
320,192,271484,128,0,271588:0:0:0:0:
64,192,271484,128,0,271796:0:0:0:0:
448,192,271588,128,0,271692:0:0:0:0:
320,192,271692,128,0,271796:0:0:0:0:
192,192,271796,128,0,271901:0:0:0:0:
64,192,271901,128,0,272005:0:0:0:0:
320,192,271901,128,0,272005:0:0:0:0:
448,192,271901,128,0,272005:0:0:0:0:
192,192,272005,128,0,272109:0:0:0:0:
320,192,272109,128,0,272213:0:0:0:0:
448,192,272213,128,0,272317:0:0:0:0:
64,192,272317,128,0,272526:0:0:0:0:
192,192,272317,128,0,272526:0:0:0:0:
448,192,272526,128,0,272595:0:0:0:0:
320,192,272595,128,0,272664:0:0:0:0:
192,192,272664,128,0,272734:0:0:0:0:
448,192,272734,128,0,272942:0:0:0:0:
64,192,272734,128,0,272942:0:0:0:0:
320,192,272734,1,0,0:0:0:0:
320,192,272942,128,0,273151:0:0:0:0:
64,192,273151,1,0,0:0:0:0:
192,192,273151,128,0,273359:0:0:0:0:
320,192,273255,1,0,0:0:0:0:
448,192,273359,1,0,0:0:0:0:
64,192,273359,128,0,273567:0:0:0:0:
320,192,273463,1,0,0:0:0:0:
448,192,273567,128,0,273984:0:0:0:0:
192,192,273567,1,0,0:0:0:0:
320,192,273671,1,0,0:0:0:0:
192,192,273776,1,0,0:0:0:0:
64,192,273776,1,0,0:0:0:0:
320,192,273880,1,0,0:0:0:0:
192,192,273984,128,0,274192:0:0:0:0:
64,192,273984,128,0,274192:0:0:0:0:
448,192,274192,128,0,274296:0:0:0:0:
320,192,274296,128,0,274401:0:0:0:0:
192,192,274401,128,0,274505:0:0:0:0:
448,192,274401,128,0,274505:0:0:0:0:
64,192,274401,128,0,274505:0:0:0:0:
320,192,274505,128,0,274609:0:0:0:0:
64,192,274609,128,0,274713:0:0:0:0:
192,192,274713,128,0,274817:0:0:0:0:
448,192,274817,128,0,275234:0:0:0:0:
320,192,274817,128,0,275234:0:0:0:0:
64,192,275026,1,0,0:0:0:0:
192,192,275234,128,0,275442:0:0:0:0:
64,192,275234,128,0,275442:0:0:0:0:
320,192,275442,128,0,275651:0:0:0:0:
448,192,275651,128,0,275859:0:0:0:0:
64,192,275651,128,0,275859:0:0:0:0:
192,192,275859,128,0,275963:0:0:0:0:
320,192,275963,128,0,276067:0:0:0:0:
448,192,276067,128,0,276171:0:0:0:0:
192,192,276067,128,0,276171:0:0:0:0:
64,192,276067,128,0,276171:0:0:0:0:
320,192,276171,128,0,276276:0:0:0:0:
448,192,276276,128,0,276380:0:0:0:0:
64,192,276380,128,0,276484:0:0:0:0:
192,192,276484,128,0,276588:0:0:0:0:
448,192,276484,128,0,276588:0:0:0:0:
320,192,276588,128,0,276692:0:0:0:0:
64,192,276692,128,0,276796:0:0:0:0:
448,192,276796,128,0,276901:0:0:0:0:
320,192,276796,128,0,276901:0:0:0:0:
192,192,276901,128,0,277005:0:0:0:0:
64,192,276901,128,0,277005:0:0:0:0:
320,192,277005,128,0,277109:0:0:0:0:
448,192,277109,128,0,277213:0:0:0:0:
64,192,277109,128,0,277213:0:0:0:0:
192,192,277213,128,0,277317:0:0:0:0:
320,192,277317,128,0,277421:0:0:0:0:
448,192,277317,128,0,277421:0:0:0:0:
64,192,277317,128,0,277421:0:0:0:0:
192,192,277421,128,0,277526:0:0:0:0:
320,192,277526,128,0,277630:0:0:0:0:
448,192,277526,128,0,277630:0:0:0:0:
64,192,277630,128,0,277734:0:0:0:0:
192,192,277734,128,0,277838:0:0:0:0:
320,192,277734,128,0,277838:0:0:0:0:
448,192,277838,128,0,277942:0:0:0:0:
64,192,277942,128,0,278046:0:0:0:0:
192,192,277942,128,0,278046:0:0:0:0:
320,192,278046,128,0,278151:0:0:0:0:
192,192,278151,128,0,278255:0:0:0:0:
448,192,278151,128,0,278255:0:0:0:0:
64,192,278151,128,0,278255:0:0:0:0:
320,192,278255,128,0,278359:0:0:0:0:
448,192,278359,128,0,278463:0:0:0:0:
64,192,278359,128,0,278463:0:0:0:0:
192,192,278463,128,0,278567:0:0:0:0:
320,192,278567,128,0,278671:0:0:0:0:
448,192,278567,128,0,278671:0:0:0:0:
64,192,278671,128,0,278776:0:0:0:0:
192,192,278776,128,0,278880:0:0:0:0:
448,192,278776,128,0,278880:0:0:0:0:
320,192,278880,128,0,278984:0:0:0:0:
192,192,278984,1,0,0:0:0:0:
64,192,278984,1,0,0:0:0:0:
448,192,279036,1,0,0:0:0:0:
320,192,279088,1,0,0:0:0:0:
192,192,279140,1,0,0:0:0:0:
64,192,279192,1,0,0:0:0:0:
448,192,279192,1,0,0:0:0:0:
192,192,279296,1,0,0:0:0:0:
320,192,279296,1,0,0:0:0:0:
448,192,279401,1,0,0:0:0:0:
64,192,279401,1,0,0:0:0:0:
192,192,279505,1,0,0:0:0:0:
320,192,279505,1,0,0:0:0:0:
448,192,279609,1,0,0:0:0:0:
64,192,279609,1,0,0:0:0:0:
320,192,279713,1,0,0:0:0:0:
192,192,279713,1,0,0:0:0:0:
448,192,279817,1,0,0:0:0:0:
64,192,279817,1,0,0:0:0:0:
320,192,279869,1,0,0:0:0:0:
192,192,279921,1,0,0:0:0:0:
64,192,279973,1,0,0:0:0:0:
320,192,280026,1,0,0:0:0:0:
448,192,280026,1,0,0:0:0:0:
192,192,280078,1,0,0:0:0:0:
64,192,280130,1,0,0:0:0:0:
448,192,280182,1,0,0:0:0:0:
320,192,280234,1,0,0:0:0:0:
192,192,280234,1,0,0:0:0:0:
64,192,280286,1,0,0:0:0:0:
448,192,280338,1,0,0:0:0:0:
320,192,280390,1,0,0:0:0:0:
192,192,280442,1,0,0:0:0:0:
64,192,280442,1,0,0:0:0:0:
448,192,280494,1,0,0:0:0:0:
320,192,280546,1,0,0:0:0:0:
192,192,280598,1,0,0:0:0:0:
64,192,280651,1,0,0:0:0:0:
448,192,280651,1,0,0:0:0:0:
320,192,280859,1,0,0:0:0:0:
192,192,280963,1,0,0:0:0:0:
64,192,281067,1,0,0:0:0:0:
448,192,281067,1,0,0:0:0:0:
320,192,281276,1,0,0:0:0:0:
192,192,281380,1,0,0:0:0:0:
448,192,281484,1,0,0:0:0:0:
64,192,281588,1,0,0:0:0:0:
320,192,281692,1,0,0:0:0:0:
192,192,281796,1,0,0:0:0:0:
64,192,281901,1,0,0:0:0:0:
448,192,281901,1,0,0:0:0:0:
320,192,282005,1,0,0:0:0:0:
192,192,282109,1,0,0:0:0:0:
320,192,282213,1,0,0:0:0:0:
64,192,282317,128,0,288984:0:0:0:0:
192,192,282317,128,0,288984:0:0:0:0:
448,192,282317,128,0,288984:0:0:0:0:
