osu file format v14

[General]
AudioFilename: audio.mp3
AudioLeadIn: 0
PreviewTime: 48088
Countdown: 0
SampleSet: Normal
StackLeniency: 0.7
Mode: 2
LetterboxInBreaks: 0
WidescreenStoryboard: 1

[Editor]
DistanceSpacing: 3.8
BeatDivisor: 4
GridSize: 16
TimelineZoom: 4.399998

[Metadata]
Title:Lunicode
TitleUnicode:Lunicode
Artist:Hatsuki Yura
ArtistUnicode:葉月ゆら
Creator:Rocma
Version:Platter
Source:東方輝針城 ~ Double Dealing Character.
Tags:x_angelkawaii_x sadegg phob th14 japanese video game dnb touhou kishinjou project eastnewsound c86 comiket perpetual devotion strange instuments izayoi sakuya 十六夜 咲夜 toho tōhō wub electronic edm
BeatmapID:4088660
BeatmapSetID:1088296

[Difficulty]
HPDrainRate:4
CircleSize:3.8
OverallDifficulty:8
ApproachRate:8
SliderMultiplier:1.92
SliderTickRate:1

[Events]
//Background and Video events
0,0,"BG.jpg",0,0
//Break Periods
2,85940,91008
//Storyboard Layer 0 (Background)
//Storyboard Layer 1 (Fail)
//Storyboard Layer 2 (Pass)
//Storyboard Layer 3 (Foreground)
//Storyboard Layer 4 (Overlay)
//Storyboard Sound Samples

[TimingPoints]
122,363.636363636364,4,1,2,60,1,0
59758,-100,4,1,2,60,0,1
82849,-100,4,1,2,60,0,0
94667,-300.00000003,4,1,2,60,0,0
106303,-100,4,1,2,60,0,0
117940,-100,4,1,2,60,0,1
135394,-100,4,1,2,60,0,0
141212,-100,4,1,2,60,0,1
164485,-100,4,1,2,60,0,0

[Colours]
Combo1 : 0,128,255
Combo2 : 128,255,255

[HitObjects]
112,336,1576,5,4,0:0:0:0:
256,336,1758,1,0,0:0:0:0:
160,320,1940,1,0,0:0:0:0:
112,240,2122,1,0,0:0:0:0:
160,320,2303,1,2,0:0:0:0:
256,336,2485,1,0,0:0:0:0:
352,336,2667,1,0,0:0:0:0:
256,352,2849,1,0,0:0:0:0:
352,320,3031,5,0,0:0:0:0:
400,240,3213,1,0,0:0:0:0:
352,320,3394,1,0,0:0:0:0:
256,336,3576,1,0,0:0:0:0:
160,320,3758,1,2,0:0:0:0:
112,240,3940,1,0,0:0:0:0:
160,320,4121,1,0,0:0:0:0:
256,336,4303,1,0,0:0:0:0:
112,336,4485,5,4,0:0:0:0:
256,336,4667,1,0,0:0:0:0:
352,320,4849,1,0,0:0:0:0:
400,240,5031,1,0,0:0:0:0:
352,320,5212,1,2,0:0:0:0:
256,336,5394,1,0,0:0:0:0:
160,336,5576,1,0,0:0:0:0:
256,352,5758,1,0,0:0:0:0:
160,320,5940,5,0,0:0:0:0:
112,240,6122,1,0,0:0:0:0:
160,320,6303,1,0,0:0:0:0:
256,336,6485,1,0,0:0:0:0:
352,320,6667,1,2,0:0:0:0:
400,240,6849,1,0,0:0:0:0:
352,320,7030,1,0,0:0:0:0:
256,336,7212,1,0,0:0:0:0:
400,336,7394,5,4,0:0:0:0:
256,336,7576,1,0,0:0:0:0:
352,320,7758,1,0,0:0:0:0:
400,240,7940,1,0,0:0:0:0:
352,320,8121,1,2,0:0:0:0:
256,336,8303,1,0,0:0:0:0:
160,336,8485,1,0,0:0:0:0:
256,352,8667,1,0,0:0:0:0:
160,320,8849,5,0,0:0:0:0:
112,240,9031,1,0,0:0:0:0:
160,320,9212,1,0,0:0:0:0:
256,336,9394,1,0,0:0:0:0:
352,320,9576,1,2,0:0:0:0:
400,240,9758,1,0,0:0:0:0:
352,320,9939,1,0,0:0:0:0:
256,336,10121,1,0,0:0:0:0:
400,336,10303,5,4,0:0:0:0:
256,336,10485,1,0,0:0:0:0:
160,320,10667,1,0,0:0:0:0:
112,240,10849,1,0,0:0:0:0:
160,320,11030,1,2,0:0:0:0:
256,336,11212,1,0,0:0:0:0:
352,336,11394,1,0,0:0:0:0:
256,352,11576,1,0,0:0:0:0:
352,320,11758,5,0,0:0:0:0:
400,240,11940,1,0,0:0:0:0:
352,320,12121,1,0,0:0:0:0:
256,336,12303,1,0,0:0:0:0:
160,320,12485,5,2,0:0:0:0:
256,272,12667,1,0,0:0:0:0:
352,240,12848,1,0,0:0:0:0:
448,208,13031,1,0,0:0:0:0:
208,240,13212,6,0,L|208:16,1,192,4|0,0:0|0:0,0:0:0:0:
208,64,13940,1,8,0:0:0:0:
368,64,14122,2,0,L|480:64,2,96,0|0|0,0:0|0:0|0:0,0:0:0:0:
368,160,14667,6,0,P|357:249|244:281,1,192,2|0,0:0|0:0,0:0:0:0:
272,176,15394,1,8,0:0:0:0:
112,176,15576,2,0,L|96:64,1,96,0|0,0:0|0:0,0:0:0:0:
192,64,15940,1,0,0:0:0:0:
192,176,16122,6,0,L|384:176,1,192,4|0,0:0|0:0,0:0:0:0:
384,96,16849,1,8,0:0:0:0:
224,208,17031,1,0,0:0:0:0:
296,208,17212,1,0,0:0:0:0:
368,208,17394,1,0,0:0:0:0:
368,352,17576,6,0,P|315:321|376:233,1,192,2|0,0:0|0:0,0:0:0:0:
448,192,18122,1,0,0:0:0:0:
368,128,18303,1,8,0:0:0:0:
208,112,18485,1,0,0:0:0:0:
288,80,18667,1,8,0:0:0:0:
368,48,18849,1,0,0:0:0:0:
96,320,19031,6,0,P|32:256|114:210,1,192,4|0,0:0|0:0,0:0:0:0:
96,144,19758,1,8,0:0:0:0:
256,80,19940,1,0,0:0:0:0:
352,80,20122,1,0,0:0:0:0:
256,80,20303,1,0,0:0:0:0:
256,160,20485,6,0,P|160:192|144:288,1,192,2|0,0:0|0:0,0:0:0:0:
144,336,21212,1,8,0:0:0:0:
304,288,21394,1,0,0:0:0:0:
208,272,21576,2,0,L|192:160,1,96,0|0,0:0|0:0,0:0:0:0:
192,112,21940,6,0,L|400:112,1,192,4|0,0:0|0:0,0:0:0:0:
384,192,22667,1,8,0:0:0:0:
224,192,22849,2,0,L|112:192,2,96,0|0|0,0:0|0:0|0:0,0:0:0:0:
224,128,23394,6,0,L|432:128,1,192,2|0,0:0|0:0,0:0:0:0:
320,128,23940,1,0,0:0:0:0:
160,128,24122,2,0,P|96:176|160:240,1,192,8|0,0:0|0:0,0:0:0:0:
64,272,24668,1,8,0:0:0:0:
304,240,24849,6,0,L|304:16,1,192,4|0,0:0|0:0,0:0:0:0:
304,64,25577,1,8,0:0:0:0:
144,64,25759,2,0,L|32:64,2,96,0|0|0,0:0|0:0|0:0,0:0:0:0:
144,160,26304,6,0,P|155:249|268:281,1,192,2|0,0:0|0:0,0:0:0:0:
240,176,27031,1,8,0:0:0:0:
400,176,27213,2,0,L|416:64,1,96,0|0,0:0|0:0,0:0:0:0:
320,64,27577,1,0,0:0:0:0:
320,176,27759,6,0,L|128:176,1,192,4|0,0:0|0:0,0:0:0:0:
128,96,28486,1,8,0:0:0:0:
288,208,28668,1,0,0:0:0:0:
216,208,28849,1,0,0:0:0:0:
144,208,29031,1,0,0:0:0:0:
144,352,29213,6,0,P|197:321|136:233,1,192,2|0,0:0|0:0,0:0:0:0:
64,192,29759,5,0,0:0:0:0:
144,128,29940,1,8,0:0:0:0:
304,112,30122,1,0,0:0:0:0:
224,80,30304,1,8,0:0:0:0:
144,48,30486,1,0,0:0:0:0:
416,320,30668,6,0,P|480:256|398:210,1,192,4|0,0:0|0:0,0:0:0:0:
416,144,31395,1,8,0:0:0:0:
256,80,31577,1,0,0:0:0:0:
160,80,31759,1,0,0:0:0:0:
256,80,31940,1,0,0:0:0:0:
256,160,32122,6,0,P|352:192|368:288,1,192,2|0,0:0|0:0,0:0:0:0:
368,336,32849,1,8,0:0:0:0:
208,288,33031,1,0,0:0:0:0:
304,272,33213,2,0,L|320:160,1,96,0|0,0:0|0:0,0:0:0:0:
320,112,33577,6,0,L|112:112,1,192,4|0,0:0|0:0,0:0:0:0:
128,192,34304,1,8,0:0:0:0:
288,192,34486,2,0,L|400:192,2,96,0|0|0,0:0|0:0|0:0,0:0:0:0:
288,128,35031,6,0,L|80:128,1,192,2|0,0:0|0:0,0:0:0:0:
192,128,35577,1,0,0:0:0:0:
352,128,35758,2,0,L|352:224,1,96,8|0,0:0|0:0,0:0:0:0:
176,176,36122,2,0,L|176:272,1,96,8|0,0:0|0:0,0:0:0:0:
432,352,36485,6,0,P|496:304|400:256,1,192,2|0,0:0|0:0,0:0:0:0:
112,192,37212,2,0,L|400:192,1,288,2|0,0:0|0:0,0:0:0:0:
80,352,38122,6,0,P|16:304|100:138,1,288,2|0,0:0|0:0,0:0:0:0:
368,128,39031,1,2,0:0:0:0:
80,352,39394,6,0,P|16:304|112:256,1,192,2|0,0:0|0:0,0:0:0:0:
400,192,40121,2,0,L|112:192,1,288,2|0,0:0|0:0,0:0:0:0:
432,352,41031,6,0,P|496:304|412:138,1,288,2|0,0:0|0:0,0:0:0:0:
144,128,41940,1,2,0:0:0:0:
432,352,42303,6,0,P|416:288|288:240,1,192,2|0,0:0|0:0,0:0:0:0:
16,208,43031,2,0,L|320:208,1,288,2|0,0:0|0:0,0:0:0:0:
16,336,43940,6,0,P|32:272|208:160,1,288,2|0,0:0|0:0,0:0:0:0:
496,160,44849,1,2,0:0:0:0:
202,235,45212,6,0,P|114:265|80:352,1,192,2|0,0:0|0:0,0:0:0:0:
368,192,45940,2,0,L|64:192,1,288,2|0,0:0|0:0,0:0:0:0:
368,144,46849,6,0,P|463:239|368:320,1,288,2|0,0:0|0:0,0:0:0:0:
176,144,47758,1,2,0:0:0:0:
80,160,47940,1,0,0:0:0:0:
334,247,48122,6,0,L|496:144,3,192,4|8|0|8,0:0|0:0|0:0|0:0,0:0:0:0:
400,112,49394,1,0,0:0:0:0:
237,215,49576,6,0,L|336:151,1,96,0|0,0:0|0:0,0:0:0:0:
237,215,49940,2,0,L|399:112,2,192,8|8|8,0:0|0:0|0:0,0:0:0:0:
352,208,50849,1,0,0:0:0:0:
178,247,51031,6,0,L|16:144,3,192,2|8|0|8,0:0|0:0|0:0|0:0,0:0:0:0:
112,112,52303,1,0,0:0:0:0:
275,215,52485,6,0,L|176:151,1,96,0|0,0:0|0:0,0:0:0:0:
275,215,52849,2,0,L|113:112,2,192,8|8|8,0:0|0:0|0:0,0:0:0:0:
176,208,53758,1,0,0:0:0:0:
432,176,53940,5,8,0:0:0:0:
448,80,54122,1,0,0:0:0:0:
352,128,54303,1,8,0:0:0:0:
336,32,54485,1,0,0:0:0:0:
432,176,54667,5,8,0:0:0:0:
448,80,54849,1,0,0:0:0:0:
352,128,55030,1,8,0:0:0:0:
336,32,55212,1,8,0:0:0:0:
80,176,55394,5,8,0:0:0:0:
64,80,55576,1,0,0:0:0:0:
160,128,55757,1,8,0:0:0:0:
176,32,55939,1,0,0:0:0:0:
80,176,56121,5,8,0:0:0:0:
64,80,56303,1,0,0:0:0:0:
160,128,56484,1,8,0:0:0:0:
176,32,56666,1,0,0:0:0:0:
432,240,56849,5,8,0:0:0:0:
474,220,56939,1,0,0:0:0:0:
492,177,57030,1,0,0:0:0:0:
475,133,57121,1,0,0:0:0:0:
433,112,57212,1,8,0:0:0:0:
384,112,57303,2,0,L|320:112,1,48,0|8,0:0|0:0,0:0:0:0:
80,240,57576,5,8,0:0:0:0:
37,220,57666,1,0,0:0:0:0:
19,177,57757,1,0,0:0:0:0:
36,133,57848,1,0,0:0:0:0:
78,112,57939,1,8,0:0:0:0:
128,112,58030,2,0,L|192:112,1,48,0|8,0:0|0:0,0:0:0:0:
272,256,58303,2,0,L|384:256,1,96,8|0,0:0|0:0,0:0:0:0:
256,192,58667,2,0,L|144:192,1,96,0|0,0:0|0:0,0:0:0:0:
432,176,59031,6,0,L|432:80,1,96,2|0,0:0|0:0,0:0:0:0:
256,112,59394,2,0,L|256:16,1,96,2|0,0:0|0:0,0:0:0:0:
352,144,59758,5,4,0:3:0:0:
80,144,59940,1,8,0:0:0:0:
80,208,60303,1,8,0:0:0:0:
256,128,60485,5,8,0:0:0:0:
160,208,60667,1,4,0:0:0:0:
256,288,60849,1,8,0:0:0:0:
160,352,61031,1,0,0:0:0:0:
400,320,61212,5,2,0:0:0:0:
448,288,61303,1,0,0:0:0:0:
400,255,61394,1,0,0:0:0:0:
304,240,61576,1,8,0:0:0:0:
208,224,61758,1,4,0:0:0:0:
368,144,61940,5,0,0:0:0:0:
464,144,62122,1,4,0:0:0:0:
368,144,62303,1,8,0:0:0:0:
160,144,62667,5,0,0:0:0:0:
432,144,62849,1,8,0:0:0:0:
432,208,63212,1,8,0:0:0:0:
256,128,63394,5,8,0:0:0:0:
352,208,63576,1,4,0:0:0:0:
256,288,63758,1,8,0:0:0:0:
352,352,63940,1,0,0:0:0:0:
112,320,64121,5,2,0:0:0:0:
67,288,64212,1,0,0:0:0:0:
112,255,64303,1,0,0:0:0:0:
208,240,64485,1,8,0:0:0:0:
304,224,64667,1,4,0:0:0:0:
144,144,64849,5,0,0:0:0:0:
48,144,65031,1,4,0:0:0:0:
144,144,65212,1,8,0:0:0:0:
352,80,65576,5,2,0:0:0:0:
80,80,65758,1,8,0:0:0:0:
80,176,65940,1,0,0:0:0:0:
256,208,66122,1,8,0:0:0:0:
432,256,66303,5,8,0:0:0:0:
336,192,66485,1,4,0:0:0:0:
432,144,66667,1,8,0:0:0:0:
336,96,66849,1,0,0:0:0:0:
160,80,67031,5,2,0:0:0:0:
112,80,67122,1,0,0:0:0:0:
160,80,67212,1,0,0:0:0:0:
256,96,67394,1,8,0:0:0:0:
160,144,67576,1,4,0:0:0:0:
336,208,67758,5,0,0:0:0:0:
432,256,67940,1,4,0:0:0:0:
336,304,68122,1,8,0:0:0:0:
144,304,68485,5,0,0:0:0:0:
416,112,68667,1,8,0:0:0:0:
416,192,69031,1,8,0:0:0:0:
240,208,69212,5,8,0:0:0:0:
144,240,69394,1,4,0:0:0:0:
240,208,69576,1,8,0:0:0:0:
144,240,69758,1,0,0:0:0:0:
320,288,69940,5,2,0:0:0:0:
368,288,70031,1,0,0:0:0:0:
320,288,70122,1,0,0:0:0:0:
240,208,70303,1,8,0:0:0:0:
320,160,70485,1,4,0:0:0:0:
496,96,70667,6,0,P|496:160|320:288,1,288,8|8,0:0|0:0,0:0:0:0:
272,224,71394,5,0,0:0:0:0:
336,112,71576,1,8,0:0:0:0:
432,160,71758,1,0,0:0:0:0:
336,192,71940,1,8,0:0:0:0:
64,336,72122,5,8,0:0:0:0:
160,304,72303,1,4,0:0:0:0:
64,256,72485,1,8,0:0:0:0:
160,240,72667,1,0,0:0:0:0:
336,192,72849,5,2,0:0:0:0:
384,160,72940,1,0,0:0:0:0:
336,128,73031,1,0,0:0:0:0:
240,80,73212,1,8,0:0:0:0:
144,64,73394,1,4,0:0:0:0:
320,240,73576,5,0,0:0:0:0:
224,240,73758,1,4,0:0:0:0:
128,240,73940,1,8,0:0:0:0:
320,224,74303,5,2,0:0:0:0:
48,160,74485,1,8,0:0:0:0:
48,64,74849,1,8,0:0:0:0:
224,96,75031,5,8,0:0:0:0:
320,128,75212,1,4,0:0:0:0:
224,160,75394,1,8,0:0:0:0:
320,208,75576,1,0,0:0:0:0:
496,272,75758,5,2,0:0:0:0:
448,256,75849,1,0,0:0:0:0:
400,240,75940,1,0,0:0:0:0:
304,160,76122,1,8,0:0:0:0:
400,96,76303,1,4,0:0:0:0:
224,96,76485,5,0,0:0:0:0:
128,160,76667,1,4,0:0:0:0:
80,240,76849,1,8,0:0:0:0:
128,304,77031,1,0,0:0:0:0:
304,336,77212,5,2,0:0:0:0:
480,352,77394,1,8,0:0:0:0:
480,272,77576,1,8,0:0:0:0:
480,192,77758,1,0,0:0:0:0:
224,160,77940,5,8,0:0:0:0:
176,96,78122,1,4,0:0:0:0:
224,32,78303,1,8,0:0:0:0:
320,32,78485,1,0,0:0:0:0:
144,272,78667,5,2,0:0:0:0:
96,272,78758,1,0,0:0:0:0:
144,272,78849,1,0,0:0:0:0:
240,224,79031,1,8,0:0:0:0:
336,192,79212,1,4,0:0:0:0:
160,160,79394,5,0,0:0:0:0:
256,112,79576,1,4,0:0:0:0:
352,80,79758,1,8,0:0:0:0:
448,48,79940,1,0,0:0:0:0:
352,80,80122,5,2,0:0:0:0:
80,208,80303,1,8,0:0:0:0:
80,320,80667,1,8,0:0:0:0:
256,256,80849,5,8,0:0:0:0:
336,192,81031,1,4,0:0:0:0:
256,144,81212,1,8,0:0:0:0:
336,96,81394,1,0,0:0:0:0:
160,96,81576,5,2,0:0:0:0:
112,144,81667,1,0,0:0:0:0:
160,160,81758,1,0,0:0:0:0:
256,192,81940,1,8,0:0:0:0:
160,240,82122,1,4,0:0:0:0:
336,304,82303,6,0,P|400:288|304:153,1,288,8|8,0:0|0:0,0:0:0:0:
256,192,91758,12,0,94303,0:0:0:0:
368,128,94667,6,0,P|352:176|282:206,1,128,2|0,0:0|0:0,0:0:0:0:
128,208,95576,1,0,0:0:0:0:
128,320,96122,6,0,P|174:284|128:256,1,128,0|0,0:0|0:0,0:0:0:0:
209,209,97031,1,2,0:0:0:0:
128,192,97212,1,2,0:0:0:0:
128,128,97576,6,0,P|144:176|224:208,1,128,2|0,0:0|0:0,0:0:0:0:
48,224,98485,1,0,0:0:0:0:
48,288,99031,6,0,L|144:288,1,96,0|0,0:0|0:0,0:0:0:0:
224,272,99758,1,0,0:0:0:0:
384,256,99940,1,2,0:0:0:0:
224,208,100122,1,2,0:0:0:0:
224,128,100485,6,0,P|232:91|308:45,1,128,2|0,0:0|0:0,0:0:0:0:
464,48,101394,1,0,0:0:0:0:
464,192,101940,6,0,L|336:192,1,128,0|0,0:0|0:0,0:0:0:0:
256,192,102849,1,2,0:0:0:0:
336,160,103031,1,2,0:0:0:0:
336,320,103394,6,0,P|368:304|329:239,1,128,2|0,0:0|0:0,0:0:0:0:
176,208,104303,1,0,0:0:0:0:
176,112,104667,6,0,L|112:112,1,64,2|0,0:0|0:0,0:0:0:0:
192,176,105212,1,0,0:0:0:0:
224,288,105394,1,0,0:0:0:0:
128,208,105576,2,0,L|64:208,1,64,2|2,0:0|0:0,0:0:0:0:
352,320,106303,6,0,P|416:304|480:192,3,192,4|8|0|8,0:0|0:0|0:0|0:0,0:0:0:0:
384,160,107576,1,0,0:0:0:0:
208,128,107758,2,0,L|96:128,1,96,4|0,0:0|0:0,0:0:0:0:
208,128,108122,2,0,P|272:144|336:256,2,192,8|0|8,0:0|0:0|0:0,0:0:0:0:
32,202,109212,6,0,P|72:286|160:320,3,192,4|8|0|8,0:0|0:0|0:0|0:0,0:0:0:0:
256,320,110485,1,0,0:0:0:0:
432,256,110667,2,0,L|336:256,1,96,4|0,0:0|0:0,0:0:0:0:
240,256,111031,2,0,P|152:222|112:138,2,192,8|0|8,0:0|0:0|0:0,0:0:0:0:
256,192,112122,12,8,114667,0:0:0:0:
256,304,115031,5,4,0:0:0:0:
304,304,115122,1,0,0:0:0:0:
352,304,115212,1,0,0:0:0:0:
393,282,115302,1,0,0:0:0:0:
410,238,115393,1,4,0:0:0:0:
394,194,115484,1,0,0:0:0:0:
353,171,115575,1,0,0:0:0:0:
80,96,115758,5,8,0:0:0:0:
38,118,115849,1,0,0:0:0:0:
22,162,115940,1,4,0:0:0:0:
39,206,116031,1,0,0:0:0:0:
81,228,116121,1,0,0:0:0:0:
129,228,116211,1,0,0:0:0:0:
177,228,116302,1,0,0:0:0:0:
448,192,116485,6,0,L|448:64,1,96,8|0,0:0|0:0,0:0:0:0:
352,272,116849,2,0,L|352:80,1,192,8|0,0:0|0:0,0:0:0:0:
448,112,117394,1,2,0:0:0:0:
496,208,117576,1,2,0:0:0:0:
448,288,117758,1,0,0:0:0:0:
352,320,117940,5,4,0:3:0:0:
80,320,118122,1,8,0:0:0:0:
80,192,118485,1,8,0:0:0:0:
256,176,118667,5,8,0:0:0:0:
352,144,118849,1,4,0:0:0:0:
448,112,119031,1,8,0:0:0:0:
160,64,119394,6,0,L|160:160,1,96,2|0,0:0|0:0,0:0:0:0:
256,176,119758,2,0,L|256:272,1,96,8|4,0:0|0:0,0:0:0:0:
432,304,120122,2,0,L|432:192,1,96,0|4,0:0|0:0,0:0:0:0:
336,192,120485,1,8,0:0:0:0:
160,320,120849,5,4,0:0:0:0:
432,320,121031,1,8,0:0:0:0:
432,192,121394,1,8,0:0:0:0:
256,176,121576,5,8,0:0:0:0:
160,144,121758,1,4,0:0:0:0:
64,112,121940,1,8,0:0:0:0:
352,64,122303,6,0,L|352:160,1,96,2|0,0:0|0:0,0:0:0:0:
256,176,122667,2,0,L|256:272,1,96,8|4,0:0|0:0,0:0:0:0:
432,304,123031,2,0,L|496:224,2,96,0|4|8,0:0|0:0|0:0,0:0:0:0:
272,320,123758,5,4,0:0:0:0:
16,288,123940,1,8,0:0:0:0:
16,208,124303,1,8,0:0:0:0:
192,160,124485,5,8,0:0:0:0:
96,128,124667,1,4,0:0:0:0:
192,96,124849,1,8,0:0:0:0:
496,80,125212,6,0,L|496:176,1,96,2|0,0:0|0:0,0:0:0:0:
400,96,125576,2,0,L|496:96,1,96,8|4,0:0|0:0,0:0:0:0:
320,192,125940,2,0,L|224:192,2,96,0|4|8,0:0|0:0|0:0,0:0:0:0:
160,304,126667,5,4,0:0:0:0:
336,288,126849,1,8,0:0:0:0:
336,208,127212,1,8,0:0:0:0:
160,160,127394,5,8,0:0:0:0:
64,96,127576,1,4,0:0:0:0:
160,64,127758,1,8,0:0:0:0:
384,160,128121,6,0,L|272:160,1,96,2|0,0:0|0:0,0:0:0:0:
192,160,128485,2,0,L|96:160,1,96,8|4,0:0|0:0,0:0:0:0:
272,224,128849,2,0,L|384:224,2,96,0|4|8,0:0|0:0|0:0,0:0:0:0:
16,272,129576,5,4,0:0:0:0:
192,240,129758,1,8,0:0:0:0:
192,160,130122,1,8,0:0:0:0:
448,240,130303,1,8,0:0:0:0:
352,240,130485,2,0,L|352:144,1,96,0|0,0:0|0:0,0:0:0:0:
160,96,131031,6,0,L|160:32,2,48,2|0|0,0:0|0:0|0:0,0:0:0:0:
256,144,131394,2,0,L|256:256,1,96,8|0,0:0|0:0,0:0:0:0:
80,272,131758,2,0,L|80:160,1,96,0|4,0:0|0:0,0:0:0:0:
176,160,132122,1,8,0:0:0:0:
416,128,132485,5,4,0:0:0:0:
240,96,132667,1,8,0:0:0:0:
240,160,133031,1,8,0:0:0:0:
496,256,133212,1,8,0:0:0:0:
400,240,133394,2,0,L|400:128,1,96,0|0,0:0|0:0,0:0:0:0:
304,96,133758,1,0,0:0:0:0:
208,208,133940,6,0,L|208:96,1,96,2|0,0:0|0:0,0:0:0:0:
304,128,134303,2,0,L|304:240,1,96,8|0,0:0|0:0,0:0:0:0:
208,192,134667,2,0,L|80:192,1,96,0|4,0:0|0:0,0:0:0:0:
368,192,135031,1,8,0:0:0:0:
256,192,135394,12,0,137940,0:0:0:0:
336,272,138303,5,8,0:0:0:0:
384,272,138394,1,0,0:0:0:0:
432,272,138484,1,0,0:0:0:0:
384,272,138576,1,0,0:0:0:0:
336,272,138667,1,8,0:0:0:0:
384,272,138757,1,0,0:0:0:0:
432,272,138848,1,0,0:0:0:0:
176,272,139031,5,8,0:0:0:0:
128,272,139122,1,0,0:0:0:0:
80,272,139212,1,0,0:0:0:0:
128,272,139304,1,0,0:0:0:0:
176,272,139395,1,8,0:0:0:0:
128,272,139485,1,0,0:0:0:0:
80,272,139576,1,8,0:0:0:0:
368,176,139758,6,0,L|464:176,2,96,8|0|8,0:0|0:0|0:0,0:0:0:0:
368,80,140485,2,0,L|464:80,1,96,8|0,0:0|0:0,0:0:0:0:
160,208,140849,2,0,L|64:208,1,96,8|4,0:0|0:0,0:0:0:0:
160,144,141212,5,4,0:3:0:0:
432,144,141394,1,8,0:0:0:0:
432,208,141757,1,8,0:0:0:0:
256,128,141939,5,8,0:0:0:0:
352,208,142121,1,4,0:0:0:0:
256,288,142303,1,8,0:0:0:0:
352,352,142485,1,8,0:0:0:0:
112,320,142666,5,2,0:0:0:0:
64,288,142757,1,0,0:0:0:0:
112,255,142848,1,4,0:0:0:0:
208,240,143030,1,8,0:0:0:0:
304,224,143212,1,4,0:0:0:0:
144,144,143394,5,0,0:0:0:0:
48,144,143576,1,4,0:0:0:0:
144,144,143757,1,8,0:0:0:0:
352,144,144121,5,4,0:0:0:0:
80,144,144303,1,8,0:0:0:0:
80,208,144666,1,8,0:0:0:0:
256,128,144848,5,8,0:0:0:0:
160,208,145030,1,4,0:0:0:0:
256,288,145212,1,8,0:0:0:0:
160,352,145394,1,8,0:0:0:0:
400,320,145575,5,2,0:0:0:0:
445,288,145666,1,0,0:0:0:0:
400,255,145757,1,4,0:0:0:0:
304,240,145939,1,8,0:0:0:0:
208,224,146121,1,4,0:0:0:0:
368,144,146303,5,2,0:0:0:0:
464,144,146485,1,4,0:0:0:0:
368,144,146666,1,8,0:0:0:0:
160,80,147030,5,4,0:0:0:0:
432,80,147212,1,8,0:0:0:0:
432,176,147394,1,0,0:0:0:0:
256,208,147576,1,8,0:0:0:0:
80,256,147757,5,8,0:0:0:0:
176,192,147939,1,4,0:0:0:0:
80,144,148121,1,8,0:0:0:0:
176,96,148303,1,8,0:0:0:0:
352,80,148485,5,2,0:0:0:0:
400,80,148576,1,0,0:0:0:0:
352,80,148666,1,4,0:0:0:0:
256,96,148848,1,8,0:0:0:0:
352,144,149030,1,4,0:0:0:0:
176,208,149212,5,0,0:0:0:0:
80,256,149394,1,4,0:0:0:0:
176,304,149576,1,8,0:0:0:0:
368,304,149939,5,4,0:0:0:0:
96,112,150121,1,8,0:0:0:0:
96,192,150485,1,8,0:0:0:0:
272,208,150666,5,8,0:0:0:0:
368,240,150848,1,4,0:0:0:0:
272,208,151030,1,8,0:0:0:0:
368,240,151212,1,8,0:0:0:0:
192,288,151394,5,2,0:0:0:0:
144,288,151485,1,0,0:0:0:0:
192,288,151576,1,4,0:0:0:0:
272,208,151757,1,8,0:0:0:0:
192,160,151939,1,2,0:0:0:0:
16,96,152121,6,0,P|16:160|192:288,1,288,8|8,0:0|0:0,0:0:0:0:
176,224,152848,5,2,0:0:0:0:
176,112,153030,1,0,0:0:0:0:
176,16,153212,1,0,0:0:0:0:
80,128,153394,1,0,0:0:0:0:
352,352,153576,5,8,0:0:0:0:
448,336,153757,1,4,0:0:0:0:
352,288,153939,1,8,0:0:0:0:
448,240,154121,1,8,0:0:0:0:
272,160,154303,5,2,0:0:0:0:
224,144,154394,1,0,0:0:0:0:
176,128,154485,1,4,0:0:0:0:
272,80,154666,1,8,0:0:0:0:
368,64,154848,1,4,0:0:0:0:
192,240,155030,5,2,0:0:0:0:
288,240,155212,1,4,0:0:0:0:
384,240,155394,1,8,0:0:0:0:
288,240,155576,1,8,0:0:0:0:
192,224,155757,5,4,0:0:0:0:
464,160,155939,1,8,0:0:0:0:
416,112,156122,1,0,0:0:0:0:
464,64,156303,1,8,0:0:0:0:
288,96,156485,5,8,0:0:0:0:
192,128,156666,1,4,0:0:0:0:
288,160,156848,1,8,0:0:0:0:
192,208,157030,1,8,0:0:0:0:
16,272,157212,5,2,0:0:0:0:
64,256,157303,1,0,0:0:0:0:
112,240,157394,1,4,0:0:0:0:
208,160,157576,1,8,0:0:0:0:
112,96,157757,1,4,0:0:0:0:
288,96,157939,5,2,0:0:0:0:
384,160,158121,1,4,0:0:0:0:
432,240,158303,1,8,0:0:0:0:
384,304,158485,1,8,0:0:0:0:
208,336,158666,5,4,0:0:0:0:
32,352,158848,1,8,0:0:0:0:
32,272,159030,1,8,0:0:0:0:
32,192,159212,1,0,0:0:0:0:
288,160,159394,5,8,0:0:0:0:
336,96,159576,1,4,0:0:0:0:
288,32,159757,1,8,0:0:0:0:
192,32,159939,1,8,0:0:0:0:
368,272,160121,5,2,0:0:0:0:
416,272,160212,1,0,0:0:0:0:
368,272,160303,1,4,0:0:0:0:
272,224,160485,1,8,0:0:0:0:
176,192,160666,1,4,0:0:0:0:
352,160,160848,5,2,0:0:0:0:
256,112,161030,1,4,0:0:0:0:
160,80,161212,1,8,0:0:0:0:
64,48,161394,1,8,0:0:0:0:
160,80,161576,5,4,0:0:0:0:
336,224,161757,1,8,0:0:0:0:
384,272,161940,1,0,0:0:0:0:
432,320,162121,1,8,0:0:0:0:
256,256,162303,5,8,0:0:0:0:
176,192,162485,1,4,0:0:0:0:
256,144,162666,1,8,0:0:0:0:
176,96,162848,1,8,0:0:0:0:
352,96,163030,5,2,0:0:0:0:
400,144,163121,1,0,0:0:0:0:
352,160,163212,1,4,0:0:0:0:
256,192,163394,1,8,0:0:0:0:
352,240,163576,1,8,0:0:0:0:
176,304,163757,6,0,P|112:288|208:153,1,288,8|8,0:0|0:0,0:0:0:0:
448,144,164485,5,4,0:3:0:0:
