osu file format v14

[General]
AudioFilename: audio.mp3
AudioLeadIn: 0
PreviewTime: 48088
Countdown: 0
SampleSet: Normal
StackLeniency: 0.7
Mode: 2
LetterboxInBreaks: 0
WidescreenStoryboard: 1

[Editor]
Bookmarks: 13212,24849,36485
DistanceSpacing: 3.8
BeatDivisor: 4
GridSize: 8
TimelineZoom: 2.8

[Metadata]
Title:Lunicode
TitleUnicode:Lunicode
Artist:Hatsuki Yura
ArtistUnicode:葉月ゆら
Creator:Rocma
Version:Phob, the Wallhugger's Salad
Source:東方輝針城 ~ Double Dealing Character.
Tags:x_angelkawaii_x sadegg phob th14 japanese video game dnb touhou kishinjou project eastnewsound c86 comiket perpetual devotion strange instuments izayoi sakuya 十六夜 咲夜 toho tōhō wub electronic edm
BeatmapID:4146698
BeatmapSetID:1088296

[Difficulty]
HPDrainRate:4
CircleSize:3.6
OverallDifficulty:7
ApproachRate:7
SliderMultiplier:1.81818181818
SliderTickRate:1

[Events]
//Background and Video events
0,0,"wallhugger.jpg",0,0
//Break Periods
2,83048,87799
//Storyboard Layer 0 (Background)
//Storyboard Layer 1 (Fail)
//Storyboard Layer 2 (Pass)
//Storyboard Layer 3 (Foreground)
//Storyboard Layer 4 (Overlay)
//Storyboard Sound Samples

[TimingPoints]
122,363.636363636364,4,1,2,60,1,0
122,-51.0204081632424,4,1,2,60,0,0
59758,-51.0204081632424,4,1,2,60,0,1
82849,-51.0204081632424,4,1,2,60,0,0
94667,-51.0204081632424,4,1,2,60,0,0
106303,-51.0204081632424,4,1,2,60,0,0
117940,-51.0204081632424,4,1,2,60,0,1
135394,-51.0204081632424,4,1,2,60,0,0
141212,-51.0204081632424,4,1,2,60,0,1
164485,-51.0204081632424,4,1,2,60,0,0

[Colours]
Combo1 : 0,128,255
Combo2 : 128,255,255

[HitObjects]
144,192,1576,5,4,0:0:0:0:
112,192,1758,1,0,0:0:0:0:
176,192,1940,1,0,0:0:0:0:
256,192,2122,1,0,0:0:0:0:
176,192,2303,1,2,0:0:0:0:
96,192,2667,1,0,0:0:0:0:
176,192,3031,5,0,0:0:0:0:
256,192,3212,1,0,0:0:0:0:
176,192,3394,1,0,0:0:0:0:
112,192,3576,1,0,0:0:0:0:
144,192,3758,1,2,0:0:0:0:
80,96,4122,1,0,0:0:0:0:
256,192,4485,5,4,0:0:0:0:
336,192,4667,1,0,0:0:0:0:
304,192,4849,1,0,0:0:0:0:
240,192,5031,1,0,0:0:0:0:
208,192,5212,1,2,0:0:0:0:
288,88,5576,1,0,0:0:0:0:
208,192,5940,5,0,0:0:0:0:
240,192,6121,1,0,0:0:0:0:
304,192,6303,1,0,0:0:0:0:
336,192,6485,1,0,0:0:0:0:
256,192,6667,1,2,0:0:0:0:
204,88,7031,1,0,0:0:0:0:
368,192,7394,5,4,0:0:0:0:
400,192,7576,1,0,0:0:0:0:
336,192,7758,1,0,0:0:0:0:
256,192,7940,1,0,0:0:0:0:
336,192,8121,1,2,0:0:0:0:
416,192,8485,1,0,0:0:0:0:
336,192,8849,5,0,0:0:0:0:
256,192,9030,1,0,0:0:0:0:
336,192,9212,1,0,0:0:0:0:
400,192,9394,1,0,0:0:0:0:
368,192,9576,1,2,0:0:0:0:
432,96,9940,1,0,0:0:0:0:
256,192,10303,5,4,0:0:0:0:
176,192,10485,1,0,0:0:0:0:
208,192,10667,1,0,0:0:0:0:
272,192,10849,1,0,0:0:0:0:
304,192,11030,1,2,0:0:0:0:
224,88,11394,1,0,0:0:0:0:
304,192,11758,5,0,0:0:0:0:
272,192,11939,1,0,0:0:0:0:
208,192,12121,1,0,0:0:0:0:
176,192,12303,1,0,0:0:0:0:
256,192,12485,1,2,0:0:0:0:
308,88,12849,1,0,0:0:0:0:
0,272,13212,6,0,L|7:352|7:352|14:272|14:272|12:192|12:192|16:77|16:77,1,356.363625488086,4|0,0:0|0:0,0:0:0:0:
176,144,13940,1,8,0:0:0:0:
0,192,14303,2,0,L|18:261|18:261|82:347|82:347,1,178.181812744042,0|0,0:0|0:0,0:0:0:0:
0,272,14667,6,0,L|-14:351|-14:351|6:273|6:273|10:193|10:193|16:78|16:78,1,356.363625488086,2|0,0:0|0:0,0:0:0:0:
176,144,15395,1,8,0:0:0:0:
168,224,15758,2,0,L|149:293|149:293|86:379|86:379,1,178.181812744042,0|0,0:0|0:0,0:0:0:0:
0,272,16122,6,0,L|7:352|7:352|14:272|14:272|13:192|13:192|16:76|16:76,1,356.363625488086,4|0,0:0|0:0,0:0:0:0:
176,144,16850,1,8,0:0:0:0:
0,192,17213,2,0,L|19:261|19:261|82:347|82:347,1,178.181812744042,0|0,0:0|0:0,0:0:0:0:
0,272,17576,6,0,L|-1:352|-1:352|14:273|14:273|5:193|5:193|16:78|16:78,1,356.363625488086,2|0,0:0|0:0,0:0:0:0:
176,144,18303,1,8,0:0:0:0:
184,144,18485,1,0,0:0:0:0:
192,144,18667,1,8,0:0:0:0:
512,272,19031,6,0,L|527:351|527:351|513:272|513:272|491:195|491:195|496:80|496:80,1,356.363625488086,4|0,0:0|0:0,0:0:0:0:
336,144,19759,1,8,0:0:0:0:
512,192,20122,2,0,L|462:243|462:243|430:345|430:345,1,178.181812744042,0|0,0:0|0:0,0:0:0:0:
512,272,20486,6,0,L|505:352|505:352|512:272|512:272|518:192|518:192|496:78|496:78,1,356.363625488086,2|0,0:0|0:0,0:0:0:0:
336,144,21212,1,8,0:0:0:0:
344,224,21577,2,0,L|364:293|364:293|426:380|426:380,1,178.181812744042,0|0,0:0|0:0,0:0:0:0:
512,272,21941,6,0,L|513:352|513:352|501:273|501:273|516:194|516:194|496:80|496:80,1,356.363625488086,4|0,0:0|0:0,0:0:0:0:
336,144,22667,1,8,0:0:0:0:
512,192,23032,2,0,L|482:257|482:257|430:350|430:350,1,178.181812744042,0|0,0:0|0:0,0:0:0:0:
512,272,23394,6,0,L|509:352|509:352|498:272|498:272|516:194|516:194|496:80|496:80,1,356.363625488086,2|0,0:0|0:0,0:0:0:0:
416,112,23940,1,0,0:0:0:0:
336,112,24122,2,0,L|351:191|351:191|344:271|344:271|313:345|313:345|320:230|320:230,1,356.363625488086,8|0,0:0|0:0,0:0:0:0:
0,272,24849,6,0,B|-13:351|-13:351|7:273|7:273|44:202|44:202|91:97|91:97,1,356.363625488086,4|0,0:0|0:0,0:0:0:0:
248,192,25576,1,8,0:0:0:0:
96,232,25940,2,0,L|93:303|93:303|89:196|89:196,1,178.181812744042,0|0,0:0|0:0,0:0:0:0:
0,272,26303,6,0,B|-15:351|-15:351|12:276|12:276|33:199|33:199|91:99|91:99,1,356.363625488086,2|0,0:0|0:0,0:0:0:0:
248,192,27030,1,8,0:0:0:0:
168,104,27394,2,0,L|122:159|122:159|86:260|86:260,1,178.181812744042,0|0,0:0|0:0,0:0:0:0:
0,272,27758,6,0,B|-13:351|-13:351|-10:271|-10:271|23:198|23:198|91:105|91:105,1,356.363625488086,4|0,0:0|0:0,0:0:0:0:
248,192,28485,1,8,0:0:0:0:
96,232,28849,2,0,L|76:301|76:301|89:195|89:195,1,178.181812744042,0|0,0:0|0:0,0:0:0:0:
0,272,29212,6,0,B|-5:352|-5:352|15:274|15:274|33:196|33:196|91:96|91:96,1,356.363625488086,2|0,0:0|0:0,0:0:0:0:
248,144,29940,1,8,0:0:0:0:
168,144,30122,1,0,0:0:0:0:
176,144,30303,1,8,0:0:0:0:
512,272,30667,6,0,B|519:352|519:352|519:272|519:272|456:222|456:222|421:112|421:112,1,356.363625488086,4|0,0:0|0:0,0:0:0:0:
264,192,31394,1,8,0:0:0:0:
416,232,31758,2,0,L|426:303|426:303|423:196|423:196,1,178.181812744042,0|0,0:0|0:0,0:0:0:0:
512,272,32121,6,0,B|505:352|505:352|502:272|502:272|483:194|483:194|421:97|421:97,1,356.363625488086,2|0,0:0|0:0,0:0:0:0:
264,192,32848,1,8,0:0:0:0:
344,104,33212,2,0,L|376:168|376:168|426:262|426:262,1,178.181812744042,0|0,0:0|0:0,0:0:0:0:
512,272,33576,6,0,B|517:352|517:352|505:273|505:273|491:194|491:194|421:102|421:102,1,356.363625488086,4|0,0:0|0:0,0:0:0:0:
264,192,34303,1,8,0:0:0:0:
416,232,34667,2,0,L|434:301|434:301|423:195|423:195,1,178.181812744042,0|0,0:0|0:0,0:0:0:0:
512,272,35030,6,0,B|505:352|505:352|517:273|517:273|493:196|493:196|421:106|421:106,1,356.363625488086,2|0,0:0|0:0,0:0:0:0:
264,144,35758,2,0,L|271:215|271:215|271:322|271:322,1,178.181812744042,8|0,0:0|0:0,0:0:0:0:
352,144,36122,2,0,L|359:215|359:215|345:321|345:321,1,178.181812744042,8|0,0:0|0:0,0:0:0:0:
164,112,36485,6,0,B|115:186|115:186|83:269|83:269|24:336|24:336|0:250|0:250|-2:170|-2:170|-12:90|-12:90|0:11|0:11|15:126|15:126,1,712.72725097617,2|2,0:0|0:0,0:0:0:0:
256,112,37758,2,0,L|243:191|243:191|245:271|245:271|239:351|239:351|240:235|240:235,1,356.363625488086,0|2,0:0|0:0,0:0:0:0:
0,112,38667,2,0,L|-13:191|-13:191|14:267|14:267|12:347|12:347|16:232|16:232,1,356.363625488086,0|2,0:0|0:0,0:0:0:0:
172,272,39394,6,0,B|177:361|177:361|158:274|158:274|113:197|113:197|81:114|81:114|53:39|53:39|14:109|14:109|-4:187|-4:187|8:302|8:302,1,712.72725097617,2|2,0:0|0:0,0:0:0:0:
31,56,40667,2,0,L|54:133|54:133|98:200|98:200|130:274|130:274|195:370|195:370,1,356.363625488086,0|2,0:0|0:0,0:0:0:0:
195,56,41576,2,0,L|156:126|156:126|139:205|139:205|100:275|100:275|31:368|31:368,1,356.363625488086,0|2,0:0|0:0,0:0:0:0:
348,112,42303,6,0,B|386:193|386:193|422:275|422:275|477:345|477:345|512:263|512:263|510:183|510:183|498:104|498:104|518:26|518:26|497:140|497:140,1,712.72725097617,2|2,0:0|0:0,0:0:0:0:
256,112,43576,2,0,L|248:192|248:192|281:265|281:265|259:342|259:342|272:227|272:227,1,356.363625488086,0|2,0:0|0:0,0:0:0:0:
512,112,44485,2,0,L|505:192|505:192|513:272|513:272|508:352|508:352|496:237|496:237,1,356.363625488086,0|2,0:0|0:0,0:0:0:0:
340,272,45212,6,0,B|344:361|344:361|343:272|343:272|404:207|404:207|431:122|431:122|457:46|457:46|512:105|512:105|507:185|507:185|504:301|504:301,1,712.72725097617,2|2,0:0|0:0,0:0:0:0:
480,56,46485,2,0,L|431:120|431:120|410:198|410:198|368:267|368:267|316:370|316:370,1,356.363625488086,0|2,0:0|0:0,0:0:0:0:
316,56,47394,2,0,L|365:120|365:120|387:197|387:197|408:275|408:275|480:366|480:366,1,356.363625488086,0|2,0:0|0:0,0:0:0:0:
176,240,48122,6,0,L|175:320|175:320|169:240|169:240|183:161|183:161|160:48|160:48,1,356.363625488086,4|8,0:0|0:0,0:0:0:0:
0,240,48849,2,0,L|7:320|7:320|7:240|7:240|-7:161|-7:161|16:48|16:48,1,356.363625488086,0|8,0:0|0:0,0:0:0:0:
96,64,49394,1,0,0:0:0:0:
15,77,49576,2,0,L|0:156|0:156|-3:236|-3:236|6:316|6:316|0:201|0:201,1,356.363625488086,0|8,0:0|0:0,0:0:0:0:
160,344,50303,1,8,0:0:0:0:
16,344,50667,1,8,0:0:0:0:
336,240,51031,6,0,L|322:319|322:319|351:244|351:244|331:166|331:166|352:52|352:52,1,356.363625488086,2|8,0:0|0:0,0:0:0:0:
512,240,51758,2,0,L|521:320|521:320|515:240|515:240|498:162|498:162|496:46|496:46,1,356.363625488086,0|8,0:0|0:0,0:0:0:0:
416,64,52303,1,0,0:0:0:0:
497,77,52485,2,0,L|511:156|511:156|496:235|496:235|518:312|518:312|512:197|512:197,1,356.363625488086,0|8,0:0|0:0,0:0:0:0:
352,344,53212,1,8,0:0:0:0:
496,344,53576,1,8,0:0:0:0:
176,240,53940,5,8,0:0:0:0:
168,158,54121,1,0,0:0:0:0:
160,77,54303,1,8,0:0:0:0:
336,240,54667,1,8,0:0:0:0:
343,158,54848,1,0,0:0:0:0:
351,77,55030,1,8,0:0:0:0:
272,64,55212,1,8,0:0:0:0:
351,77,55394,5,8,0:0:0:0:
343,158,55576,1,0,0:0:0:0:
336,240,55757,1,8,0:0:0:0:
176,288,56122,1,8,0:0:0:0:
256,288,56303,1,0,0:0:0:0:
336,288,56485,1,8,0:0:0:0:
0,192,56849,5,8,0:0:0:0:
8,64,56940,1,0,0:0:0:0:
0,192,57031,1,0,0:0:0:0:
0,192,57212,1,8,0:0:0:0:
16,64,57303,1,0,0:0:0:0:
0,192,57394,1,8,0:0:0:0:
0,192,57576,5,8,0:0:0:0:
24,64,57667,1,0,0:0:0:0:
0,192,57758,1,0,0:0:0:0:
0,192,57940,1,8,0:0:0:0:
32,64,58031,1,0,0:0:0:0:
0,192,58122,1,8,0:0:0:0:
0,192,58303,6,0,B|41:271|41:271|94:343|94:343|128:261|128:261|164:179|164:179|136:104|136:104|95:35|95:35|58:106|58:106|1:206|1:206,1,712.72725097617,8|2,0:0|0:0,0:0:0:0:
0,192,59394,1,2,0:0:0:0:
40,192,59417,1,0,0:0:0:0:
48,192,59440,1,0,0:0:0:0:
304,192,59758,5,4,0:3:0:0:
312,192,59940,1,8,0:0:0:0:
328,192,60304,1,8,0:0:0:0:
512,192,60486,1,8,0:0:0:0:
464,192,60508,1,0,0:0:0:0:
512,192,60531,1,0,0:0:0:0:
392,336,61212,5,2,0:0:0:0:
352,192,61576,1,8,0:0:0:0:
392,192,61758,1,4,0:0:0:0:
432,192,61940,1,0,0:0:0:0:
208,192,62667,5,0,0:0:0:0:
200,192,62849,1,8,0:0:0:0:
184,192,63213,1,8,0:0:0:0:
0,192,63395,1,8,0:0:0:0:
48,192,63417,1,0,0:0:0:0:
0,192,63440,1,0,0:0:0:0:
120,336,64122,5,2,0:0:0:0:
160,192,64486,1,8,0:0:0:0:
120,192,64668,1,4,0:0:0:0:
80,192,64850,1,0,0:0:0:0:
232,192,65576,5,2,0:0:0:0:
312,192,65758,1,8,0:0:0:0:
328,192,66122,1,8,0:0:0:0:
512,192,66304,1,8,0:0:0:0:
464,192,66326,1,0,0:0:0:0:
512,192,66349,1,0,0:0:0:0:
392,336,67031,5,2,0:0:0:0:
352,192,67395,1,8,0:0:0:0:
392,192,67577,1,4,0:0:0:0:
432,192,67759,1,0,0:0:0:0:
208,192,68485,5,0,0:0:0:0:
200,192,68667,1,8,0:0:0:0:
184,192,69031,1,8,0:0:0:0:
0,192,69213,1,8,0:0:0:0:
48,192,69235,1,0,0:0:0:0:
0,192,69258,1,0,0:0:0:0:
120,336,69939,5,2,0:0:0:0:
160,192,70303,1,8,0:0:0:0:
80,192,70485,1,4,0:0:0:0:
248,192,70667,2,0,B|238:281|238:281|253:369|253:369|271:282|271:282|264:193|264:193|310:138|310:138|345:37|345:37,1,534.545438232128,8|8,0:0|0:0,0:0:0:0:
264,30,71394,2,0,L|263:110|263:110|254:190|254:190|271:268|271:268|248:381|248:381,1,356.363625488086,0|0,0:0|0:0,0:0:0:0:
328,192,71940,5,8,0:0:0:0:
512,192,72122,1,8,0:0:0:0:
464,192,72144,1,0,0:0:0:0:
512,192,72167,1,0,0:0:0:0:
496,96,72485,5,8,0:0:0:0:
336,96,72849,1,2,0:0:0:0:
320,192,73212,1,8,0:0:0:0:
240,192,73394,1,4,0:0:0:0:
280,192,73576,1,0,0:0:0:0:
360,192,73940,1,8,0:0:0:0:
208,192,74303,5,2,0:0:0:0:
200,192,74485,1,8,0:0:0:0:
184,192,74849,1,8,0:0:0:0:
0,192,75031,1,8,0:0:0:0:
48,192,75053,1,0,0:0:0:0:
0,192,75076,1,0,0:0:0:0:
16,96,75394,5,8,0:0:0:0:
176,96,75758,1,2,0:0:0:0:
192,192,76121,1,8,0:0:0:0:
232,192,76303,1,4,0:0:0:0:
152,192,76485,1,0,0:0:0:0:
72,192,76849,1,8,0:0:0:0:
232,192,77212,5,2,0:0:0:0:
240,192,77394,1,8,0:0:0:0:
248,192,77576,1,8,0:0:0:0:
328,192,77758,1,0,0:0:0:0:
512,192,77940,1,8,0:0:0:0:
464,192,77962,1,0,0:0:0:0:
512,192,77985,1,0,0:0:0:0:
496,96,78303,5,8,0:0:0:0:
336,96,78667,1,2,0:0:0:0:
320,192,79031,1,8,0:0:0:0:
240,192,79213,1,4,0:0:0:0:
320,192,79395,1,0,0:0:0:0:
376,192,79759,1,8,0:0:0:0:
208,192,80122,5,2,0:0:0:0:
200,192,80304,1,8,0:0:0:0:
184,192,80668,1,8,0:0:0:0:
0,192,80850,1,8,0:0:0:0:
48,192,80872,1,0,0:0:0:0:
0,192,80895,1,0,0:0:0:0:
16,96,81212,5,8,0:0:0:0:
176,96,81576,1,2,0:0:0:0:
160,192,81940,1,8,0:0:0:0:
80,192,82122,1,4,0:0:0:0:
256,272,82303,2,0,L|297:351|297:351|325:266|325:266|381:196|381:196|420:116|420:116|460:57|460:57|501:155|501:155,1,534.545438232128,8|8,0:0|0:0,0:0:0:0:
256,192,88849,12,0,93940,0:0:0:0:
256,192,94667,5,2,0:0:0:0:
512,192,95212,5,0,0:0:0:0:
432,192,95394,1,0,0:0:0:0:
512,192,95576,1,0,0:0:0:0:
0,192,96667,5,0,0:0:0:0:
8,192,96849,1,0,0:0:0:0:
88,192,97030,1,2,0:0:0:0:
8,192,97212,1,2,0:0:0:0:
4,152,97576,1,2,0:0:0:0:
0,112,98122,5,0,0:0:0:0:
80,112,98304,1,0,0:0:0:0:
0,112,98486,1,0,0:0:0:0:
512,192,99576,5,0,0:0:0:0:
432,192,99758,1,0,0:0:0:0:
512,192,99940,1,2,0:0:0:0:
504,192,100122,1,2,0:0:0:0:
508,152,100485,1,2,0:0:0:0:
512,112,101031,5,0,0:0:0:0:
432,112,101213,1,0,0:0:0:0:
512,112,101395,1,0,0:0:0:0:
0,192,102485,5,0,0:0:0:0:
8,192,102667,1,0,0:0:0:0:
88,192,102848,1,2,0:0:0:0:
8,192,103030,1,2,0:0:0:0:
4,152,103394,1,2,0:0:0:0:
0,112,103940,5,0,0:0:0:0:
80,112,104122,1,0,0:0:0:0:
0,112,104304,1,0,0:0:0:0:
8,192,104667,6,0,L|27:270|27:270|91:319|91:319|117:243|117:243|172:141|172:141,1,356.363625488086,2|0,0:0|0:0,0:0:0:0:
180,140,105212,1,0,0:0:0:0:
104,140,105394,1,0,0:0:0:0:
188,112,105576,2,0,L|135:172|135:172|97:243|97:243|73:320|73:320|24:215|24:215,1,356.363625488086,2|2,0:0|0:0,0:0:0:0:
336,240,106303,6,0,L|342:320|342:320|352:240|352:240|337:161|337:161|352:46|352:46,1,356.363625488086,4|8,0:0|0:0,0:0:0:0:
512,240,107030,2,0,L|512:320|512:320|516:240|516:240|512:160|512:160|496:45|496:45,1,356.363625488086,0|8,0:0|0:0,0:0:0:0:
416,64,107575,1,0,0:0:0:0:
497,77,107757,2,0,L|489:157|489:157|500:237|500:237|502:317|502:317|512:202|512:202,1,356.363625488086,4|8,0:0|0:0,0:0:0:0:
352,344,108484,1,0,0:0:0:0:
496,344,108848,1,8,0:0:0:0:
176,240,109212,6,0,L|160:319|160:319|177:241|177:241|155:164|155:164|160:49|160:49,1,356.363625488086,4|8,0:0|0:0,0:0:0:0:
0,240,109939,2,0,L|7:320|7:320|13:240|13:240|2:160|2:160|16:45|16:45,1,356.363625488086,0|8,0:0|0:0,0:0:0:0:
96,64,110484,1,0,0:0:0:0:
15,77,110666,2,0,L|15:157|15:157|-8:234|-8:234|10:312|10:312|0:197|0:197,1,356.363625488086,4|8,0:0|0:0,0:0:0:0:
160,344,111393,1,0,0:0:0:0:
16,344,111757,1,8,0:0:0:0:
336,240,112121,5,4,0:0:0:0:
344,158,112302,1,0,0:0:0:0:
352,77,112484,1,4,0:0:0:0:
176,240,112848,1,4,0:0:0:0:
169,158,113031,1,0,0:0:0:0:
161,77,113211,1,8,0:0:0:0:
240,64,113393,1,4,0:0:0:0:
161,77,113575,5,4,0:0:0:0:
169,158,113758,1,0,0:0:0:0:
176,240,113940,1,4,0:0:0:0:
336,288,114303,1,8,0:0:0:0:
256,288,114484,1,0,0:0:0:0:
176,288,114666,1,8,0:0:0:0:
512,192,115030,5,4,0:0:0:0:
504,64,115121,1,0,0:0:0:0:
512,192,115212,1,0,0:0:0:0:
512,192,115393,1,4,0:0:0:0:
496,64,115484,1,0,0:0:0:0:
512,192,115575,1,0,0:0:0:0:
512,192,115757,5,8,0:0:0:0:
488,64,115848,1,0,0:0:0:0:
512,192,115939,1,4,0:0:0:0:
512,192,116121,1,0,0:0:0:0:
480,64,116212,1,0,0:0:0:0:
512,192,116303,1,4,0:0:0:0:
512,192,116485,6,0,B|469:270|469:270|411:338|411:338|389:252|389:252|350:172|350:172|402:111|402:111|429:36|429:36|452:113|452:113|513:211|513:211,1,712.72725097617,8|0,0:0|0:0,0:0:0:0:
496,192,117394,1,2,0:0:0:0:
512,192,117576,1,2,0:0:0:0:
176,192,117940,5,4,0:3:0:0:
168,192,118122,1,8,0:0:0:0:
328,192,118485,1,8,0:0:0:0:
512,192,118668,1,8,0:0:0:0:
464,192,118690,1,0,0:0:0:0:
512,192,118713,1,0,0:0:0:0:
496,112,119031,1,8,0:0:0:0:
320,312,119212,6,0,B|302:234|302:234|260:165|260:165|236:89|236:89|244:204|244:204,1,356.363625488086,0|0,0:0|0:0,0:0:0:0:
328,208,119758,2,0,L|319:279|319:279|335:384|335:384,1,178.181812744042,8|4,0:0|0:0,0:0:0:0:
168,192,120122,2,0,B|121:257|121:257|88:330|88:330|119:256|119:256|168:151|168:151,1,356.363625488086,0|8,0:0|0:0,0:0:0:0:
336,192,120849,5,4,0:0:0:0:
344,192,121031,1,8,0:0:0:0:
184,192,121394,1,8,0:0:0:0:
0,192,121577,1,8,0:0:0:0:
48,192,121599,1,0,0:0:0:0:
0,192,121622,1,0,0:0:0:0:
16,112,121940,1,8,0:0:0:0:
192,312,122122,6,0,B|237:379|237:379|252:300|252:300|270:222|270:222|268:106|268:106,1,356.363625488086,0|0,0:0|0:0,0:0:0:0:
184,208,122668,2,0,L|163:276|163:276|177:382|177:382,1,178.181812744042,8|4,0:0|0:0,0:0:0:0:
344,192,123032,2,0,B|376:266|376:266|424:331|424:331|380:264|380:264|344:154|344:154,1,356.363625488086,0|0,0:0|0:0,0:0:0:0:
176,192,123758,5,4,0:0:0:0:
168,192,123940,1,8,0:0:0:0:
328,192,124303,1,8,0:0:0:0:
512,192,124486,1,8,0:0:0:0:
464,192,124508,1,0,0:0:0:0:
512,192,124531,1,0,0:0:0:0:
496,112,124849,1,8,0:0:0:0:
320,56,125031,6,0,L|281:126|281:126|257:203|257:203|193:252|193:252|156:362|156:362,1,356.363625488086,0|0,0:0|0:0,0:0:0:0:
240,120,125576,2,0,L|224:190|224:190|247:294|247:294,1,178.181812744042,8|4,0:0|0:0,0:0:0:0:
80,232,125940,2,0,B|86:312|86:312|61:236|61:236|115:177|115:177|155:69|155:69,1,356.363625488086,0|8,0:0|0:0,0:0:0:0:
336,192,126667,5,4,0:0:0:0:
344,192,126849,1,8,0:0:0:0:
184,192,127212,1,8,0:0:0:0:
0,192,127395,1,8,0:0:0:0:
48,192,127417,1,0,0:0:0:0:
0,192,127440,1,0,0:0:0:0:
16,112,127758,1,8,0:0:0:0:
192,56,127940,6,0,L|213:134|213:134|254:203|254:203|314:257|314:257|356:365|356:365,1,356.363625488086,0|0,0:0|0:0,0:0:0:0:
272,120,128485,2,0,L|258:190|258:190|265:297|265:297,1,178.181812744042,8|4,0:0|0:0,0:0:0:0:
432,232,128849,2,0,B|420:311|420:311|420:231|420:231|400:153|400:153|357:46|357:46,1,356.363625488086,0|8,0:0|0:0,0:0:0:0:
208,192,129576,5,4,0:0:0:0:
200,192,129758,1,8,0:0:0:0:
184,192,130122,1,8,0:0:0:0:
0,192,130304,1,8,0:0:0:0:
48,192,130326,1,0,0:0:0:0:
0,192,130349,1,0,0:0:0:0:
16,104,130667,1,0,0:0:0:0:
328,144,131031,6,0,L|331:224|331:224|351:302|351:302|336:381|336:381|344:266|344:266,1,356.363625488086,2|8,0:0|0:0,0:0:0:0:
264,232,131576,1,0,0:0:0:0:
184,144,131758,2,0,L|185:224|185:224|190:304|190:304|181:384|181:384|168:269|168:269,1,356.363625488086,0|8,0:0|0:0,0:0:0:0:
304,192,132485,5,4,0:0:0:0:
312,192,132667,1,8,0:0:0:0:
328,192,133031,1,8,0:0:0:0:
512,192,133213,1,8,0:0:0:0:
464,192,133235,1,0,0:0:0:0:
512,192,133258,1,0,0:0:0:0:
496,104,133576,1,0,0:0:0:0:
184,144,133940,5,2,0:0:0:0:
144,224,134121,1,0,0:0:0:0:
168,306,134303,1,8,0:0:0:0:
248,232,134485,1,0,0:0:0:0:
328,144,134667,2,0,L|324:224|324:224|321:304|321:304|344:381|344:381|344:265|344:265,1,356.363625488086,0|8,0:0|0:0,0:0:0:0:
0,272,135394,6,0,L|-12:351|-12:351|14:275|14:275|21:195|21:195|16:80|16:80,1,356.363625488086,4|0,0:0|0:0,0:0:0:0:
176,272,136121,2,0,L|158:350|158:350|160:270|160:270|164:190|164:190|160:75|160:75,1,356.363625488086,0|0,0:0|0:0,0:0:0:0:
80,96,136666,1,0,0:0:0:0:
161,109,136848,2,0,L|155:189|155:189|169:268|169:268|185:347|185:347|176:232|176:232,1,356.363625488086,0|0,0:0|0:0,0:0:0:0:
328,344,137575,1,0,0:0:0:0:
184,344,137939,1,0,0:0:0:0:
512,192,138303,5,8,0:0:0:0:
504,64,138394,1,0,0:0:0:0:
512,192,138485,1,0,0:0:0:0:
512,192,138666,1,8,0:0:0:0:
496,64,138757,1,0,0:0:0:0:
512,192,138848,1,0,0:0:0:0:
512,192,139030,5,8,0:0:0:0:
488,64,139121,1,0,0:0:0:0:
512,192,139212,1,0,0:0:0:0:
512,192,139394,1,8,0:0:0:0:
480,64,139485,1,0,0:0:0:0:
512,192,139576,1,8,0:0:0:0:
512,192,139758,6,0,B|489:278|489:278|442:354|442:354|399:276|399:276|350:202|350:202|387:131|387:131|430:63|430:63|441:142|441:142|513:232|513:232,1,712.72725097617,8|8,0:0|0:0,0:0:0:0:
512,192,140848,1,8,0:0:0:0:
472,192,140871,1,0,0:0:0:0:
464,192,140894,1,0,0:0:0:0:
208,192,141212,5,4,0:3:0:0:
128,192,141394,2,0,B|113:271|113:271|91:348|91:348|108:270|108:270|176:177|176:177,1,356.363625488086,8|8,0:0|0:0,0:0:0:0:
0,192,141940,1,8,0:0:0:0:
48,192,141962,1,0,0:0:0:0:
0,192,141985,1,0,0:0:0:0:
16,96,142303,2,0,L|43:162|43:162|98:254|98:254,1,178.181812744042,8|8,0:0|0:0,0:0:0:0:
272,144,142667,6,0,L|253:222|253:222|250:302|250:302|267:381|267:381|256:266|256:266,1,356.363625488086,2|8,0:0|0:0,0:0:0:0:
176,312,143212,1,4,0:0:0:0:
248,320,143394,1,0,0:0:0:0:
88,192,143758,2,0,L|86:263|86:263|81:370|81:370,1,178.181812744042,8|8,0:0|0:0,0:0:0:0:
256,192,144122,5,4,0:0:0:0:
328,192,144303,1,8,0:0:0:0:
264,176,144485,1,0,0:0:0:0:
336,176,144667,1,8,0:0:0:0:
512,192,144849,1,8,0:0:0:0:
464,192,144871,1,0,0:0:0:0:
512,192,144894,1,0,0:0:0:0:
496,96,145212,2,0,L|450:151|450:151|414:252|414:252,1,178.181812744042,8|8,0:0|0:0,0:0:0:0:
240,144,145576,6,0,L|257:222|257:222|259:302|259:302|252:382|252:382|256:267|256:267,1,356.363625488086,2|8,0:0|0:0,0:0:0:0:
336,312,146121,1,4,0:0:0:0:
160,208,146303,2,0,B|155:297|155:297|155:208|155:208|198:130|198:130|235:49|235:49|229:120|229:120|244:226|244:226,1,534.545438232128,2|0,0:0|0:0,0:0:0:0:
160,48,147031,5,4,0:0:0:0:
168,88,147212,1,8,0:0:0:0:
336,192,147576,1,8,0:0:0:0:
512,192,147758,1,8,0:0:0:0:
464,192,147780,1,0,0:0:0:0:
512,192,147803,1,0,0:0:0:0:
496,96,148122,2,0,L|460:158|460:158|414:254|414:254,1,178.181812744042,8|8,0:0|0:0,0:0:0:0:
240,144,148485,6,0,L|253:223|253:223|237:302|237:302|233:382|233:382|256:269|256:269,1,356.363625488086,2|8,0:0|0:0,0:0:0:0:
336,312,149030,1,4,0:0:0:0:
264,320,149212,1,0,0:0:0:0:
424,192,149576,2,0,L|419:263|419:263|431:369|431:369,1,178.181812744042,8|0,0:0|0:0,0:0:0:0:
256,192,149940,5,4,0:0:0:0:
184,192,150121,1,8,0:0:0:0:
248,176,150303,1,0,0:0:0:0:
176,176,150485,1,8,0:0:0:0:
0,192,150667,1,8,0:0:0:0:
48,192,150689,1,0,0:0:0:0:
0,192,150712,1,0,0:0:0:0:
16,96,151031,2,0,L|31:166|31:166|98:249|98:249,1,178.181812744042,8|8,0:0|0:0,0:0:0:0:
272,144,151395,6,0,L|289:222|289:222|283:302|283:302|270:381|270:381|288:267|288:267,1,356.363625488086,2|0,0:0|0:0,0:0:0:0:
368,312,151940,1,2,0:0:0:0:
192,312,152122,2,0,B|196:223|196:223|165:139|165:139|172:50|172:50|176:139|176:139|160:209|160:209|168:315|168:315,1,534.545438232128,8|0,0:0|0:0,0:0:0:0:
88,184,152849,6,0,B|111:261|111:261|114:341|114:341|134:263|134:263|179:157|179:157,1,356.363625488086,2|0,0:0|0:0,0:0:0:0:
512,192,153576,1,8,0:0:0:0:
464,192,153598,1,0,0:0:0:0:
512,192,153621,1,0,0:0:0:0:
496,96,153940,2,0,L|473:164|473:164|414:253|414:253,1,178.181812744042,8|8,0:0|0:0,0:0:0:0:
240,144,154303,6,0,L|241:215|241:215|247:322|247:322,1,178.181812744042,2|4,0:0|0:0,0:0:0:0:
256,304,154667,2,0,L|270:374|270:374|338:292|338:292,1,178.181812744042,8|4,0:0|0:0,0:0:0:0:
264,352,155031,1,2,0:0:0:0:
424,192,155395,2,0,L|421:263|421:263|431:369|431:369,1,178.181812744042,8|8,0:0|0:0,0:0:0:0:
256,192,155759,5,0,0:0:0:0:
184,192,155940,1,8,0:0:0:0:
248,176,156122,1,0,0:0:0:0:
176,176,156304,1,8,0:0:0:0:
0,192,156486,1,8,0:0:0:0:
48,192,156508,1,0,0:0:0:0:
0,192,156531,1,0,0:0:0:0:
16,96,156849,2,0,L|39:164|39:164|98:253|98:253,1,178.181812744042,8|8,0:0|0:0,0:0:0:0:
272,144,157212,6,0,L|278:215|278:215|279:322|279:322,1,178.181812744042,2|4,0:0|0:0,0:0:0:0:
288,304,157576,2,0,L|303:374|303:374|370:291|370:291,1,178.181812744042,8|4,0:0|0:0,0:0:0:0:
192,208,157940,2,0,B|182:297|182:297|169:385|169:385|212:307|212:307|267:237|267:237|265:166|265:166|260:59|260:59,1,534.545438232128,2|8,0:0|0:0,0:0:0:0:
168,48,158667,5,4,0:0:0:0:
248,120,158849,1,8,0:0:0:0:
256,120,159031,1,8,0:0:0:0:
176,120,159212,1,0,0:0:0:0:
0,192,159394,1,8,0:0:0:0:
48,192,159416,1,0,0:0:0:0:
0,192,159439,1,0,0:0:0:0:
16,104,159758,2,0,L|64:157|64:157|98:258|98:258,1,178.181812744042,8|8,0:0|0:0,0:0:0:0:
272,152,160122,5,2,0:0:0:0:
288,192,160212,1,0,0:0:0:0:
264,232,160303,1,4,0:0:0:0:
256,312,160486,2,0,L|218:373|218:373|174:276|174:276,1,178.181812744042,8|0,0:0|0:0,0:0:0:0:
248,352,160850,1,0,0:0:0:0:
88,192,161212,2,0,L|88:263|88:263|81:369|81:369,1,178.181812744042,8|8,0:0|0:0,0:0:0:0:
256,192,161576,5,4,0:0:0:0:
328,192,161758,1,8,0:0:0:0:
264,176,161940,1,0,0:0:0:0:
336,176,162123,1,0,0:0:0:0:
512,192,162303,1,8,0:0:0:0:
464,192,162327,1,0,0:0:0:0:
512,192,162350,1,0,0:0:0:0:
496,96,162668,2,0,L|464:160|464:160|414:254|414:254,1,178.181812744042,0|0,0:0|0:0,0:0:0:0:
240,144,163031,5,2,0:0:0:0:
216,184,163122,1,0,0:0:0:0:
232,224,163212,1,4,0:0:0:0:
224,304,163395,2,0,L|185:364|185:364|142:266|142:266,1,178.181812744042,8|8,0:0|0:0,0:0:0:0:
328,304,163758,2,0,B|337:215|337:215|336:126|336:126|335:37|335:37|344:126|344:126|376:190|376:190|426:284|426:284,1,534.545438232128,8|8,0:0|0:0,0:0:0:0:
