osu file format v14

[General]
AudioFilename: audio.mp3
AudioLeadIn: 0
PreviewTime: 48088
Countdown: 0
SampleSet: Normal
StackLeniency: 0.7
Mode: 2
LetterboxInBreaks: 0
WidescreenStoryboard: 1

[Editor]
Bookmarks: 1576,13212,19031,36485,49576
DistanceSpacing: 3.8
BeatDivisor: 4
GridSize: 16
TimelineZoom: 2.2

[Metadata]
Title:Lunicode
TitleUnicode:Lunicode
Artist:Hatsuki Yura
ArtistUnicode:葉月ゆら
Creator:Rocma
Version:Egg's Salad
Source:東方輝針城 ~ Double Dealing Character.
Tags:x_angelkawaii_x sadegg phob th14 japanese video game dnb touhou kishinjou project eastnewsound c86 comiket perpetual devotion strange instuments izayoi sakuya 十六夜 咲夜 toho tōhō wub electronic edm
BeatmapID:4119150
BeatmapSetID:1088296

[Difficulty]
HPDrainRate:4
CircleSize:2.8
OverallDifficulty:7
ApproachRate:7
SliderMultiplier:1.72
SliderTickRate:1

[Events]
//Background and Video events
0,0,"BG.jpg",0,0
//Break Periods
2,85940,94312
//Storyboard Layer 0 (Background)
//Storyboard Layer 1 (Fail)
//Storyboard Layer 2 (Pass)
//Storyboard Layer 3 (Foreground)
//Storyboard Layer 4 (Overlay)
//Storyboard Sound Samples

[TimingPoints]
122,363.636363636364,4,1,2,60,1,0
59758,-100,4,1,2,60,0,1
82849,-100,4,1,2,60,0,0
94667,-153.846153846153,4,1,2,60,0,0
106303,-100,4,1,2,60,0,0
117940,-100,4,1,2,60,0,1
135394,-100,4,1,2,60,0,0
141212,-100,4,1,2,60,0,1
164485,-100,4,1,2,60,0,0

[Colours]
Combo1 : 0,128,255
Combo2 : 128,255,255

[HitObjects]
144,198,1576,6,0,L|89:91,2,86,4|0|0,0:0|0:0|0:0,0:0:0:0:
231,194,2122,1,0,0:0:0:0:
316,193,2303,1,2,0:0:0:0:
144,198,2667,2,0,L|69:135,1,86,0|0,0:0|0:0,0:0:0:0:
317,201,3394,5,0,0:0:0:0:
404,202,3576,1,0,0:0:0:0:
314,203,3758,1,2,0:0:0:0:
229,206,3940,2,0,L|207:117,1,86,0|0,0:0|0:0,0:0:0:0:
397,183,4485,6,0,L|448:78,2,86,4|0|0,0:0|0:0|0:0,0:0:0:0:
309,183,5031,1,0,0:0:0:0:
230,181,5212,1,2,0:0:0:0:
396,187,5576,2,0,L|473:129,1,86,0|0,0:0|0:0,0:0:0:0:
219,191,6303,5,0,0:0:0:0:
132,192,6485,1,0,0:0:0:0:
222,193,6667,1,2,0:0:0:0:
312,197,6849,2,0,L|321:108,1,86,0|0,0:0|0:0,0:0:0:0:
144,200,7394,6,0,L|108:113,2,86,4|0|0,0:0|0:0|0:0,0:0:0:0:
231,196,7940,1,0,0:0:0:0:
318,202,8122,1,2,0:0:0:0:
144,200,8485,2,0,L|53:134,1,86,0|0,0:0|0:0,0:0:0:0:
316,200,9212,5,0,0:0:0:0:
403,201,9394,1,0,0:0:0:0:
313,202,9576,1,2,0:0:0:0:
228,204,9758,2,0,L|219:102,1,86,0|0,0:0|0:0,0:0:0:0:
396,187,10303,6,0,L|477:107,2,86,4|0|0,0:0|0:0|0:0,0:0:0:0:
309,183,10849,1,0,0:0:0:0:
231,182,11031,1,2,0:0:0:0:
396,187,11394,2,0,L|488:124,1,86,0|0,0:0|0:0,0:0:0:0:
219,193,12122,5,0,0:0:0:0:
139,194,12303,1,0,0:0:0:0:
222,195,12485,1,2,0:0:0:0:
307,192,12667,2,0,L|401:191,1,86,0|0,0:0|0:0,0:0:0:0:
307,192,13031,1,0,0:0:0:0:
118,191,13212,6,0,B|32:189|32:189|32:97,1,172,4|0,0:0|0:0,0:0:0:0:
377,215,13940,1,8,0:0:0:0:
485,110,14303,1,0,0:0:0:0:
396,12,14485,1,0,0:0:0:0:
205,72,14667,5,2,0:0:0:0:
119,69,14849,2,0,L|52:153,2,86,0|0|0,0:0|0:0|0:0,0:0:0:0:
205,73,15394,1,8,0:0:0:0:
119,69,15576,2,0,L|23:69,1,86,0|0,0:0|0:0,0:0:0:0:
67,68,15940,1,0,0:0:0:0:
250,179,16122,6,0,L|424:181,1,172,4|0,0:0|0:0,0:0:0:0:
106,221,16849,1,8,0:0:0:0:
231,157,17212,1,0,0:0:0:0:
297,149,17395,1,0,0:0:0:0:
132,83,17576,5,2,0:0:0:0:
65,89,17759,2,0,L|7:170,2,86
223,44,18304,1,8,0:0:0:0:
302,44,18485,1,0,0:0:0:0:
390,54,18667,2,0,L|397:142,1,86,8|0,0:0|0:0,0:0:0:0:
224,214,19031,6,0,L|43:209,1,172,4|0,0:0|0:0,0:0:0:0:
397,222,19758,1,8,0:0:0:0:
478,80,20122,1,0,0:0:0:0:
408,29,20304,1,0,0:0:0:0:
236,64,20485,5,2,0:0:0:0:
150,63,20667,2,0,L|79:158,2,86,0|0|0,0:0|0:0|0:0,0:0:0:0:
236,64,21213,1,8,0:0:0:0:
150,63,21395,2,0,L|54:63,2,86,0|0|0,0:0|0:0|0:0,0:0:0:0:
324,196,21940,6,0,L|498:192,1,172,4|0,0:0|0:0,0:0:0:0:
155,224,22667,1,8,0:0:0:0:
27,126,23032,1,0,0:0:0:0:
86,57,23212,1,0,0:0:0:0:
258,58,23394,5,2,0:0:0:0:
345,58,23576,2,0,L|463:57,2,86,0|0|0,0:0|0:0|0:0,0:0:0:0:
258,58,24123,1,8,0:0:0:0:
345,58,24303,2,0,L|346:148,1,86,0|0,0:0|0:0,0:0:0:0:
259,160,24667,1,8,0:0:0:0:
85,203,24849,6,0,B|23:139|23:139|17:52,1,172,4|0,0:0|0:0,0:0:0:0:
359,213,25576,1,8,0:0:0:0:
466,103,25940,1,0,0:0:0:0:
381,84,26122,1,0,0:0:0:0:
211,42,26303,5,2,0:0:0:0:
122,47,26486,2,0,L|48:118,2,86,0|0|0,0:0|0:0|0:0,0:0:0:0:
208,52,27031,1,8,0:0:0:0:
126,53,27212,2,0,L|30:53,2,86
303,227,27758,6,0,P|365:209|412:95,1,172,4|0,0:0|0:0,0:0:0:0:
67,219,28485,1,8,0:0:0:0:
201,239,28849,1,0,0:0:0:0:
270,248,29031,1,0,0:0:0:0:
98,89,29212,5,2,0:0:0:0:
21,92,29394,2,0,L|7:197,1,86
81,214,29758,1,0,0:0:0:0:
254,227,29940,1,8,0:0:0:0:
325,218,30122,2,0,L|361:123,2,86,0|8|0,0:0|0:0|0:0,0:0:0:0:
153,290,30667,6,0,P|72:256|53:158,1,172,4|0,0:0|0:0,0:0:0:0:
377,190,31394,1,8,0:0:0:0:
262,150,31758,1,0,0:0:0:0:
253,76,31940,1,0,0:0:0:0:
418,50,32122,5,2,0:0:0:0:
486,74,32304,2,0,L|508:170,2,86
406,50,32849,1,8,0:0:0:0:
325,56,33031,1,0,0:0:0:0:
263,103,33212,1,0,0:0:0:0:
244,186,33394,1,0,0:0:0:0:
405,101,33576,6,0,B|487:153|487:153|487:238,1,172,4|0,0:0|0:0,0:0:0:0:
146,289,34303,1,8,0:0:0:0:
59,184,34668,1,0,0:0:0:0:
146,187,34850,1,0,0:0:0:0:
310,197,35031,5,2,0:0:0:0:
396,198,35212,2,0,L|461:284,2,86,0|0|0,0:0|0:0|0:0,0:0:0:0:
310,99,35759,1,8,0:0:0:0:
398,100,35939,2,0,L|502:99,2,86,0|0|0,0:0|0:0|0:0,0:0:0:0:
212,95,36485,6,0,B|188:266|188:266|361:279,1,344,2|2,0:0|0:0,0:0:0:0:
469,121,37758,2,0,L|470:390,1,258,0|0,0:0|0:0,0:0:0:0:
298,314,38667,2,0,P|236:273|301:229,1,172,0|2,0:0|0:0,0:0:0:0:
466,208,39394,6,0,B|269:209|269:209|268:43,1,344,2|2,0:0|0:0,0:0:0:0:
15,52,40667,2,0,B|192:50|192:50|192:230|192:230|303:230,1,430,0|0,0:0|0:0,0:0:0:0:
433,221,41940,1,2,0:0:0:0:
264,230,42303,6,0,B|78:228|78:228|77:68,1,344,2|2,0:0|0:0,0:0:0:0:
336,61,43576,2,0,B|337:244|337:244|245:243,1,258,0|0,0:0|0:0,0:0:0:0:
90,228,44485,2,0,B|262:231|262:231|257:230,1,172,0|2,0:0|0:0,0:0:0:0:
436,231,45212,6,0,B|440:61|440:61|249:61,1,344,2|2,0:0|0:0,0:0:0:0:
32,67,46485,2,0,B|32:249|32:249|203:249,1,344,0|0,0:0|0:0,0:0:0:0:
281,238,47394,2,0,B|356:238|356:238|478:237|478:237,1,172,0|2,0:0|0:0,0:0:0:0:
138,238,48122,6,0,L|42:85,3,172,4|8|0|8,0:0|0:0|0:0|0:0,0:0:0:0:
222,234,49576,2,0,L|337:78,3,172,0|8|8|8,0:0|0:0|0:0|0:0,0:0:0:0:
179,226,51031,6,0,L|9:124,3,172,2|8|0|8,0:0|0:0|0:0|0:0,0:0:0:0:
203,225,52485,2,0,L|373:123,3,172,0|8|8|8,0:0|0:0|0:0|0:0,0:0:0:0:
196,188,53940,6,0,L|82:185,1,86,8|0,0:0|0:0,0:0:0:0:
110,185,54303,2,0,L|210:187,1,86,8|0,0:0|0:0,0:0:0:0:
289,187,54667,2,0,L|403:184,1,86,8|0,0:0|0:0,0:0:0:0:
374,184,55030,2,0,L|274:185,1,86,8|8,0:0|0:0,0:0:0:0:
115,200,55394,6,0,L|1:197,1,86,8|0,0:0|0:0,0:0:0:0:
114,210,55757,2,0,L|213:211,1,86,8|0,0:0|0:0,0:0:0:0:
287,208,56121,2,0,L|401:205,1,86,8|0,0:0|0:0,0:0:0:0:
287,208,56485,2,0,L|187:209,1,86,8|0,0:0|0:0,0:0:0:0:
33,223,56849,6,0,L|32:156,2,43,8|0|0,0:0|0:0|0:0,0:0:0:0:
120,225,57212,2,0,L|119:160,2,43,8|0|8,0:0|0:0|0:0,0:0:0:0:
206,221,57576,6,0,L|220:163,2,43,8|0|0,0:0|0:0|0:0,0:0:0:0:
117,225,57940,2,0,L|93:156,2,43,8|0|8,0:0|0:0|0:0,0:0:0:0:
289,223,58303,1,8,0:0:0:0:
71,263,59031,6,0,L|36:181,1,86,2|0,0:0|0:0,0:0:0:0:
212,149,59394,1,2,0:0:0:0:
360,186,59758,5,4,0:3:0:0:
442,101,59940,2,0,P|483:182|441:240,1,172,8|8,0:0|0:0,0:0:0:0:
268,272,60485,2,0,L|266:93,1,172,8|8,0:0|0:0,0:0:0:0:
179,192,61031,1,0,0:0:0:0:
97,190,61212,6,0,L|97:101,1,86,2|0,0:0|0:0,0:0:0:0:
182,193,61576,2,0,L|82:189,1,86,8|4,0:0|0:0,0:0:0:0:
268,135,61940,2,0,P|334:109|265:67,1,172,0|8,0:0|0:0,0:0:0:0:
104,107,62667,5,0,0:0:0:0:
29,104,62849,2,0,L|26:300,1,172,8|8,0:0|0:0,0:0:0:0:
206,277,63394,1,8,0:0:0:0:
379,263,63757,2,0,L|417:156,1,86,8|0,0:0|0:0,0:0:0:0:
307,244,64121,6,0,L|266:142,1,86,2|0,0:0|0:0,0:0:0:0:
379,263,64485,2,0,L|410:146,1,86,8|4,0:0|0:0,0:0:0:0:
228,183,64849,2,0,B|53:182,1,172,0|8,0:0|0:0,0:0:0:0:
219,85,65576,5,2,0:0:0:0:
128,90,65758,2,0,P|87:116|105:240,1,172,8|8,0:0|0:0,0:0:0:0:
263,86,66303,2,0,B|350:85|350:85|263:85,1,172,8|8,0:0|0:0,0:0:0:0:
106,185,67030,6,0,L|106:96,1,86,2|0,0:0|0:0,0:0:0:0:
188,187,67394,2,0,L|88:183,1,86,8|4,0:0|0:0,0:0:0:0:
259,177,67758,2,0,P|320:124|271:66,1,172,0|8,0:0|0:0,0:0:0:0:
104,107,68485,5,0,0:0:0:0:
29,104,68667,2,0,L|26:300,1,172,8|8,0:0|0:0,0:0:0:0:
204,277,69212,1,8,0:0:0:0:
411,276,69576,1,8,0:0:0:0:
260,278,69940,6,0,L|232:177,1,86,2|0,0:0|0:0,0:0:0:0:
322,186,70303,2,0,L|357:88,1,86,8|4,0:0|0:0,0:0:0:0:
177,222,70667,2,0,P|84:180|183:131,1,258,8|8,0:0|0:0,0:0:0:0:
253,142,71394,5,0,0:0:0:0:
407,141,71758,2,0,L|407:245,1,86,0|8,0:0|0:0,0:0:0:0:
235,273,72122,2,0,L|237:94,1,172,8|8,0:0|0:0,0:0:0:0:
324,187,72668,1,0,0:0:0:0:
406,185,72849,6,0,L|406:96,1,86,2|0,0:0|0:0,0:0:0:0:
324,187,73213,2,0,L|424:183,1,86,8|4,0:0|0:0,0:0:0:0:
236,136,73577,2,0,P|170:110|239:68,1,172,0|8,0:0|0:0,0:0:0:0:
396,97,74304,5,2,0:0:0:0:
483,104,74486,2,0,L|486:300,1,172,8|8,0:0|0:0,0:0:0:0:
306,278,75031,1,8,0:0:0:0:
133,263,75394,6,0,L|95:156,1,86,8|0,0:0|0:0,0:0:0:0:
207,230,75758,2,0,L|248:128,1,86,2|0,0:0|0:0,0:0:0:0:
133,263,76122,2,0,L|102:146,1,86,8|4,0:0|0:0,0:0:0:0:
287,128,76485,6,0,L|458:132,1,172,0|8,0:0|0:0,0:0:0:0:
283,87,77212,1,2,0:0:0:0:
189,77,77394,2,0,L|82:72,2,86,8|8|0,0:0|0:0|0:0,0:0:0:0:
362,62,77940,2,0,P|414:115|364:183,1,172,8|8,0:0|0:0,0:0:0:0:
192,295,78667,6,0,L|192:206,1,86,2|0,0:0|0:0,0:0:0:0:
281,193,79031,2,0,L|381:189,1,86,8|4,0:0|0:0,0:0:0:0:
194,147,79395,2,0,P|154:112|233:67,1,172,0|8,0:0|0:0,0:0:0:0:
408,107,80122,5,2,0:0:0:0:
483,104,80304,2,0,L|486:300,1,172,8|8,0:0|0:0,0:0:0:0:
307,275,80849,1,8,0:0:0:0:
108,273,81213,1,8,0:0:0:0:
273,277,81577,6,0,L|286:176,1,86,2|0,0:0|0:0,0:0:0:0:
190,186,81940,2,0,L|155:88,1,86,8|4,0:0|0:0,0:0:0:0:
335,222,82303,2,0,P|428:180|329:131,1,258,8|8,0:0|0:0,0:0:0:0:
362,191,95212,6,0,L|436:190,2,55.8999974411012,0|0|0,0:0|0:0|0:0,0:0:0:0:
81,198,96667,5,0,0:0:0:0:
182,202,96849,2,0,L|255:205,2,55.8999974411012,0|2|2,0:0|0:0|0:0,0:0:0:0:
432,197,98122,6,0,L|493:199,2,55.8999974411012,0|0|0,0:0|0:0|0:0,0:0:0:0:
224,195,99576,5,0,0:0:0:0:
123,193,99758,2,0,L|58:193,2,55.8999974411012,0|2|2,0:0|0:0|0:0,0:0:0:0:
310,166,101031,6,0,L|377:158,2,55.8999974411012,0|0|0,0:0|0:0|0:0,0:0:0:0:
109,238,102485,5,0,0:0:0:0:
204,230,102667,2,0,L|277:230,2,55.8999974411012,0|2|2,0:0|0:0|0:0,0:0:0:0:
436,195,103940,6,0,L|500:195,2,55.8999974411012,0|0|0,0:0|0:0|0:0,0:0:0:0:
137,241,104667,6,0,L|10:238,1,111.799994882202,2|0,0:0|0:0,0:0:0:0:
24,149,105212,1,0,0:0:0:0:
61,102,105394,1,0,0:0:0:0:
107,73,105576,2,0,L|229:74,1,111.799994882202,2|2,0:0|0:0,0:0:0:0:
498,174,106303,6,0,L|376:295,3,172,4|8|0|8,0:0|0:0|0:0|0:0,0:0:0:0:
203,171,107757,2,0,L|329:289,3,172,4|8|0|8,0:0|0:0|0:0|0:0,0:0:0:0:
20,252,109212,6,0,L|190:150,3,172,4|8|0|8,0:0|0:0|0:0|0:0,0:0:0:0:
323,200,110666,2,0,L|141:201,3,172,4|8|0|8,0:0|0:0|0:0|0:0,0:0:0:0:
411,229,112121,6,0,L|525:226,1,86,4|0,0:0|0:0,0:0:0:0:
497,226,112484,2,0,L|397:228,1,86,4|0,0:0|0:0,0:0:0:0:
318,174,112848,2,0,L|432:171,1,86,4|0,0:0|0:0,0:0:0:0:
403,171,113211,2,0,L|303:172,1,86,8|4,0:0|0:0,0:0:0:0:
143,186,113575,6,0,L|29:183,1,86,4|0,0:0|0:0,0:0:0:0:
142,196,113940,2,0,L|241:197,1,86,4|0,0:0|0:0,0:0:0:0:
315,194,114302,2,0,L|429:191,1,86,8|0,0:0|0:0,0:0:0:0:
313,196,114666,2,0,L|213:197,1,86,8|0,0:0|0:0,0:0:0:0:
400,221,115031,6,0,L|401:154,2,43,4|0|0,0:0|0:0|0:0,0:0:0:0:
313,223,115394,2,0,L|314:158,2,43,4|0|0,0:0|0:0|0:0,0:0:0:0:
227,219,115758,6,0,L|213:161,2,43,8|0|4,0:0|0:0|0:0,0:0:0:0:
316,223,116122,2,0,L|340:154,2,43,0|0|4,0:0|0:0|0:0,0:0:0:0:
144,221,116485,1,8,0:0:0:0:
164,225,117394,6,0,L|87:136,2,86,2|2|0,0:0|0:0|0:0,0:0:0:0:
328,227,117940,6,0,P|383:221|312:178,1,172,4|0,0:3|0:0,0:0:0:0:
244,176,118485,1,8,0:0:0:0:
72,176,118667,1,8,0:0:0:0:
76,108,119212,6,0,L|253:108,1,172,0|0,0:0|0:0,0:0:0:0:
334,100,119758,1,8,0:0:0:0:
161,163,119940,1,4,0:0:0:0:
161,163,120122,2,0,B|203:156|203:156|336:157,1,172,0|8,0:0|0:0,0:0:0:0:
161,319,120849,6,0,P|81:271|88:201,1,172,4|0,0:0|0:0,0:0:0:0:
151,168,121394,1,8,0:0:0:0:
310,192,121576,2,0,L|309:3,1,172,8|8,0:0|0:0,0:0:0:0:
222,176,122122,1,0,0:0:0:0:
393,187,122485,6,0,L|514:188,2,86,0|8|4,0:0|0:0|0:0,0:0:0:0:
220,228,123031,2,0,B|133:227|133:227|221:228,1,172,0|8,0:0|0:0,0:0:0:0:
389,194,123758,6,0,B|350:189|350:189|193:187,1,172,4|0,0:0|0:0,0:0:0:0:
268,176,124303,1,8,0:0:0:0:
442,179,124485,1,8,0:0:0:0:
440,76,125030,6,0,L|263:76,1,172,0|0,0:0|0:0,0:0:0:0:
196,69,125576,1,8,0:0:0:0:
353,183,125758,1,4,0:0:0:0:
422,185,125940,2,0,B|380:178|380:178|247:179,1,172,0|8,0:0|0:0,0:0:0:0:
336,310,126667,6,0,P|422:255|395:192,1,172,4|0,0:0|0:0,0:0:0:0:
321,168,127212,1,8,0:0:0:0:
162,165,127394,2,0,L|164:265,1,86,8|4,0:0|0:0,0:0:0:0:
352,165,127940,6,0,P|453:198|427:265,1,172
370,259,128485,1,8,0:0:0:0:
445,254,128667,1,4,0:0:0:0:
273,261,128849,2,0,L|274:61,1,172,0|8,0:0|0:0,0:0:0:0:
114,114,129576,5,4,0:0:0:0:
33,106,129758,2,0,L|4:298,1,172,8|8,0:0|0:0,0:0:0:0:
189,254,130304,2,0,P|329:248|391:248,1,172,8|0,0:0|0:0,0:0:0:0:
275,251,130849,1,0,0:0:0:0:
189,254,131031,6,0,P|125:211|187:179,1,172,2|8,0:0|0:0,0:0:0:0:
265,182,131576,2,0,L|352:186,1,86,0|0,0:0|0:0,0:0:0:0:
265,182,131940,1,4,0:0:0:0:
177,172,132122,1,8,0:0:0:0:
364,114,132485,5,4,0:0:0:0:
451,111,132667,2,0,L|480:303,1,172,8|8,0:0|0:0,0:0:0:0:
316,257,133213,2,0,P|176:251|114:251,1,172,8|0,0:0|0:0,0:0:0:0:
237,251,133758,1,0,0:0:0:0:
406,243,133940,6,0,P|470:200|408:168,1,172,2|8,0:0|0:0,0:0:0:0:
319,153,134485,2,0,L|225:149,1,86,0|0,0:0|0:0,0:0:0:0:
324,137,134849,2,0,L|409:140,1,86,4|8,0:0|0:0,0:0:0:0:
153,207,135394,6,0,L|31:84,3,172,4|0|0|0,0:0|0:0|0:0|0:0,0:0:0:0:
319,200,136849,2,0,L|469:114,3,172,0|0|0|0,0:0|0:0|0:0|0:0,0:0:0:0:
182,248,138303,6,0,L|178:193,2,43,8|0|0,0:0|0:0|0:0,0:0:0:0:
272,222,138666,2,0,L|285:159,2,43,8|0|0,0:0|0:0|0:0,0:0:0:0:
175,164,139030,6,0,L|123:118,2,43,8|0|0,0:0|0:0|0:0,0:0:0:0:
268,146,139394,2,0,L|318:145,2,43,8|0|8,0:0|0:0|0:0,0:0:0:0:
86,124,139757,1,8,0:0:0:0:
376,243,140485,6,0,L|451:186,1,86,8|0,0:0|0:0,0:0:0:0:
277,96,140849,1,8,0:0:0:0:
111,190,141212,5,4,0:3:0:0:
29,104,141394,2,0,L|26:300,1,172,8|8,0:0|0:0,0:0:0:0:
216,217,141940,2,0,L|222:18,1,172,8|8,0:0|0:0,0:0:0:0:
392,192,142666,6,0,L|420:91,1,86,2|4,0:0|0:0,0:0:0:0:
326,196,143031,2,0,L|228:191,1,86,8|4,0:0|0:0,0:0:0:0:
326,196,143394,2,0,L|498:164,1,172,0|8,0:0|0:0,0:0:0:0:
170,116,144121,5,4,0:0:0:0:
81,111,144303,2,0,L|52:303,1,172,8|8,0:0|0:0,0:0:0:0:
224,256,144849,2,0,P|364:250|426:250,1,172,8|8,0:0|0:0,0:0:0:0:
260,278,145575,6,0,L|232:177,1,86,2|4,0:0|0:0,0:0:0:0:
322,186,145939,2,0,L|357:88,1,86,8|4,0:0|0:0,0:0:0:0:
186,196,146303,2,0,L|75:185,2,86,2|4|8,0:0|0:0|0:0,0:0:0:0:
282,211,146849,1,0,0:0:0:0:
454,210,147031,6,0,L|464:119,1,86,4|8,0:0|0:0,0:0:0:0:
379,147,147394,2,0,L|367:61,1,86,0|8,0:0|0:0,0:0:0:0:
199,61,147758,1,8,0:0:0:0:
41,162,148122,1,8,0:0:0:0:
316,114,148484,6,0,L|412:106,1,86,2|4,0:0|0:0,0:0:0:0:
487,110,148848,2,0,L|387:106,1,86,8|4,0:0|0:0,0:0:0:0:
244,135,149212,2,0,P|178:109|247:67,1,172,0|8,0:0|0:0,0:0:0:0:
408,107,149939,5,4,0:0:0:0:
483,104,150121,2,0,L|486:300,1,172,8|8,0:0|0:0,0:0:0:0:
304,278,150666,1,8,0:0:0:0:
84,276,151030,1,8,0:0:0:0:
252,278,151394,6,0,L|280:177,1,86,2|4,0:0|0:0,0:0:0:0:
190,186,151757,2,0,L|155:88,1,86,8|2,0:0|0:0,0:0:0:0:
335,222,152121,2,0,P|428:180|329:131,1,258,8|8,0:0|0:0,0:0:0:0:
259,142,152849,5,2,0:0:0:0:
105,141,153212,2,0,L|105:245,1,86
277,273,153576,2,0,L|275:94,1,172,8|8,0:0|0:0,0:0:0:0:
188,187,154122,1,8,0:0:0:0:
106,185,154303,6,0,L|106:96,1,86,2|4,0:0|0:0,0:0:0:0:
188,187,154667,2,0,L|88:183,1,86,8|4,0:0|0:0,0:0:0:0:
268,135,155031,2,0,P|334:109|265:67,1,172,2|8,0:0|0:0,0:0:0:0:
104,107,155758,5,4,0:0:0:0:
29,104,155940,2,0,L|26:300,1,172,8|8,0:0|0:0,0:0:0:0:
208,278,156485,1,8,0:0:0:0:
379,263,156849,2,0,L|451:175,1,86,8|8,0:0|0:0,0:0:0:0:
261,113,157212,5,2,0:0:0:0:
175,116,157393,1,4,0:0:0:0:
134,188,157576,2,0,P|178:122|269:103,1,172,8|2,0:0|0:0,0:0:0:0:
352,114,158121,1,4,0:0:0:0:
391,187,158304,1,8,0:0:0:0:
353,113,158485,1,8,0:0:0:0:
194,147,158667,5,4,0:0:0:0:
115,132,158849,1,8,0:0:0:0:
194,147,159031,1,8,0:0:0:0:
115,132,159213,1,0,0:0:0:0:
275,77,159394,2,0,L|397:77,2,86,8|4|8,0:0|0:0|0:0,0:0:0:0:
106,185,160121,6,0,L|106:96,1,86,2|4,0:0|0:0,0:0:0:0:
188,187,160485,2,0,L|88:183,1,86,8|4,0:0|0:0,0:0:0:0:
268,135,160849,2,0,P|334:109|265:67,1,172,2|8,0:0|0:0,0:0:0:0:
104,107,161576,5,4,0:0:0:0:
29,104,161758,2,0,L|26:300,1,172,8|8,0:0|0:0,0:0:0:0:
208,278,162303,1,8,0:0:0:0:
376,278,162667,1,8,0:0:0:0:
91,311,163031,6,0,L|63:210,1,86,2|4,0:0|0:0,0:0:0:0:
165,226,163394,2,0,L|200:128,1,86,8|8,0:0|0:0,0:0:0:0:
31,181,163758,2,0,P|8:105|165:25,1,258,8|8,0:0|0:0,0:0:0:0:
298,24,164485,5,4,0:3:0:0:
