osu file format v14

[General]
AudioFilename: audio.mp3
AudioLeadIn: 0
PreviewTime: 71313
Countdown: 0
SampleSet: Normal
StackLeniency: 0.7
Mode: 1
LetterboxInBreaks: 0
WidescreenStoryboard: 0

[Editor]
Bookmarks: 210,12677,15794,29820,42287,54755,60989,67222,71898,84365,96833,110859,123326,135794,142028,148261,152937,165404,177872,191898,204365,218391,224625,230859,244885,260469
DistanceSpacing: 1.5
BeatDivisor: 2
GridSize: 32
TimelineZoom: 0.5999997

[Metadata]
Title:Kaguyahime
TitleUnicode:輝夜姫
Artist:Hatsuki Yura
ArtistUnicode:葉月ゆら
Creator:Volta
Version:Volger's Kantan
Source:
Tags:gothic rock symphonic metal japanese jrock j-rock 清風明月 comiket drop eclipse parade C86 comic market 86 Reed_405 [R] Ron Roger ][ -GH- ][
BeatmapID:2449022
BeatmapSetID:1174208

[Difficulty]
HPDrainRate:8
CircleSize:2
OverallDifficulty:3
ApproachRate:0
SliderMultiplier:1.4
SliderTickRate:1

[Events]
//Background and Video events
0,0,"iceguya.jpg",0,20
//Break Periods
//Storyboard Layer 0 (Background)
//Storyboard Layer 1 (Fail)
//Storyboard Layer 2 (Pass)
//Storyboard Layer 3 (Foreground)
//Storyboard Layer 4 (Overlay)
//Storyboard Sound Samples

[TimingPoints]
210,389.61038961039,4,1,0,70,1,0
12677,-100,4,1,0,60,0,0
15404,-100,4,1,0,70,0,0
15794,-100,4,1,0,80,0,0
29820,-100,4,1,0,75,0,0
54755,-100,4,1,0,75,0,0
71898,-100,4,1,0,85,0,1
96833,-100,4,1,0,75,0,0
110859,-100,4,1,0,75,0,0
135794,-100,4,1,0,75,0,0
152937,-100,4,1,0,85,0,1
177872,-100,4,1,0,75,0,0
191898,-100,4,1,0,85,0,0
218391,-100,4,1,0,75,0,0
224625,-100,4,1,0,85,0,1
244885,-100,4,1,0,80,0,0
259402,-100,4,1,0,30,0,0
260372,-100,4,1,0,90,0,0

[HitObjects]
256,192,210,5,12,0:0:0:0:
256,192,989,1,12,0:0:0:0:
256,192,1768,1,12,0:0:0:0:
256,192,2937,1,0,0:0:0:0:
256,192,3326,1,12,0:0:0:0:
256,192,4106,1,12,0:0:0:0:
256,192,4885,1,4,0:0:0:0:
256,192,5274,1,4,0:0:0:0:
256,192,5664,1,4,0:0:0:0:
256,192,6443,1,12,0:0:0:0:
256,192,7222,1,12,0:0:0:0:
256,192,8002,1,12,0:0:0:0:
256,192,9171,1,0,0:0:0:0:
256,192,9560,1,12,0:0:0:0:
256,192,10339,1,4,0:0:0:0:
256,192,11119,1,12,0:0:0:0:
256,192,11508,1,12,0:0:0:0:
256,192,11898,1,12,0:0:0:0:
256,192,12677,1,4,0:0:0:0:
256,192,14235,2,0,L|256:96,6,70
256,192,15794,1,4,0:0:0:0:
256,192,16963,1,0,0:0:0:0:
256,192,17352,1,8,0:0:0:0:
256,192,18132,1,0,0:0:0:0:
256,192,18911,1,8,0:0:0:0:
256,192,19300,1,8,0:0:0:0:
256,192,19690,1,8,0:0:0:0:
256,192,20469,1,0,0:0:0:0:
256,192,20859,1,0,0:0:0:0:
256,192,21248,1,0,0:0:0:0:
256,192,22028,1,8,0:0:0:0:
256,192,23197,1,8,0:0:0:0:
256,192,23586,1,0,0:0:0:0:
256,192,24365,1,8,0:0:0:0:
256,192,25145,1,0,0:0:0:0:
256,192,25924,1,0,0:0:0:0:
256,192,26313,1,0,0:0:0:0:
256,192,26703,1,8,0:0:0:0:
256,192,28261,1,0,0:0:0:0:
256,192,29041,1,8,0:0:0:0:
256,192,29430,1,8,0:0:0:0:
256,192,29820,1,4,0:0:0:0:
256,192,30989,1,8,0:0:0:0:
256,192,31378,1,0,0:0:0:0:
256,192,32158,1,8,0:0:0:0:
256,192,32937,1,0,0:0:0:0:
256,192,33326,1,0,0:0:0:0:
256,192,33716,1,8,0:0:0:0:
256,192,34495,1,0,0:0:0:0:
256,192,34885,1,8,0:0:0:0:
256,192,35274,1,0,0:0:0:0:
256,192,36054,1,4,0:0:0:0:
256,192,36833,1,8,0:0:0:0:
256,192,37612,1,0,0:0:0:0:
256,192,39171,1,8,0:0:0:0:
256,192,39950,1,8,0:0:0:0:
256,192,40339,1,8,0:0:0:0:
256,192,40729,1,0,0:0:0:0:
256,192,41508,1,8,0:0:0:0:
256,192,42287,1,4,0:0:0:0:
256,192,43456,1,8,0:0:0:0:
256,192,43846,1,0,0:0:0:0:
256,192,44625,1,8,0:0:0:0:
256,192,45404,1,0,0:0:0:0:
256,192,45794,1,0,0:0:0:0:
256,192,46184,1,8,0:0:0:0:
256,192,46963,1,8,0:0:0:0:
256,192,47352,1,0,0:0:0:0:
256,192,47742,1,8,0:0:0:0:
256,192,48521,1,4,0:0:0:0:
256,192,49300,1,8,0:0:0:0:
256,192,50080,1,0,0:0:0:0:
256,192,51638,1,8,0:0:0:0:
256,192,52417,1,0,0:0:0:0:
256,192,53197,1,8,0:0:0:0:
256,192,53586,1,8,0:0:0:0:
256,192,53976,1,0,0:0:0:0:
256,192,54755,1,4,0:0:0:0:
256,192,55534,1,12,0:0:0:0:
256,192,56313,1,4,0:0:0:0:
256,192,56703,1,4,0:0:0:0:
256,192,57093,1,12,0:0:0:0:
256,192,57872,1,4,0:0:0:0:
256,192,58651,1,4,0:0:0:0:
256,192,59430,1,12,0:0:0:0:
256,192,60989,1,12,0:0:0:0:
256,192,61768,1,4,0:0:0:0:
256,192,62547,1,12,0:0:0:0:
256,192,62937,1,12,0:0:0:0:
256,192,63326,1,4,0:0:0:0:
256,192,64106,1,12,0:0:0:0:
256,192,64885,1,12,0:0:0:0:
256,192,65664,1,4,0:0:0:0:
256,192,67222,1,4,0:0:0:0:
256,192,68002,1,8,0:0:0:0:
256,192,68391,1,8,0:0:0:0:
256,192,68781,1,0,0:0:0:0:
256,192,69560,1,0,0:0:0:0:
256,192,70339,1,8,0:0:0:0:
256,192,71119,1,0,0:0:0:0:
256,192,71508,1,8,0:0:0:0:
256,192,71898,1,4,0:0:0:0:
256,192,72677,1,8,0:0:0:0:
256,192,73456,1,0,0:0:0:0:
256,192,74235,1,8,0:0:0:0:
256,192,74625,1,8,0:0:0:0:
256,192,75015,1,0,0:0:0:0:
256,192,75794,1,8,0:0:0:0:
256,192,76573,1,8,0:0:0:0:
256,192,76963,1,0,0:0:0:0:
256,192,77352,1,8,0:0:0:0:
256,192,78132,1,0,0:0:0:0:
256,192,79300,1,8,0:0:0:0:
256,192,79690,1,0,0:0:0:0:
256,192,80469,1,0,0:0:0:0:
256,192,81248,1,8,0:0:0:0:
256,192,81638,1,0,0:0:0:0:
256,192,82028,1,8,0:0:0:0:
256,192,82807,1,0,0:0:0:0:
256,192,83197,1,0,0:0:0:0:
256,192,83586,1,8,0:0:0:0:
256,192,84365,1,4,0:0:0:0:
256,192,85145,1,0,0:0:0:0:
256,192,85924,1,8,0:0:0:0:
256,192,86703,1,0,0:0:0:0:
256,192,87093,1,0,0:0:0:0:
256,192,87482,1,8,0:0:0:0:
256,192,88261,1,0,0:0:0:0:
256,192,89041,1,0,0:0:0:0:
256,192,89430,1,8,0:0:0:0:
256,192,89820,1,0,0:0:0:0:
256,192,90599,1,8,0:0:0:0:
256,192,91768,1,0,0:0:0:0:
256,192,92158,1,8,0:0:0:0:
256,192,92937,1,0,0:0:0:0:
256,192,93716,1,8,0:0:0:0:
256,192,94106,1,8,0:0:0:0:
256,192,94495,1,0,0:0:0:0:
256,192,95274,1,8,0:0:0:0:
256,192,96054,1,0,0:0:0:0:
256,192,96443,1,8,0:0:0:0:
256,192,96833,1,4,0:0:0:0:
256,192,97612,1,8,0:0:0:0:
256,192,98391,1,0,0:0:0:0:
256,192,99171,1,8,0:0:0:0:
256,192,99560,1,8,0:0:0:0:
256,192,99950,1,0,0:0:0:0:
256,192,100729,1,8,0:0:0:0:
256,192,101508,1,0,0:0:0:0:
256,192,102677,1,8,0:0:0:0:
256,192,103067,1,4,0:0:0:0:
256,192,103846,1,8,0:0:0:0:
256,192,104625,1,0,0:0:0:0:
256,192,105404,1,8,0:0:0:0:
256,192,105794,1,0,0:0:0:0:
256,192,106184,1,0,0:0:0:0:
256,192,106963,1,8,0:0:0:0:
256,192,107742,1,0,0:0:0:0:
256,192,108132,1,0,0:0:0:0:
256,192,108521,1,8,0:0:0:0:
256,192,109300,1,0,0:0:0:0:
256,192,110080,1,0,0:0:0:0:
256,192,110469,1,8,0:0:0:0:
32,160,110859,1,4,0:0:0:0:
128,160,112417,1,6,0:0:0:0:
128,160,113976,1,4,0:0:0:0:
128,160,115534,1,6,0:0:0:0:
128,128,116313,1,2,0:0:0:0:
128,128,116703,1,2,0:0:0:0:
96,160,117093,1,4,0:0:0:0:
0,160,117872,1,2,0:0:0:0:
96,128,118651,1,0,0:0:0:0:
128,160,120210,1,2,0:0:0:0:
128,96,120989,1,0,0:0:0:0:
256,64,121768,1,2,0:0:0:0:
0,128,122158,1,2,0:0:0:0:
0,128,122547,1,2,0:0:0:0:
288,64,123326,1,4,0:0:0:0:
128,0,124495,1,0,0:0:0:0:
128,0,124885,1,2,0:0:0:0:
128,0,125664,1,0,0:0:0:0:
128,0,126054,1,2,0:0:0:0:
128,0,126443,1,0,0:0:0:0:
128,0,127222,1,0,0:0:0:0:
128,0,128002,1,2,0:0:0:0:
64,128,128391,1,2,0:0:0:0:
64,128,128781,1,0,0:0:0:0:
160,32,129560,1,4,0:0:0:0:
160,32,130339,1,2,0:0:0:0:
160,32,131119,1,2,0:0:0:0:
160,32,132677,1,0,0:0:0:0:
160,32,133456,1,2,0:0:0:0:
224,96,134235,1,2,0:0:0:0:
96,96,134625,1,2,0:0:0:0:
96,96,135015,1,0,0:0:0:0:
160,128,135794,1,4,0:0:0:0:
224,96,136573,1,6,0:0:0:0:
224,96,137352,1,4,0:0:0:0:
224,96,137742,1,4,0:0:0:0:
224,96,138132,1,4,0:0:0:0:
160,128,138911,1,6,0:0:0:0:
192,128,139690,1,6,0:0:0:0:
192,128,140469,1,4,0:0:0:0:
160,128,142028,1,6,0:0:0:0:
160,128,142807,1,4,0:0:0:0:
160,128,143586,1,6,0:0:0:0:
160,128,143976,1,6,0:0:0:0:
160,128,144365,1,6,0:0:0:0:
160,128,145145,1,4,0:0:0:0:
160,128,145924,1,4,0:0:0:0:
160,128,146703,1,6,0:0:0:0:
160,128,148261,1,6,0:0:0:0:
160,128,149041,1,2,0:0:0:0:
123,130,149820,1,0,0:0:0:0:
190,127,150210,1,0,0:0:0:0:
160,128,150599,1,0,0:0:0:0:
137,108,150989,1,0,0:0:0:0:
160,128,151378,1,2,0:0:0:0:
128,128,152158,1,2,0:0:0:0:
128,128,152937,1,4,0:0:0:0:
128,128,153716,1,2,0:0:0:0:
128,128,154106,1,0,0:0:0:0:
160,96,154495,1,2,0:0:0:0:
160,96,155274,1,2,0:0:0:0:
160,96,155664,1,2,0:0:0:0:
160,96,156054,1,0,0:0:0:0:
160,96,156833,1,0,0:0:0:0:
160,96,157612,1,2,0:0:0:0:
160,64,158781,1,2,0:0:0:0:
160,64,159171,1,0,0:0:0:0:
160,64,159950,1,2,0:0:0:0:
160,64,160729,1,0,0:0:0:0:
160,64,161119,1,0,0:0:0:0:
160,64,161508,1,2,0:0:0:0:
160,64,162287,1,0,0:0:0:0:
160,64,163067,1,2,0:0:0:0:
160,64,163846,1,2,0:0:0:0:
160,64,164235,1,0,0:0:0:0:
160,64,164625,1,2,0:0:0:0:
160,64,165404,1,4,0:0:0:0:
192,32,166184,1,0,0:0:0:0:
64,128,166573,1,2,0:0:0:0:
192,32,166963,1,2,0:0:0:0:
256,96,167742,1,0,0:0:0:0:
224,96,168132,1,2,0:0:0:0:
192,32,168521,1,0,0:0:0:0:
224,96,169300,1,2,0:0:0:0:
224,96,170080,1,0,0:0:0:0:
224,96,171248,1,0,0:0:0:0:
224,96,171638,1,2,0:0:0:0:
224,96,172417,1,2,0:0:0:0:
160,128,172807,1,2,0:0:0:0:
224,96,173197,1,0,0:0:0:0:
160,128,173976,1,2,0:0:0:0:
160,128,174365,1,0,0:0:0:0:
224,96,174755,1,2,0:0:0:0:
160,96,175534,1,2,0:0:0:0:
64,128,176313,1,0,0:0:0:0:
32,160,177093,1,0,0:0:0:0:
32,160,177482,1,2,0:0:0:0:
224,96,177872,1,0,0:0:0:0:
256,96,178651,1,6,0:0:0:0:
96,128,179430,1,0,0:0:0:0:
256,96,180210,1,6,0:0:0:0:
96,128,180989,1,0,0:0:0:0:
96,128,181768,1,2,0:0:0:0:
96,128,182547,1,2,0:0:0:0:
192,128,184106,1,0,0:0:0:0:
256,32,184885,1,6,0:0:0:0:
96,128,185664,1,0,0:0:0:0:
256,32,186443,1,6,0:0:0:0:
96,128,187222,1,2,0:0:0:0:
256,32,188002,1,0,0:0:0:0:
96,128,188781,1,0,0:0:0:0:
96,128,190339,1,2,0:0:0:0:
96,128,191119,1,2,0:0:0:0:
192,64,191508,1,2,0:0:0:0:
96,128,191898,1,4,0:0:0:0:
128,96,192677,1,0,0:0:0:0:
96,128,193456,1,2,0:0:0:0:
96,128,193846,1,0,0:0:0:0:
96,128,194235,1,2,0:0:0:0:
96,128,195015,1,2,0:0:0:0:
96,128,195794,1,2,0:0:0:0:
96,128,196573,1,0,0:0:0:0:
96,128,198132,1,4,0:0:0:0:
96,128,198911,1,2,0:0:0:0:
96,128,199690,1,0,0:0:0:0:
96,128,200469,1,2,0:0:0:0:
96,128,200859,1,0,0:0:0:0:
96,128,201248,1,2,0:0:0:0:
96,128,202028,1,2,0:0:0:0:
96,128,202807,1,0,0:0:0:0:
96,128,204365,1,6,0:0:0:0:
96,128,205145,1,0,0:0:0:0:
96,128,205924,1,2,0:0:0:0:
96,128,206313,1,2,0:0:0:0:
96,128,206703,1,2,0:0:0:0:
96,128,207093,1,2,0:0:0:0:
96,128,207482,1,0,0:0:0:0:
96,128,208261,1,2,0:0:0:0:
96,128,209041,1,0,0:0:0:0:
0,128,210210,1,2,0:0:0:0:
96,128,210599,1,0,0:0:0:0:
96,128,211378,1,2,0:0:0:0:
160,96,212158,1,0,0:0:0:0:
160,96,212547,1,0,0:0:0:0:
160,96,212937,1,0,0:0:0:0:
160,96,213326,1,0,0:0:0:0:
160,96,213716,1,2,0:0:0:0:
96,128,214495,1,0,0:0:0:0:
96,128,215274,1,2,0:0:0:0:
160,64,215664,1,2,0:0:0:0:
96,128,216054,1,0,0:0:0:0:
96,128,216833,1,0,0:0:0:0:
224,128,218391,1,4,0:0:0:0:
192,128,219950,1,6,0:0:0:0:
192,128,221508,1,4,0:0:0:0:
192,128,223067,1,6,0:0:0:0:
192,128,224625,1,4,0:0:0:0:
288,224,225404,1,2,0:0:0:0:
32,128,226184,1,0,0:0:0:0:
32,128,226573,1,0,0:0:0:0:
32,128,226963,1,2,0:0:0:0:
256,96,227742,1,2,0:0:0:0:
256,96,228132,1,2,0:0:0:0:
256,96,228521,1,0,0:0:0:0:
256,96,228911,1,0,0:0:0:0:
256,96,229300,1,2,0:0:0:0:
256,96,230080,1,2,0:0:0:0:
256,96,230859,1,4,0:0:0:0:
256,96,231638,1,2,0:0:0:0:
128,128,232028,1,0,0:0:0:0:
256,96,232417,1,2,0:0:0:0:
256,96,233197,1,2,0:0:0:0:
256,96,233586,1,2,0:0:0:0:
256,96,233976,1,0,0:0:0:0:
256,96,234755,1,0,0:0:0:0:
256,96,235534,1,2,0:0:0:0:
256,96,236703,1,2,0:0:0:0:
256,96,237093,1,0,0:0:0:0:
256,96,237872,1,2,0:0:0:0:
64,96,238261,1,2,0:0:0:0:
256,96,238651,1,0,0:0:0:0:
256,96,239430,1,2,0:0:0:0:
224,128,239820,1,0,0:0:0:0:
224,128,240210,1,2,0:0:0:0:
160,160,240989,1,2,0:0:0:0:
160,160,241768,1,0,0:0:0:0:
224,128,242158,1,0,0:0:0:0:
256,96,242547,1,2,0:0:0:0:
192,96,242937,1,2,0:0:0:0:
256,96,243326,1,0,0:0:0:0:
96,128,244106,1,0,0:0:0:0:
256,96,244495,1,2,0:0:0:0:
288,96,244885,1,4,0:0:0:0:
0,192,246054,1,0,0:0:0:0:
256,128,246443,1,2,0:0:0:0:
256,128,247222,1,0,0:0:0:0:
256,128,247612,1,2,0:0:0:0:
256,128,248002,1,2,0:0:0:0:
160,160,248781,1,0,0:0:0:0:
128,128,249560,1,2,0:0:0:0:
128,128,250339,1,2,0:0:0:0:
128,128,250729,1,0,0:0:0:0:
128,128,251119,1,2,0:0:0:0:
128,128,251898,1,0,0:0:0:0:
128,128,252677,1,2,0:0:0:0:
32,160,253846,1,2,0:0:0:0:
32,128,254235,1,0,0:0:0:0:
160,128,255015,1,0,0:0:0:0:
160,128,255794,1,2,0:0:0:0:
224,96,256573,1,0,0:0:0:0:
288,96,256963,1,0,0:0:0:0:
160,128,257352,1,2,0:0:0:0:
256,96,258132,1,2,0:0:0:0:
256,96,258911,1,0,0:0:0:0:
256,160,259300,1,2,0:0:0:0:
256,160,260469,1,6,0:0:0:0:
