osu file format v14

[General]
AudioFilename: audio.mp3
AudioLeadIn: 0
PreviewTime: 71313
Countdown: 0
SampleSet: Normal
StackLeniency: 0.7
Mode: 1
LetterboxInBreaks: 0
WidescreenStoryboard: 0

[Editor]
Bookmarks: 204365
DistanceSpacing: 1.5
BeatDivisor: 4
GridSize: 32
TimelineZoom: 1.5

[Metadata]
Title:Kaguyahime
TitleUnicode:輝夜姫
Artist:Hatsuki Yura
ArtistUnicode:葉月ゆら
Creator:Volta
Version:Ron's Oni
Source:
Tags:gothic rock symphonic metal japanese jrock j-rock 清風明月 comiket drop eclipse parade C86 comic market 86 Reed_405 [R] Ron Roger ][ -GH- ][
BeatmapID:2449020
BeatmapSetID:1174208

[Difficulty]
HPDrainRate:5
CircleSize:5
OverallDifficulty:5.5
ApproachRate:5
SliderMultiplier:1.4
SliderTickRate:1

[Events]
//Background and Video events
0,0,"onibg.jpg",0,0
//Break Periods
//Storyboard Layer 0 (Background)
//Storyboard Layer 1 (Fail)
//Storyboard Layer 2 (Pass)
//Storyboard Layer 3 (Foreground)
//Storyboard Layer 4 (Overlay)
//Storyboard Sound Samples

[TimingPoints]
210,389.61038961039,4,1,0,70,1,0
12677,-100,4,1,0,60,0,0
15404,-100,4,1,0,70,0,0
15794,-100,4,1,0,80,0,0
29820,-100,4,1,0,70,0,0
54755,-100,4,1,0,70,0,0
71898,-100,4,1,0,80,0,1
96833,-100,4,1,0,70,0,0
110859,-100,4,1,0,70,0,0
135794,-100,4,1,0,70,0,0
152937,-100,4,1,0,80,0,1
177872,-100,4,1,0,70,0,0
191898,-100,4,1,0,70,0,0
218391,-100,4,1,0,70,0,0
224625,-100,4,1,0,80,0,1
244885,-100,4,1,0,70,0,0
259402,-100,4,1,0,30,0,0
260372,-100,4,1,0,80,0,0

[HitObjects]
256,192,210,5,12,0:0:0:0:
256,192,794,1,4,0:0:0:0:
256,192,989,1,12,0:0:0:0:
256,192,1573,1,4,0:0:0:0:
256,192,1768,1,12,0:0:0:0:
256,192,1963,1,4,0:0:0:0:
256,192,2158,1,12,0:0:0:0:
256,192,2352,1,4,0:0:0:0:
256,192,2547,1,12,0:0:0:0:
256,192,2937,1,8,0:0:0:0:
256,192,3034,1,0,0:0:0:0:
256,192,3132,1,8,0:0:0:0:
256,192,3326,1,12,0:0:0:0:
256,192,3716,1,4,0:0:0:0:
256,192,4106,1,12,0:0:0:0:
256,192,4495,1,4,0:0:0:0:
256,192,4885,1,12,0:0:0:0:
256,192,5274,1,12,0:0:0:0:
256,192,5664,1,4,0:0:0:0:
256,192,6054,1,0,0:0:0:0:
256,192,6151,1,8,0:0:0:0:
256,192,6248,1,0,0:0:0:0:
256,192,6443,1,12,0:0:0:0:
256,192,7028,1,4,0:0:0:0:
256,192,7222,1,12,0:0:0:0:
256,192,7807,1,4,0:0:0:0:
256,192,8002,1,12,0:0:0:0:
256,192,8197,1,4,0:0:0:0:
256,192,8391,1,12,0:0:0:0:
256,192,8586,1,4,0:0:0:0:
256,192,8781,1,12,0:0:0:0:
256,192,9171,1,8,0:0:0:0:
256,192,9268,1,0,0:0:0:0:
256,192,9365,1,8,0:0:0:0:
256,192,9560,1,12,0:0:0:0:
256,192,9950,1,4,0:0:0:0:
256,192,10339,1,12,0:0:0:0:
256,192,10729,1,4,0:0:0:0:
256,192,11119,1,12,0:0:0:0:
256,192,11313,1,4,0:0:0:0:
256,192,11508,1,12,0:0:0:0:
256,192,11703,1,4,0:0:0:0:
256,192,11898,1,12,0:0:0:0:
256,192,12287,1,0,0:0:0:0:
256,192,12385,1,0,0:0:0:0:
256,192,12482,1,0,0:0:0:0:
256,192,12580,1,0,0:0:0:0:
256,192,12677,1,8,0:0:0:0:
256,192,13067,1,8,0:0:0:0:
256,192,13846,1,8,0:0:0:0:
256,192,14235,1,8,0:0:0:0:
256,192,14333,1,8,0:0:0:0:
256,192,14430,1,0,0:0:0:0:
256,192,14625,1,8,0:0:0:0:
256,192,14722,1,0,0:0:0:0:
256,192,14820,1,0,0:0:0:0:
256,192,15015,1,8,0:0:0:0:
256,192,15112,1,8,0:0:0:0:
256,192,15210,1,0,0:0:0:0:
256,192,15404,1,12,0:0:0:0:
256,192,15794,1,4,0:0:0:0:
256,192,15989,1,8,0:0:0:0:
256,192,16184,1,0,0:0:0:0:
256,192,16281,1,0,0:0:0:0:
256,192,16378,1,8,0:0:0:0:
256,192,16573,1,0,0:0:0:0:
256,192,16768,1,0,0:0:0:0:
256,192,16865,1,8,0:0:0:0:
256,192,17060,1,8,0:0:0:0:
256,192,17158,1,8,0:0:0:0:
256,192,17352,1,0,0:0:0:0:
256,192,17547,1,8,0:0:0:0:
256,192,17742,1,0,0:0:0:0:
256,192,17839,1,0,0:0:0:0:
256,192,17937,1,8,0:0:0:0:
256,192,18132,1,8,0:0:0:0:
256,192,18521,1,0,0:0:0:0:
256,192,18619,1,0,0:0:0:0:
256,192,18716,1,0,0:0:0:0:
256,192,18813,1,0,0:0:0:0:
256,192,18911,1,8,0:0:0:0:
256,192,19106,1,8,0:0:0:0:
256,192,19300,1,8,0:0:0:0:
256,192,19398,1,0,0:0:0:0:
256,192,19495,1,8,0:0:0:0:
256,192,19690,1,0,0:0:0:0:
256,192,19885,1,8,0:0:0:0:
256,192,19982,1,8,0:0:0:0:
256,192,20177,1,8,0:0:0:0:
256,192,20274,1,0,0:0:0:0:
256,192,20469,1,8,0:0:0:0:
256,192,20664,1,0,0:0:0:0:
256,192,20761,1,8,0:0:0:0:
256,192,21054,1,8,0:0:0:0:
256,192,21248,1,0,0:0:0:0:
256,192,21346,1,8,0:0:0:0:
256,192,21443,1,0,0:0:0:0:
256,192,21541,1,0,0:0:0:0:
256,192,21638,1,8,0:0:0:0:
256,192,21833,1,0,0:0:0:0:
256,192,22028,1,8,0:0:0:0:
256,192,22125,1,8,0:0:0:0:
256,192,22222,1,0,0:0:0:0:
256,192,22320,1,0,0:0:0:0:
256,192,22417,1,8,0:0:0:0:
256,192,22612,1,0,0:0:0:0:
256,192,22807,1,8,0:0:0:0:
256,192,23002,1,0,0:0:0:0:
256,192,23099,1,0,0:0:0:0:
256,192,23294,1,0,0:0:0:0:
256,192,23391,1,8,0:0:0:0:
256,192,23586,1,0,0:0:0:0:
256,192,23781,1,8,0:0:0:0:
256,192,23878,1,0,0:0:0:0:
256,192,24073,1,0,0:0:0:0:
256,192,24171,1,0,0:0:0:0:
256,192,24365,1,8,0:0:0:0:
256,192,24755,1,0,0:0:0:0:
256,192,24950,1,8,0:0:0:0:
256,192,25047,1,8,0:0:0:0:
256,192,25145,1,0,0:0:0:0:
256,192,25339,1,0,0:0:0:0:
256,192,25437,1,8,0:0:0:0:
256,192,25632,1,0,0:0:0:0:
256,192,25729,1,8,0:0:0:0:
256,192,25924,1,0,0:0:0:0:
256,192,26119,1,8,0:0:0:0:
256,192,26216,1,0,0:0:0:0:
256,192,26411,1,8,0:0:0:0:
256,192,26508,1,0,0:0:0:0:
256,192,26703,1,8,0:0:0:0:
256,192,27093,1,0,0:0:0:0:
256,192,27287,1,8,0:0:0:0:
256,192,27482,1,0,0:0:0:0:
256,192,27580,1,0,0:0:0:0:
256,192,27677,1,8,0:0:0:0:
256,192,27774,1,8,0:0:0:0:
256,192,27872,1,0,0:0:0:0:
256,192,28067,1,0,0:0:0:0:
256,192,28261,1,12,0:0:0:0:
256,192,28554,1,12,0:0:0:0:
256,192,28846,1,12,0:0:0:0:
256,192,29041,1,4,0:0:0:0:
256,192,29333,1,4,0:0:0:0:
256,192,29625,1,12,0:0:0:0:
256,192,29820,1,4,0:0:0:0:
256,192,30015,1,8,0:0:0:0:
256,192,30210,1,0,0:0:0:0:
256,192,30307,1,0,0:0:0:0:
256,192,30404,1,8,0:0:0:0:
256,192,30599,1,0,0:0:0:0:
256,192,30794,1,8,0:0:0:0:
256,192,31184,1,8,0:0:0:0:
256,192,31378,1,0,0:0:0:0:
256,192,31573,1,8,0:0:0:0:
256,192,31671,1,8,0:0:0:0:
256,192,31768,1,0,0:0:0:0:
256,192,31963,1,8,0:0:0:0:
256,192,32158,1,0,0:0:0:0:
256,192,32352,1,8,0:0:0:0:
256,192,32742,1,8,0:0:0:0:
256,192,32937,1,0,0:0:0:0:
256,192,33132,1,8,0:0:0:0:
256,192,33229,1,0,0:0:0:0:
256,192,33326,1,0,0:0:0:0:
256,192,33424,1,0,0:0:0:0:
256,192,33521,1,8,0:0:0:0:
256,192,33716,1,0,0:0:0:0:
256,192,33911,1,8,0:0:0:0:
256,192,34106,1,0,0:0:0:0:
256,192,34203,1,0,0:0:0:0:
256,192,34300,1,8,0:0:0:0:
256,192,34495,1,0,0:0:0:0:
256,192,34690,1,8,0:0:0:0:
256,192,35080,1,8,0:0:0:0:
256,192,35177,1,8,0:0:0:0:
256,192,35274,1,0,0:0:0:0:
256,192,35372,1,0,0:0:0:0:
256,192,35469,1,8,0:0:0:0:
256,192,35664,1,8,0:0:0:0:
256,192,35761,1,0,0:0:0:0:
256,192,35859,1,8,0:0:0:0:
256,192,36054,1,0,0:0:0:0:
256,192,36248,1,8,0:0:0:0:
256,192,36443,1,0,0:0:0:0:
256,192,36541,1,0,0:0:0:0:
256,192,36638,1,8,0:0:0:0:
256,192,36833,1,0,0:0:0:0:
256,192,37028,1,8,0:0:0:0:
256,192,37125,1,0,0:0:0:0:
256,192,37320,1,0,0:0:0:0:
256,192,37417,1,8,0:0:0:0:
256,192,37612,1,0,0:0:0:0:
256,192,37807,1,8,0:0:0:0:
256,192,38002,1,0,0:0:0:0:
256,192,38197,1,8,0:0:0:0:
256,192,38294,1,0,0:0:0:0:
256,192,38586,1,8,0:0:0:0:
256,192,38781,1,0,0:0:0:0:
256,192,38878,1,0,0:0:0:0:
256,192,38976,1,8,0:0:0:0:
256,192,39073,1,0,0:0:0:0:
256,192,39171,1,8,0:0:0:0:
256,192,39365,1,8,0:0:0:0:
256,192,39463,1,0,0:0:0:0:
256,192,39658,1,0,0:0:0:0:
256,192,39755,1,0,0:0:0:0:
256,192,39950,1,8,0:0:0:0:
256,192,40145,1,0,0:0:0:0:
256,192,40242,1,8,0:0:0:0:
256,192,40437,1,8,0:0:0:0:
256,192,40534,1,8,0:0:0:0:
256,192,40729,1,4,0:0:0:0:
256,192,41021,1,4,0:0:0:0:
256,192,41313,1,4,0:0:0:0:
256,192,41508,1,12,0:0:0:0:
256,192,41703,1,0,0:0:0:0:
256,192,41800,1,8,0:0:0:0:
256,192,41898,1,0,0:0:0:0:
256,192,41995,1,0,0:0:0:0:
256,192,42093,1,8,0:0:0:0:
256,192,42287,1,4,0:0:0:0:
256,192,42482,1,8,0:0:0:0:
256,192,42677,1,0,0:0:0:0:
256,192,42774,1,0,0:0:0:0:
256,192,42872,1,8,0:0:0:0:
256,192,43067,1,0,0:0:0:0:
256,192,43261,1,8,0:0:0:0:
256,192,43651,1,8,0:0:0:0:
256,192,43846,1,0,0:0:0:0:
256,192,44041,1,8,0:0:0:0:
256,192,44138,1,8,0:0:0:0:
256,192,44235,1,0,0:0:0:0:
256,192,44430,1,8,0:0:0:0:
256,192,44625,1,0,0:0:0:0:
256,192,44820,1,8,0:0:0:0:
256,192,45210,1,8,0:0:0:0:
256,192,45404,1,0,0:0:0:0:
256,192,45599,1,8,0:0:0:0:
256,192,45697,1,0,0:0:0:0:
256,192,45794,1,0,0:0:0:0:
256,192,45891,1,0,0:0:0:0:
256,192,45989,1,8,0:0:0:0:
256,192,46184,1,0,0:0:0:0:
256,192,46378,1,8,0:0:0:0:
256,192,46573,1,0,0:0:0:0:
256,192,46671,1,0,0:0:0:0:
256,192,46768,1,8,0:0:0:0:
256,192,46963,1,0,0:0:0:0:
256,192,47158,1,8,0:0:0:0:
256,192,47547,1,8,0:0:0:0:
256,192,47645,1,8,0:0:0:0:
256,192,47742,1,0,0:0:0:0:
256,192,47839,1,0,0:0:0:0:
256,192,47937,1,8,0:0:0:0:
256,192,48132,1,8,0:0:0:0:
256,192,48229,1,0,0:0:0:0:
256,192,48326,1,8,0:0:0:0:
256,192,48521,1,0,0:0:0:0:
256,192,48716,1,8,0:0:0:0:
256,192,48911,1,0,0:0:0:0:
256,192,49008,1,0,0:0:0:0:
256,192,49106,1,8,0:0:0:0:
256,192,49300,1,0,0:0:0:0:
256,192,49495,1,8,0:0:0:0:
256,192,49593,1,0,0:0:0:0:
256,192,49787,1,0,0:0:0:0:
256,192,49885,1,8,0:0:0:0:
256,192,50080,1,0,0:0:0:0:
256,192,50274,1,8,0:0:0:0:
256,192,50469,1,0,0:0:0:0:
256,192,50664,1,8,0:0:0:0:
256,192,50761,1,8,0:0:0:0:
256,192,51054,1,8,0:0:0:0:
256,192,51248,1,0,0:0:0:0:
256,192,51346,1,0,0:0:0:0:
256,192,51443,1,8,0:0:0:0:
256,192,51541,1,0,0:0:0:0:
256,192,51638,1,8,0:0:0:0:
256,192,51833,1,8,0:0:0:0:
256,192,51930,1,0,0:0:0:0:
256,192,52125,1,0,0:0:0:0:
256,192,52222,1,0,0:0:0:0:
256,192,52417,1,8,0:0:0:0:
256,192,52612,1,0,0:0:0:0:
256,192,52807,1,8,0:0:0:0:
256,192,52904,1,0,0:0:0:0:
256,192,53002,1,8,0:0:0:0:
256,192,53197,1,4,0:0:0:0:
256,192,53489,1,4,0:0:0:0:
256,192,53781,1,4,0:0:0:0:
256,192,53976,1,12,0:0:0:0:
256,192,54171,1,0,0:0:0:0:
256,192,54268,1,8,0:0:0:0:
256,192,54365,1,0,0:0:0:0:
256,192,54463,1,0,0:0:0:0:
256,192,54560,1,8,0:0:0:0:
256,192,54755,1,4,0:0:0:0:
256,192,55145,1,8,0:0:0:0:
256,192,55274,1,8,0:0:0:0:
256,192,55404,1,0,0:0:0:0:
256,192,55534,1,8,0:0:0:0:
256,192,56313,1,12,0:0:0:0:
256,192,56703,1,12,0:0:0:0:
256,192,57093,1,4,0:0:0:0:
256,192,57482,1,8,0:0:0:0:
256,192,57612,1,8,0:0:0:0:
256,192,57742,1,8,0:0:0:0:
256,192,57872,1,4,0:0:0:0:
256,192,58651,1,12,0:0:0:0:
256,192,59430,1,12,0:0:0:0:
256,192,59820,1,12,0:0:0:0:
256,192,60210,1,0,0:0:0:0:
256,192,60339,1,8,0:0:0:0:
256,192,60469,1,8,0:0:0:0:
256,192,60599,1,0,0:0:0:0:
256,192,60989,1,12,0:0:0:0:
256,192,61378,1,0,0:0:0:0:
256,192,61508,1,0,0:0:0:0:
256,192,61638,1,8,0:0:0:0:
256,192,61768,1,0,0:0:0:0:
256,192,62547,1,4,0:0:0:0:
256,192,62937,1,4,0:0:0:0:
256,192,63326,1,12,0:0:0:0:
256,192,63716,1,0,0:0:0:0:
256,192,63846,1,0,0:0:0:0:
256,192,63976,1,0,0:0:0:0:
256,192,64106,1,12,0:0:0:0:
256,192,64885,1,4,0:0:0:0:
256,192,65664,1,12,0:0:0:0:
256,192,65924,1,0,0:0:0:0:
256,192,66054,1,0,0:0:0:0:
256,192,66184,1,8,0:0:0:0:
256,192,66313,1,0,0:0:0:0:
256,192,66443,1,8,0:0:0:0:
256,192,66541,1,8,0:0:0:0:
256,192,66638,1,0,0:0:0:0:
256,192,66735,1,0,0:0:0:0:
256,192,66833,1,8,0:0:0:0:
256,192,67222,1,4,0:0:0:0:
256,192,67515,1,4,0:0:0:0:
256,192,67807,1,4,0:0:0:0:
256,192,68002,1,8,0:0:0:0:
256,192,68099,1,8,0:0:0:0:
256,192,68197,1,0,0:0:0:0:
256,192,68294,1,0,0:0:0:0:
256,192,68391,1,8,0:0:0:0:
256,192,68586,1,0,0:0:0:0:
256,192,68781,1,8,0:0:0:0:
256,192,68878,1,0,0:0:0:0:
256,192,68976,1,0,0:0:0:0:
256,192,69073,1,0,0:0:0:0:
256,192,69171,1,8,0:0:0:0:
256,192,69365,1,0,0:0:0:0:
256,192,69560,1,8,0:0:0:0:
256,192,69658,1,0,0:0:0:0:
256,192,69755,1,8,0:0:0:0:
256,192,69852,1,0,0:0:0:0:
256,192,69950,1,8,0:0:0:0:
256,192,70145,1,0,0:0:0:0:
256,192,70339,1,12,0:0:0:0:
256,192,70632,1,12,0:0:0:0:
256,192,70924,1,12,0:0:0:0:
256,192,71119,1,4,0:0:0:0:
256,192,71313,1,0,0:0:0:0:
256,192,71378,1,0,0:0:0:0:
256,192,71443,1,0,0:0:0:0:
256,192,71508,1,8,0:0:0:0:
256,192,71898,1,4,0:0:0:0:
256,192,72093,1,8,0:0:0:0:
256,192,72287,1,0,0:0:0:0:
256,192,72385,1,0,0:0:0:0:
256,192,72482,1,8,0:0:0:0:
256,192,72677,1,0,0:0:0:0:
256,192,72872,1,8,0:0:0:0:
256,192,72969,1,0,0:0:0:0:
256,192,73164,1,0,0:0:0:0:
256,192,73261,1,8,0:0:0:0:
256,192,73359,1,8,0:0:0:0:
256,192,73456,1,0,0:0:0:0:
256,192,73651,1,8,0:0:0:0:
256,192,73846,1,0,0:0:0:0:
256,192,73943,1,0,0:0:0:0:
256,192,74041,1,8,0:0:0:0:
256,192,74235,1,8,0:0:0:0:
256,192,74333,1,0,0:0:0:0:
256,192,74430,1,8,0:0:0:0:
256,192,74528,1,8,0:0:0:0:
256,192,74625,1,0,0:0:0:0:
256,192,74820,1,8,0:0:0:0:
256,192,75015,1,0,0:0:0:0:
256,192,75404,1,0,0:0:0:0:
256,192,75599,1,8,0:0:0:0:
256,192,75794,1,0,0:0:0:0:
256,192,75891,1,0,0:0:0:0:
256,192,75989,1,8,0:0:0:0:
256,192,76086,1,0,0:0:0:0:
256,192,76281,1,0,0:0:0:0:
256,192,76378,1,8,0:0:0:0:
256,192,76573,1,0,0:0:0:0:
256,192,76768,1,8,0:0:0:0:
256,192,76963,1,0,0:0:0:0:
256,192,77060,1,0,0:0:0:0:
256,192,77158,1,8,0:0:0:0:
256,192,77255,1,8,0:0:0:0:
256,192,77352,1,0,0:0:0:0:
256,192,77547,1,8,0:0:0:0:
256,192,77742,1,8,0:0:0:0:
256,192,77839,1,8,0:0:0:0:
256,192,77937,1,8,0:0:0:0:
256,192,78132,1,0,0:0:0:0:
256,192,78326,1,8,0:0:0:0:
256,192,78521,1,0,0:0:0:0:
256,192,78619,1,0,0:0:0:0:
256,192,78716,1,8,0:0:0:0:
256,192,78911,1,8,0:0:0:0:
256,192,79106,1,0,0:0:0:0:
256,192,79300,1,8,0:0:0:0:
256,192,79690,1,0,0:0:0:0:
256,192,79885,1,8,0:0:0:0:
256,192,79982,1,8,0:0:0:0:
256,192,80080,1,0,0:0:0:0:
256,192,80177,1,0,0:0:0:0:
256,192,80274,1,8,0:0:0:0:
256,192,80469,1,0,0:0:0:0:
256,192,80664,1,8,0:0:0:0:
256,192,80761,1,0,0:0:0:0:
256,192,80956,1,8,0:0:0:0:
256,192,81054,1,0,0:0:0:0:
256,192,81248,1,8,0:0:0:0:
256,192,81443,1,0,0:0:0:0:
256,192,81541,1,8,0:0:0:0:
256,192,81735,1,0,0:0:0:0:
256,192,81833,1,8,0:0:0:0:
256,192,82028,1,8,0:0:0:0:
256,192,82222,1,8,0:0:0:0:
256,192,82320,1,0,0:0:0:0:
256,192,82515,1,0,0:0:0:0:
256,192,82612,1,0,0:0:0:0:
256,192,82807,1,8,0:0:0:0:
256,192,83197,1,0,0:0:0:0:
256,192,83391,1,8,0:0:0:0:
256,192,83586,1,0,0:0:0:0:
256,192,83684,1,0,0:0:0:0:
256,192,83781,1,0,0:0:0:0:
256,192,83878,1,0,0:0:0:0:
256,192,83976,1,8,0:0:0:0:
256,192,84073,1,8,0:0:0:0:
256,192,84171,1,8,0:0:0:0:
256,192,84365,1,4,0:0:0:0:
256,192,84560,1,8,0:0:0:0:
256,192,84755,1,0,0:0:0:0:
256,192,84852,1,0,0:0:0:0:
256,192,84950,1,8,0:0:0:0:
256,192,85145,1,0,0:0:0:0:
256,192,85242,1,0,0:0:0:0:
256,192,85339,1,8,0:0:0:0:
256,192,85437,1,0,0:0:0:0:
256,192,85632,1,0,0:0:0:0:
256,192,85729,1,8,0:0:0:0:
256,192,85924,1,0,0:0:0:0:
256,192,86119,1,8,0:0:0:0:
256,192,86216,1,8,0:0:0:0:
256,192,86313,1,0,0:0:0:0:
256,192,86411,1,0,0:0:0:0:
256,192,86508,1,8,0:0:0:0:
256,192,86703,1,8,0:0:0:0:
256,192,86800,1,0,0:0:0:0:
256,192,86898,1,8,0:0:0:0:
256,192,87093,1,0,0:0:0:0:
256,192,87287,1,8,0:0:0:0:
256,192,87482,1,0,0:0:0:0:
256,192,87872,1,0,0:0:0:0:
256,192,88067,1,8,0:0:0:0:
256,192,88261,1,0,0:0:0:0:
256,192,88456,1,8,0:0:0:0:
256,192,88554,1,0,0:0:0:0:
256,192,88748,1,0,0:0:0:0:
256,192,88846,1,8,0:0:0:0:
256,192,88943,1,8,0:0:0:0:
256,192,89041,1,0,0:0:0:0:
256,192,89235,1,8,0:0:0:0:
256,192,89430,1,0,0:0:0:0:
256,192,89625,1,8,0:0:0:0:
256,192,89722,1,8,0:0:0:0:
256,192,89820,1,0,0:0:0:0:
256,192,90015,1,0,0:0:0:0:
256,192,90112,1,0,0:0:0:0:
256,192,90210,1,8,0:0:0:0:
256,192,90307,1,8,0:0:0:0:
256,192,90404,1,8,0:0:0:0:
256,192,90599,1,0,0:0:0:0:
256,192,90794,1,8,0:0:0:0:
256,192,90989,1,0,0:0:0:0:
256,192,91086,1,0,0:0:0:0:
256,192,91184,1,8,0:0:0:0:
256,192,91378,1,8,0:0:0:0:
256,192,91573,1,0,0:0:0:0:
256,192,91768,1,8,0:0:0:0:
256,192,92158,1,0,0:0:0:0:
256,192,92352,1,8,0:0:0:0:
256,192,92450,1,8,0:0:0:0:
256,192,92547,1,0,0:0:0:0:
256,192,92645,1,0,0:0:0:0:
256,192,92742,1,8,0:0:0:0:
256,192,92937,1,0,0:0:0:0:
256,192,93132,1,8,0:0:0:0:
256,192,93229,1,0,0:0:0:0:
256,192,93424,1,8,0:0:0:0:
256,192,93521,1,0,0:0:0:0:
256,192,93716,1,12,0:0:0:0:
256,192,94008,1,12,0:0:0:0:
256,192,94300,1,12,0:0:0:0:
256,192,94495,1,4,0:0:0:0:
256,192,94690,1,8,0:0:0:0:
256,192,94787,1,0,0:0:0:0:
256,192,94885,1,0,0:0:0:0:
256,192,94982,1,0,0:0:0:0:
256,192,95080,1,8,0:0:0:0:
256,192,95274,1,12,0:0:0:0:
256,192,95567,1,4,0:0:0:0:
256,192,95859,1,4,0:0:0:0:
256,192,96054,1,8,0:0:0:0:
256,192,96248,1,0,0:0:0:0:
256,192,96313,1,0,0:0:0:0:
256,192,96378,1,0,0:0:0:0:
256,192,96443,1,8,0:0:0:0:
256,192,96833,1,4,0:0:0:0:
256,192,97028,1,8,0:0:0:0:
256,192,97222,1,0,0:0:0:0:
256,192,97320,1,0,0:0:0:0:
256,192,97417,1,8,0:0:0:0:
256,192,97612,1,8,0:0:0:0:
256,192,97710,1,0,0:0:0:0:
256,192,97807,1,0,0:0:0:0:
256,192,97904,1,0,0:0:0:0:
256,192,98002,1,8,0:0:0:0:
256,192,98197,1,8,0:0:0:0:
256,192,98294,1,8,0:0:0:0:
256,192,98391,1,0,0:0:0:0:
256,192,98781,1,0,0:0:0:0:
256,192,98976,1,8,0:0:0:0:
256,192,99171,1,0,0:0:0:0:
256,192,99268,1,0,0:0:0:0:
256,192,99365,1,8,0:0:0:0:
256,192,99463,1,8,0:0:0:0:
256,192,99560,1,0,0:0:0:0:
256,192,99755,1,8,0:0:0:0:
256,192,99950,1,0,0:0:0:0:
256,192,100047,1,0,0:0:0:0:
256,192,100145,1,8,0:0:0:0:
256,192,100339,1,8,0:0:0:0:
256,192,100437,1,8,0:0:0:0:
256,192,100534,1,0,0:0:0:0:
256,192,100729,1,8,0:0:0:0:
256,192,100924,1,0,0:0:0:0:
256,192,101021,1,8,0:0:0:0:
256,192,101119,1,0,0:0:0:0:
256,192,101216,1,0,0:0:0:0:
256,192,101313,1,8,0:0:0:0:
256,192,101508,1,0,0:0:0:0:
256,192,101703,1,8,0:0:0:0:
256,192,101800,1,8,0:0:0:0:
256,192,101898,1,0,0:0:0:0:
256,192,102093,1,8,0:0:0:0:
256,192,102287,1,0,0:0:0:0:
256,192,102385,1,0,0:0:0:0:
256,192,102482,1,8,0:0:0:0:
256,192,102580,1,0,0:0:0:0:
256,192,102677,1,8,0:0:0:0:
256,192,102774,1,0,0:0:0:0:
256,192,102872,1,8,0:0:0:0:
256,192,103067,1,4,0:0:0:0:
256,192,103456,1,8,0:0:0:0:
256,192,103651,1,0,0:0:0:0:
256,192,103846,1,8,0:0:0:0:
256,192,103943,1,0,0:0:0:0:
256,192,104041,1,0,0:0:0:0:
256,192,104138,1,0,0:0:0:0:
256,192,104235,1,8,0:0:0:0:
256,192,104430,1,8,0:0:0:0:
256,192,104528,1,8,0:0:0:0:
256,192,104625,1,0,0:0:0:0:
256,192,105015,1,0,0:0:0:0:
256,192,105210,1,8,0:0:0:0:
256,192,105404,1,0,0:0:0:0:
256,192,105502,1,0,0:0:0:0:
256,192,105599,1,8,0:0:0:0:
256,192,105697,1,8,0:0:0:0:
256,192,105794,1,0,0:0:0:0:
256,192,105989,1,8,0:0:0:0:
256,192,106184,1,0,0:0:0:0:
256,192,106281,1,0,0:0:0:0:
256,192,106378,1,8,0:0:0:0:
256,192,106573,1,8,0:0:0:0:
256,192,106671,1,8,0:0:0:0:
256,192,106768,1,0,0:0:0:0:
256,192,106963,1,8,0:0:0:0:
256,192,107158,1,0,0:0:0:0:
256,192,107255,1,8,0:0:0:0:
256,192,107352,1,0,0:0:0:0:
256,192,107450,1,0,0:0:0:0:
256,192,107547,1,8,0:0:0:0:
256,192,107742,1,0,0:0:0:0:
256,192,107937,1,8,0:0:0:0:
256,192,108034,1,0,0:0:0:0:
256,192,108229,1,8,0:0:0:0:
256,192,108326,1,0,0:0:0:0:
256,192,108521,1,8,0:0:0:0:
256,192,108716,1,0,0:0:0:0:
256,192,108813,1,0,0:0:0:0:
256,192,108911,1,8,0:0:0:0:
256,192,109008,1,8,0:0:0:0:
256,192,109106,1,0,0:0:0:0:
256,192,109300,1,8,0:0:0:0:
256,192,109495,1,0,0:0:0:0:
256,192,109593,1,8,0:0:0:0:
256,192,109885,1,8,0:0:0:0:
256,192,110080,1,8,0:0:0:0:
256,192,110274,1,0,0:0:0:0:
256,192,110339,1,0,0:0:0:0:
256,192,110404,1,0,0:0:0:0:
256,192,110469,1,8,0:0:0:0:
256,192,110859,1,4,0:0:0:0:
256,192,112222,1,12,0:0:0:0:
256,192,112417,1,4,0:0:0:0:
256,192,113781,1,12,0:0:0:0:
256,192,113976,1,4,0:0:0:0:
256,192,115339,1,4,0:0:0:0:
256,192,115534,1,12,0:0:0:0:
256,192,115826,1,12,0:0:0:0:
256,192,116119,1,4,0:0:0:0:
256,192,116313,1,8,0:0:0:0:
256,192,116411,1,8,0:0:0:0:
256,192,116508,1,0,0:0:0:0:
256,192,116606,1,0,0:0:0:0:
256,192,116703,1,8,0:0:0:0:
256,192,116800,1,8,0:0:0:0:
256,192,116898,1,8,0:0:0:0:
256,192,117093,1,4,0:0:0:0:
256,192,117287,1,8,0:0:0:0:
256,192,117482,1,0,0:0:0:0:
256,192,117580,1,0,0:0:0:0:
256,192,117677,1,8,0:0:0:0:
256,192,117872,1,0,0:0:0:0:
256,192,118067,1,8,0:0:0:0:
256,192,118164,1,0,0:0:0:0:
256,192,118359,1,0,0:0:0:0:
256,192,118456,1,8,0:0:0:0:
256,192,118651,1,0,0:0:0:0:
256,192,118846,1,8,0:0:0:0:
256,192,119041,1,0,0:0:0:0:
256,192,119235,1,8,0:0:0:0:
256,192,119333,1,0,0:0:0:0:
256,192,119625,1,8,0:0:0:0:
256,192,119820,1,0,0:0:0:0:
256,192,119917,1,0,0:0:0:0:
256,192,120015,1,8,0:0:0:0:
256,192,120112,1,0,0:0:0:0:
256,192,120210,1,8,0:0:0:0:
256,192,120404,1,8,0:0:0:0:
256,192,120502,1,0,0:0:0:0:
256,192,120697,1,0,0:0:0:0:
256,192,120794,1,0,0:0:0:0:
256,192,120989,1,8,0:0:0:0:
256,192,121184,1,0,0:0:0:0:
256,192,121281,1,8,0:0:0:0:
256,192,121476,1,8,0:0:0:0:
256,192,121573,1,8,0:0:0:0:
256,192,121768,1,4,0:0:0:0:
256,192,122060,1,4,0:0:0:0:
256,192,122352,1,4,0:0:0:0:
256,192,122547,1,8,0:0:0:0:
256,192,122645,1,0,0:0:0:0:
256,192,122742,1,8,0:0:0:0:
256,192,122839,1,8,0:0:0:0:
256,192,122937,1,0,0:0:0:0:
256,192,123132,1,12,0:0:0:0:
256,192,123326,1,4,0:0:0:0:
256,192,123521,1,8,0:0:0:0:
256,192,123716,1,0,0:0:0:0:
256,192,123813,1,0,0:0:0:0:
256,192,123911,1,8,0:0:0:0:
256,192,124106,1,0,0:0:0:0:
256,192,124300,1,8,0:0:0:0:
256,192,124690,1,8,0:0:0:0:
256,192,124885,1,0,0:0:0:0:
256,192,125080,1,8,0:0:0:0:
256,192,125177,1,8,0:0:0:0:
256,192,125274,1,0,0:0:0:0:
256,192,125469,1,8,0:0:0:0:
256,192,125664,1,0,0:0:0:0:
256,192,125859,1,8,0:0:0:0:
256,192,126248,1,8,0:0:0:0:
256,192,126443,1,0,0:0:0:0:
256,192,126638,1,8,0:0:0:0:
256,192,126735,1,0,0:0:0:0:
256,192,126833,1,0,0:0:0:0:
256,192,126930,1,0,0:0:0:0:
256,192,127028,1,8,0:0:0:0:
256,192,127222,1,0,0:0:0:0:
256,192,127417,1,8,0:0:0:0:
256,192,127612,1,0,0:0:0:0:
256,192,127710,1,0,0:0:0:0:
256,192,127807,1,8,0:0:0:0:
256,192,128002,1,0,0:0:0:0:
256,192,128197,1,8,0:0:0:0:
256,192,128586,1,8,0:0:0:0:
256,192,128684,1,8,0:0:0:0:
256,192,128781,1,0,0:0:0:0:
256,192,128878,1,0,0:0:0:0:
256,192,128976,1,8,0:0:0:0:
256,192,129171,1,8,0:0:0:0:
256,192,129268,1,0,0:0:0:0:
256,192,129365,1,8,0:0:0:0:
256,192,129560,1,0,0:0:0:0:
256,192,129755,1,8,0:0:0:0:
256,192,129950,1,0,0:0:0:0:
256,192,130047,1,0,0:0:0:0:
256,192,130145,1,8,0:0:0:0:
256,192,130339,1,0,0:0:0:0:
256,192,130534,1,8,0:0:0:0:
256,192,130632,1,0,0:0:0:0:
256,192,130826,1,0,0:0:0:0:
256,192,130924,1,8,0:0:0:0:
256,192,131119,1,0,0:0:0:0:
256,192,131313,1,8,0:0:0:0:
256,192,131508,1,0,0:0:0:0:
256,192,131703,1,8,0:0:0:0:
256,192,131800,1,0,0:0:0:0:
256,192,132093,1,8,0:0:0:0:
256,192,132287,1,0,0:0:0:0:
256,192,132385,1,0,0:0:0:0:
256,192,132482,1,8,0:0:0:0:
256,192,132580,1,0,0:0:0:0:
256,192,132677,1,8,0:0:0:0:
256,192,132872,1,8,0:0:0:0:
256,192,132969,1,0,0:0:0:0:
256,192,133164,1,0,0:0:0:0:
256,192,133261,1,0,0:0:0:0:
256,192,133456,1,8,0:0:0:0:
256,192,133651,1,0,0:0:0:0:
256,192,133846,1,8,0:0:0:0:
256,192,133943,1,0,0:0:0:0:
256,192,134041,1,8,0:0:0:0:
256,192,134235,1,4,0:0:0:0:
256,192,134528,1,4,0:0:0:0:
256,192,134820,1,4,0:0:0:0:
256,192,135015,1,12,0:0:0:0:
256,192,135210,1,0,0:0:0:0:
256,192,135307,1,8,0:0:0:0:
256,192,135404,1,0,0:0:0:0:
256,192,135502,1,0,0:0:0:0:
256,192,135599,1,8,0:0:0:0:
256,192,135794,1,4,0:0:0:0:
256,192,136184,1,8,0:0:0:0:
256,192,136313,1,8,0:0:0:0:
256,192,136443,1,0,0:0:0:0:
256,192,136573,1,8,0:0:0:0:
256,192,137352,1,12,0:0:0:0:
256,192,137742,1,12,0:0:0:0:
256,192,138132,1,4,0:0:0:0:
256,192,138521,1,8,0:0:0:0:
256,192,138651,1,8,0:0:0:0:
256,192,138781,1,8,0:0:0:0:
256,192,138911,1,4,0:0:0:0:
256,192,139690,1,12,0:0:0:0:
256,192,140469,1,12,0:0:0:0:
256,192,140859,1,12,0:0:0:0:
256,192,141248,1,0,0:0:0:0:
256,192,141378,1,8,0:0:0:0:
256,192,141508,1,8,0:0:0:0:
256,192,141638,1,0,0:0:0:0:
256,192,142028,1,12,0:0:0:0:
256,192,142417,1,0,0:0:0:0:
256,192,142547,1,0,0:0:0:0:
256,192,142677,1,8,0:0:0:0:
256,192,142807,1,0,0:0:0:0:
256,192,143586,1,4,0:0:0:0:
256,192,143976,1,4,0:0:0:0:
256,192,144365,1,12,0:0:0:0:
256,192,144755,1,0,0:0:0:0:
256,192,144885,1,0,0:0:0:0:
256,192,145015,1,0,0:0:0:0:
256,192,145145,1,12,0:0:0:0:
256,192,145924,1,4,0:0:0:0:
256,192,146703,1,12,0:0:0:0:
256,192,146963,1,0,0:0:0:0:
256,192,147093,1,0,0:0:0:0:
256,192,147222,1,8,0:0:0:0:
256,192,147352,1,0,0:0:0:0:
256,192,147482,1,8,0:0:0:0:
256,192,147580,1,8,0:0:0:0:
256,192,147677,1,0,0:0:0:0:
256,192,147774,1,0,0:0:0:0:
256,192,147872,1,8,0:0:0:0:
256,192,148261,1,4,0:0:0:0:
256,192,148554,1,4,0:0:0:0:
256,192,148846,1,4,0:0:0:0:
256,192,149041,1,8,0:0:0:0:
256,192,149138,1,8,0:0:0:0:
256,192,149235,1,0,0:0:0:0:
256,192,149333,1,0,0:0:0:0:
256,192,149430,1,8,0:0:0:0:
256,192,149625,1,0,0:0:0:0:
256,192,149820,1,8,0:0:0:0:
256,192,149917,1,0,0:0:0:0:
256,192,150015,1,0,0:0:0:0:
256,192,150112,1,0,0:0:0:0:
256,192,150210,1,8,0:0:0:0:
256,192,150404,1,0,0:0:0:0:
256,192,150599,1,8,0:0:0:0:
256,192,150697,1,0,0:0:0:0:
256,192,150794,1,8,0:0:0:0:
256,192,150891,1,0,0:0:0:0:
256,192,150989,1,8,0:0:0:0:
256,192,151184,1,0,0:0:0:0:
256,192,151378,1,12,0:0:0:0:
256,192,151671,1,12,0:0:0:0:
256,192,151963,1,12,0:0:0:0:
256,192,152158,1,4,0:0:0:0:
256,192,152352,1,0,0:0:0:0:
256,192,152417,1,0,0:0:0:0:
256,192,152482,1,0,0:0:0:0:
256,192,152547,1,8,0:0:0:0:
256,192,152937,1,4,0:0:0:0:
256,192,153132,1,8,0:0:0:0:
256,192,153326,1,0,0:0:0:0:
256,192,153424,1,0,0:0:0:0:
256,192,153521,1,8,0:0:0:0:
256,192,153716,1,0,0:0:0:0:
256,192,153911,1,8,0:0:0:0:
256,192,154008,1,0,0:0:0:0:
256,192,154203,1,0,0:0:0:0:
256,192,154300,1,8,0:0:0:0:
256,192,154398,1,8,0:0:0:0:
256,192,154495,1,0,0:0:0:0:
256,192,154690,1,8,0:0:0:0:
256,192,154885,1,0,0:0:0:0:
256,192,154982,1,0,0:0:0:0:
256,192,155080,1,8,0:0:0:0:
256,192,155274,1,8,0:0:0:0:
256,192,155372,1,0,0:0:0:0:
256,192,155469,1,8,0:0:0:0:
256,192,155567,1,8,0:0:0:0:
256,192,155664,1,0,0:0:0:0:
256,192,155859,1,8,0:0:0:0:
256,192,156054,1,0,0:0:0:0:
256,192,156443,1,0,0:0:0:0:
256,192,156638,1,8,0:0:0:0:
256,192,156833,1,0,0:0:0:0:
256,192,156930,1,0,0:0:0:0:
256,192,157028,1,8,0:0:0:0:
256,192,157125,1,0,0:0:0:0:
256,192,157320,1,0,0:0:0:0:
256,192,157417,1,8,0:0:0:0:
256,192,157612,1,0,0:0:0:0:
256,192,157807,1,8,0:0:0:0:
256,192,158002,1,0,0:0:0:0:
256,192,158099,1,0,0:0:0:0:
256,192,158197,1,8,0:0:0:0:
256,192,158294,1,8,0:0:0:0:
256,192,158391,1,0,0:0:0:0:
256,192,158586,1,8,0:0:0:0:
256,192,158781,1,8,0:0:0:0:
256,192,158878,1,8,0:0:0:0:
256,192,158976,1,8,0:0:0:0:
256,192,159171,1,0,0:0:0:0:
256,192,159365,1,8,0:0:0:0:
256,192,159560,1,0,0:0:0:0:
256,192,159658,1,0,0:0:0:0:
256,192,159755,1,8,0:0:0:0:
256,192,159950,1,8,0:0:0:0:
256,192,160145,1,0,0:0:0:0:
256,192,160339,1,8,0:0:0:0:
256,192,160729,1,0,0:0:0:0:
256,192,160924,1,8,0:0:0:0:
256,192,161021,1,8,0:0:0:0:
256,192,161119,1,0,0:0:0:0:
256,192,161216,1,0,0:0:0:0:
256,192,161313,1,8,0:0:0:0:
256,192,161508,1,0,0:0:0:0:
256,192,161703,1,8,0:0:0:0:
256,192,161800,1,0,0:0:0:0:
256,192,161995,1,8,0:0:0:0:
256,192,162093,1,0,0:0:0:0:
256,192,162287,1,8,0:0:0:0:
256,192,162482,1,0,0:0:0:0:
256,192,162580,1,8,0:0:0:0:
256,192,162774,1,0,0:0:0:0:
256,192,162872,1,8,0:0:0:0:
256,192,163067,1,8,0:0:0:0:
256,192,163261,1,8,0:0:0:0:
256,192,163359,1,0,0:0:0:0:
256,192,163554,1,0,0:0:0:0:
256,192,163651,1,0,0:0:0:0:
256,192,163846,1,8,0:0:0:0:
256,192,164235,1,0,0:0:0:0:
256,192,164430,1,8,0:0:0:0:
256,192,164625,1,0,0:0:0:0:
256,192,164722,1,0,0:0:0:0:
256,192,164820,1,0,0:0:0:0:
256,192,164917,1,0,0:0:0:0:
256,192,165015,1,8,0:0:0:0:
256,192,165112,1,8,0:0:0:0:
256,192,165210,1,8,0:0:0:0:
256,192,165404,1,4,0:0:0:0:
256,192,165599,1,8,0:0:0:0:
256,192,165794,1,0,0:0:0:0:
256,192,165891,1,0,0:0:0:0:
256,192,165989,1,8,0:0:0:0:
256,192,166184,1,0,0:0:0:0:
256,192,166281,1,0,0:0:0:0:
256,192,166378,1,8,0:0:0:0:
256,192,166476,1,0,0:0:0:0:
256,192,166671,1,0,0:0:0:0:
256,192,166768,1,8,0:0:0:0:
256,192,166963,1,0,0:0:0:0:
256,192,167158,1,8,0:0:0:0:
256,192,167255,1,8,0:0:0:0:
256,192,167352,1,0,0:0:0:0:
256,192,167450,1,0,0:0:0:0:
256,192,167547,1,8,0:0:0:0:
256,192,167742,1,8,0:0:0:0:
256,192,167839,1,0,0:0:0:0:
256,192,167937,1,8,0:0:0:0:
256,192,168132,1,0,0:0:0:0:
256,192,168326,1,8,0:0:0:0:
256,192,168521,1,0,0:0:0:0:
256,192,168911,1,0,0:0:0:0:
256,192,169106,1,8,0:0:0:0:
256,192,169300,1,0,0:0:0:0:
256,192,169495,1,8,0:0:0:0:
256,192,169593,1,0,0:0:0:0:
256,192,169787,1,0,0:0:0:0:
256,192,169885,1,8,0:0:0:0:
256,192,169982,1,8,0:0:0:0:
256,192,170080,1,0,0:0:0:0:
256,192,170274,1,8,0:0:0:0:
256,192,170469,1,0,0:0:0:0:
256,192,170664,1,8,0:0:0:0:
256,192,170761,1,8,0:0:0:0:
256,192,170859,1,0,0:0:0:0:
256,192,171054,1,0,0:0:0:0:
256,192,171151,1,0,0:0:0:0:
256,192,171248,1,8,0:0:0:0:
256,192,171346,1,8,0:0:0:0:
256,192,171443,1,8,0:0:0:0:
256,192,171638,1,0,0:0:0:0:
256,192,171833,1,8,0:0:0:0:
256,192,172028,1,0,0:0:0:0:
256,192,172125,1,0,0:0:0:0:
256,192,172222,1,8,0:0:0:0:
256,192,172417,1,8,0:0:0:0:
256,192,172612,1,0,0:0:0:0:
256,192,172807,1,8,0:0:0:0:
256,192,173197,1,0,0:0:0:0:
256,192,173391,1,8,0:0:0:0:
256,192,173489,1,8,0:0:0:0:
256,192,173586,1,0,0:0:0:0:
256,192,173684,1,0,0:0:0:0:
256,192,173781,1,8,0:0:0:0:
256,192,173976,1,0,0:0:0:0:
256,192,174171,1,8,0:0:0:0:
256,192,174268,1,0,0:0:0:0:
256,192,174463,1,8,0:0:0:0:
256,192,174560,1,0,0:0:0:0:
256,192,174755,1,12,0:0:0:0:
256,192,175047,1,12,0:0:0:0:
256,192,175339,1,12,0:0:0:0:
256,192,175534,1,4,0:0:0:0:
256,192,175729,1,8,0:0:0:0:
256,192,175826,1,0,0:0:0:0:
256,192,175924,1,0,0:0:0:0:
256,192,176021,1,0,0:0:0:0:
256,192,176119,1,8,0:0:0:0:
256,192,176313,1,12,0:0:0:0:
256,192,176606,1,4,0:0:0:0:
256,192,176898,1,4,0:0:0:0:
256,192,177093,1,8,0:0:0:0:
256,192,177287,1,0,0:0:0:0:
256,192,177352,1,0,0:0:0:0:
256,192,177417,1,0,0:0:0:0:
256,192,177482,1,8,0:0:0:0:
256,192,177872,1,4,0:0:0:0:
256,192,178132,1,0,0:0:0:0:
256,192,178261,1,8,0:0:0:0:
256,192,178391,1,0,0:0:0:0:
256,192,178651,1,12,0:0:0:0:
256,192,178911,1,4,0:0:0:0:
256,192,179171,1,4,0:0:0:0:
256,192,179430,1,8,0:0:0:0:
256,192,179690,1,8,0:0:0:0:
256,192,179820,1,0,0:0:0:0:
256,192,179950,1,8,0:0:0:0:
256,192,180210,1,4,0:0:0:0:
256,192,180469,1,12,0:0:0:0:
256,192,180729,1,12,0:0:0:0:
256,192,180989,1,0,0:0:0:0:
256,192,181248,1,0,0:0:0:0:
256,192,181378,1,8,0:0:0:0:
256,192,181508,1,8,0:0:0:0:
256,192,181638,1,8,0:0:0:0:
256,192,181768,1,0,0:0:0:0:
256,192,182028,1,8,0:0:0:0:
256,192,182158,1,0,0:0:0:0:
256,192,182287,1,0,0:0:0:0:
256,192,182417,1,0,0:0:0:0:
256,192,182547,1,8,0:0:0:0:
256,192,182807,1,8,0:0:0:0:
256,192,182937,1,8,0:0:0:0:
256,192,183067,1,0,0:0:0:0:
256,192,183197,1,0,0:0:0:0:
256,192,183326,1,8,0:0:0:0:
256,192,183716,1,8,0:0:0:0:
256,192,184106,1,0,0:0:0:0:
256,192,184365,1,0,0:0:0:0:
256,192,184495,1,8,0:0:0:0:
256,192,184625,1,0,0:0:0:0:
256,192,184885,1,12,0:0:0:0:
256,192,185145,1,4,0:0:0:0:
256,192,185404,1,4,0:0:0:0:
256,192,185664,1,8,0:0:0:0:
256,192,185924,1,8,0:0:0:0:
256,192,186054,1,0,0:0:0:0:
256,192,186184,1,8,0:0:0:0:
256,192,186443,1,4,0:0:0:0:
256,192,186703,1,12,0:0:0:0:
256,192,186963,1,12,0:0:0:0:
256,192,187222,1,0,0:0:0:0:
256,192,187482,1,0,0:0:0:0:
256,192,187612,1,8,0:0:0:0:
256,192,187742,1,8,0:0:0:0:
256,192,187872,1,8,0:0:0:0:
256,192,188002,1,0,0:0:0:0:
256,192,188261,1,8,0:0:0:0:
256,192,188391,1,0,0:0:0:0:
256,192,188521,1,0,0:0:0:0:
256,192,188651,1,0,0:0:0:0:
256,192,188781,1,8,0:0:0:0:
256,192,189041,1,0,0:0:0:0:
256,192,189300,1,8,0:0:0:0:
256,192,189560,1,0,0:0:0:0:
256,192,189820,1,8,0:0:0:0:
256,192,190080,1,0,0:0:0:0:
256,192,190339,1,12,0:0:0:0:
256,192,190632,1,12,0:0:0:0:
256,192,190924,1,12,0:0:0:0:
256,192,191119,1,12,0:0:0:0:
256,192,191313,1,0,0:0:0:0:
256,192,191378,1,0,0:0:0:0:
256,192,191443,1,0,0:0:0:0:
256,192,191508,1,8,0:0:0:0:
256,192,191898,1,4,0:0:0:0:
256,192,192093,1,8,0:0:0:0:
256,192,192190,1,8,0:0:0:0:
256,192,192287,1,0,0:0:0:0:
256,192,192385,1,0,0:0:0:0:
256,192,192482,1,8,0:0:0:0:
256,192,192677,1,0,0:0:0:0:
256,192,192774,1,0,0:0:0:0:
256,192,192872,1,8,0:0:0:0:
256,192,192969,1,0,0:0:0:0:
256,192,193067,1,8,0:0:0:0:
256,192,193261,1,0,0:0:0:0:
256,192,193456,1,8,0:0:0:0:
256,192,193846,1,0,0:0:0:0:
256,192,194041,1,8,0:0:0:0:
256,192,194235,1,0,0:0:0:0:
256,192,194333,1,0,0:0:0:0:
256,192,194430,1,8,0:0:0:0:
256,192,194528,1,8,0:0:0:0:
256,192,194625,1,0,0:0:0:0:
256,192,194820,1,8,0:0:0:0:
256,192,195015,1,0,0:0:0:0:
256,192,195210,1,8,0:0:0:0:
256,192,195307,1,0,0:0:0:0:
256,192,195502,1,8,0:0:0:0:
256,192,195599,1,0,0:0:0:0:
256,192,195794,1,8,0:0:0:0:
256,192,195989,1,0,0:0:0:0:
256,192,196086,1,8,0:0:0:0:
256,192,196281,1,0,0:0:0:0:
256,192,196378,1,8,0:0:0:0:
256,192,196573,1,0,0:0:0:0:
256,192,196865,1,8,0:0:0:0:
256,192,196963,1,0,0:0:0:0:
256,192,197158,1,8,0:0:0:0:
256,192,197255,1,8,0:0:0:0:
256,192,197352,1,0,0:0:0:0:
256,192,197450,1,0,0:0:0:0:
256,192,197547,1,0,0:0:0:0:
256,192,197742,1,8,0:0:0:0:
256,192,198132,1,0,0:0:0:0:
256,192,198326,1,8,0:0:0:0:
256,192,198424,1,8,0:0:0:0:
256,192,198521,1,0,0:0:0:0:
256,192,198619,1,0,0:0:0:0:
256,192,198716,1,8,0:0:0:0:
256,192,198911,1,0,0:0:0:0:
256,192,199008,1,0,0:0:0:0:
256,192,199106,1,8,0:0:0:0:
256,192,199203,1,0,0:0:0:0:
256,192,199300,1,8,0:0:0:0:
256,192,199495,1,0,0:0:0:0:
256,192,199690,1,8,0:0:0:0:
256,192,200080,1,0,0:0:0:0:
256,192,200274,1,8,0:0:0:0:
256,192,200469,1,0,0:0:0:0:
256,192,200567,1,0,0:0:0:0:
256,192,200664,1,8,0:0:0:0:
256,192,200761,1,8,0:0:0:0:
256,192,200859,1,0,0:0:0:0:
256,192,201054,1,8,0:0:0:0:
256,192,201248,1,0,0:0:0:0:
256,192,201443,1,8,0:0:0:0:
256,192,201541,1,0,0:0:0:0:
256,192,201735,1,8,0:0:0:0:
256,192,201833,1,0,0:0:0:0:
256,192,202028,1,8,0:0:0:0:
256,192,202222,1,0,0:0:0:0:
256,192,202320,1,8,0:0:0:0:
256,192,202515,1,0,0:0:0:0:
256,192,202612,1,8,0:0:0:0:
256,192,202807,1,0,0:0:0:0:
256,192,203099,1,8,0:0:0:0:
256,192,203197,1,0,0:0:0:0:
256,192,203391,1,8,0:0:0:0:
256,192,203489,1,8,0:0:0:0:
256,192,203586,1,0,0:0:0:0:
256,192,203684,1,0,0:0:0:0:
256,192,203781,1,0,0:0:0:0:
256,192,203976,1,8,0:0:0:0:
256,192,204365,1,0,0:0:0:0:
256,192,204463,1,0,0:0:0:0:
256,192,204560,1,0,0:0:0:0:
256,192,204658,1,0,0:0:0:0:
256,192,204755,1,8,0:0:0:0:
256,192,204950,1,0,0:0:0:0:
256,192,205145,1,8,0:0:0:0:
256,192,205242,1,0,0:0:0:0:
256,192,205339,1,8,0:0:0:0:
256,192,205534,1,0,0:0:0:0:
256,192,205729,1,8,0:0:0:0:
256,192,205924,1,0,0:0:0:0:
256,192,206021,1,0,0:0:0:0:
256,192,206119,1,8,0:0:0:0:
256,192,206313,1,8,0:0:0:0:
256,192,206411,1,0,0:0:0:0:
256,192,206508,1,8,0:0:0:0:
256,192,206703,1,8,0:0:0:0:
256,192,206800,1,8,0:0:0:0:
256,192,206898,1,0,0:0:0:0:
256,192,206995,1,0,0:0:0:0:
256,192,207093,1,8,0:0:0:0:
256,192,207287,1,8,0:0:0:0:
256,192,207482,1,0,0:0:0:0:
256,192,207872,1,8,0:0:0:0:
256,192,208067,1,0,0:0:0:0:
256,192,208164,1,0,0:0:0:0:
256,192,208261,1,8,0:0:0:0:
256,192,208456,1,0,0:0:0:0:
256,192,208651,1,8,0:0:0:0:
256,192,208748,1,8,0:0:0:0:
256,192,208846,1,8,0:0:0:0:
256,192,209041,1,0,0:0:0:0:
256,192,209235,1,8,0:0:0:0:
256,192,209333,1,8,0:0:0:0:
256,192,209430,1,0,0:0:0:0:
256,192,209528,1,0,0:0:0:0:
256,192,209625,1,8,0:0:0:0:
256,192,209820,1,0,0:0:0:0:
256,192,210210,1,0,0:0:0:0:
256,192,210404,1,8,0:0:0:0:
256,192,210599,1,0,0:0:0:0:
256,192,210697,1,0,0:0:0:0:
256,192,210794,1,0,0:0:0:0:
256,192,210891,1,0,0:0:0:0:
256,192,210989,1,8,0:0:0:0:
256,192,211184,1,0,0:0:0:0:
256,192,211378,1,8,0:0:0:0:
256,192,211476,1,0,0:0:0:0:
256,192,211573,1,8,0:0:0:0:
256,192,211768,1,0,0:0:0:0:
256,192,211963,1,8,0:0:0:0:
256,192,212158,1,0,0:0:0:0:
256,192,212255,1,0,0:0:0:0:
256,192,212352,1,8,0:0:0:0:
256,192,212547,1,8,0:0:0:0:
256,192,212645,1,0,0:0:0:0:
256,192,212742,1,8,0:0:0:0:
256,192,212937,1,8,0:0:0:0:
256,192,213034,1,8,0:0:0:0:
256,192,213132,1,0,0:0:0:0:
256,192,213229,1,0,0:0:0:0:
256,192,213326,1,8,0:0:0:0:
256,192,213521,1,8,0:0:0:0:
256,192,213716,1,0,0:0:0:0:
256,192,214106,1,8,0:0:0:0:
256,192,214203,1,8,0:0:0:0:
256,192,214300,1,0,0:0:0:0:
256,192,214398,1,0,0:0:0:0:
256,192,214495,1,8,0:0:0:0:
256,192,214690,1,0,0:0:0:0:
256,192,214885,1,8,0:0:0:0:
256,192,214982,1,0,0:0:0:0:
256,192,215080,1,8,0:0:0:0:
256,192,215274,1,12,0:0:0:0:
256,192,215567,1,12,0:0:0:0:
256,192,215859,1,12,0:0:0:0:
256,192,216054,1,4,0:0:0:0:
256,192,216443,1,8,0:0:0:0:
256,192,216833,1,0,0:0:0:0:
256,192,216963,1,0,0:0:0:0:
256,192,217093,1,0,0:0:0:0:
256,192,217222,1,0,0:0:0:0:
256,192,217352,1,0,0:0:0:0:
256,192,217482,1,0,0:0:0:0:
256,192,217612,1,8,0:0:0:0:
256,192,217807,1,0,0:0:0:0:
256,192,217872,1,0,0:0:0:0:
256,192,217937,1,0,0:0:0:0:
256,192,218002,1,8,0:0:0:0:
256,192,218391,1,4,0:0:0:0:
256,192,219950,1,4,0:0:0:0:
256,192,221508,1,12,0:0:0:0:
256,192,223067,1,12,0:0:0:0:
256,192,223651,1,8,0:0:0:0:
256,192,223748,1,8,0:0:0:0:
256,192,223846,1,0,0:0:0:0:
256,192,223976,1,0,0:0:0:0:
256,192,224106,1,0,0:0:0:0:
256,192,224235,1,8,0:0:0:0:
256,192,224365,1,8,0:0:0:0:
256,192,224495,1,8,0:0:0:0:
256,192,224625,1,4,0:0:0:0:
256,192,224820,1,8,0:0:0:0:
256,192,225015,1,0,0:0:0:0:
256,192,225112,1,0,0:0:0:0:
256,192,225210,1,8,0:0:0:0:
256,192,225404,1,0,0:0:0:0:
256,192,225599,1,8,0:0:0:0:
256,192,225697,1,8,0:0:0:0:
256,192,225794,1,0,0:0:0:0:
256,192,225891,1,0,0:0:0:0:
256,192,225989,1,8,0:0:0:0:
256,192,226184,1,0,0:0:0:0:
256,192,226378,1,8,0:0:0:0:
256,192,226573,1,0,0:0:0:0:
256,192,226671,1,0,0:0:0:0:
256,192,226768,1,8,0:0:0:0:
256,192,226963,1,0,0:0:0:0:
256,192,227158,1,8,0:0:0:0:
256,192,227255,1,0,0:0:0:0:
256,192,227450,1,0,0:0:0:0:
256,192,227547,1,0,0:0:0:0:
256,192,227742,1,8,0:0:0:0:
256,192,227937,1,0,0:0:0:0:
256,192,228034,1,8,0:0:0:0:
256,192,228132,1,0,0:0:0:0:
256,192,228229,1,0,0:0:0:0:
256,192,228326,1,8,0:0:0:0:
256,192,228521,1,8,0:0:0:0:
256,192,228619,1,0,0:0:0:0:
256,192,228716,1,8,0:0:0:0:
256,192,228813,1,8,0:0:0:0:
256,192,228911,1,0,0:0:0:0:
256,192,229106,1,0,0:0:0:0:
256,192,229300,1,8,0:0:0:0:
256,192,229495,1,0,0:0:0:0:
256,192,229593,1,8,0:0:0:0:
256,192,229690,1,0,0:0:0:0:
256,192,229885,1,8,0:0:0:0:
256,192,229982,1,8,0:0:0:0:
256,192,230080,1,0,0:0:0:0:
256,192,230177,1,0,0:0:0:0:
256,192,230274,1,0,0:0:0:0:
256,192,230372,1,0,0:0:0:0:
256,192,230469,1,8,0:0:0:0:
256,192,230859,1,4,0:0:0:0:
256,192,231054,1,8,0:0:0:0:
256,192,231248,1,0,0:0:0:0:
256,192,231346,1,0,0:0:0:0:
256,192,231443,1,8,0:0:0:0:
256,192,231638,1,0,0:0:0:0:
256,192,231833,1,8,0:0:0:0:
256,192,231930,1,0,0:0:0:0:
256,192,232125,1,0,0:0:0:0:
256,192,232222,1,8,0:0:0:0:
256,192,232320,1,8,0:0:0:0:
256,192,232417,1,0,0:0:0:0:
256,192,232612,1,8,0:0:0:0:
256,192,232807,1,0,0:0:0:0:
256,192,232904,1,0,0:0:0:0:
256,192,233002,1,8,0:0:0:0:
256,192,233197,1,8,0:0:0:0:
256,192,233294,1,0,0:0:0:0:
256,192,233391,1,8,0:0:0:0:
256,192,233489,1,8,0:0:0:0:
256,192,233586,1,0,0:0:0:0:
256,192,233781,1,8,0:0:0:0:
256,192,233976,1,0,0:0:0:0:
256,192,234365,1,0,0:0:0:0:
256,192,234560,1,8,0:0:0:0:
256,192,234755,1,0,0:0:0:0:
256,192,234950,1,8,0:0:0:0:
256,192,235047,1,0,0:0:0:0:
256,192,235242,1,0,0:0:0:0:
256,192,235339,1,8,0:0:0:0:
256,192,235437,1,8,0:0:0:0:
256,192,235534,1,0,0:0:0:0:
256,192,235729,1,8,0:0:0:0:
256,192,235924,1,0,0:0:0:0:
256,192,236119,1,8,0:0:0:0:
256,192,236216,1,8,0:0:0:0:
256,192,236313,1,0,0:0:0:0:
256,192,236508,1,0,0:0:0:0:
256,192,236606,1,0,0:0:0:0:
256,192,236703,1,8,0:0:0:0:
256,192,236800,1,8,0:0:0:0:
256,192,236898,1,8,0:0:0:0:
256,192,237093,1,4,0:0:0:0:
256,192,237287,1,8,0:0:0:0:
256,192,237482,1,0,0:0:0:0:
256,192,237580,1,0,0:0:0:0:
256,192,237677,1,8,0:0:0:0:
256,192,237872,1,8,0:0:0:0:
256,192,238067,1,0,0:0:0:0:
256,192,238261,1,8,0:0:0:0:
256,192,238651,1,4,0:0:0:0:
256,192,238846,1,8,0:0:0:0:
256,192,238943,1,8,0:0:0:0:
256,192,239041,1,0,0:0:0:0:
256,192,239138,1,0,0:0:0:0:
256,192,239235,1,8,0:0:0:0:
256,192,239430,1,0,0:0:0:0:
256,192,239625,1,8,0:0:0:0:
256,192,239722,1,0,0:0:0:0:
256,192,239917,1,8,0:0:0:0:
256,192,240015,1,0,0:0:0:0:
256,192,240210,1,12,0:0:0:0:
256,192,240502,1,12,0:0:0:0:
256,192,240794,1,12,0:0:0:0:
256,192,240989,1,4,0:0:0:0:
256,192,241184,1,8,0:0:0:0:
256,192,241281,1,0,0:0:0:0:
256,192,241378,1,0,0:0:0:0:
256,192,241476,1,0,0:0:0:0:
256,192,241573,1,8,0:0:0:0:
256,192,241768,1,12,0:0:0:0:
256,192,242060,1,4,0:0:0:0:
256,192,242352,1,4,0:0:0:0:
256,192,242547,1,8,0:0:0:0:
256,192,242742,1,0,0:0:0:0:
256,192,242807,1,0,0:0:0:0:
256,192,242872,1,0,0:0:0:0:
256,192,242937,1,8,0:0:0:0:
256,192,243326,1,0,0:0:0:0:
256,192,243716,1,0,0:0:0:0:
256,192,243911,1,0,0:0:0:0:
256,192,244106,1,8,0:0:0:0:
256,192,244203,1,8,0:0:0:0:
256,192,244300,1,0,0:0:0:0:
256,192,244398,1,0,0:0:0:0:
256,192,244495,1,8,0:0:0:0:
256,192,244885,1,4,0:0:0:0:
256,192,245080,1,8,0:0:0:0:
256,192,245274,1,0,0:0:0:0:
256,192,245372,1,0,0:0:0:0:
256,192,245469,1,8,0:0:0:0:
256,192,245664,1,0,0:0:0:0:
256,192,245859,1,0,0:0:0:0:
256,192,245956,1,8,0:0:0:0:
256,192,246151,1,8,0:0:0:0:
256,192,246248,1,8,0:0:0:0:
256,192,246443,1,0,0:0:0:0:
256,192,246638,1,8,0:0:0:0:
256,192,246833,1,0,0:0:0:0:
256,192,246930,1,0,0:0:0:0:
256,192,247028,1,8,0:0:0:0:
256,192,247222,1,8,0:0:0:0:
256,192,247612,1,0,0:0:0:0:
256,192,247710,1,0,0:0:0:0:
256,192,247807,1,0,0:0:0:0:
256,192,247904,1,0,0:0:0:0:
256,192,248002,1,8,0:0:0:0:
256,192,248197,1,8,0:0:0:0:
256,192,248391,1,8,0:0:0:0:
256,192,248489,1,0,0:0:0:0:
256,192,248586,1,8,0:0:0:0:
256,192,248781,1,0,0:0:0:0:
256,192,248976,1,8,0:0:0:0:
256,192,249073,1,8,0:0:0:0:
256,192,249268,1,8,0:0:0:0:
256,192,249365,1,0,0:0:0:0:
256,192,249560,1,8,0:0:0:0:
256,192,249755,1,0,0:0:0:0:
256,192,249852,1,8,0:0:0:0:
256,192,250145,1,8,0:0:0:0:
256,192,250339,1,0,0:0:0:0:
256,192,250534,1,0,0:0:0:0:
256,192,250632,1,0,0:0:0:0:
256,192,250729,1,8,0:0:0:0:
256,192,250924,1,0,0:0:0:0:
256,192,251119,1,8,0:0:0:0:
256,192,251216,1,8,0:0:0:0:
256,192,251313,1,0,0:0:0:0:
256,192,251411,1,0,0:0:0:0:
256,192,251508,1,8,0:0:0:0:
256,192,251703,1,0,0:0:0:0:
256,192,251898,1,8,0:0:0:0:
256,192,252093,1,0,0:0:0:0:
256,192,252190,1,0,0:0:0:0:
256,192,252385,1,0,0:0:0:0:
256,192,252482,1,8,0:0:0:0:
256,192,252677,1,0,0:0:0:0:
256,192,252872,1,8,0:0:0:0:
256,192,252969,1,0,0:0:0:0:
256,192,253164,1,0,0:0:0:0:
256,192,253261,1,0,0:0:0:0:
256,192,253456,1,8,0:0:0:0:
256,192,253846,1,0,0:0:0:0:
256,192,254041,1,8,0:0:0:0:
256,192,254138,1,8,0:0:0:0:
256,192,254235,1,0,0:0:0:0:
256,192,254430,1,0,0:0:0:0:
256,192,254528,1,8,0:0:0:0:
256,192,254722,1,0,0:0:0:0:
256,192,254820,1,8,0:0:0:0:
256,192,255015,1,0,0:0:0:0:
256,192,255210,1,8,0:0:0:0:
256,192,255307,1,0,0:0:0:0:
256,192,255502,1,8,0:0:0:0:
256,192,255599,1,0,0:0:0:0:
256,192,255794,1,8,0:0:0:0:
256,192,256184,1,0,0:0:0:0:
256,192,256378,1,8,0:0:0:0:
256,192,256573,1,0,0:0:0:0:
256,192,256671,1,0,0:0:0:0:
256,192,256768,1,8,0:0:0:0:
256,192,256865,1,8,0:0:0:0:
256,192,256963,1,0,0:0:0:0:
256,192,257158,1,0,0:0:0:0:
256,192,257352,1,12,0:0:0:0:
256,192,257645,1,12,0:0:0:0:
256,192,257937,1,12,0:0:0:0:
256,192,258132,1,4,0:0:0:0:
256,192,258424,1,4,0:0:0:0:
256,192,258716,1,12,0:0:0:0:
256,192,258911,1,0,0:0:0:0:
256,192,259008,1,0,0:0:0:0:
256,192,259106,1,0,0:0:0:0:
256,192,259300,1,12,0:0:0:0:
256,192,259495,8,12,260274,0:0:0:0:
256,192,260469,5,12,0:0:0:0:
