osu file format v14

[General]
AudioFilename: audio.mp3
AudioLeadIn: 0
PreviewTime: 71313
Countdown: 0
SampleSet: Normal
StackLeniency: 0.7
Mode: 1
LetterboxInBreaks: 0
WidescreenStoryboard: 0

[Editor]
Bookmarks: 204365
DistanceSpacing: 1.5
BeatDivisor: 4
GridSize: 32
TimelineZoom: 2

[Metadata]
Title:Kaguyahime
TitleUnicode:輝夜姫
Artist:Hatsuki Yura
ArtistUnicode:葉月ゆら
Creator:Volta
Version:Inner Oni
Source:
Tags:gothic rock symphonic metal japanese jrock j-rock 清風明月 comiket drop eclipse parade C86 comic market 86 Reed_405 [R] Ron Roger ][ -GH- ][
BeatmapID:2449015
BeatmapSetID:1174208

[Difficulty]
HPDrainRate:5.5
CircleSize:5
OverallDifficulty:6
ApproachRate:5
SliderMultiplier:1.4
SliderTickRate:1

[Events]
//Background and Video events
0,0,"kaguyahimesamawakokurasetai.jpg",0,95
//Break Periods
//Storyboard Layer 0 (Background)
//Storyboard Layer 1 (Fail)
//Storyboard Layer 2 (Pass)
//Storyboard Layer 3 (Foreground)
//Storyboard Layer 4 (Overlay)
//Storyboard Sound Samples

[TimingPoints]
210,389.61038961039,4,1,0,70,1,0
12677,-100,4,1,0,60,0,0
15404,-100,4,1,0,70,0,0
15794,-100,4,1,0,80,0,0
29820,-100,4,1,0,75,0,0
54755,-100,4,1,0,75,0,0
71898,-100,4,1,0,85,0,1
96833,-100,4,1,0,75,0,0
110859,-100,4,1,0,75,0,0
135794,-100,4,1,0,75,0,0
152937,-100,4,1,0,85,0,1
177872,-100,4,1,0,75,0,0
191898,-100,4,1,0,85,0,0
218391,-100,4,1,0,75,0,0
224625,-100,4,1,0,85,0,1
244885,-100,4,1,0,80,0,0

[HitObjects]
368,102,210,5,4,0:0:0:0:
194,40,794,5,8,0:0:0:0:
194,40,989,5,4,0:0:0:0:
89,132,1573,5,8,0:0:0:0:
89,132,1768,5,4,0:0:0:0:
260,123,1963,5,8,0:0:0:0:
260,123,2158,5,4,0:0:0:0:
234,80,2352,5,8,0:0:0:0:
234,80,2547,5,4,0:0:0:0:
278,89,2937,5,8,0:0:0:0:
278,89,3034,5,8,0:0:0:0:
278,89,3132,5,8,0:0:0:0:
278,89,3326,5,4,0:0:0:0:
234,86,3716,5,12,0:0:0:0:
234,86,4106,5,4,0:0:0:0:
234,86,4495,5,12,0:0:0:0:
234,86,4885,5,4,0:0:0:0:
234,86,5274,5,4,0:0:0:0:
234,86,5664,5,12,0:0:0:0:
280,129,6054,5,0,0:0:0:0:
280,129,6151,5,0,0:0:0:0:
280,129,6248,5,8,0:0:0:0:
280,129,6443,5,4,0:0:0:0:
334,88,7028,5,8,0:0:0:0:
307,88,7222,5,4,0:0:0:0:
334,88,7807,5,8,0:0:0:0:
307,88,8002,5,4,0:0:0:0:
334,88,8197,5,8,0:0:0:0:
307,88,8391,5,4,0:0:0:0:
334,88,8586,5,8,0:0:0:0:
307,88,8781,5,4,0:0:0:0:
334,88,9171,5,8,0:0:0:0:
325,86,9268,5,8,0:0:0:0:
325,86,9365,5,8,0:0:0:0:
307,88,9560,5,4,0:0:0:0:
308,86,9950,5,12,0:0:0:0:
308,86,10339,5,4,0:0:0:0:
308,86,10729,5,12,0:0:0:0:
394,184,11021,5,0,0:0:0:0:
394,184,11119,5,8,0:0:0:0:
394,184,11313,5,0,0:0:0:0:
177,108,11508,5,8,0:0:0:0:
177,108,11606,5,8,0:0:0:0:
177,108,11703,5,0,0:0:0:0:
177,108,11800,5,0,0:0:0:0:
177,108,11898,5,8,0:0:0:0:
312,134,12287,5,8,0:0:0:0:
312,134,12385,5,8,0:0:0:0:
312,134,12482,5,0,0:0:0:0:
312,134,12580,5,0,0:0:0:0:
312,134,12677,5,0,0:0:0:0:
186,74,13067,5,8,0:0:0:0:
186,74,13846,5,8,0:0:0:0:
400,156,14235,5,0,0:0:0:0:
235,98,14333,5,0,0:0:0:0:
100,144,14430,5,0,0:0:0:0:
120,138,14528,5,0,0:0:0:0:
236,83,14625,5,8,0:0:0:0:
236,83,14722,5,8,0:0:0:0:
261,100,14820,5,0,0:0:0:0:
112,136,14917,5,8,0:0:0:0:
49,145,15015,5,0,0:0:0:0:
261,100,15112,5,0,0:0:0:0:
261,100,15210,5,0,0:0:0:0:
261,100,15307,5,0,0:0:0:0:
400,156,15404,5,8,0:0:0:0:
306,86,15794,5,4,0:0:0:0:
81,113,15989,5,8,0:0:0:0:
226,96,16184,5,0,0:0:0:0:
226,96,16281,5,0,0:0:0:0:
226,96,16378,5,8,0:0:0:0:
261,107,16476,5,8,0:0:0:0:
197,71,16573,5,0,0:0:0:0:
197,71,16768,5,8,0:0:0:0:
225,71,16865,5,0,0:0:0:0:
225,71,17060,5,0,0:0:0:0:
225,71,17158,5,8,0:0:0:0:
225,71,17352,5,0,0:0:0:0:
290,89,17547,5,8,0:0:0:0:
290,89,17645,5,8,0:0:0:0:
57,153,17742,5,0,0:0:0:0:
290,89,17839,5,0,0:0:0:0:
126,159,17937,5,8,0:0:0:0:
126,159,18132,5,0,0:0:0:0:
105,169,18229,5,0,0:0:0:0:
198,160,18326,5,8,0:0:0:0:
198,160,18424,5,0,0:0:0:0:
252,104,18521,5,8,0:0:0:0:
252,104,18619,5,8,0:0:0:0:
252,104,18716,5,8,0:0:0:0:
252,104,18813,5,8,0:0:0:0:
252,104,18911,5,0,0:0:0:0:
286,106,19106,5,8,0:0:0:0:
239,33,19203,5,0,0:0:0:0:
286,106,19300,5,8,0:0:0:0:
286,106,19398,5,0,0:0:0:0:
286,106,19495,5,8,0:0:0:0:
325,114,19593,5,8,0:0:0:0:
325,114,19690,5,0,0:0:0:0:
182,146,19885,5,8,0:0:0:0:
182,146,19982,5,8,0:0:0:0:
85,137,20177,5,0,0:0:0:0:
85,137,20274,5,8,0:0:0:0:
323,138,20372,5,8,0:0:0:0:
319,147,20469,5,0,0:0:0:0:
127,142,20664,5,8,0:0:0:0:
217,65,20761,5,0,0:0:0:0:
92,151,20956,5,0,0:0:0:0:
105,144,21054,5,8,0:0:0:0:
310,89,21151,5,8,0:0:0:0:
106,144,21248,5,0,0:0:0:0:
399,178,21346,5,0,0:0:0:0:
206,88,21443,5,8,0:0:0:0:
206,88,21541,5,8,0:0:0:0:
142,122,21638,5,0,0:0:0:0:
142,122,21735,5,0,0:0:0:0:
142,122,21833,5,0,0:0:0:0:
87,127,21930,5,0,0:0:0:0:
153,154,22028,5,8,0:0:0:0:
286,119,22222,5,8,0:0:0:0:
286,119,22320,5,8,0:0:0:0:
226,106,22417,5,8,0:0:0:0:
257,36,22515,5,0,0:0:0:0:
257,36,22612,5,8,0:0:0:0:
257,36,22807,5,0,0:0:0:0:
266,49,23002,5,8,0:0:0:0:
283,50,23099,5,0,0:0:0:0:
284,49,23294,5,0,0:0:0:0:
284,49,23391,5,8,0:0:0:0:
143,120,23489,5,0,0:0:0:0:
285,38,23586,5,0,0:0:0:0:
285,38,23781,5,8,0:0:0:0:
94,145,23878,5,8,0:0:0:0:
366,159,23976,5,0,0:0:0:0:
213,69,24073,5,0,0:0:0:0:
213,69,24171,5,8,0:0:0:0:
62,147,24268,5,0,0:0:0:0:
259,70,24365,5,8,0:0:0:0:
259,70,24560,5,8,0:0:0:0:
259,70,24658,5,0,0:0:0:0:
230,93,24755,5,8,0:0:0:0:
363,82,24852,5,8,0:0:0:0:
363,82,24950,5,8,0:0:0:0:
363,82,25047,5,8,0:0:0:0:
363,82,25145,5,0,0:0:0:0:
340,83,25339,5,0,0:0:0:0:
340,83,25437,5,8,0:0:0:0:
150,127,25534,5,0,0:0:0:0:
150,127,25632,5,0,0:0:0:0:
150,127,25729,5,8,0:0:0:0:
212,75,25924,5,8,0:0:0:0:
212,75,26021,5,0,0:0:0:0:
212,75,26119,5,8,0:0:0:0:
232,61,26216,5,8,0:0:0:0:
179,50,26313,5,0,0:0:0:0:
242,49,26411,5,0,0:0:0:0:
259,38,26508,5,8,0:0:0:0:
265,104,26703,5,0,0:0:0:0:
128,146,26898,5,8,0:0:0:0:
128,146,27093,5,0,0:0:0:0:
128,146,27190,5,0,0:0:0:0:
128,146,27287,5,8,0:0:0:0:
350,145,27482,5,0,0:0:0:0:
350,145,27580,5,0,0:0:0:0:
350,145,27677,5,8,0:0:0:0:
106,148,27774,5,0,0:0:0:0:
106,148,27872,5,8,0:0:0:0:
106,148,27969,5,8,0:0:0:0:
123,157,28067,5,0,0:0:0:0:
226,86,28261,5,0,0:0:0:0:
222,46,28359,5,8,0:0:0:0:
222,46,28456,5,8,0:0:0:0:
222,46,28554,5,0,0:0:0:0:
222,46,28651,5,8,0:0:0:0:
222,46,28748,5,8,0:0:0:0:
222,46,28846,5,0,0:0:0:0:
222,46,28943,5,8,0:0:0:0:
108,117,29041,5,8,0:0:0:0:
222,46,29138,5,0,0:0:0:0:
222,46,29235,5,0,0:0:0:0:
283,47,29333,5,8,0:0:0:0:
195,105,29430,5,0,0:0:0:0:
195,105,29528,5,0,0:0:0:0:
195,105,29625,5,8,0:0:0:0:
283,54,29820,5,4,0:0:0:0:
339,206,30015,5,8,0:0:0:0:
339,206,30210,5,0,0:0:0:0:
291,35,30307,5,0,0:0:0:0:
339,206,30404,5,8,0:0:0:0:
292,40,30599,5,0,0:0:0:0:
292,40,30697,5,0,0:0:0:0:
292,40,30794,5,8,0:0:0:0:
292,40,30891,5,0,0:0:0:0:
117,149,31086,5,0,0:0:0:0:
292,40,31184,5,8,0:0:0:0:
194,91,31378,5,0,0:0:0:0:
194,91,31573,5,8,0:0:0:0:
254,63,31768,5,8,0:0:0:0:
254,63,31865,5,0,0:0:0:0:
254,63,31963,5,8,0:0:0:0:
254,63,32158,5,0,0:0:0:0:
243,37,32255,5,0,0:0:0:0:
254,63,32352,5,8,0:0:0:0:
243,37,32450,5,0,0:0:0:0:
117,149,32645,5,0,0:0:0:0:
233,29,32742,5,8,0:0:0:0:
206,123,32937,5,0,0:0:0:0:
308,85,33132,5,8,0:0:0:0:
308,85,33229,5,0,0:0:0:0:
311,102,33424,5,0,0:0:0:0:
311,102,33521,5,8,0:0:0:0:
329,106,33716,5,0,0:0:0:0:
234,86,33813,5,0,0:0:0:0:
217,122,33911,5,8,0:0:0:0:
217,122,34008,5,0,0:0:0:0:
223,102,34203,5,0,0:0:0:0:
223,102,34300,5,8,0:0:0:0:
223,102,34495,5,0,0:0:0:0:
299,88,34690,5,8,0:0:0:0:
357,84,34787,5,0,0:0:0:0:
357,84,34982,5,0,0:0:0:0:
357,84,35080,5,8,0:0:0:0:
208,100,35177,5,8,0:0:0:0:
208,100,35274,5,0,0:0:0:0:
242,30,35469,5,8,0:0:0:0:
319,149,35567,5,0,0:0:0:0:
308,56,35664,5,8,0:0:0:0:
242,30,35761,5,0,0:0:0:0:
308,56,35859,5,8,0:0:0:0:
308,56,35956,5,8,0:0:0:0:
308,56,36054,5,0,0:0:0:0:
277,118,36248,5,8,0:0:0:0:
334,219,36443,5,0,0:0:0:0:
334,219,36541,5,0,0:0:0:0:
334,219,36638,5,8,0:0:0:0:
334,219,36833,5,0,0:0:0:0:
334,219,37028,5,8,0:0:0:0:
175,149,37125,5,0,0:0:0:0:
142,172,37320,5,0,0:0:0:0:
334,219,37417,5,8,0:0:0:0:
181,148,37612,5,8,0:0:0:0:
153,172,37710,5,0,0:0:0:0:
217,108,37807,5,8,0:0:0:0:
181,148,38002,5,0,0:0:0:0:
153,172,38197,5,8,0:0:0:0:
230,122,38294,5,8,0:0:0:0:
324,130,38489,5,0,0:0:0:0:
326,144,38586,5,8,0:0:0:0:
326,144,38781,5,0,0:0:0:0:
326,144,38878,5,0,0:0:0:0:
326,144,38976,5,8,0:0:0:0:
326,144,39073,5,8,0:0:0:0:
326,144,39171,5,0,0:0:0:0:
326,144,39365,5,8,0:0:0:0:
326,144,39560,5,0,0:0:0:0:
326,144,39658,5,0,0:0:0:0:
326,144,39755,5,8,0:0:0:0:
326,144,39950,5,0,0:0:0:0:
326,144,40047,5,0,0:0:0:0:
326,144,40145,5,8,0:0:0:0:
326,144,40242,5,0,0:0:0:0:
256,110,40437,5,0,0:0:0:0:
326,144,40534,5,8,0:0:0:0:
239,69,40729,5,0,0:0:0:0:
110,146,40826,5,8,0:0:0:0:
196,128,40924,5,8,0:0:0:0:
202,65,41021,5,0,0:0:0:0:
226,71,41119,5,8,0:0:0:0:
226,71,41216,5,8,0:0:0:0:
239,69,41313,5,0,0:0:0:0:
254,44,41411,5,8,0:0:0:0:
234,108,41508,5,8,0:0:0:0:
241,62,41606,5,0,0:0:0:0:
241,62,41703,5,0,0:0:0:0:
234,108,41800,5,8,0:0:0:0:
241,62,41898,5,0,0:0:0:0:
241,62,41995,5,0,0:0:0:0:
234,108,42093,5,8,0:0:0:0:
283,54,42287,5,4,0:0:0:0:
339,206,42482,5,8,0:0:0:0:
339,206,42677,5,0,0:0:0:0:
291,35,42774,5,0,0:0:0:0:
339,206,42872,5,8,0:0:0:0:
292,40,43067,5,0,0:0:0:0:
292,40,43164,5,0,0:0:0:0:
292,40,43261,5,8,0:0:0:0:
292,40,43359,5,0,0:0:0:0:
117,149,43554,5,0,0:0:0:0:
292,40,43651,5,8,0:0:0:0:
194,91,43846,5,0,0:0:0:0:
194,91,44041,5,8,0:0:0:0:
254,63,44235,5,8,0:0:0:0:
254,63,44333,5,0,0:0:0:0:
254,63,44430,5,8,0:0:0:0:
254,63,44625,5,0,0:0:0:0:
243,37,44722,5,0,0:0:0:0:
254,63,44820,5,8,0:0:0:0:
243,37,44917,5,0,0:0:0:0:
117,149,45112,5,0,0:0:0:0:
233,29,45210,5,8,0:0:0:0:
206,123,45404,5,0,0:0:0:0:
308,85,45599,5,8,0:0:0:0:
308,85,45697,5,0,0:0:0:0:
311,102,45891,5,0,0:0:0:0:
311,102,45989,5,8,0:0:0:0:
329,106,46184,5,8,0:0:0:0:
234,86,46281,5,0,0:0:0:0:
217,122,46378,5,8,0:0:0:0:
217,122,46476,5,8,0:0:0:0:
223,102,46671,5,0,0:0:0:0:
223,102,46768,5,8,0:0:0:0:
223,102,46963,5,0,0:0:0:0:
299,88,47158,5,8,0:0:0:0:
357,84,47255,5,0,0:0:0:0:
208,137,47450,5,0,0:0:0:0:
208,137,47547,5,8,0:0:0:0:
154,145,47742,5,8,0:0:0:0:
141,159,47839,5,8,0:0:0:0:
236,79,47937,5,0,0:0:0:0:
236,79,48034,5,0,0:0:0:0:
236,79,48132,5,8,0:0:0:0:
236,79,48229,5,0,0:0:0:0:
235,280,48326,5,8,0:0:0:0:
235,280,48424,5,8,0:0:0:0:
201,88,48521,5,0,0:0:0:0:
277,118,48716,5,8,0:0:0:0:
334,219,48911,5,0,0:0:0:0:
334,219,49008,5,0,0:0:0:0:
334,219,49106,5,8,0:0:0:0:
334,219,49300,5,0,0:0:0:0:
334,219,49495,5,8,0:0:0:0:
175,149,49593,5,8,0:0:0:0:
142,172,49787,5,0,0:0:0:0:
334,219,49885,5,8,0:0:0:0:
174,135,50080,5,0,0:0:0:0:
178,80,50177,5,0,0:0:0:0:
217,108,50274,5,8,0:0:0:0:
181,148,50469,5,0,0:0:0:0:
247,75,50664,5,8,0:0:0:0:
181,148,50761,5,8,0:0:0:0:
101,149,50956,5,0,0:0:0:0:
326,144,51054,5,8,0:0:0:0:
230,86,51151,5,0,0:0:0:0:
326,144,51248,5,8,0:0:0:0:
326,144,51346,5,8,0:0:0:0:
326,144,51443,5,8,0:0:0:0:
326,144,51541,5,8,0:0:0:0:
326,144,51638,5,0,0:0:0:0:
326,144,51833,5,8,0:0:0:0:
228,122,52028,5,0,0:0:0:0:
326,144,52125,5,0,0:0:0:0:
326,144,52222,5,8,0:0:0:0:
326,144,52417,5,0,0:0:0:0:
326,144,52515,5,0,0:0:0:0:
326,144,52612,5,8,0:0:0:0:
326,144,52710,5,0,0:0:0:0:
197,124,52807,5,8,0:0:0:0:
193,128,52904,5,8,0:0:0:0:
197,124,53002,5,0,0:0:0:0:
174,150,53197,5,8,0:0:0:0:
228,107,53391,5,0,0:0:0:0:
174,150,53489,5,8,0:0:0:0:
228,107,53684,5,0,0:0:0:0:
174,150,53781,5,8,0:0:0:0:
303,56,53878,5,8,0:0:0:0:
303,56,53976,5,0,0:0:0:0:
303,56,54073,5,0,0:0:0:0:
303,56,54171,5,8,0:0:0:0:
303,56,54268,5,0,0:0:0:0:
305,66,54365,5,8,0:0:0:0:
305,66,54463,5,8,0:0:0:0:
305,66,54560,5,0,0:0:0:0:
275,131,54755,5,12,0:0:0:0:
348,189,55145,5,8,0:0:0:0:
348,189,55274,5,8,0:0:0:0:
231,111,55404,5,8,0:0:0:0:
275,131,55534,5,4,0:0:0:0:
231,111,55924,5,0,0:0:0:0:
231,111,56054,5,0,0:0:0:0:
231,111,56184,5,0,0:0:0:0:
231,111,56313,5,12,0:0:0:0:
217,118,56703,5,12,0:0:0:0:
217,118,57093,5,4,0:0:0:0:
252,110,57352,5,8,0:0:0:0:
252,110,57482,5,8,0:0:0:0:
141,142,57612,5,0,0:0:0:0:
141,142,57742,5,0,0:0:0:0:
141,142,57872,5,12,0:0:0:0:
186,153,58261,5,0,0:0:0:0:
195,147,58521,5,8,0:0:0:0:
195,147,58651,5,4,0:0:0:0:
133,138,59041,5,0,0:0:0:0:
133,138,59300,5,0,0:0:0:0:
133,138,59430,5,12,0:0:0:0:
226,128,59690,5,0,0:0:0:0:
215,133,59820,5,12,0:0:0:0:
107,154,59950,5,0,0:0:0:0:
107,154,60080,5,0,0:0:0:0:
107,154,60210,5,12,0:0:0:0:
107,154,60339,5,0,0:0:0:0:
107,154,60469,5,8,0:0:0:0:
107,154,60599,5,0,0:0:0:0:
107,154,60729,5,0,0:0:0:0:
107,154,60859,5,0,0:0:0:0:
107,154,60989,5,12,0:0:0:0:
150,100,61378,5,8,0:0:0:0:
150,100,61508,5,8,0:0:0:0:
150,100,61638,5,8,0:0:0:0:
141,139,61768,5,4,0:0:0:0:
150,100,62158,5,0,0:0:0:0:
150,100,62287,5,0,0:0:0:0:
150,100,62417,5,0,0:0:0:0:
150,100,62547,5,12,0:0:0:0:
310,120,62937,5,12,0:0:0:0:
310,120,63326,5,4,0:0:0:0:
254,137,63586,5,8,0:0:0:0:
254,137,63716,5,8,0:0:0:0:
258,133,63846,5,0,0:0:0:0:
254,137,63976,5,0,0:0:0:0:
248,138,64106,5,4,0:0:0:0:
194,104,64885,5,12,0:0:0:0:
388,193,65664,5,4,0:0:0:0:
267,104,65924,5,8,0:0:0:0:
267,104,66054,5,8,0:0:0:0:
267,104,66184,5,0,0:0:0:0:
308,118,66313,5,0,0:0:0:0:
308,118,66443,5,8,0:0:0:0:
203,145,66541,5,0,0:0:0:0:
101,117,66638,5,0,0:0:0:0:
101,117,66735,5,0,0:0:0:0:
201,135,66833,5,8,0:0:0:0:
190,95,67222,5,4,0:0:0:0:
190,95,67515,5,12,0:0:0:0:
190,95,67807,5,12,0:0:0:0:
190,95,68002,5,0,0:0:0:0:
266,68,68099,5,8,0:0:0:0:
266,68,68197,5,8,0:0:0:0:
266,68,68294,5,0,0:0:0:0:
266,68,68391,5,8,0:0:0:0:
266,68,68489,5,0,0:0:0:0:
266,68,68586,5,0,0:0:0:0:
266,68,68684,5,0,0:0:0:0:
300,82,68781,5,8,0:0:0:0:
300,82,68878,5,8,0:0:0:0:
266,68,68976,5,0,0:0:0:0:
300,82,69073,5,8,0:0:0:0:
300,82,69171,5,8,0:0:0:0:
300,82,69268,5,0,0:0:0:0:
300,82,69365,5,8,0:0:0:0:
300,82,69463,5,0,0:0:0:0:
300,82,69560,5,8,0:0:0:0:
300,82,69658,5,8,0:0:0:0:
300,82,69755,5,0,0:0:0:0:
300,82,69852,5,8,0:0:0:0:
307,191,69950,5,8,0:0:0:0:
246,126,70047,5,8,0:0:0:0:
246,126,70145,5,0,0:0:0:0:
246,126,70339,5,4,0:0:0:0:
228,53,70632,5,4,0:0:0:0:
228,53,70924,5,4,0:0:0:0:
328,211,71119,5,12,0:0:0:0:
203,72,71313,5,0,0:0:0:0:
203,72,71378,5,0,0:0:0:0:
203,72,71443,5,0,0:0:0:0:
228,119,71508,5,8,0:0:0:0:
331,106,71898,5,4,0:0:0:0:
154,127,72093,5,8,0:0:0:0:
109,144,72287,5,0,0:0:0:0:
109,144,72385,5,0,0:0:0:0:
131,126,72482,5,8,0:0:0:0:
131,126,72677,5,0,0:0:0:0:
214,88,72774,5,0,0:0:0:0:
214,88,72872,5,8,0:0:0:0:
214,88,72969,5,0,0:0:0:0:
214,88,73067,5,8,0:0:0:0:
214,88,73164,5,8,0:0:0:0:
214,88,73261,5,8,0:0:0:0:
214,88,73359,5,8,0:0:0:0:
214,88,73456,5,0,0:0:0:0:
184,126,73651,5,8,0:0:0:0:
184,126,73846,5,8,0:0:0:0:
172,57,73943,5,0,0:0:0:0:
277,189,74041,5,8,0:0:0:0:
100,158,74235,5,0,0:0:0:0:
100,158,74333,5,0,0:0:0:0:
146,156,74430,5,8,0:0:0:0:
146,156,74528,5,0,0:0:0:0:
146,156,74625,5,8,0:0:0:0:
230,153,74722,5,8,0:0:0:0:
230,153,74820,5,0,0:0:0:0:
208,128,75015,5,0,0:0:0:0:
198,136,75210,5,8,0:0:0:0:
269,146,75404,5,0,0:0:0:0:
269,146,75502,5,0,0:0:0:0:
269,146,75599,5,8,0:0:0:0:
269,146,75794,5,0,0:0:0:0:
269,146,75891,5,0,0:0:0:0:
269,146,75989,5,8,0:0:0:0:
283,139,76086,5,0,0:0:0:0:
244,132,76281,5,0,0:0:0:0:
244,132,76378,5,8,0:0:0:0:
107,115,76573,5,0,0:0:0:0:
308,105,76671,5,0,0:0:0:0:
6,144,76768,5,8,0:0:0:0:
308,105,76865,5,8,0:0:0:0:
165,146,76963,5,0,0:0:0:0:
166,140,77158,5,8,0:0:0:0:
166,140,77255,5,0,0:0:0:0:
166,140,77352,5,8,0:0:0:0:
226,140,77450,5,8,0:0:0:0:
226,140,77547,5,0,0:0:0:0:
226,140,77645,5,0,0:0:0:0:
346,211,77742,5,8,0:0:0:0:
346,211,77839,5,8,0:0:0:0:
346,217,77937,5,8,0:0:0:0:
199,108,78034,5,8,0:0:0:0:
346,217,78132,5,0,0:0:0:0:
181,146,78326,5,8,0:0:0:0:
187,73,78424,5,0,0:0:0:0:
187,73,78619,5,0,0:0:0:0:
187,73,78716,5,8,0:0:0:0:
243,56,78813,5,0,0:0:0:0:
211,109,78911,5,8,0:0:0:0:
243,56,79106,5,8,0:0:0:0:
103,132,79203,5,0,0:0:0:0:
222,154,79300,5,8,0:0:0:0:
394,231,79398,5,8,0:0:0:0:
243,88,79495,5,0,0:0:0:0:
179,110,79690,5,0,0:0:0:0:
203,89,79885,5,8,0:0:0:0:
362,184,79982,5,0,0:0:0:0:
203,89,80177,5,0,0:0:0:0:
203,89,80274,5,8,0:0:0:0:
170,138,80372,5,8,0:0:0:0:
296,115,80469,5,0,0:0:0:0:
74,150,80664,5,8,0:0:0:0:
157,126,80761,5,0,0:0:0:0:
201,103,80859,5,0,0:0:0:0:
195,108,80956,5,0,0:0:0:0:
195,108,81054,5,8,0:0:0:0:
74,129,81151,5,0,0:0:0:0:
237,140,81248,5,8,0:0:0:0:
348,196,81443,5,0,0:0:0:0:
248,115,81541,5,8,0:0:0:0:
186,164,81735,5,0,0:0:0:0:
248,115,81833,5,8,0:0:0:0:
245,64,81930,5,8,0:0:0:0:
248,115,82028,5,0,0:0:0:0:
185,122,82222,5,8,0:0:0:0:
248,115,82320,5,0,0:0:0:0:
199,111,82515,5,8,0:0:0:0:
199,111,82612,5,0,0:0:0:0:
245,64,82710,5,0,0:0:0:0:
199,111,82807,5,8,0:0:0:0:
199,111,82904,5,8,0:0:0:0:
199,111,83002,5,8,0:0:0:0:
199,111,83099,5,8,0:0:0:0:
199,111,83197,5,0,0:0:0:0:
199,111,83294,5,0,0:0:0:0:
199,111,83391,5,8,0:0:0:0:
199,111,83489,5,0,0:0:0:0:
298,184,83586,5,8,0:0:0:0:
297,175,83684,5,8,0:0:0:0:
297,175,83781,5,8,0:0:0:0:
298,184,83878,5,8,0:0:0:0:
307,166,83976,5,0,0:0:0:0:
307,166,84073,5,0,0:0:0:0:
297,175,84171,5,0,0:0:0:0:
306,147,84365,5,4,0:0:0:0:
179,119,84560,5,8,0:0:0:0:
179,119,84755,5,0,0:0:0:0:
181,77,84852,5,0,0:0:0:0:
181,77,84950,5,8,0:0:0:0:
248,102,85145,5,0,0:0:0:0:
248,102,85242,5,0,0:0:0:0:
248,102,85339,5,8,0:0:0:0:
248,102,85437,5,0,0:0:0:0:
70,152,85534,5,8,0:0:0:0:
70,152,85632,5,8,0:0:0:0:
70,152,85729,5,8,0:0:0:0:
255,129,85826,5,8,0:0:0:0:
248,102,85924,5,0,0:0:0:0:
184,126,86119,5,8,0:0:0:0:
184,126,86313,5,0,0:0:0:0:
165,115,86411,5,0,0:0:0:0:
277,189,86508,5,8,0:0:0:0:
100,158,86703,5,8,0:0:0:0:
100,158,86800,5,0,0:0:0:0:
146,156,86898,5,8,0:0:0:0:
146,156,86995,5,0,0:0:0:0:
146,156,87093,5,8,0:0:0:0:
230,153,87190,5,8,0:0:0:0:
230,153,87287,5,0,0:0:0:0:
208,128,87482,5,0,0:0:0:0:
198,136,87677,5,8,0:0:0:0:
269,146,87872,5,0,0:0:0:0:
269,146,87969,5,0,0:0:0:0:
269,146,88067,5,8,0:0:0:0:
269,146,88261,5,0,0:0:0:0:
269,146,88359,5,0,0:0:0:0:
269,146,88456,5,8,0:0:0:0:
283,139,88554,5,0,0:0:0:0:
244,132,88748,5,0,0:0:0:0:
244,132,88846,5,8,0:0:0:0:
109,140,89041,5,8,0:0:0:0:
370,126,89138,5,0,0:0:0:0:
197,115,89235,5,0,0:0:0:0:
197,115,89333,5,8,0:0:0:0:
131,120,89430,5,0,0:0:0:0:
131,120,89625,5,8,0:0:0:0:
197,115,89722,5,0,0:0:0:0:
131,120,89820,5,8,0:0:0:0:
131,120,89917,5,8,0:0:0:0:
131,120,90015,5,0,0:0:0:0:
131,120,90112,5,8,0:0:0:0:
228,94,90210,5,0,0:0:0:0:
228,94,90307,5,0,0:0:0:0:
228,94,90404,5,0,0:0:0:0:
163,118,90502,5,0,0:0:0:0:
258,118,90599,5,8,0:0:0:0:
88,144,90697,5,8,0:0:0:0:
115,150,90794,5,0,0:0:0:0:
115,150,90891,5,8,0:0:0:0:
115,150,91086,5,8,0:0:0:0:
378,200,91184,5,0,0:0:0:0:
267,45,91281,5,0,0:0:0:0:
384,186,91378,5,8,0:0:0:0:
188,151,91573,5,8,0:0:0:0:
378,200,91671,5,0,0:0:0:0:
212,153,91768,5,8,0:0:0:0:
90,164,91865,5,8,0:0:0:0:
217,115,91963,5,0,0:0:0:0:
217,115,92158,5,0,0:0:0:0:
181,135,92255,5,0,0:0:0:0:
161,140,92352,5,8,0:0:0:0:
161,140,92450,5,0,0:0:0:0:
259,118,92645,5,0,0:0:0:0:
161,140,92742,5,8,0:0:0:0:
161,140,92839,5,0,0:0:0:0:
259,118,92937,5,8,0:0:0:0:
223,192,93034,5,8,0:0:0:0:
166,142,93132,5,0,0:0:0:0:
168,142,93229,5,8,0:0:0:0:
105,144,93326,5,0,0:0:0:0:
244,147,93424,5,0,0:0:0:0:
234,159,93521,5,8,0:0:0:0:
194,168,93716,5,4,0:0:0:0:
194,168,94008,5,4,0:0:0:0:
194,168,94300,5,4,0:0:0:0:
194,168,94495,5,4,0:0:0:0:
389,233,94690,5,8,0:0:0:0:
389,233,94787,5,8,0:0:0:0:
389,233,94885,5,0,0:0:0:0:
389,233,94982,5,0,0:0:0:0:
389,233,95080,5,0,0:0:0:0:
389,233,95274,5,12,0:0:0:0:
389,226,95567,5,12,0:0:0:0:
389,233,95859,5,12,0:0:0:0:
389,233,96054,5,12,0:0:0:0:
189,133,96248,5,0,0:0:0:0:
189,133,96313,5,0,0:0:0:0:
189,133,96378,5,0,0:0:0:0:
189,133,96443,5,8,0:0:0:0:
189,133,96833,5,4,0:0:0:0:
215,115,97028,5,8,0:0:0:0:
215,115,97222,5,0,0:0:0:0:
215,115,97320,5,0,0:0:0:0:
215,115,97417,5,8,0:0:0:0:
184,170,97612,5,8,0:0:0:0:
155,107,97710,5,0,0:0:0:0:
183,130,97904,5,8,0:0:0:0:
127,143,98002,5,0,0:0:0:0:
214,147,98099,5,0,0:0:0:0:
127,143,98197,5,8,0:0:0:0:
265,199,98391,5,8,0:0:0:0:
309,176,98586,5,0,0:0:0:0:
328,127,98781,5,0,0:0:0:0:
328,127,98878,5,0,0:0:0:0:
328,127,98976,5,8,0:0:0:0:
328,127,99171,5,8,0:0:0:0:
328,127,99365,5,8,0:0:0:0:
352,174,99463,5,0,0:0:0:0:
237,126,99560,5,8,0:0:0:0:
232,88,99658,5,8,0:0:0:0:
217,136,99755,5,0,0:0:0:0:
181,138,99950,5,0,0:0:0:0:
255,133,100145,5,8,0:0:0:0:
287,137,100339,5,0,0:0:0:0:
287,137,100437,5,0,0:0:0:0:
243,112,100534,5,8,0:0:0:0:
135,148,100729,5,8,0:0:0:0:
235,88,100826,5,0,0:0:0:0:
235,88,101021,5,8,0:0:0:0:
195,185,101119,5,0,0:0:0:0:
235,88,101216,5,0,0:0:0:0:
235,88,101313,5,8,0:0:0:0:
137,163,101411,5,0,0:0:0:0:
215,115,101508,5,8,0:0:0:0:
97,152,101703,5,0,0:0:0:0:
169,137,101800,5,8,0:0:0:0:
284,153,101898,5,0,0:0:0:0:
284,153,101995,5,0,0:0:0:0:
161,146,102093,5,8,0:0:0:0:
181,146,102190,5,0,0:0:0:0:
215,115,102287,5,8,0:0:0:0:
215,115,102385,5,8,0:0:0:0:
215,115,102482,5,8,0:0:0:0:
166,123,102580,5,8,0:0:0:0:
166,123,102677,5,0,0:0:0:0:
173,106,102774,5,0,0:0:0:0:
173,106,102872,5,0,0:0:0:0:
221,130,103067,5,4,0:0:0:0:
215,115,103261,5,8,0:0:0:0:
215,115,103455,5,0,0:0:0:0:
215,115,103553,5,0,0:0:0:0:
215,115,103650,5,8,0:0:0:0:
184,170,103845,5,8,0:0:0:0:
155,107,103943,5,0,0:0:0:0:
131,126,104041,5,0,0:0:0:0:
183,130,104137,5,8,0:0:0:0:
127,143,104235,5,0,0:0:0:0:
214,147,104332,5,0,0:0:0:0:
127,143,104430,5,8,0:0:0:0:
265,199,104624,5,8,0:0:0:0:
309,176,104819,5,0,0:0:0:0:
328,127,105015,5,0,0:0:0:0:
328,127,105111,5,0,0:0:0:0:
328,127,105209,5,8,0:0:0:0:
328,127,105404,5,8,0:0:0:0:
180,97,105502,5,0,0:0:0:0:
328,127,105598,5,8,0:0:0:0:
352,174,105696,5,0,0:0:0:0:
237,126,105794,5,8,0:0:0:0:
232,88,105891,5,8,0:0:0:0:
217,136,105989,5,0,0:0:0:0:
333,158,106184,5,0,0:0:0:0:
134,156,106378,5,8,0:0:0:0:
137,149,106573,5,0,0:0:0:0:
137,148,106671,5,0,0:0:0:0:
137,148,106768,5,8,0:0:0:0:
135,148,106962,5,8,0:0:0:0:
235,88,107059,5,0,0:0:0:0:
226,128,107158,5,0,0:0:0:0:
235,88,107254,5,8,0:0:0:0:
226,128,107352,5,0,0:0:0:0:
226,128,107450,5,0,0:0:0:0:
226,128,107547,5,8,0:0:0:0:
137,163,107644,5,0,0:0:0:0:
222,119,107742,5,8,0:0:0:0:
168,140,107839,5,8,0:0:0:0:
168,140,107937,5,0,0:0:0:0:
168,140,108034,5,8,0:0:0:0:
168,140,108132,5,8,0:0:0:0:
168,140,108229,5,0,0:0:0:0:
168,140,108326,5,8,0:0:0:0:
96,157,108424,5,0,0:0:0:0:
438,176,108521,5,8,0:0:0:0:
438,176,108619,5,8,0:0:0:0:
438,176,108716,5,8,0:0:0:0:
438,176,108813,5,8,0:0:0:0:
438,176,108911,5,0,0:0:0:0:
438,176,109008,5,0,0:0:0:0:
438,176,109106,5,0,0:0:0:0:
187,143,109300,5,12,0:0:0:0:
202,138,109593,5,12,0:0:0:0:
202,138,109885,5,12,0:0:0:0:
202,138,110080,5,12,0:0:0:0:
76,151,110274,5,0,0:0:0:0:
254,94,110339,5,0,0:0:0:0:
254,94,110404,5,0,0:0:0:0:
346,99,110469,5,8,0:0:0:0:
185,122,110859,5,4,0:0:0:0:
192,115,112222,5,12,0:0:0:0:
192,115,112417,5,12,0:0:0:0:
219,101,113781,5,12,0:0:0:0:
219,101,113976,5,4,0:0:0:0:
280,118,115339,5,0,0:0:0:0:
280,118,115404,5,0,0:0:0:0:
280,118,115469,5,0,0:0:0:0:
280,118,115534,5,8,0:0:0:0:
279,124,115729,5,0,0:0:0:0:
279,124,115826,5,8,0:0:0:0:
279,124,116021,5,0,0:0:0:0:
279,124,116119,5,8,0:0:0:0:
191,63,116313,5,8,0:0:0:0:
191,63,116411,5,8,0:0:0:0:
191,63,116508,5,0,0:0:0:0:
203,33,116606,5,0,0:0:0:0:
203,33,116703,5,8,0:0:0:0:
203,33,116800,5,8,0:0:0:0:
203,33,116898,5,8,0:0:0:0:
203,33,116995,5,8,0:0:0:0:
191,63,117093,5,0,0:0:0:0:
277,118,117287,5,8,0:0:0:0:
334,219,117482,5,0,0:0:0:0:
334,219,117580,5,0,0:0:0:0:
334,219,117677,5,8,0:0:0:0:
334,219,117872,5,0,0:0:0:0:
334,219,118067,5,8,0:0:0:0:
175,149,118164,5,0,0:0:0:0:
142,172,118359,5,0,0:0:0:0:
334,219,118456,5,8,0:0:0:0:
181,148,118651,5,8,0:0:0:0:
153,172,118748,5,0,0:0:0:0:
217,108,118846,5,8,0:0:0:0:
181,148,119041,5,0,0:0:0:0:
153,172,119235,5,8,0:0:0:0:
230,122,119333,5,8,0:0:0:0:
324,130,119528,5,0,0:0:0:0:
326,144,119625,5,8,0:0:0:0:
326,144,119820,5,0,0:0:0:0:
326,144,119917,5,0,0:0:0:0:
326,144,120015,5,8,0:0:0:0:
326,144,120112,5,8,0:0:0:0:
326,144,120210,5,0,0:0:0:0:
326,144,120404,5,8,0:0:0:0:
326,144,120599,5,0,0:0:0:0:
326,144,120697,5,0,0:0:0:0:
326,144,120794,5,8,0:0:0:0:
326,144,120989,5,0,0:0:0:0:
326,144,121086,5,0,0:0:0:0:
326,144,121184,5,8,0:0:0:0:
326,144,121281,5,0,0:0:0:0:
256,110,121476,5,0,0:0:0:0:
326,144,121573,5,8,0:0:0:0:
319,100,121768,5,8,0:0:0:0:
319,100,121865,5,0,0:0:0:0:
319,100,121963,5,0,0:0:0:0:
319,100,122060,5,8,0:0:0:0:
319,100,122158,5,0,0:0:0:0:
319,100,122255,5,0,0:0:0:0:
319,100,122352,5,8,0:0:0:0:
319,100,122450,5,0,0:0:0:0:
319,100,122547,5,8,0:0:0:0:
199,142,122645,1,0,0:0:0:0:
199,142,122742,1,0,0:0:0:0:
199,142,122839,1,0,0:0:0:0:
199,142,122937,1,0,0:0:0:0:
172,71,123132,5,12,0:0:0:0:
172,71,123326,5,4,0:0:0:0:
339,206,123521,5,8,0:0:0:0:
339,206,123716,5,0,0:0:0:0:
291,35,123813,5,0,0:0:0:0:
339,206,123911,5,8,0:0:0:0:
292,40,124106,5,0,0:0:0:0:
292,40,124203,5,0,0:0:0:0:
292,40,124300,5,8,0:0:0:0:
292,40,124398,5,0,0:0:0:0:
117,149,124593,5,0,0:0:0:0:
292,40,124690,5,8,0:0:0:0:
194,91,124885,5,0,0:0:0:0:
194,91,125080,5,8,0:0:0:0:
254,63,125274,5,8,0:0:0:0:
254,63,125372,5,0,0:0:0:0:
254,63,125469,5,8,0:0:0:0:
254,63,125664,5,0,0:0:0:0:
243,37,125761,5,0,0:0:0:0:
254,63,125859,5,8,0:0:0:0:
243,37,125956,5,0,0:0:0:0:
117,149,126151,5,0,0:0:0:0:
233,29,126248,5,8,0:0:0:0:
206,123,126443,5,0,0:0:0:0:
308,85,126638,5,8,0:0:0:0:
308,85,126735,5,0,0:0:0:0:
311,102,126930,5,0,0:0:0:0:
311,102,127028,5,8,0:0:0:0:
329,106,127222,5,8,0:0:0:0:
234,86,127320,5,0,0:0:0:0:
217,122,127417,5,8,0:0:0:0:
217,122,127515,5,8,0:0:0:0:
223,102,127710,5,0,0:0:0:0:
223,102,127807,5,8,0:0:0:0:
223,102,128002,5,0,0:0:0:0:
299,88,128197,5,8,0:0:0:0:
357,84,128294,5,0,0:0:0:0:
208,137,128489,5,0,0:0:0:0:
208,137,128586,5,8,0:0:0:0:
154,145,128781,5,8,0:0:0:0:
141,159,128878,5,8,0:0:0:0:
236,79,128976,5,0,0:0:0:0:
236,79,129073,5,0,0:0:0:0:
236,79,129171,5,8,0:0:0:0:
236,79,129268,5,0,0:0:0:0:
235,280,129365,5,8,0:0:0:0:
235,280,129463,5,8,0:0:0:0:
201,88,129560,5,0,0:0:0:0:
277,118,129755,5,8,0:0:0:0:
334,219,129950,5,0,0:0:0:0:
334,219,130047,5,0,0:0:0:0:
334,219,130145,5,8,0:0:0:0:
334,219,130339,5,0,0:0:0:0:
334,219,130534,5,8,0:0:0:0:
175,149,130632,5,8,0:0:0:0:
142,172,130826,5,0,0:0:0:0:
334,219,130924,5,8,0:0:0:0:
174,135,131119,5,0,0:0:0:0:
178,80,131216,5,0,0:0:0:0:
217,108,131313,5,8,0:0:0:0:
181,148,131508,5,0,0:0:0:0:
247,75,131703,5,8,0:0:0:0:
181,148,131800,5,8,0:0:0:0:
101,149,131995,5,0,0:0:0:0:
326,144,132093,5,8,0:0:0:0:
230,86,132190,5,0,0:0:0:0:
326,144,132287,5,8,0:0:0:0:
326,144,132385,5,8,0:0:0:0:
326,144,132482,5,0,0:0:0:0:
326,144,132580,5,0,0:0:0:0:
326,144,132677,5,0,0:0:0:0:
326,144,132872,5,8,0:0:0:0:
228,122,133067,5,0,0:0:0:0:
326,144,133164,5,0,0:0:0:0:
326,144,133261,5,8,0:0:0:0:
326,144,133456,5,0,0:0:0:0:
326,144,133554,5,0,0:0:0:0:
326,144,133651,5,8,0:0:0:0:
326,144,133748,5,0,0:0:0:0:
197,124,133846,5,8,0:0:0:0:
193,128,133943,5,8,0:0:0:0:
197,124,134041,5,0,0:0:0:0:
174,150,134235,5,8,0:0:0:0:
228,107,134430,5,0,0:0:0:0:
174,150,134528,5,8,0:0:0:0:
228,107,134722,5,0,0:0:0:0:
174,150,134820,5,8,0:0:0:0:
303,56,134917,5,0,0:0:0:0:
303,56,135015,5,8,0:0:0:0:
303,56,135112,5,8,0:0:0:0:
303,56,135210,5,0,0:0:0:0:
303,56,135307,5,0,0:0:0:0:
305,66,135404,5,8,0:0:0:0:
305,66,135502,5,0,0:0:0:0:
305,66,135599,5,0,0:0:0:0:
275,131,135794,5,12,0:0:0:0:
348,189,136184,5,8,0:0:0:0:
348,189,136313,5,8,0:0:0:0:
231,111,136443,5,8,0:0:0:0:
275,131,136573,5,4,0:0:0:0:
231,111,136963,5,0,0:0:0:0:
231,111,137093,5,0,0:0:0:0:
231,111,137222,5,0,0:0:0:0:
231,111,137352,5,12,0:0:0:0:
217,118,137742,5,12,0:0:0:0:
217,118,138132,5,4,0:0:0:0:
252,110,138391,5,8,0:0:0:0:
252,110,138521,5,8,0:0:0:0:
141,142,138651,5,0,0:0:0:0:
141,142,138781,5,0,0:0:0:0:
141,142,138911,5,12,0:0:0:0:
186,153,139300,5,0,0:0:0:0:
195,147,139560,5,8,0:0:0:0:
195,147,139690,5,4,0:0:0:0:
133,138,140080,5,0,0:0:0:0:
133,138,140339,5,0,0:0:0:0:
133,138,140469,5,12,0:0:0:0:
226,128,140729,5,0,0:0:0:0:
215,133,140859,5,12,0:0:0:0:
107,154,140989,5,0,0:0:0:0:
107,154,141119,5,0,0:0:0:0:
107,154,141248,5,12,0:0:0:0:
107,154,141378,5,0,0:0:0:0:
107,154,141508,5,8,0:0:0:0:
107,154,141638,5,0,0:0:0:0:
107,154,141768,5,0,0:0:0:0:
107,154,141898,5,0,0:0:0:0:
107,154,142028,5,12,0:0:0:0:
150,100,142417,5,8,0:0:0:0:
150,100,142547,5,8,0:0:0:0:
150,100,142677,5,8,0:0:0:0:
141,139,142807,5,4,0:0:0:0:
150,100,143197,5,0,0:0:0:0:
150,100,143326,5,0,0:0:0:0:
150,100,143456,5,0,0:0:0:0:
150,100,143586,5,12,0:0:0:0:
310,120,143976,5,12,0:0:0:0:
310,120,144365,5,4,0:0:0:0:
254,137,144625,5,8,0:0:0:0:
254,137,144755,5,8,0:0:0:0:
258,133,144885,5,0,0:0:0:0:
254,137,145015,5,0,0:0:0:0:
248,138,145145,5,4,0:0:0:0:
194,104,145924,5,12,0:0:0:0:
388,193,146703,5,4,0:0:0:0:
267,104,146963,5,8,0:0:0:0:
267,104,147093,5,8,0:0:0:0:
267,104,147222,5,0,0:0:0:0:
308,118,147352,5,0,0:0:0:0:
308,118,147482,5,0,0:0:0:0:
69,131,147580,5,8,0:0:0:0:
169,146,147677,5,8,0:0:0:0:
267,104,147774,5,8,0:0:0:0:
201,135,147872,5,0,0:0:0:0:
190,95,148261,5,4,0:0:0:0:
190,95,148554,5,12,0:0:0:0:
190,95,148846,5,12,0:0:0:0:
190,95,149041,5,0,0:0:0:0:
266,68,149138,5,8,0:0:0:0:
266,68,149235,5,8,0:0:0:0:
266,68,149333,5,0,0:0:0:0:
266,68,149430,5,8,0:0:0:0:
266,68,149528,5,0,0:0:0:0:
266,68,149625,5,0,0:0:0:0:
266,68,149722,5,0,0:0:0:0:
300,82,149820,5,8,0:0:0:0:
300,82,149917,5,0,0:0:0:0:
266,68,150015,5,8,0:0:0:0:
300,82,150112,5,8,0:0:0:0:
300,82,150210,5,0,0:0:0:0:
300,82,150307,5,0,0:0:0:0:
300,82,150404,5,8,0:0:0:0:
300,82,150502,5,0,0:0:0:0:
300,82,150599,5,8,0:0:0:0:
300,82,150697,5,8,0:0:0:0:
300,82,150794,5,8,0:0:0:0:
300,82,150891,5,0,0:0:0:0:
307,191,150989,5,8,0:0:0:0:
246,126,151086,5,8,0:0:0:0:
246,126,151184,5,0,0:0:0:0:
246,126,151378,5,4,0:0:0:0:
228,53,151671,5,4,0:0:0:0:
228,53,151963,5,4,0:0:0:0:
328,211,152158,5,12,0:0:0:0:
203,72,152352,5,0,0:0:0:0:
203,72,152417,5,0,0:0:0:0:
203,72,152482,5,0,0:0:0:0:
228,119,152547,5,8,0:0:0:0:
331,106,152937,5,4,0:0:0:0:
154,127,153132,5,8,0:0:0:0:
109,144,153326,5,0,0:0:0:0:
109,144,153424,5,0,0:0:0:0:
131,126,153521,5,8,0:0:0:0:
131,126,153716,5,0,0:0:0:0:
214,88,153813,5,8,0:0:0:0:
214,88,153911,5,8,0:0:0:0:
214,88,154008,5,0,0:0:0:0:
214,88,154106,5,8,0:0:0:0:
214,88,154203,5,8,0:0:0:0:
214,88,154300,5,0,0:0:0:0:
214,88,154398,5,0,0:0:0:0:
214,88,154495,5,8,0:0:0:0:
184,126,154690,5,0,0:0:0:0:
184,126,154885,5,8,0:0:0:0:
172,57,154982,5,0,0:0:0:0:
277,189,155080,5,8,0:0:0:0:
100,158,155274,5,0,0:0:0:0:
100,158,155372,5,0,0:0:0:0:
146,156,155469,5,8,0:0:0:0:
146,156,155567,5,0,0:0:0:0:
146,156,155664,5,8,0:0:0:0:
230,153,155761,5,8,0:0:0:0:
230,153,155859,5,0,0:0:0:0:
208,128,156054,5,0,0:0:0:0:
198,136,156249,5,8,0:0:0:0:
269,146,156443,5,0,0:0:0:0:
269,146,156541,5,0,0:0:0:0:
269,146,156638,5,8,0:0:0:0:
269,146,156833,5,0,0:0:0:0:
269,146,156930,5,0,0:0:0:0:
269,146,157028,5,8,0:0:0:0:
283,139,157125,5,0,0:0:0:0:
244,132,157320,5,0,0:0:0:0:
244,132,157417,5,8,0:0:0:0:
107,115,157612,5,0,0:0:0:0:
308,105,157710,5,0,0:0:0:0:
6,144,157807,5,8,0:0:0:0:
308,105,157904,5,8,0:0:0:0:
165,146,158002,5,0,0:0:0:0:
166,140,158197,5,8,0:0:0:0:
166,140,158294,5,0,0:0:0:0:
166,140,158391,5,8,0:0:0:0:
226,140,158489,5,8,0:0:0:0:
226,140,158586,5,0,0:0:0:0:
226,140,158684,5,0,0:0:0:0:
346,211,158781,5,8,0:0:0:0:
346,211,158878,5,8,0:0:0:0:
346,217,158976,5,8,0:0:0:0:
199,108,159073,5,8,0:0:0:0:
346,217,159171,5,0,0:0:0:0:
181,146,159365,5,8,0:0:0:0:
187,73,159463,5,0,0:0:0:0:
187,73,159658,5,0,0:0:0:0:
187,73,159755,5,8,0:0:0:0:
243,56,159852,5,0,0:0:0:0:
211,109,159950,5,8,0:0:0:0:
243,56,160145,5,8,0:0:0:0:
103,132,160242,5,0,0:0:0:0:
222,154,160339,5,8,0:0:0:0:
394,231,160437,5,8,0:0:0:0:
243,88,160534,5,0,0:0:0:0:
179,110,160729,5,0,0:0:0:0:
203,89,160924,5,8,0:0:0:0:
362,184,161021,5,0,0:0:0:0:
203,89,161216,5,0,0:0:0:0:
203,89,161313,5,8,0:0:0:0:
170,138,161411,5,8,0:0:0:0:
296,115,161508,5,0,0:0:0:0:
74,150,161703,5,8,0:0:0:0:
157,126,161800,5,0,0:0:0:0:
201,103,161898,5,0,0:0:0:0:
195,108,161995,5,0,0:0:0:0:
195,108,162093,5,8,0:0:0:0:
74,129,162190,5,0,0:0:0:0:
237,140,162287,5,8,0:0:0:0:
348,196,162482,5,0,0:0:0:0:
248,115,162580,5,8,0:0:0:0:
186,164,162774,5,0,0:0:0:0:
248,115,162872,5,8,0:0:0:0:
245,64,162969,5,8,0:0:0:0:
248,115,163067,5,0,0:0:0:0:
185,122,163261,5,8,0:0:0:0:
248,115,163359,5,0,0:0:0:0:
199,111,163554,5,8,0:0:0:0:
199,111,163651,5,0,0:0:0:0:
245,64,163749,5,0,0:0:0:0:
199,111,163846,5,8,0:0:0:0:
199,111,163943,5,8,0:0:0:0:
199,111,164041,5,8,0:0:0:0:
199,111,164138,5,8,0:0:0:0:
199,111,164236,5,0,0:0:0:0:
199,111,164333,5,0,0:0:0:0:
199,111,164430,5,8,0:0:0:0:
199,111,164528,5,0,0:0:0:0:
298,184,164625,5,8,0:0:0:0:
297,175,164723,5,8,0:0:0:0:
297,175,164820,5,8,0:0:0:0:
298,184,164917,5,8,0:0:0:0:
307,166,165015,5,0,0:0:0:0:
307,166,165112,5,0,0:0:0:0:
297,175,165210,5,0,0:0:0:0:
306,147,165404,5,4,0:0:0:0:
179,119,165599,5,8,0:0:0:0:
179,119,165794,5,0,0:0:0:0:
181,77,165891,5,0,0:0:0:0:
181,77,165989,5,8,0:0:0:0:
248,102,166184,5,0,0:0:0:0:
248,102,166281,5,0,0:0:0:0:
248,102,166378,5,8,0:0:0:0:
248,102,166476,5,0,0:0:0:0:
70,152,166573,5,8,0:0:0:0:
70,152,166671,5,8,0:0:0:0:
70,152,166768,5,8,0:0:0:0:
255,129,166865,5,8,0:0:0:0:
248,102,166963,5,0,0:0:0:0:
184,126,167158,5,8,0:0:0:0:
184,126,167352,5,0,0:0:0:0:
165,115,167450,5,0,0:0:0:0:
277,189,167547,5,8,0:0:0:0:
100,158,167742,5,8,0:0:0:0:
100,158,167839,5,0,0:0:0:0:
146,156,167937,5,8,0:0:0:0:
146,156,168034,5,0,0:0:0:0:
146,156,168132,5,8,0:0:0:0:
230,153,168229,5,8,0:0:0:0:
230,153,168326,5,0,0:0:0:0:
208,128,168521,5,0,0:0:0:0:
198,136,168716,5,8,0:0:0:0:
269,146,168911,5,0,0:0:0:0:
269,146,169008,5,0,0:0:0:0:
269,146,169106,5,8,0:0:0:0:
269,146,169300,5,0,0:0:0:0:
269,146,169398,5,0,0:0:0:0:
269,146,169495,5,8,0:0:0:0:
283,139,169593,5,0,0:0:0:0:
244,132,169787,5,0,0:0:0:0:
244,132,169885,5,8,0:0:0:0:
109,140,170080,5,8,0:0:0:0:
370,126,170177,5,0,0:0:0:0:
197,115,170274,5,0,0:0:0:0:
197,115,170372,5,8,0:0:0:0:
131,120,170469,5,0,0:0:0:0:
131,120,170664,5,8,0:0:0:0:
197,115,170761,5,0,0:0:0:0:
131,120,170859,5,8,0:0:0:0:
131,120,170956,5,8,0:0:0:0:
131,120,171054,5,0,0:0:0:0:
131,120,171151,5,8,0:0:0:0:
228,94,171249,5,0,0:0:0:0:
228,94,171346,5,0,0:0:0:0:
228,94,171443,5,0,0:0:0:0:
163,118,171541,5,0,0:0:0:0:
258,118,171638,5,8,0:0:0:0:
88,144,171736,5,8,0:0:0:0:
115,150,171833,5,0,0:0:0:0:
115,150,171930,5,8,0:0:0:0:
115,150,172125,5,8,0:0:0:0:
378,200,172223,5,0,0:0:0:0:
267,45,172320,5,0,0:0:0:0:
384,186,172417,5,8,0:0:0:0:
188,151,172612,5,8,0:0:0:0:
378,200,172710,5,0,0:0:0:0:
212,153,172807,5,8,0:0:0:0:
90,164,172904,5,8,0:0:0:0:
217,115,173002,5,0,0:0:0:0:
217,115,173197,5,0,0:0:0:0:
181,135,173294,5,0,0:0:0:0:
161,140,173391,5,8,0:0:0:0:
161,140,173489,5,0,0:0:0:0:
259,118,173684,5,0,0:0:0:0:
161,140,173781,5,8,0:0:0:0:
161,140,173878,5,0,0:0:0:0:
259,118,173976,5,8,0:0:0:0:
223,192,174073,5,8,0:0:0:0:
166,142,174171,5,0,0:0:0:0:
168,142,174268,5,8,0:0:0:0:
105,144,174365,5,0,0:0:0:0:
244,147,174463,5,0,0:0:0:0:
234,159,174560,5,8,0:0:0:0:
194,168,174755,5,4,0:0:0:0:
194,168,175047,5,4,0:0:0:0:
194,168,175339,5,4,0:0:0:0:
194,168,175534,5,4,0:0:0:0:
389,233,175729,5,8,0:0:0:0:
389,233,175826,5,8,0:0:0:0:
389,233,175924,5,0,0:0:0:0:
389,233,176021,5,0,0:0:0:0:
389,233,176119,5,0,0:0:0:0:
389,233,176313,5,12,0:0:0:0:
389,226,176606,5,12,0:0:0:0:
389,233,176898,5,12,0:0:0:0:
389,233,177093,5,12,0:0:0:0:
266,97,177287,5,0,0:0:0:0:
246,97,177352,5,0,0:0:0:0:
246,97,177417,5,0,0:0:0:0:
246,97,177482,5,8,0:0:0:0:
246,97,177872,5,4,0:0:0:0:
322,103,178002,5,8,0:0:0:0:
322,103,178132,5,0,0:0:0:0:
320,92,178261,5,8,0:0:0:0:
320,92,178391,5,8,0:0:0:0:
320,92,178521,5,8,0:0:0:0:
320,92,178651,5,4,0:0:0:0:
37,157,178911,5,4,0:0:0:0:
105,148,179171,5,4,0:0:0:0:
193,129,179430,5,12,0:0:0:0:
193,129,179560,5,0,0:0:0:0:
193,129,179690,5,8,0:0:0:0:
138,155,179820,5,0,0:0:0:0:
193,129,179950,5,0,0:0:0:0:
193,129,180080,5,0,0:0:0:0:
248,109,180210,5,12,0:0:0:0:
248,109,180469,5,12,0:0:0:0:
248,109,180729,5,12,0:0:0:0:
146,135,180989,5,4,0:0:0:0:
146,135,181119,5,8,0:0:0:0:
146,135,181248,5,0,0:0:0:0:
146,135,181378,5,8,0:0:0:0:
150,133,181508,5,8,0:0:0:0:
146,135,181638,5,8,0:0:0:0:
179,119,181768,5,0,0:0:0:0:
235,114,181898,5,8,0:0:0:0:
235,114,182028,5,0,0:0:0:0:
235,114,182158,5,8,0:0:0:0:
263,121,182287,5,8,0:0:0:0:
263,121,182417,5,8,0:0:0:0:
237,138,182547,5,4,0:0:0:0:
173,107,182677,5,8,0:0:0:0:
173,107,182807,5,0,0:0:0:0:
173,107,182937,5,0,0:0:0:0:
173,107,183067,5,8,0:0:0:0:
173,107,183197,5,8,0:0:0:0:
237,138,183326,5,4,0:0:0:0:
237,138,183716,5,12,0:0:0:0:
239,169,184106,5,4,0:0:0:0:
239,169,184235,5,8,0:0:0:0:
239,169,184365,5,0,0:0:0:0:
239,169,184495,5,8,0:0:0:0:
239,169,184625,5,8,0:0:0:0:
239,169,184755,5,8,0:0:0:0:
237,138,184885,5,4,0:0:0:0:
237,138,185145,5,4,0:0:0:0:
237,138,185404,5,4,0:0:0:0:
140,145,185664,5,12,0:0:0:0:
140,145,185794,5,0,0:0:0:0:
140,145,185924,5,8,0:0:0:0:
140,145,186054,5,0,0:0:0:0:
140,145,186184,5,0,0:0:0:0:
140,145,186313,5,0,0:0:0:0:
237,138,186443,5,12,0:0:0:0:
237,138,186703,5,12,0:0:0:0:
237,138,186963,5,12,0:0:0:0:
217,113,187222,5,4,0:0:0:0:
217,113,187352,5,8,0:0:0:0:
217,113,187482,5,0,0:0:0:0:
299,188,187612,5,8,0:0:0:0:
299,188,187742,5,8,0:0:0:0:
299,188,187872,5,8,0:0:0:0:
299,188,188002,5,0,0:0:0:0:
299,188,188132,5,8,0:0:0:0:
299,188,188261,5,0,0:0:0:0:
95,135,188391,5,8,0:0:0:0:
114,133,188521,5,8,0:0:0:0:
114,133,188651,5,0,0:0:0:0:
226,93,188781,5,12,0:0:0:0:
226,93,188911,5,0,0:0:0:0:
226,93,189041,5,8,0:0:0:0:
226,93,189171,5,8,0:0:0:0:
133,138,189300,5,0,0:0:0:0:
184,133,189430,5,0,0:0:0:0:
184,133,189560,5,8,0:0:0:0:
184,133,189690,5,0,0:0:0:0:
212,130,189820,5,8,0:0:0:0:
212,130,189950,5,8,0:0:0:0:
212,130,190080,5,0,0:0:0:0:
212,130,190210,5,0,0:0:0:0:
325,111,190339,5,12,0:0:0:0:
325,111,190632,5,12,0:0:0:0:
325,111,190924,5,12,0:0:0:0:
315,84,191119,5,8,0:0:0:0:
315,84,191216,5,8,0:0:0:0:
315,84,191313,5,0,0:0:0:0:
315,84,191508,5,12,0:0:0:0:
279,115,191703,5,0,0:0:0:0:
427,122,191800,5,8,0:0:0:0:
222,89,191898,5,0,0:0:0:0:
223,83,191995,5,0,0:0:0:0:
222,89,192093,5,8,0:0:0:0:
252,100,192287,5,8,0:0:0:0:
252,100,192385,5,0,0:0:0:0:
252,100,192482,5,8,0:0:0:0:
236,53,192677,5,0,0:0:0:0:
236,53,192774,5,0,0:0:0:0:
236,53,192872,5,8,0:0:0:0:
236,53,192969,5,0,0:0:0:0:
236,53,193067,5,8,0:0:0:0:
236,53,193164,5,8,0:0:0:0:
236,53,193261,5,0,0:0:0:0:
236,53,193456,5,8,0:0:0:0:
137,123,193651,5,0,0:0:0:0:
137,123,193748,5,0,0:0:0:0:
137,123,193846,5,8,0:0:0:0:
177,135,193943,5,0,0:0:0:0:
219,48,194041,5,8,0:0:0:0:
219,48,194138,5,0,0:0:0:0:
219,48,194235,5,8,0:0:0:0:
212,57,194333,5,8,0:0:0:0:
212,57,194430,5,8,0:0:0:0:
212,57,194528,5,0,0:0:0:0:
214,40,194625,5,8,0:0:0:0:
214,40,194722,5,0,0:0:0:0:
214,40,194820,5,0,0:0:0:0:
117,135,194917,5,0,0:0:0:0:
190,103,195015,5,8,0:0:0:0:
309,112,195210,5,0,0:0:0:0:
190,103,195307,5,8,0:0:0:0:
309,112,195404,5,0,0:0:0:0:
135,150,195502,5,0,0:0:0:0:
190,103,195599,5,8,0:0:0:0:
135,149,195697,5,0,0:0:0:0:
203,124,195794,5,8,0:0:0:0:
217,120,195989,5,0,0:0:0:0:
217,120,196086,5,8,0:0:0:0:
217,120,196184,5,0,0:0:0:0:
217,120,196281,5,8,0:0:0:0:
239,93,196378,5,8,0:0:0:0:
220,165,196476,5,0,0:0:0:0:
239,93,196573,5,8,0:0:0:0:
217,75,196671,5,8,0:0:0:0:
217,75,196768,5,0,0:0:0:0:
217,75,196865,5,8,0:0:0:0:
170,163,196963,5,0,0:0:0:0:
240,134,197060,5,0,0:0:0:0:
240,134,197158,5,8,0:0:0:0:
240,134,197255,5,0,0:0:0:0:
240,134,197352,5,8,0:0:0:0:
119,170,197450,5,8,0:0:0:0:
119,170,197547,5,8,0:0:0:0:
260,129,197645,5,0,0:0:0:0:
217,126,197742,5,8,0:0:0:0:
217,126,197839,5,0,0:0:0:0:
217,126,197937,5,8,0:0:0:0:
217,126,198034,5,8,0:0:0:0:
217,126,198132,5,0,0:0:0:0:
176,120,198229,5,0,0:0:0:0:
176,120,198326,5,8,0:0:0:0:
176,120,198521,5,8,0:0:0:0:
176,120,198619,5,0,0:0:0:0:
176,120,198716,5,8,0:0:0:0:
154,158,198911,5,0,0:0:0:0:
138,146,199008,5,0,0:0:0:0:
138,146,199106,5,8,0:0:0:0:
138,146,199203,5,0,0:0:0:0:
138,146,199300,5,8,0:0:0:0:
138,146,199398,5,8,0:0:0:0:
138,146,199495,5,0,0:0:0:0:
138,146,199690,5,8,0:0:0:0:
207,148,199885,5,0,0:0:0:0:
207,148,199982,5,0,0:0:0:0:
207,148,200080,5,8,0:0:0:0:
191,113,200177,5,0,0:0:0:0:
191,113,200274,5,8,0:0:0:0:
238,100,200372,5,0,0:0:0:0:
238,100,200469,5,8,0:0:0:0:
238,100,200567,5,8,0:0:0:0:
238,100,200664,5,8,0:0:0:0:
238,100,200761,5,0,0:0:0:0:
125,158,200859,5,8,0:0:0:0:
125,158,200956,5,8,0:0:0:0:
125,158,201054,5,0,0:0:0:0:
125,158,201151,5,0,0:0:0:0:
220,164,201248,5,8,0:0:0:0:
165,148,201443,5,0,0:0:0:0:
244,120,201541,5,8,0:0:0:0:
95,155,201638,5,0,0:0:0:0:
95,155,201735,5,0,0:0:0:0:
134,159,201833,5,8,0:0:0:0:
134,159,201930,5,0,0:0:0:0:
134,159,202028,5,8,0:0:0:0:
183,116,202222,5,0,0:0:0:0:
183,116,202320,5,8,0:0:0:0:
226,148,202417,5,0,0:0:0:0:
226,148,202515,5,8,0:0:0:0:
289,82,202612,5,8,0:0:0:0:
289,82,202710,5,0,0:0:0:0:
289,82,202807,5,8,0:0:0:0:
242,68,202904,5,8,0:0:0:0:
242,68,203002,5,0,0:0:0:0:
242,68,203099,5,8,0:0:0:0:
242,68,203197,5,0,0:0:0:0:
242,68,203294,5,0,0:0:0:0:
310,64,203391,5,8,0:0:0:0:
310,64,203489,5,0,0:0:0:0:
310,64,203586,5,8,0:0:0:0:
310,64,203684,5,8,0:0:0:0:
310,64,203781,5,8,0:0:0:0:
310,64,203878,5,0,0:0:0:0:
310,64,203976,5,8,0:0:0:0:
310,64,204073,5,0,0:0:0:0:
310,64,204171,5,0,0:0:0:0:
310,163,204365,5,8,0:0:0:0:
310,163,204463,5,0,0:0:0:0:
310,163,204560,5,8,0:0:0:0:
310,163,204658,5,8,0:0:0:0:
310,163,204755,5,8,0:0:0:0:
128,137,204852,5,0,0:0:0:0:
115,105,204950,5,8,0:0:0:0:
110,130,205047,5,0,0:0:0:0:
110,130,205145,5,8,0:0:0:0:
110,130,205242,5,8,0:0:0:0:
212,84,205339,5,0,0:0:0:0:
212,84,205437,5,0,0:0:0:0:
212,84,205534,5,8,0:0:0:0:
214,92,205632,5,0,0:0:0:0:
214,92,205729,5,8,0:0:0:0:
235,53,205826,5,8,0:0:0:0:
283,51,205924,5,0,0:0:0:0:
283,51,206021,5,8,0:0:0:0:
283,51,206118,5,0,0:0:0:0:
283,51,206216,5,8,0:0:0:0:
283,51,206313,5,8,0:0:0:0:
278,53,206411,5,0,0:0:0:0:
268,58,206508,5,8,0:0:0:0:
106,123,206606,5,0,0:0:0:0:
106,123,206703,5,8,0:0:0:0:
163,96,206800,5,8,0:0:0:0:
269,54,206898,5,8,0:0:0:0:
237,78,206995,5,0,0:0:0:0:
237,78,207092,5,8,0:0:0:0:
212,79,207190,5,0,0:0:0:0:
212,79,207287,5,8,0:0:0:0:
212,79,207385,5,8,0:0:0:0:
106,157,207482,5,0,0:0:0:0:
281,25,207580,5,0,0:0:0:0:
106,157,207677,5,8,0:0:0:0:
281,25,207774,5,0,0:0:0:0:
221,49,207872,5,8,0:0:0:0:
160,124,207969,5,8,0:0:0:0:
160,124,208067,5,0,0:0:0:0:
280,75,208164,5,8,0:0:0:0:
280,75,208261,5,0,0:0:0:0:
285,89,208359,5,0,0:0:0:0:
285,89,208456,5,8,0:0:0:0:
334,99,208554,5,0,0:0:0:0:
327,80,208651,5,8,0:0:0:0:
327,80,208748,5,8,0:0:0:0:
327,80,208846,5,8,0:0:0:0:
327,80,208943,5,0,0:0:0:0:
327,80,209041,5,0,0:0:0:0:
206,103,209138,5,0,0:0:0:0:
206,103,209235,5,8,0:0:0:0:
206,103,209333,5,0,0:0:0:0:
206,103,209430,5,8,0:0:0:0:
232,103,209528,5,0,0:0:0:0:
232,103,209625,5,0,0:0:0:0:
232,103,209722,5,8,0:0:0:0:
290,112,209820,5,8,0:0:0:0:
290,112,209917,5,0,0:0:0:0:
305,118,210015,5,8,0:0:0:0:
305,118,210112,5,0,0:0:0:0:
305,118,210210,5,8,0:0:0:0:
305,118,210307,5,8,0:0:0:0:
305,118,210404,5,0,0:0:0:0:
77,140,210502,5,8,0:0:0:0:
305,118,210599,5,8,0:0:0:0:
268,33,210697,5,0,0:0:0:0:
268,33,210794,5,8,0:0:0:0:
263,27,210891,5,8,0:0:0:0:
268,33,210989,5,8,0:0:0:0:
205,120,211086,5,0,0:0:0:0:
225,88,211184,5,8,0:0:0:0:
225,88,211281,5,0,0:0:0:0:
225,88,211378,5,8,0:0:0:0:
225,88,211476,5,8,0:0:0:0:
225,88,211573,5,0,0:0:0:0:
225,88,211671,5,0,0:0:0:0:
225,88,211768,5,8,0:0:0:0:
230,85,211865,5,0,0:0:0:0:
230,85,211963,5,8,0:0:0:0:
230,85,212060,5,8,0:0:0:0:
283,51,212158,5,0,0:0:0:0:
283,51,212255,5,8,0:0:0:0:
283,51,212352,5,0,0:0:0:0:
283,51,212450,5,8,0:0:0:0:
283,51,212547,5,8,0:0:0:0:
278,53,212645,5,0,0:0:0:0:
268,58,212742,5,8,0:0:0:0:
106,123,212840,5,0,0:0:0:0:
106,123,212937,5,8,0:0:0:0:
163,96,213034,5,8,0:0:0:0:
269,54,213132,5,8,0:0:0:0:
237,78,213229,5,0,0:0:0:0:
237,78,213326,5,8,0:0:0:0:
212,79,213424,5,0,0:0:0:0:
67,152,213521,5,8,0:0:0:0:
67,152,213619,5,8,0:0:0:0:
67,152,213716,5,0,0:0:0:0:
166,147,213813,5,0,0:0:0:0:
166,147,213911,5,0,0:0:0:0:
298,111,214008,5,8,0:0:0:0:
298,111,214106,5,8,0:0:0:0:
230,85,214203,5,8,0:0:0:0:
230,85,214300,5,0,0:0:0:0:
230,85,214398,5,8,0:0:0:0:
298,111,214495,5,8,0:0:0:0:
141,153,214593,5,0,0:0:0:0:
42,151,214690,5,0,0:0:0:0:
238,95,214787,5,8,0:0:0:0:
141,152,214885,5,0,0:0:0:0:
141,153,214982,5,0,0:0:0:0:
278,89,215080,5,8,0:0:0:0:
225,117,215274,5,4,0:0:0:0:
225,117,215567,5,4,0:0:0:0:
225,117,215859,5,4,0:0:0:0:
225,117,216054,5,12,0:0:0:0:
295,138,216443,5,8,0:0:0:0:
413,96,216833,5,8,0:0:0:0:
413,96,216963,5,8,0:0:0:0:
413,96,217093,5,8,0:0:0:0:
413,96,217222,5,0,0:0:0:0:
413,96,217352,5,0,0:0:0:0:
413,96,217482,5,0,0:0:0:0:
413,96,217612,5,8,0:0:0:0:
86,159,217807,5,0,0:0:0:0:
425,141,217872,5,0,0:0:0:0:
425,141,217937,5,0,0:0:0:0:
425,141,218002,5,8,0:0:0:0:
316,140,218391,5,4,0:0:0:0:
238,67,219950,5,12,0:0:0:0:
250,117,221508,5,4,0:0:0:0:
250,117,223067,5,4,0:0:0:0:
475,262,223651,5,0,0:0:0:0:
328,111,223716,5,0,0:0:0:0:
328,111,223781,5,0,0:0:0:0:
328,111,223846,5,8,0:0:0:0:
328,111,223976,5,0,0:0:0:0:
328,111,224106,5,0,0:0:0:0:
328,111,224235,5,8,0:0:0:0:
328,111,224365,5,8,0:0:0:0:
328,111,224495,5,8,0:0:0:0:
328,111,224625,5,4,0:0:0:0:
181,146,224820,5,8,0:0:0:0:
187,73,224918,5,0,0:0:0:0:
187,73,225113,5,0,0:0:0:0:
187,73,225210,5,8,0:0:0:0:
243,56,225307,5,0,0:0:0:0:
211,109,225405,5,8,0:0:0:0:
243,56,225600,5,8,0:0:0:0:
103,132,225697,5,0,0:0:0:0:
222,154,225794,5,8,0:0:0:0:
394,231,225892,5,8,0:0:0:0:
243,88,225989,5,0,0:0:0:0:
179,110,226184,5,0,0:0:0:0:
203,89,226379,5,8,0:0:0:0:
362,184,226476,5,0,0:0:0:0:
203,89,226671,5,0,0:0:0:0:
203,89,226768,5,8,0:0:0:0:
170,138,226866,5,8,0:0:0:0:
296,115,226963,5,0,0:0:0:0:
74,150,227158,5,8,0:0:0:0:
157,126,227255,5,0,0:0:0:0:
201,103,227352,5,0,0:0:0:0:
195,108,227450,5,0,0:0:0:0:
195,108,227547,5,8,0:0:0:0:
163,196,227645,5,0,0:0:0:0:
65,146,227742,5,8,0:0:0:0:
65,146,227839,5,8,0:0:0:0:
368,229,227937,5,8,0:0:0:0:
65,146,228034,5,8,0:0:0:0:
368,229,228132,5,8,0:0:0:0:
368,229,228229,5,8,0:0:0:0:
368,229,228326,5,8,0:0:0:0:
368,229,228424,5,8,0:0:0:0:
368,229,228521,5,0,0:0:0:0:
368,229,228619,5,0,0:0:0:0:
368,229,228716,5,0,0:0:0:0:
368,229,228813,5,0,0:0:0:0:
368,229,228911,5,0,0:0:0:0:
368,229,229008,5,0,0:0:0:0:
368,229,229106,5,0,0:0:0:0:
368,229,229203,5,0,0:0:0:0:
368,229,229300,5,8,0:0:0:0:
195,87,229398,5,8,0:0:0:0:
195,87,229495,5,0,0:0:0:0:
195,87,229593,5,8,0:0:0:0:
195,87,229690,5,8,0:0:0:0:
195,87,229787,5,0,0:0:0:0:
195,87,229885,5,8,0:0:0:0:
195,87,229982,5,0,0:0:0:0:
287,144,230080,5,8,0:0:0:0:
286,121,230177,5,8,0:0:0:0:
286,121,230274,5,0,0:0:0:0:
505,172,230469,5,12,0:0:0:0:
505,172,230859,5,4,0:0:0:0:
225,122,231054,5,8,0:0:0:0:
225,122,231248,5,0,0:0:0:0:
225,122,231346,5,0,0:0:0:0:
225,122,231443,5,8,0:0:0:0:
230,108,231638,5,0,0:0:0:0:
230,108,231735,5,0,0:0:0:0:
230,108,231833,5,8,0:0:0:0:
230,108,231930,5,0,0:0:0:0:
230,108,232028,5,8,0:0:0:0:
230,108,232125,5,8,0:0:0:0:
230,108,232222,5,8,0:0:0:0:
230,108,232320,5,8,0:0:0:0:
230,108,232417,5,0,0:0:0:0:
307,95,232612,5,8,0:0:0:0:
307,95,232710,5,0,0:0:0:0:
307,95,232807,5,8,0:0:0:0:
162,155,232904,5,8,0:0:0:0:
162,155,233002,5,0,0:0:0:0:
162,155,233099,5,0,0:0:0:0:
250,104,233197,5,8,0:0:0:0:
250,104,233294,5,0,0:0:0:0:
250,104,233391,5,8,0:0:0:0:
250,104,233489,5,0,0:0:0:0:
250,104,233586,5,8,0:0:0:0:
250,104,233684,5,8,0:0:0:0:
250,104,233781,5,0,0:0:0:0:
35,149,233976,5,0,0:0:0:0:
319,107,234171,5,8,0:0:0:0:
319,107,234365,5,0,0:0:0:0:
319,107,234463,5,0,0:0:0:0:
319,107,234560,5,8,0:0:0:0:
319,107,234755,5,0,0:0:0:0:
319,107,234852,5,0,0:0:0:0:
319,107,234950,5,8,0:0:0:0:
319,107,235047,5,0,0:0:0:0:
107,141,235242,5,0,0:0:0:0:
166,133,235339,5,8,0:0:0:0:
125,152,235534,5,8,0:0:0:0:
175,91,235632,5,0,0:0:0:0:
175,91,235729,5,0,0:0:0:0:
125,152,235826,5,8,0:0:0:0:
175,91,235924,5,0,0:0:0:0:
175,91,236021,5,0,0:0:0:0:
125,152,236119,5,8,0:0:0:0:
175,91,236216,5,0,0:0:0:0:
175,91,236313,5,8,0:0:0:0:
90,144,236411,5,8,0:0:0:0:
90,144,236508,5,0,0:0:0:0:
82,154,236606,5,0,0:0:0:0:
84,154,236703,5,8,0:0:0:0:
86,154,236800,5,8,0:0:0:0:
86,154,236898,5,8,0:0:0:0:
140,137,236995,5,0,0:0:0:0:
258,118,237093,5,8,0:0:0:0:
245,160,237191,5,0,0:0:0:0:
245,160,237288,5,0,0:0:0:0:
245,160,237385,5,8,0:0:0:0:
245,160,237483,5,8,0:0:0:0:
378,200,237580,5,0,0:0:0:0:
378,200,237678,5,8,0:0:0:0:
378,200,237775,5,0,0:0:0:0:
378,200,237872,5,8,0:0:0:0:
212,153,237969,5,8,0:0:0:0:
378,200,238067,5,0,0:0:0:0:
378,200,238165,5,0,0:0:0:0:
212,153,238262,5,8,0:0:0:0:
217,115,238359,5,8,0:0:0:0:
217,115,238457,5,0,0:0:0:0:
217,115,238554,5,0,0:0:0:0:
217,115,238652,5,8,0:0:0:0:
161,140,238749,5,0,0:0:0:0:
161,140,238846,5,0,0:0:0:0:
161,140,238944,5,8,0:0:0:0:
259,118,239041,5,8,0:0:0:0:
161,140,239138,5,0,0:0:0:0:
161,140,239236,5,8,0:0:0:0:
161,140,239333,5,0,0:0:0:0:
259,118,239431,5,8,0:0:0:0:
166,142,239528,5,8,0:0:0:0:
166,142,239626,5,0,0:0:0:0:
168,142,239723,5,8,0:0:0:0:
105,144,239820,5,0,0:0:0:0:
244,147,239918,5,0,0:0:0:0:
234,159,240015,5,8,0:0:0:0:
194,168,240210,5,4,0:0:0:0:
194,168,240502,5,4,0:0:0:0:
194,168,240794,5,4,0:0:0:0:
194,168,240989,5,4,0:0:0:0:
389,233,241184,5,8,0:0:0:0:
389,233,241281,5,8,0:0:0:0:
389,233,241379,5,0,0:0:0:0:
389,233,241476,5,0,0:0:0:0:
389,233,241574,5,0,0:0:0:0:
389,233,241768,5,12,0:0:0:0:
389,226,242061,5,12,0:0:0:0:
389,233,242353,5,12,0:0:0:0:
389,233,242548,5,12,0:0:0:0:
189,133,242937,5,12,0:0:0:0:
109,131,243326,5,0,0:0:0:0:
109,131,243521,5,0,0:0:0:0:
109,131,243716,5,0,0:0:0:0:
109,131,243911,5,0,0:0:0:0:
276,169,244106,5,0,0:0:0:0:
276,169,244171,5,0,0:0:0:0:
66,149,244235,5,0,0:0:0:0:
276,169,244300,5,0,0:0:0:0:
385,168,244495,5,12,0:0:0:0:
306,86,244885,5,4,0:0:0:0:
81,113,245080,5,8,0:0:0:0:
226,96,245274,5,0,0:0:0:0:
226,96,245372,5,0,0:0:0:0:
226,96,245469,5,8,0:0:0:0:
261,107,245567,5,8,0:0:0:0:
197,71,245664,5,0,0:0:0:0:
197,71,245859,5,8,0:0:0:0:
225,71,245956,5,0,0:0:0:0:
225,71,246151,5,0,0:0:0:0:
52,133,246248,5,8,0:0:0:0:
310,84,246346,5,0,0:0:0:0:
225,71,246443,5,8,0:0:0:0:
290,89,246638,5,8,0:0:0:0:
290,89,246735,5,8,0:0:0:0:
57,153,246833,5,0,0:0:0:0:
290,89,246930,5,0,0:0:0:0:
126,159,247028,5,8,0:0:0:0:
126,159,247222,5,0,0:0:0:0:
105,169,247320,5,0,0:0:0:0:
198,160,247417,5,8,0:0:0:0:
198,160,247515,5,0,0:0:0:0:
252,104,247612,5,8,0:0:0:0:
252,104,247710,5,8,0:0:0:0:
252,104,247807,5,8,0:0:0:0:
252,104,247904,5,8,0:0:0:0:
252,104,248002,5,0,0:0:0:0:
286,106,248197,5,8,0:0:0:0:
239,33,248294,5,0,0:0:0:0:
286,106,248391,5,8,0:0:0:0:
286,106,248489,5,8,0:0:0:0:
286,106,248586,5,0,0:0:0:0:
325,114,248684,5,8,0:0:0:0:
325,114,248781,5,0,0:0:0:0:
182,146,248976,5,8,0:0:0:0:
182,146,249073,5,8,0:0:0:0:
85,137,249268,5,0,0:0:0:0:
85,137,249365,5,8,0:0:0:0:
323,138,249463,5,8,0:0:0:0:
319,147,249560,5,0,0:0:0:0:
127,142,249755,5,8,0:0:0:0:
217,65,249852,5,0,0:0:0:0:
92,151,250047,5,0,0:0:0:0:
105,144,250145,5,8,0:0:0:0:
310,89,250242,5,8,0:0:0:0:
106,144,250339,5,0,0:0:0:0:
399,178,250437,5,0,0:0:0:0:
206,88,250534,5,8,0:0:0:0:
206,88,250632,5,8,0:0:0:0:
142,122,250729,5,0,0:0:0:0:
142,122,250826,5,0,0:0:0:0:
142,122,250924,5,0,0:0:0:0:
97,270,251021,5,0,0:0:0:0:
153,154,251119,5,8,0:0:0:0:
141,136,251216,5,0,0:0:0:0:
286,119,251313,5,8,0:0:0:0:
286,119,251411,5,8,0:0:0:0:
226,106,251508,5,8,0:0:0:0:
257,36,251606,5,0,0:0:0:0:
257,36,251703,5,8,0:0:0:0:
257,36,251898,5,0,0:0:0:0:
266,49,252093,5,8,0:0:0:0:
283,50,252190,5,0,0:0:0:0:
284,49,252385,5,0,0:0:0:0:
284,49,252482,5,8,0:0:0:0:
143,120,252580,5,0,0:0:0:0:
285,38,252677,5,0,0:0:0:0:
285,38,252872,5,8,0:0:0:0:
94,145,252969,5,8,0:0:0:0:
366,159,253067,5,0,0:0:0:0:
213,69,253164,5,0,0:0:0:0:
213,69,253261,5,8,0:0:0:0:
62,147,253359,5,0,0:0:0:0:
259,70,253456,5,8,0:0:0:0:
259,70,253651,5,8,0:0:0:0:
259,70,253748,5,0,0:0:0:0:
230,93,253846,5,8,0:0:0:0:
363,82,253943,5,8,0:0:0:0:
363,82,254041,5,8,0:0:0:0:
363,82,254138,5,8,0:0:0:0:
363,82,254235,5,0,0:0:0:0:
340,83,254430,5,0,0:0:0:0:
340,83,254528,5,8,0:0:0:0:
150,127,254625,5,0,0:0:0:0:
150,127,254722,5,0,0:0:0:0:
150,127,254820,5,8,0:0:0:0:
212,75,255015,5,8,0:0:0:0:
212,75,255112,5,0,0:0:0:0:
212,75,255210,5,8,0:0:0:0:
232,61,255307,5,8,0:0:0:0:
179,50,255404,5,0,0:0:0:0:
242,49,255502,5,0,0:0:0:0:
259,38,255599,5,8,0:0:0:0:
265,104,255794,5,0,0:0:0:0:
244,106,255891,5,0,0:0:0:0:
244,106,255989,5,8,0:0:0:0:
244,106,256086,5,0,0:0:0:0:
244,106,256184,5,8,0:0:0:0:
244,106,256281,5,8,0:0:0:0:
244,106,256378,5,0,0:0:0:0:
244,106,256476,5,8,0:0:0:0:
244,106,256573,5,0,0:0:0:0:
244,106,256671,5,0,0:0:0:0:
244,106,256768,5,8,0:0:0:0:
244,106,256865,5,0,0:0:0:0:
244,106,256963,5,8,0:0:0:0:
244,106,257060,5,8,0:0:0:0:
244,106,257158,5,0,0:0:0:0:
196,88,257255,5,8,0:0:0:0:
226,86,257352,5,0,0:0:0:0:
222,46,257450,5,8,0:0:0:0:
222,46,257547,5,8,0:0:0:0:
222,46,257645,5,0,0:0:0:0:
222,46,257742,5,8,0:0:0:0:
222,46,257839,5,8,0:0:0:0:
222,46,257937,5,0,0:0:0:0:
222,46,258034,5,8,0:0:0:0:
108,117,258132,5,8,0:0:0:0:
222,46,258229,5,0,0:0:0:0:
222,46,258326,5,0,0:0:0:0:
283,47,258424,5,8,0:0:0:0:
195,105,258521,5,0,0:0:0:0:
195,105,258619,5,0,0:0:0:0:
195,105,258716,5,8,0:0:0:0:
212,159,258911,5,0,0:0:0:0:
212,159,259008,5,0,0:0:0:0:
212,159,259106,5,0,0:0:0:0:
212,159,259300,5,12,0:0:0:0:
479,217,260274,5,0,0:0:0:0:
479,217,260339,5,0,0:0:0:0:
232,106,260404,5,0,0:0:0:0:
73,151,260469,5,8,0:0:0:0:
