osu file format v14

[General]
AudioFilename: Izayoi Warabeuta.mp3
AudioLeadIn: 1000
PreviewTime: 69363
Countdown: 0
SampleSet: Soft
StackLeniency: 0.3
Mode: 0
LetterboxInBreaks: 0
WidescreenStoryboard: 1

[Editor]
DistanceSpacing: 2.6
BeatDivisor: 3
GridSize: 4
TimelineZoom: 1.5

[Metadata]
Title:Izayoi Warabeuta
TitleUnicode:十六夜童歌
Artist:Hatsuki Yura
ArtistUnicode:葉月ゆら
Creator:kanpakyin
Version:Hard
Source:
Tags:宵闇恋想奇譚 yoiyami rensou kitan gensou Drop Japanese novelty
BeatmapID:609779
BeatmapSetID:60218

[Difficulty]
HPDrainRate:6
CircleSize:4
OverallDifficulty:6
ApproachRate:7
SliderMultiplier:1.1
SliderTickRate:1

[Events]
//Background and Video events
0,0,"bg.jpg",0,0
//Break Periods
//Storyboard Layer 0 (Background)
//Storyboard Layer 1 (Fail)
//Storyboard Layer 2 (Pass)
//Storyboard Layer 3 (Foreground)
//Storyboard Layer 4 (Overlay)
//Storyboard Sound Samples

[TimingPoints]
233,434.782608695652,4,2,2,60,1,0
13276,-100,4,2,2,50,0,0
14146,-100,4,2,1,65,0,0
14580,-100,4,2,2,65,0,0
14725,-100,4,2,1,65,0,0
18059,-100,4,2,2,65,0,0
18204,-100,4,2,1,65,0,0
20088,-100,4,2,2,65,0,0
20232,-100,4,2,1,65,0,0
21537,-100,4,2,2,65,0,0
21682,-100,4,2,1,65,0,0
22406,-100,4,2,2,65,0,0
22551,-100,4,2,1,65,0,0
25885,-100,4,2,2,65,0,0
26030,-100,4,2,1,65,0,0
28059,-100,4,2,1,65,0,1
36319,-100,4,2,2,65,0,1
36464,-100,4,2,1,65,0,1
39798,-100,4,2,2,65,0,1
40232,-100,4,2,1,65,0,1
41972,-100,4,2,1,65,0,0
43276,-100,4,2,2,65,0,0
43421,-100,4,2,1,65,0,0
46754,-100,4,2,2,65,0,0
46899,-100,4,2,1,65,0,0
50232,-100,4,2,2,65,0,0
50377,-100,4,2,1,65,0,0
54001,-100,4,2,2,65,0,0
54146,-100,4,2,1,65,0,0
57189,-100,4,2,2,65,0,0
57334,-100,4,2,1,65,0,0
67624,-100,4,2,2,65,0,0
67769,-100,4,2,1,65,0,0
69798,-100,4,2,1,65,0,1
88783,-100,4,2,2,50,0,1
88928,-100,4,2,1,65,0,1
97624,-133.333333333333,4,2,1,60,0,0
97769,-133.333333333333,4,2,2,60,0,0
100667,-133.333333333333,4,2,1,60,0,0
100812,-133.333333333333,4,2,2,60,0,0
107624,-133.333333333333,4,2,1,60,0,0
107769,-133.333333333333,4,2,2,60,0,0
110812,-133.333333333333,4,2,1,50,0,0

[Colours]
Combo1 : 72,137,56
Combo2 : 222,86,137
Combo3 : 121,87,221
Combo4 : 221,72,0

[HitObjects]
97,104,233,6,0,L|111:221,2,110,0|0|2,0:0|0:0|0:0,0:0:0:0:
259,36,1537,1,8,0:0:0:0:
259,36,1827,1,0,0:0:0:0:
317,80,1972,6,0,P|354:83|411:69,1,73.3333333333333,2|0,0:0|0:0,0:0:0:0:
426,140,2406,2,0,L|404:217,1,73.3333333333333
501,121,2841,1,2,0:0:0:0:
330,243,3276,5,8,0:0:0:0:
330,243,3711,2,0,B|297:230|297:230|258:254|215:231,1,110
116,334,4435,1,0,0:0:0:0:
62,283,4580,2,0,P|56:253|74:202,1,73.3333333333333,2|0,0:0|0:0,0:0:0:0:
40,143,5015,2,0,P|57:113|89:92,1,73.3333333333333,8|0,0:0|0:0,0:0:0:0:
97,18,5450,6,0,P|127:10|171:15,1,73.3333333333333,2|0,0:0|0:0,0:0:0:0:
217,103,5885,2,0,P|254:108|290:102,1,73.3333333333333
402,64,6319,2,0,L|366:190,1,110,2|8,0:0|0:0,0:0:0:0:
411,311,7044,5,0,0:0:0:0:
411,311,7189,2,0,P|378:319|331:305,1,73.3333333333333,2|0,0:0|0:0,0:0:0:0:
276,347,7624,2,0,L|198:334,1,73.3333333333333
76,376,8059,2,0,P|92:332|73:270,1,110,2|8,0:0|0:0,0:0:0:0:
6,143,8783,5,0,0:0:0:0:
74,117,8928,2,0,L|157:122,1,73.3333333333333,2|0,0:0|0:0,0:0:0:0:
62,192,9363,1,0,0:0:0:0:
200,60,9653,5,0,0:0:0:0:
200,60,9798,2,0,P|227:107|216:160,1,110,2|8,0:0|0:0,0:0:0:0:
116,267,10522,5,0,0:0:0:0:
234,339,10667,2,0,P|196:344|149:322,1,73.3333333333333
249,350,11102,2,0,P|218:330|206:287,1,73.3333333333333
264,368,11537,2,0,P|254:325|285:253,1,110,2|8,0:0|0:0,0:0:0:0:
410,209,12261,1,0,0:0:0:0:
453,149,12406,2,0,L|462:72,1,73.3333333333333,2|0,0:0|0:0,0:0:0:0:
450,273,13131,5,0,0:0:0:0:
341,209,13276,2,0,P|312:209|263:178,1,73.3333333333333,8|0,0:0|0:0,0:0:0:0:
267,182,13638,1,0,0:0:0:0:
264,173,13711,2,0,L|257:80,1,91.6666666666667
248,77,14146,6,0,P|212:68|168:70,1,73.3333333333333,4|0,0:1|0:0,0:0:0:0:
113,107,14580,1,8,0:0:0:0:
54,241,14870,1,0,0:0:0:0:
105,293,15015,2,0,L|94:366,1,73.3333333333333,0|0,1:0|0:0,0:0:0:0:
180,322,15450,2,0,P|184:275|136:219,1,110,0|0,0:0|1:0,0:0:0:0:
337,313,16175,5,0,0:0:0:0:
337,313,16319,2,0,L|422:308,1,73.3333333333333
482,324,16754,2,0,P|490:277|468:207,1,110,0|8,1:0|0:1,0:0:0:0:
259,166,17624,6,0,P|234:110|241:53,1,110,0|8,1:0|0:0,0:0:0:0:
297,19,18204,1,0,0:0:0:0:
352,66,18348,1,0,0:0:0:0:
213,90,18493,2,0,P|161:101|98:82,1,110,0|0,1:0|0:0,0:0:0:0:
52,224,19218,5,2,0:1:0:0:
52,224,19290,1,0,0:0:0:0:
52,224,19363,2,0,P|63:192|57:144,1,73.3333333333333,0|2,1:2|0:1,0:0:0:0:
27,87,19798,1,0,0:0:0:0:
15,317,20088,5,2,0:0:0:0:
15,317,20232,2,0,L|103:309,1,73.3333333333333,0|2,1:0|0:1,0:0:0:0:
238,348,20667,2,0,P|202:349|168:337,1,73.3333333333333,2|2,0:1|0:1,0:0:0:0:
151,251,21102,6,0,B|160:180|160:180|146:145,2,110,4|8|0,0:1|0:0|1:1,0:0:0:0:
347,116,22406,2,0,B|328:87|328:87|338:1,1,110,8|0,0:0|1:0,0:0:0:0:
374,209,23131,1,8,0:0:0:0:
374,209,23276,2,0,L|280:204,1,73.3333333333333,0|8,0:0|0:0,0:0:0:0:
394,303,23711,2,0,P|446:310|499:282,1,110,0|8,1:0|0:1,0:0:0:0:
67,323,24580,6,0,B|78:282|78:282|61:235|87:194,1,110,0|0,1:0|0:0,0:0:0:0:
190,135,25305,1,0,0:0:0:0:
190,135,25450,2,0,P|135:154|78:133,1,110,0|8,1:0|0:0,0:0:0:0:
53,77,26030,1,0,0:0:0:0:
103,28,26175,1,0,0:0:0:0:
190,135,26319,6,0,L|274:142,1,73.3333333333333,0|2,1:0|0:1,0:0:0:0:
341,268,26754,2,0,L|328:195,1,73.3333333333333,0|2,0:0|0:1,0:0:0:0:
444,161,27189,2,0,P|405:129|314:124,1,110,0|8,1:0|0:0,0:0:0:0:
122,313,27914,5,0,0:0:0:0:
79,254,28059,2,0,L|-11:272,1,73.3333333333333,6|0,0:0|0:0,0:0:0:0:
110,187,28493,2,0,P|111:158|89:115,1,73.3333333333333,2|0,0:0|0:0,0:0:0:0:
184,208,28928,2,0,P|213:208|249:185,1,73.3333333333333,2|0,0:0|0:0,0:0:0:0:
310,150,29363,2,0,L|421:165,1,110,0|2,0:0|0:0,0:0:0:0:
465,304,30088,5,2,0:0:0:0:
405,345,30232,2,0,P|372:358|309:349,1,73.3333333333333,0|2,0:0|0:1,0:0:0:0:
269,323,30667,2,0,L|288:197,1,110,2|8,0:0|0:1,0:0:0:0:
178,113,31392,5,0,0:0:0:0:
178,113,31537,2,0,L|191:206,1,73.3333333333333,6|0,0:0|0:0,0:0:0:0:
236,49,31972,2,0,P|213:31|162:28,1,73.3333333333333,2|0,0:0|0:0,0:0:0:0:
262,140,32406,2,0,P|290:127|317:86,1,73.3333333333333,2|0,0:0|0:0,0:0:0:0:
372,47,32841,6,0,L|481:68,1,110,0|8,0:0|0:0,0:0:0:0:
414,199,33566,1,2,0:0:0:0:
434,269,33711,2,0,P|429:313|398:343,1,73.3333333333333,0|2,0:0|0:1,0:0:0:0:
414,199,34146,2,0,P|450:197|488:221,1,73.3333333333333,2|2,0:0|0:1,0:0:0:0:
351,273,34580,6,0,B|301:305|289:261|233:288,1,110,2|4,0:1|0:1,0:0:0:0:
87,291,35305,1,0,0:0:0:0:
87,291,35450,2,0,L|68:191,1,73.3333333333333,2|0,0:0|0:0,0:0:0:0:
14,173,35885,2,0,P|8:164|3:99,1,73.3333333333333,2|0,0:0|0:0,0:0:0:0:
125,162,36319,6,0,L|225:151,1,73.3333333333333,10|0,0:0|0:0,0:0:0:0:
256,269,36754,2,0,P|266:229|243:173,1,73.3333333333333,2|2,0:0|0:1,0:0:0:0:
299,132,37189,2,0,L|377:127,1,73.3333333333333,0|2,0:0|0:1,0:0:0:0:
455,36,37624,2,0,P|459:75|441:111,1,73.3333333333333,2|0,0:0|0:0,0:0:0:0:
429,177,38059,6,0,L|455:310,1,110,8|2,0:1|0:0,0:0:0:0:
244,336,38928,2,0,B|197:320|197:320|188:308|188:308|137:286,1,110,2|2,0:0|0:0,0:0:0:0:
37,205,39653,5,0,0:0:0:0:
37,205,39798,2,0,P|30:171|39:129,1,73.3333333333333,8|2,0:0|0:0,0:0:0:0:
95,96,40232,2,0,L|184:104,1,73.3333333333333,2|2,0:0|0:0,0:0:0:0:
234,69,40667,1,0,0:0:0:0:
244,61,40957,1,2,0:1:0:0:
325,156,41102,1,2,0:0:0:0:
257,286,41392,5,0,0:0:0:0:
257,286,41464,1,0,0:0:0:0:
257,286,41537,2,0,L|369:271,1,110,8|2,0:0|0:0,0:0:0:0:
424,96,42406,6,0,P|436:60|425:6,1,73.3333333333333,2|0,0:0|0:0,0:0:0:0:
451,161,42841,2,0,P|420:125|331:111,1,110,2|8,0:0|0:0,0:0:0:0:
220,146,43566,5,0,0:0:0:0:
220,146,43638,1,0,0:0:0:0:
220,146,43711,2,0,P|218:187|243:228,1,73.3333333333333,2|2,0:0|0:0,0:0:0:0:
257,98,44146,2,0,P|214:127|140:114,1,110,0|2,0:0|0:0,0:0:0:0:
97,275,44870,5,0,0:1:0:0:
51,217,45015,2,0,L|40:142,1,73.3333333333333,8|0,0:1|0:0,0:0:0:0:
87,347,45450,2,0,L|97:269,1,73.3333333333333,2|0,0:0|0:0,0:0:0:0:
202,213,45885,2,0,L|120:201,1,73.3333333333333,2|0,0:0|0:0,0:0:0:0:
12,291,46319,1,2,0:0:0:0:
128,122,46609,5,0,0:0:0:0:
201,165,46754,2,0,P|202:226|167:269,1,110,8|2,0:0|0:0,0:0:0:0:
66,363,47479,5,2,0:0:0:0:
102,299,47624,2,0,P|149:272|218:281,1,110,0|2,0:0|0:0,0:0:0:0:
345,311,48348,1,2,0:1:0:0:
345,311,48421,1,2,0:1:0:0:
345,311,48493,2,0,L|421:339,1,73.3333333333333,2|2,0:1|0:1,0:0:0:0:
488,254,48928,6,0,P|509:212|502:137,1,110,4|2,0:1|0:0,0:0:0:0:
307,5,49798,2,0,B|297:38|297:38|326:72|312:123,1,110,2|8,0:0|0:0,0:0:0:0:
173,141,50522,2,0,L|149:128,2,18.3333333333333,0|0|2,0:0|0:0|0:0,0:0:0:0:
270,250,50957,1,2,0:0:0:0:
328,206,51102,6,0,P|350:211|392:243,1,73.3333333333333,0|2,0:0|0:0,0:0:0:0:
462,225,51537,2,0,B|473:186|473:186|470:154|470:154|480:113,1,110,2|8,0:0|0:1,0:0:0:0:
332,103,52261,5,0,0:0:0:0:
266,135,52406,2,0,P|230:139|175:119,1,73.3333333333333,2|0,0:0|0:0,0:0:0:0:
125,104,52841,2,0,P|98:86|73:47,1,73.3333333333333,2|0,0:0|0:0,0:0:0:0:
135,177,53276,6,0,B|124:220|147:260|147:260|141:280|110:270,1,110,2|0,0:0|0:0,0:0:0:0:
272,342,54001,6,0,L|307:344,2,18.3333333333333,0|2|2,0:0|0:0|0:0,0:0:0:0:
74,342,54435,2,0,P|45:295|53:231,1,110,2|2,0:0|0:1,0:0:0:0:
100,190,55015,2,0,L|176:161,1,73.3333333333333,2|0,0:0|0:0,0:0:0:0:
34,147,55450,1,8,0:0:0:0:
239,353,55885,5,2,0:0:0:0:
321,102,56319,1,2,0:0:0:0:
270,244,56609,1,0,0:0:0:0:
205,279,56754,2,0,P|183:283|130:269,1,73.3333333333333,2|0,0:0|0:0,0:0:0:0:
67,303,57189,2,0,L|85:376,1,73.3333333333333,8|0,0:0|0:0,0:0:0:0:
28,235,57624,6,0,P|10:186|17:123,1,110,2|0,0:0|0:0,0:0:0:0:
76,89,58204,1,0,0:0:0:0:
144,114,58348,1,0,0:0:0:0:
26,215,58493,6,0,P|0:180|-5:93,1,110,2|8,0:0|0:1,0:0:0:0:
202,58,59363,6,0,B|220:60|240:46|240:46|252:83|228:122,1,110,2|2,0:0|0:0,0:0:0:0:
342,211,60088,1,0,0:0:0:0:
342,211,60232,2,0,L|419:206,1,73.3333333333333,2|0,0:0|0:0,0:0:0:0:
477,252,60667,1,8,0:1:0:0:
477,252,60957,5,0,0:0:0:0:
448,140,61102,2,0,P|438:112|446:48,1,73.3333333333333,2|0,0:0|0:0,0:0:0:0:
376,28,61537,2,0,P|336:55|257:41,1,110,0|2,0:0|0:0,0:0:0:0:
85,134,62261,5,2,0:1:0:0:
85,134,62334,1,2,0:1:0:0:
85,134,62406,2,0,L|100:214,1,73.3333333333333,2|2,0:1|0:1,0:0:0:0:
139,72,62841,6,0,P|97:49|34:62,1,110,4|2,0:1|0:0,0:0:0:0:
170,150,63566,1,0,0:0:0:0:
170,150,63711,2,0,L|264:138,1,73.3333333333333,2|0,0:0|0:0,0:0:0:0:
367,219,64146,6,0,P|334:222|285:199,1,73.3333333333333,8|0,0:0|0:0,0:0:0:0:
327,23,64580,2,0,B|343:60|343:60|319:142,1,110,2|0,0:0|0:0,0:0:0:0:
448,203,65305,5,0,0:0:0:0:
349,298,65450,2,0,L|374:371,1,73.3333333333333,2|0,0:0|0:0,0:0:0:0:
367,219,65885,1,8,0:1:0:0:
172,321,66319,6,0,L|85:323,1,73.3333333333333,2|0,0:0|0:0,0:0:0:0:
50,267,66754,2,0,P|34:233|35:187,1,73.3333333333333,2|0,0:0|0:0,0:0:0:0:
96,160,67189,2,0,L|142:169,1,36.6666666666667,2|0,0:0|0:0,0:0:0:0:
198,133,67479,1,0,0:0:0:0:
231,67,67624,6,0,P|238:42|231:-5,1,73.3333333333333,2|0,0:0|0:0,0:0:0:0:
345,151,68059,2,0,L|268:134,1,73.3333333333333,2|2,0:0|0:1,0:0:0:0:
409,263,68493,2,0,P|420:228|411:182,1,73.3333333333333,2|2,0:0|0:1,0:0:0:0:
366,77,68928,1,2,0:0:0:0:
62,232,69363,5,8,0:0:0:0:
203,269,69653,1,0,0:0:0:0:
203,269,69798,2,0,L|278:255,1,73.3333333333333,4|0,0:1|0:0,0:0:0:0:
339,220,70232,2,0,P|345:191|334:144,1,73.3333333333333,2|0,0:0|0:0,0:0:0:0:
336,298,70667,2,0,P|376:316|440:303,1,110,2|8,0:0|0:0,0:0:0:0:
240,310,71537,6,0,P|253:283|252:238,1,73.3333333333333,2|2,0:0|0:1,0:0:0:0:
204,184,71972,2,0,L|111:174,1,73.3333333333333,0|2,0:0|0:1,0:0:0:0:
42,107,72406,2,0,P|36:161|60:214,1,110,2|8,0:0|0:1,0:0:0:0:
212,317,73131,5,0,0:0:0:0:
277,350,73276,2,0,L|370:337,1,73.3333333333333,2|0,0:0|0:0,0:0:0:0:
391,279,73711,2,0,P|405:245|403:205,1,73.3333333333333,2|0,0:0|0:0,0:0:0:0:
419,351,74146,2,0,P|453:363|497:355,1,73.3333333333333,2|0,0:0|0:0,0:0:0:0:
330,230,74580,1,8,0:0:0:0:
330,230,74870,5,0,0:0:0:0:
484,184,75015,2,0,P|472:150|481:92,1,73.3333333333333,2|2,0:0|0:0,0:0:0:0:
403,89,75450,2,0,P|390:62|390:13,1,73.3333333333333,0|2,0:0|0:0,0:0:0:0:
342,139,75885,2,0,P|290:148|219:104,1,110,2|2,0:0|0:1,0:0:0:0:
109,194,76609,5,2,0:1:0:0:
160,245,76754,2,0,L|262:236,1,73.3333333333333
249,346,77189,2,0,L|326:360,1,73.3333333333333,2|0,0:0|0:0,0:0:0:0:
412,287,77624,2,0,B|441:259|438:197|391:171,1,110,2|8,0:0|0:0,0:0:0:0:
271,155,78348,5,2,0:0:0:0:
309,92,78493,2,0,L|395:108,1,73.3333333333333,2|2,0:0|0:1,0:0:0:0:
381,105,78928,2,0,P|395:77|393:33,1,73.3333333333333,2|2,0:0|0:1,0:0:0:0:
411,187,79363,2,0,P|465:188|510:146,1,110,2|8,0:0|0:1,0:0:0:0:
482,128,80088,5,0,0:0:0:0:
482,128,80232,2,0,L|466:224,1,73.3333333333333,2|0,0:0|0:1,0:0:0:0:
335,234,80667,2,0,L|408:252,1,73.3333333333333,2|0,0:0|0:0,0:0:0:0:
469,353,81102,2,0,P|484:320|484:284,1,73.3333333333333,2|0,0:0|0:0,0:0:0:0:
337,181,81537,2,0,P|329:233|371:297,1,110,8|2,0:0|0:0,0:0:0:0:
175,122,82261,5,2,0:1:0:0:
148,190,82406,2,0,L|165:267,1,73.3333333333333,2|2,0:0|0:1,0:0:0:0:
103,130,82841,2,0,P|80:106|64:61,1,73.3333333333333,2|0,0:0|0:0,0:0:0:0:
54,62,83204,2,0,L|31:57,1,18.3333333333333,0|8,0:0|0:0,0:0:0:0:
255,193,83566,5,0,0:0:0:0:
322,222,83711,2,0,P|354:217|394:191,1,73.3333333333333,4|0,0:1|0:0,0:0:0:0:
350,133,84146,2,0,L|369:60,1,73.3333333333333,2|0,0:0|0:0,0:0:0:0:
499,153,84580,2,0,L|423:130,1,73.3333333333333,2|0,0:0|0:0,0:0:0:0:
322,222,85015,6,0,L|299:307,1,73.3333333333333,8|0,0:0|0:0,0:0:0:0:
165,231,85450,2,0,L|235:257,1,73.3333333333333,2|2,0:0|0:1,0:0:0:0:
329,370,85885,2,0,P|275:370|228:309,1,110,2|2,0:0|0:0,0:0:0:0:
439,251,86754,5,8,0:1:0:0:
375,118,87044,1,0,0:0:0:0:
314,76,87189,2,0,B|284:75|284:75|243:95|243:95|199:91,1,110,2|2,0:0|0:0,0:0:0:0:
62,118,87914,5,2,0:1:0:0:
147,47,88059,2,0,L|54:37,1,73.3333333333333,2|2,0:0|0:1,0:0:0:0:
140,122,88493,2,0,P|145:164|167:205,1,73.3333333333333,2|2,0:0|0:0,0:0:0:0:
165,197,88856,1,2,0:0:0:0:
173,200,88928,6,0,L|265:191,1,73.3333333333333,2|2,0:0|0:1,0:0:0:0:
306,241,89363,2,0,P|332:244|376:224,1,73.3333333333333,2|2,0:0|0:1,0:0:0:0:
478,323,89798,2,0,P|445:297|403:291,1,73.3333333333333,2|2,0:0|0:1,0:0:0:0:
404,297,90160,2,0,L|382:314,1,18.3333333333333,2|2,0:1|0:1,0:0:0:0:
419,159,90522,5,2,0:1:0:0:
419,159,90667,2,0,L|435:77,1,73.3333333333333,4|0,0:1|0:0,0:0:0:0:
355,92,91102,2,0,L|339:172,1,73.3333333333333,2|0,0:0|0:0,0:0:0:0:
272,200,91537,2,0,P|236:218|151:196,1,110
116,151,92117,1,0,0:0:0:0:
159,88,92261,1,2,0:0:0:0:
259,153,92406,6,0,P|270:209|241:274,1,110,2|2,0:0|0:0,0:0:0:0:
107,309,93131,1,2,0:1:0:0:
62,246,93276,2,0,L|-14:239,1,73.3333333333333,2|0,0:0|0:0,0:0:0:0:
180,347,93711,2,0,P|186:312|178:276,1,73.3333333333333,8|0,0:1|0:0,0:0:0:0:
114,172,94146,6,0,L|41:166,1,73.3333333333333,2|0,0:0|0:0,0:0:0:0:
169,112,94580,2,0,P|176:85|167:40,1,73.3333333333333,2|0,0:0|0:0,0:0:0:0:
186,195,95015,2,0,B|216:208|216:208|249:177|304:188,1,110,2|8,0:0|0:0,0:0:0:0:
429,177,95740,5,2,0:1:0:0:
287,185,95885,2,0,P|328:192|363:211,1,73.3333333333333,2|2,0:0|0:1,0:0:0:0:
487,276,96319,2,0,P|456:273|407:247,1,73.3333333333333,2|2,0:0|0:1,0:0:0:0:
441,74,96754,2,0,P|450:128|417:192,1,110,2|8,0:0|0:0,0:0:0:0:
299,264,97479,5,8,0:0:0:0:
299,264,97624,2,0,L|226:257,1,55.0000020980836,4|0,0:0|0:0,0:0:0:0:
181,293,98059,2,0,L|122:288,1,55.0000020980836
61,319,98493,2,0,P|48:286|53:218,1,82.5000031471254,2|8,0:0|0:0,0:0:0:0:
141,131,99218,5,0,0:0:0:0:
195,84,99363,2,0,P|209:55|213:22,1,55.0000020980836,2|0,0:0|0:0,0:0:0:0:
71,108,99798,2,0,L|4:104,1,55.0000020980836
157,204,100232,2,0,P|190:210|247:191,1,82.5000031471254,2|8,0:0|0:1,0:0:0:0:
318,79,100957,5,0,0:0:0:0:
370,127,101102,2,0,L|357:183,1,55.0000020980836,2|0,0:0|0:0,0:0:0:0:
413,226,101537,2,0,L|397:299,1,55.0000020980836
452,329,101972,2,0,P|417:349|359:335,1,82.5000031471254,2|8,0:0|0:0,0:0:0:0:
229,322,102696,5,0,0:0:0:0:
159,340,102841,2,0,L|103:321,1,55.0000020980836,2|0,0:0|0:0,0:0:0:0:
153,210,103276,2,0,L|172:268,1,55.0000020980836
72,186,103711,2,0,P|91:155|134:134,1,82.5000031471254,2|8,0:0|0:0,0:0:0:0:
264,186,104435,5,8,0:0:0:0:
302,125,104580,2,0,L|309:70,1,55.0000020980836,2|0,0:0|0:0,0:0:0:0:
342,193,105015,2,0,P|366:203|417:200,1,55.0000020980836
496,102,105450,2,0,P|462:87|404:96,1,82.5000031471254,2|8,0:0|0:0,0:0:0:0:
291,257,106175,5,0,0:0:0:0:
276,326,106319,2,0,P|244:344|203:340,1,55.0000020980836,2|0,0:0|0:0,0:0:0:0:
346,309,106754,2,0,P|351:339|347:367,1,55.0000020980836
362,237,107189,2,0,P|406:239|444:264,1,82.5000031471254,0|8,0:0|0:1,0:0:0:0:
407,117,107914,5,0,0:0:0:0:
468,80,108059,2,0,P|474:59|472:10,1,55.0000020980836,2|0,0:0|0:0,0:0:0:0:
324,52,108493,2,0,L|270:41,1,55.0000020980836
375,222,108928,2,0,P|350:191|344:124,1,82.5000031471254,2|8,0:0|0:0,0:0:0:0:
230,241,109653,5,0,0:0:0:0:
170,280,109798,2,0,P|143:274|107:269,1,55.0000020980836,2|2,0:0|0:0,0:0:0:0:
319,337,110522,5,0,0:0:0:0:
382,304,110667,2,0,P|414:302|448:304,1,55.0000020980836,2|8,0:0|0:0,0:0:0:0:
464,278,111030,2,0,L|467:261,1,13.7500005245209,8|8,0:0|0:0,0:0:0:0:
