osu file format v14

[General]
AudioFilename: izayoi.mp3
AudioLeadIn: 0
PreviewTime: 41887
Countdown: 0
SampleSet: Soft
StackLeniency: 0.7
Mode: 2
LetterboxInBreaks: 0
WidescreenStoryboard: 1

[Editor]
Bookmarks: 14134,34351,41960,55873,69786,83699,97177,111307
DistanceSpacing: 1
BeatDivisor: 6
GridSize: 4
TimelineZoom: 1.5

[Metadata]
Title:Izayoi Warabeuta
TitleUnicode:十六夜童歌
Artist:Hatsuki Yura
ArtistUnicode:葉月ゆら
Creator:Riari
Version:Eve
Source:
Tags:清風明月 宵闇恋想奇譚 drop 同人音楽 どろっぷ AJamez JeirYagtama
BeatmapID:1529884
BeatmapSetID:724519

[Difficulty]
HPDrainRate:7
CircleSize:3
OverallDifficulty:9.3
ApproachRate:9.3
SliderMultiplier:1.8
SliderTickRate:1

[Events]
//Background and Video events
0,0,"HatsukiYuraBG.jpg",0,0
//Break Periods
//Storyboard Layer 0 (Background)
//Storyboard Layer 1 (Fail)
//Storyboard Layer 2 (Pass)
//Storyboard Layer 3 (Foreground)
//Storyboard Sound Samples

[TimingPoints]
221,434.782608695652,4,2,1,45,1,0
14134,-100,4,2,2,75,0,0
41960,-100,4,2,1,60,0,0
48264,-100,4,2,2,60,0,0
48554,-100,4,2,1,60,0,0
55873,-100,4,2,2,60,0,0
97177,-100,4,2,1,60,0,0
100655,-100,4,2,2,60,0,0
101090,-100,4,2,1,60,0,0
107612,-100,4,2,2,60,0,0
107974,-100,4,2,1,60,0,0

[Colours]
Combo1 : 223,158,94
Combo2 : 198,196,102
Combo3 : 207,63,41
Combo4 : 159,149,117

[HitObjects]
96,136,221,6,0,L|204:136,1,90,8|0,0:1|0:0,0:0:0:0:
280,216,510,1,0,0:0:0:0:
190,216,583,1,0,0:0:0:0:
112,292,655,2,0,L|232:292,1,120,8|0,0:1|0:0,0:0:0:0:
472,176,1090,2,0,L|448:312,1,120,4|0,0:1|0:0,0:0:0:0:
308,101,1525,6,0,P|363:97|368:152,1,120,8|0,0:0|0:0,0:0:0:0:
112,292,1960,6,0,L|220:292,1,90,8|0,0:1|0:0,0:0:0:0:
280,216,2249,1,0,0:0:0:0:
190,216,2322,1,0,0:0:0:0:
112,120,2394,2,0,L|220:120,1,90,8|0,0:1|0:0,0:0:0:0:
156,292,2684,1,0,0:0:0:0:
472,176,2829,2,0,L|432:296,1,120,4|0,0:1|0:0,0:0:0:0:
320,80,3264,5,8,0:0:0:0:
392,148,3554,1,0,0:0:0:0:
112,216,3699,6,0,L|212:216,1,90,8|0,0:1|0:0,0:0:0:0:
292,292,3989,1,0,0:0:0:0:
202,292,4061,1,0,0:0:0:0:
104,368,4134,2,0,L|194:368,1,90,8|0,0:1|0:0,0:0:0:0:
144,296,4423,1,0,0:0:0:0:
464,208,4568,2,0,L|444:332,1,120,4|0,0:1|0:0,0:0:0:0:
336,96,5003,6,0,P|411:90|428:144,1,120,8|0,0:0|0:0,0:0:0:0:
124,216,5438,6,0,L|212:216,1,60,4|0,0:1|0:0,0:0:0:0:
292,292,5728,1,8,0:1:0:0:
120,368,5873,2,0,L|184:368,1,60,4|0,0:1|0:0,0:0:0:0:
134,292,6163,1,8,0:1:0:0:
464,112,6307,2,0,L|436:240,1,120,8|0,0:1|0:0,0:0:0:0:
280,88,6742,6,0,P|332:64|372:112,1,120,8|0,0:0|0:0,0:0:0:0:
136,140,7177,6,0,L|244:140,1,90,8|0,0:1|0:0,0:0:0:0:
316,220,7466,1,0,0:0:0:0:
226,220,7539,1,0,0:0:0:0:
148,296,7611,2,0,L|264:296,1,90,8|0,0:1|0:0,0:0:0:0:
226,220,7902,1,0,0:0:0:0:
508,180,8047,2,0,L|488:292,1,90,4|0,0:1|0:0,0:0:0:0:
344,105,8481,6,0,P|399:101|404:156,1,120,8|0,0:0|0:0,0:0:0:0:
148,296,8916,6,0,L|232:296,1,60,8|0,0:1|0:0,0:0:0:0:
316,220,9206,1,0,0:0:0:0:
224,217,9278,1,0,0:0:0:0:
148,124,9350,2,0,L|256:124,1,90,8|0,0:1|0:0,0:0:0:0:
148,220,9640,1,0,0:0:0:0:
508,180,9786,2,0,L|484:276,1,90,4|0,0:1|0:0,0:0:0:0:
312,80,10220,5,8,0:0:0:0:
384,148,10510,1,0,0:0:0:0:
160,76,10655,6,0,L|176:220,1,120,4|0,0:1|0:0,0:0:0:0:
384,148,11090,2,0,L|368:288,1,120,8|0,0:1|0:0,0:0:0:0:
160,76,11525,2,0,L|176:220,1,120,8|4,0:1|0:1,0:0:0:0:
336,312,11960,1,8,0:0:0:0:
360,228,12105,1,0,0:0:0:0:
380,144,12249,1,0,0:0:0:0:
108,160,12394,6,0,L|112:256,1,90,8|0,0:1|0:0,0:0:0:0:
432,248,12684,2,0,L|432:164,1,60
504,144,13155,1,0,0:0:0:0:
308,312,13264,2,0,P|228:316|312:216,1,300,8|0,0:1|0:0,0:0:0:0:
96,56,14134,6,0,P|68:88|84:168,1,120,4|0,0:0|0:0,0:0:0:0:
358,137,14568,2,0,P|386:169|370:249,1,120,8|0,0:0|0:0,0:0:0:0:
146,125,15003,2,0,P|130:181|148:248,1,120,8|0,0:2|0:0,0:0:0:0:
300,316,15438,6,0,L|172:336,1,120,8|0,0:2|0:0,0:0:0:0:
496,208,15873,2,0,L|392:256,1,90,4|0,0:0|0:0,0:0:0:0:
312,204,16163,1,0,0:0:0:0:
415,245,16307,1,8,0:0:0:0:
192,196,16597,1,8,0:0:0:0:
506,31,16742,2,0,P|526:79|488:136,1,120,2|4,0:0|0:0,0:0:0:0:
312,76,17177,1,8,0:0:0:0:
360,160,17467,1,0,0:0:0:0:
148,328,17612,6,0,P|108:296|164:304,1,120,4|0,0:0|0:0,0:0:0:0:
364,328,18047,2,0,P|404:296|348:304,1,120,8|0,0:0|0:0,0:0:0:0:
140,196,18481,2,0,P|120:160|180:164,1,120
288,272,18916,2,0,L|180:272,1,90,8|0,0:0|0:0,0:0:0:0:
228,332,19206,1,0,0:0:0:0:
268,332,19278,1,0,0:0:0:0:
164,196,19351,6,0,P|120:164|172:148,1,120
411,85,19786,2,0,L|376:200,1,120,8|0,0:0|0:0,0:0:0:0:
67,319,20220,1,0,0:0:0:0:
214,121,20510,5,2,0:0:0:0:
290,145,20583,1,2,0:0:0:0:
182,121,20655,2,0,L|182:247,1,120,10|2,0:0|0:0,0:0:0:0:
400,320,21090,6,0,P|436:263|436:212,1,120,4|0,0:0|0:0,0:0:0:0:
100,324,21525,2,0,P|64:267|64:216,1,120,8|0,0:0|0:0,0:0:0:0:
288,324,21960,2,0,L|168:324,1,120
252,244,22394,1,8,0:0:0:0:
104,236,22612,5,0,0:0:0:0:
157,183,22684,1,0,0:0:0:0:
211,131,22757,1,0,0:0:0:0:
464,140,22829,2,0,P|456:216|432:208,1,120,4|0,0:0|0:0,0:0:0:0:
340,256,23264,1,8,0:0:0:0:
448,212,23554,1,0,0:0:0:0:
104,236,23699,6,0,P|104:180|160:192,1,120,4|0,0:0|0:0,0:0:0:0:
304,336,24134,1,8,0:0:0:0:
168,64,24568,6,0,P|148:119|170:174,1,120,4|0,0:0|0:0,0:0:0:0:
450,102,25003,2,0,P|470:157|448:211,1,120,8|0,0:0|0:0,0:0:0:0:
228,336,25438,2,0,L|372:336,1,120,4|0,0:0|0:0,0:0:0:0:
224,256,25873,1,8,0:0:0:0:
343,374,26163,5,0,0:0:0:0:
290,343,26235,1,0,0:0:0:0:
238,313,26307,2,0,P|224:257|224:239,1,60,4|0,0:0|0:0,0:0:0:0:
368,192,26597,1,0,0:0:0:0:
104,116,26742,1,8,0:0:0:0:
22,201,27032,1,0,0:0:0:0:
292,116,27177,1,0,0:0:0:0:
192,196,27612,5,10,0:0:0:0:
104,116,27902,1,0,0:0:0:0:
420,292,28047,6,0,P|456:276|400:264,1,120,4|0,0:0|0:0,0:0:0:0:
192,328,28481,2,0,P|156:312|212:300,1,120,12|0,0:0|0:0,0:0:0:0:
464,296,28916,2,0,P|500:280|444:268,1,120,4|0,0:0|0:0,0:0:0:0:
304,236,29351,1,8,0:0:0:0:
408,152,29641,1,2,0:0:0:0:
124,228,29786,6,0,L|192:228,1,60,4|0,0:0|0:0,0:0:0:0:
336,152,30076,1,0,0:0:0:0:
184,148,30220,2,0,L|156:84,1,60,8|0,0:0|0:0,0:0:0:0:
336,72,30510,1,2,0:0:0:0:
88,80,30655,2,0,L|109:205,1,120,2|0,0:0|0:0,0:0:0:0:
268,287,31090,1,8,0:0:0:0:
360,204,31380,1,2,0:0:0:0:
148,292,31525,6,0,P|116:268|168:244,1,120,4|0,0:0|0:0,0:0:0:0:
424,272,31960,2,0,P|456:236|392:236,1,120,12|0,0:0|0:0,0:0:0:0:
108,156,32394,2,0,P|80:124|140:128,1,120,4|0,0:0|0:0,0:0:0:0:
272,188,32829,5,8,0:0:0:0:
120,288,33119,1,0,0:0:0:0:
408,144,33264,6,0,P|432:112|384:100,1,90,2|0,0:0|0:0,0:0:0:0:
272,188,33554,1,0,0:0:0:0:
408,260,33699,1,8,0:0:0:0:
292,332,33989,1,0,0:0:0:0:
120,288,34134,1,4,0:0:0:0:
248,176,34423,5,2,0:0:0:0:
328,200,34496,1,2,0:0:0:0:
212,176,34568,2,0,L|212:310,1,120,10|2,0:0|0:0,0:0:0:0:
444,253,35003,6,0,P|468:193|468:137,1,120,4|0,0:0|0:0,0:0:0:0:
248,176,35438,2,0,P|224:116|224:60,1,120,8|0,0:0|0:0,0:0:0:0:
448,336,35873,2,0,B|412:256|456:216|456:216|480:192|352:172|412:96,1,270,4|0,0:0|0:0,0:0:0:0:
120,152,36742,6,0,L|192:152,1,60,4|0,0:0|0:0,0:0:0:0:
392,152,37032,2,0,L|320:152,1,60,0|8,0:0|0:0,0:0:0:0:
192,240,37467,1,0,0:0:0:0:
462,230,37612,2,0,P|479:286|448:335,1,120,4|0,0:0|0:0,0:0:0:0:
296,340,38047,1,8,0:0:0:0:
352,256,38336,1,2,0:0:0:0:
192,240,38481,6,0,P|160:192|208:164,1,120,4|0,0:0|0:0,0:0:0:0:
392,168,38916,2,0,P|420:140|364:112,1,120,8|0,0:0|0:0,0:0:0:0:
104,168,39351,2,0,P|76:140|132:112,1,120,4|0,0:0|0:0,0:0:0:0:
280,192,39786,5,8,0:0:0:0:
200,304,40076,1,2,0:0:0:0:
380,328,40220,6,0,P|428:304|384:296,1,120,4|0,0:0|0:0,0:0:0:0:
232,308,40655,1,8,0:0:0:0:
380,328,40945,1,2,0:0:0:0:
48,312,41090,2,0,P|4:260|60:176,1,180,4|10,0:0|0:0,0:0:0:0:
140,128,41960,6,0,L|248:128,1,90,4|0,0:1|0:0,0:0:0:0:
324,208,42249,1,0,0:0:0:0:
230,208,42322,1,0,0:0:0:0:
140,292,42394,2,0,L|248:292,1,90,8|0,0:1|0:0,0:0:0:0:
140,208,42684,1,0,0:0:0:0:
480,220,42829,2,0,L|433:336,1,120,4|0,0:1|0:0,0:0:0:0:
276,80,43264,5,8,0:1:0:0:
384,152,43554,1,0,0:0:0:0:
140,292,43699,6,0,L|236:292,1,90,4|0,0:1|0:0,0:0:0:0:
352,292,43989,1,0,0:0:0:0:
264,368,44134,2,0,L|174:368,1,90,8|0,0:1|0:0,0:0:0:0:
280,232,44423,1,0,0:0:0:0:
56,232,44568,2,0,L|72:336,1,90,4|0,0:1|0:0,0:0:0:0:
240,292,45003,5,8,0:0:0:0:
384,152,45293,1,0,0:0:0:0:
57,164,45438,6,0,L|165:164,1,90,4|0,0:1|0:0,0:0:0:0:
237,244,45727,1,0,0:0:0:0:
147,244,45800,1,0,0:0:0:0:
69,320,45873,2,0,L|204:320,1,120,8|0,0:1|0:0,0:0:0:0:
448,200,46307,2,0,L|408:319,1,120,4|0,0:1|0:0,0:0:0:0:
312,136,46742,6,0,P|292:91|359:100,1,120,8|0,0:1|0:0,0:0:0:0:
76,232,47177,6,0,L|176:232,1,90,4|0,0:1|0:0,0:0:0:0:
264,320,47467,1,0,0:0:0:0:
174,320,47612,2,0,L|274:320,1,90,8|0,0:1|0:0,0:0:0:0:
174,320,47902,1,0,0:0:0:0:
464,216,48047,1,4,0:1:0:0:
284,208,48336,5,2,0:2:0:0:
204,232,48409,1,2,0:2:0:0:
372,186,48481,2,0,L|375:308,1,120,2|0,0:2|0:0,0:0:0:0:
84,156,48916,6,0,L|192:156,1,90,4|0,0:1|0:0,0:0:0:0:
268,236,49205,1,0,0:0:0:0:
174,236,49278,1,0,0:0:0:0:
84,320,49350,2,0,L|192:320,1,90,8|0,0:1|0:0,0:0:0:0:
84,236,49640,1,0,0:0:0:0:
424,248,49785,2,0,L|400:348,1,90,4|0,0:1|0:0,0:0:0:0:
224,84,50220,5,8,0:1:0:0:
316,132,50510,1,4,0:1:0:0:
84,320,50655,6,0,L|192:320,1,90,4|0,0:1|0:0,0:0:0:0:
82,244,50944,1,0,0:0:0:0:
172,244,51017,1,0,0:0:0:0:
260,152,51090,2,0,L|152:152,1,90,8|0,0:1|0:0,0:0:0:0:
84,152,51379,1,0,0:0:0:0:
444,204,51524,2,0,L|420:300,1,90,4|0,0:1|0:0,0:0:0:0:
256,296,51960,5,8,0:2:0:0:
172,244,52249,1,8,0:0:0:0:
390,102,52394,6,0,B|396:176|396:176|372:240,1,120,4|0,0:1|0:0,0:0:0:0:
192,128,52829,2,0,B|174:186|174:186|194:258,1,120,4|0,0:1|0:0,0:0:0:0:
390,102,53264,2,0,B|396:176|396:176|372:240,1,120,4|0,0:1|0:0,0:0:0:0:
288,344,53699,1,8,0:0:0:0:
252,292,53844,1,0,0:0:0:0:
213,242,53989,1,8,0:0:0:0:
393,167,54134,6,0,B|394:216|394:216|365:259,1,90,4|0,0:1|0:0,0:0:0:0:
114,262,54424,2,0,L|190:238,1,60,4|0,0:1|0:0,0:0:0:0:
74,170,54858,1,0,0:0:0:0:
298,354,55004,2,0,P|368:355|294:258,1,270,4|0,0:1|0:0,0:0:0:0:
136,44,55873,6,0,B|104:104|104:104|104:164,1,120,6|0,0:0|0:0,0:0:0:0:
316,72,56307,2,0,B|348:132|348:132|348:192,1,120,8|0,0:0|0:0,0:0:0:0:
136,236,56742,2,0,B|104:296|104:296|104:356,1,120,4|4,0:0|0:0,0:0:0:0:
214,312,57177,2,0,B|150:348|150:348|82:348,1,120,8|0,0:0|0:0,0:0:0:0:
380,100,57612,6,0,L|344:192,1,90,4|0,0:0|0:0,0:0:0:0:
252,180,57902,1,0,0:0:0:0:
347,183,58047,1,8,0:0:0:0:
176,276,58336,1,0,0:0:0:0:
388,244,58481,6,0,P|420:192|392:128,1,120,4|0,0:0|0:0,0:0:0:0:
250,88,58916,1,8,0:0:0:0:
404,140,59351,6,0,B|424:92|424:92|388:24,1,120,4|0,0:0|0:0,0:0:0:0:
180,96,59786,2,0,B|148:156|148:156|168:204,1,120,8|0,0:0|0:0,0:0:0:0:
404,140,60220,2,0,B|435:200|435:200|415:248,1,120,4|0,0:0|0:0,0:0:0:0:
284,320,60655,6,0,B|375:320,1,90,8|0,0:0|0:0,0:0:0:0:
352,248,60945,1,0,0:0:0:0:
288,252,61018,1,0,0:0:0:0:
128,104,61090,2,0,P|88:148|140:192,1,120,4|0,0:0|0:0,0:0:0:0:
416,68,61525,2,0,L|392:188,1,120,8|0,0:0|0:0,0:0:0:0:
117,189,61960,1,4,0:0:0:0:
312,312,62249,5,2,0:0:0:0:
388,288,62322,1,2,0:0:0:0:
236,330,62394,2,2,L|236:204,1,120
388,324,62829,6,0,P|424:267|424:216,1,120,4|0,0:0|0:0,0:0:0:0:
100,324,63264,2,0,P|64:267|64:216,1,120,8|0,0:0|0:0,0:0:0:0:
288,324,63699,2,0,L|168:324,1,120,4|0,0:0|0:0,0:0:0:0:
252,244,64134,1,8,0:0:0:0:
104,236,64351,5,0,0:0:0:0:
157,183,64423,1,0,0:0:0:0:
211,131,64496,1,0,0:0:0:0:
464,140,64568,2,0,P|456:216|432:208,1,120,4|0,0:0|0:0,0:0:0:0:
340,224,65003,1,8,0:0:0:0:
248,224,65293,1,4,0:0:0:0:
436,140,65438,6,0,P|468:88|424:68,1,120,4|0,0:0|0:0,0:0:0:0:
272,72,65873,1,8,0:0:0:0:
400,332,66307,6,0,P|432:280|408:216,1,120,4|0,0:0|0:0,0:0:0:0:
196,332,66742,2,0,P|164:292|180:212,1,120,8|0,0:0|0:0,0:0:0:0:
400,124,67177,2,0,P|356:140|300:92,1,120,4|0,0:0|0:0,0:0:0:0:
108,64,67612,2,0,L|132:192,1,120,8|0,0:0|0:0,0:0:0:0:
208,180,67974,1,0,0:0:0:0:
408,144,68047,6,0,P|432:112|384:100,1,90,4|0,0:0|0:0,0:0:0:0:
200,152,68337,1,0,0:0:0:0:
320,256,68481,2,0,B|256:284|256:284|232:340,1,120,8|0,0:0|0:0,0:0:0:0:
320,344,68844,1,0,0:0:0:0:
76,288,68917,1,4,0:0:0:0:
228,280,69351,5,2,0:0:0:0:
272,188,69641,1,2,0:0:0:0:
420,292,69786,6,0,P|452:248|400:224,1,120,4|0,0:0|0:0,0:0:0:0:
192,328,70220,2,0,P|152:292|200:264,1,120,10|0,0:0|0:0,0:0:0:0:
432,348,70655,2,0,P|456:292|448:216,1,120,10|0,0:0|0:0,0:0:0:0:
304,236,71090,1,2,0:0:0:0:
408,152,71380,1,0,0:0:0:0:
120,228,71525,6,0,L|188:228,1,60,6|0,0:0|0:0,0:0:0:0:
348,152,71815,1,0,0:0:0:0:
184,152,71960,2,0,L|280:152,1,90,2|0,0:0|0:0,0:0:0:0:
396,72,72249,1,0,0:0:0:0:
88,80,72394,2,0,P|60:116|104:192,1,120,2|0,0:0|0:0,0:0:0:0:
252,280,72829,1,10,0:0:0:0:
320,200,73119,1,0,0:0:0:0:
148,292,73264,6,0,P|104:252|152:220,1,120,4|0,0:0|0:0,0:0:0:0:
420,312,73699,2,0,P|456:240|428:184,1,120,10|0,0:0|0:0,0:0:0:0:
112,148,74134,2,0,P|80:112|128:68,1,120,6|0,0:0|0:0,0:0:0:0:
248,188,74568,5,10,0:0:0:0:
128,288,74858,1,2,0:0:0:0:
412,152,75003,6,0,L|432:60,1,90,4|0,0:0|0:0,0:0:0:0:
252,104,75293,1,0,0:0:0:0:
360,256,75438,1,6,0:0:0:0:
292,332,75655,1,0,0:0:0:0:
408,336,75800,1,0,0:0:0:0:
120,288,75873,1,10,0:0:0:0:
240,112,76162,5,2,0:0:0:0:
320,136,76235,1,2,0:0:0:0:
164,102,76307,2,2,L|164:236,1,120
432,252,76742,6,0,P|456:192|412:148,1,120,4|0,0:0|0:0,0:0:0:0:
164,222,77177,2,0,P|132:269|157:321,1,120,10|0,0:0|0:0,0:0:0:0:
416,344,77612,2,0,B|460:304|460:304|424:236,1,120,4|4,0:0|0:0,0:0:0:0:
332,248,78047,1,10,0:0:0:0:
425,152,78336,1,2,0:0:0:0:
120,152,78481,6,0,L|192:152,1,60,4|0,0:0|0:0,0:0:0:0:
392,152,78771,1,0,0:0:0:0:
332,248,78916,2,0,L|408:248,1,60,10|0,0:0|0:0,0:0:0:0:
248,252,79206,1,0,0:0:0:0:
462,230,79351,2,0,P|479:286|448:335,1,120,4|0,0:0|0:0,0:0:0:0:
292,340,79786,1,8,0:0:0:0:
332,248,80076,1,0,0:0:0:0:
160,248,80220,6,0,P|128:200|176:172,1,120,4|0,0:0|0:0,0:0:0:0:
392,152,80655,2,0,P|424:120|364:72,1,120,10|0,0:0|0:0,0:0:0:0:
160,248,81090,2,0,L|176:368,1,120,4|0,0:0|0:0,0:0:0:0:
264,192,81525,5,10,0:0:0:0:
160,248,81815,1,0,0:0:0:0:
448,324,81960,6,0,L|464:232,1,90,4|0,0:0|0:0,0:0:0:0:
160,248,82249,1,0,0:0:0:0:
232,308,82394,1,10,0:0:0:0:
64,176,82612,1,0,0:0:0:0:
396,152,82829,1,2,0:0:0:0:
312,192,83264,5,8,0:0:0:0:
256,96,83554,1,0,0:0:0:0:
92,292,83699,6,0,P|64:236|96:164,1,120,4|0,0:0|0:0,0:0:0:0:
320,328,84134,2,0,P|360:292|312:264,1,120,10|0,0:0|0:0,0:0:0:0:
108,312,84568,2,0,P|69:262|87:185,1,120,4|0,0:0|0:0,0:0:0:0:
208,236,85003,1,10,0:0:0:0:
104,152,85293,1,0,0:0:0:0:
436,256,85438,6,0,L|460:184,1,60,4|0,0:0|0:0,0:0:0:0:
232,156,85728,1,0,0:0:0:0:
341,156,85874,2,0,L|281:156,1,60,10|0,0:0|0:0,0:0:0:0:
387,71,86162,1,0,0:0:0:0:
88,80,86307,2,0,P|52:112|100:160,1,120,4|0,0:0|0:0,0:0:0:0:
244,280,86742,1,10,0:0:0:0:
308,200,87032,1,0,0:0:0:0:
128,300,87177,6,0,P|84:260|132:228,1,120,4|0,0:0|0:0,0:0:0:0:
396,324,87612,2,0,P|420:244|400:192,1,120,10|0,0:0|0:0,0:0:0:0:
340,208,87974,1,0,0:0:0:0:
112,148,88047,2,0,P|76:112|124:80,1,120,4|0,0:0|0:0,0:0:0:0:
248,188,88481,5,10,0:0:0:0:
128,288,88771,1,0,0:0:0:0:
412,152,88916,6,0,B|436:108|436:108|424:60,1,90,4|0,0:0|0:0,0:0:0:0:
252,104,89206,1,0,0:0:0:0:
360,256,89351,1,10,0:0:0:0:
408,336,89641,1,0,0:0:0:0:
120,288,89786,1,4,0:0:0:0:
240,112,90075,5,2,0:0:0:0:
320,136,90148,1,2,0:0:0:0:
164,102,90220,2,2,L|164:236,1,120,10|2,0:0|0:0,0:0:0:0:
432,252,90655,6,0,P|456:192|412:148,1,120,4|0,0:0|0:0,0:0:0:0:
164,222,91090,2,0,P|132:269|157:321,1,120,10|0,0:0|0:0,0:0:0:0:
432,252,91525,2,0,P|464:299|439:351,1,120,4|0,0:0|0:0,0:0:0:0:
332,248,91960,1,10,0:0:0:0:
425,152,92177,1,0,0:0:0:0:
480,92,92249,1,0,0:0:0:0:
424,36,92322,1,0,0:0:0:0:
120,152,92394,6,0,L|192:152,1,60,4|0,0:0|0:0,0:0:0:0:
392,152,92684,1,0,0:0:0:0:
332,248,92829,2,0,L|408:248,1,60,10|0,0:0|0:0,0:0:0:0:
248,252,93119,1,0,0:0:0:0:
462,230,93264,2,0,P|479:286|448:335,1,120,4|0,0:0|0:0,0:0:0:0:
292,340,93699,1,8,0:0:0:0:
332,248,93989,1,0,0:0:0:0:
160,248,94133,6,0,P|128:200|176:172,1,120,4|0,0:0|0:0,0:0:0:0:
392,152,94568,2,0,P|424:120|364:72,1,120,10|0,0:0|0:0,0:0:0:0:
160,248,95003,2,0,L|176:368,1,120,4|0,0:0|0:0,0:0:0:0:
264,192,95438,5,10,0:0:0:0:
160,248,95728,1,0,0:0:0:0:
448,324,95873,6,0,L|464:232,1,90,4|0,0:0|0:0,0:0:0:0:
160,248,96162,1,0,0:0:0:0:
232,308,96307,1,10,0:0:0:0:
64,176,96597,1,0,0:0:0:0:
396,152,96742,1,4,0:0:0:0:
284,152,97177,6,0,P|288:216|300:272,1,120,8|0,0:1|0:0,0:0:0:0:
180,280,97612,1,4,0:1:0:0:
156,352,98047,1,4,0:1:0:0:
268,352,98481,2,0,P|340:336|292:268,1,180,4|8,0:1|0:0,0:0:0:0:
168,152,99351,5,4,0:1:0:0:
264,152,99641,1,0,0:0:0:0:
104,76,99786,2,0,L|228:76,1,120,4|0,0:1|0:0,0:0:0:0:
104,232,100220,1,4,0:1:0:0:
192,312,100655,5,8,0:0:0:0:
324,240,101090,5,4,0:1:0:0:
188,144,101525,1,4,0:1:0:0:
324,144,101960,5,4,0:1:0:0:
188,240,102394,1,8,0:2:0:0:
160,316,102612,1,0,0:1:0:0:
304,336,102829,5,4,0:1:0:0:
332,260,103119,1,0,0:1:0:0:
256,148,103264,2,0,L|384:148,1,120,4|0,0:1|0:1,0:1:0:0:
256,64,103699,1,4,0:1:0:0:
84,152,104568,5,10,0:2:0:0:
204,152,105003,1,8,0:0:0:0:
84,232,105438,2,0,P|168:232|184:328,1,180,8|8,0:0|0:0,0:0:0:0:
320,240,106307,5,8,0:0:0:0:
192,144,106597,1,8,0:0:0:0:
320,48,106742,5,8,0:0:0:0:
192,144,107032,1,8,0:0:0:0:
104,48,107177,2,8,L|224:48,1,120
308,148,107612,1,8,0:0:0:0:
208,264,108047,5,8,0:0:0:0:
104,264,108481,1,8,0:0:0:0:
208,120,108916,1,8,0:0:0:0:
104,120,109351,1,8,0:0:0:0:
68,44,109641,1,8,0:0:0:0:
188,48,109786,6,8,L|312:48,1,120
228,152,110220,2,8,L|100:152,1,120
388,304,110655,1,10,0:0:0:0:
