osu file format v14

[General]
AudioFilename: audio.mp3
AudioLeadIn: 0
PreviewTime: 41961
Countdown: 0
SampleSet: Soft
StackLeniency: 0.7
Mode: 3
LetterboxInBreaks: 0
SpecialStyle: 0
WidescreenStoryboard: 1

[Editor]
DistanceSpacing: 1.5
BeatDivisor: 6
GridSize: 4
TimelineZoom: 1.5

[Metadata]
Title:Izayoi Warabeuta
TitleUnicode:十六夜童歌
Artist:Hatsuki Yura
ArtistUnicode:葉月ゆら
Creator:A M D
Version:Hard
Source:
Tags:清風明月 seifuumeigatsu 宵闇恋想奇譚 yoiyami rensou kitan 同人音楽 doujin music どろっぷ drop 和風民族音楽 japanese folk pop クロスフェード cross fade syadow-
BeatmapID:2361763
BeatmapSetID:1042161

[Difficulty]
HPDrainRate:8
CircleSize:4
OverallDifficulty:8
ApproachRate:5
SliderMultiplier:1.4
SliderTickRate:1

[Events]
//Background and Video events
0,0,"BGTHINGY.jpg",0,0
//Break Periods
//Storyboard Layer 0 (Background)
//Storyboard Layer 1 (Fail)
//Storyboard Layer 2 (Pass)
//Storyboard Layer 3 (Foreground)
//Storyboard Layer 4 (Overlay)
//Storyboard Sound Samples

[TimingPoints]
222,434.782608695652,4,2,1,35,1,0
28048,-100,4,2,1,35,0,1
41961,-100,4,2,1,35,0,0
69787,-100,4,2,1,35,0,1
97178,-100,4,2,1,35,0,0

[HitObjects]
448,192,222,5,0,0:0:0:0:
64,192,222,1,0,0:0:0:0:
320,192,511,1,0,0:0:0:0:
192,192,656,1,0,0:0:0:0:
64,192,656,1,0,0:0:0:0:
320,192,946,1,0,0:0:0:0:
448,192,1091,1,0,0:0:0:0:
64,192,1091,1,0,0:0:0:0:
64,192,1381,1,0,0:0:0:0:
448,192,1526,1,4,0:0:0:0:
192,192,1526,1,0,0:0:0:0:
320,192,1816,1,0,0:0:0:0:
448,192,1961,1,0,0:0:0:0:
192,192,1961,1,0,0:0:0:0:
320,192,2250,1,0,0:0:0:0:
64,192,2250,1,0,0:0:0:0:
192,192,2395,1,0,0:0:0:0:
320,192,2685,1,0,0:0:0:0:
64,192,2685,1,0,0:0:0:0:
448,192,2830,1,0,0:0:0:0:
64,192,2830,1,0,0:0:0:0:
192,192,3120,1,0,0:0:0:0:
320,192,3265,1,4,0:0:0:0:
448,192,3265,1,0,0:0:0:0:
320,192,3555,1,0,0:0:0:0:
64,192,3700,1,0,0:0:0:0:
448,192,3700,1,0,0:0:0:0:
192,192,3990,1,0,0:0:0:0:
448,192,4135,1,0,0:0:0:0:
320,192,4135,1,0,0:0:0:0:
192,192,4424,1,0,0:0:0:0:
64,192,4569,1,0,0:0:0:0:
448,192,4569,1,0,0:0:0:0:
192,192,4859,1,0,0:0:0:0:
448,192,5004,1,4,0:0:0:0:
320,192,5004,1,0,0:0:0:0:
448,192,5294,1,0,0:0:0:0:
320,192,5439,1,0,0:0:0:0:
64,192,5439,1,0,0:0:0:0:
192,192,5729,1,0,0:0:0:0:
64,192,5729,1,0,0:0:0:0:
320,192,5874,1,0,0:0:0:0:
448,192,6164,1,0,0:0:0:0:
64,192,6164,1,0,0:0:0:0:
192,192,6308,1,0,0:0:0:0:
448,192,6308,1,0,0:0:0:0:
320,192,6598,1,0,0:0:0:0:
64,192,6743,1,4,0:0:0:0:
192,192,6743,1,0,0:0:0:0:
320,192,7033,1,0,0:0:0:0:
192,192,7178,1,0,0:0:0:0:
448,192,7178,1,0,0:0:0:0:
320,192,7468,1,0,0:0:0:0:
64,192,7613,1,0,0:0:0:0:
192,192,7613,1,0,0:0:0:0:
320,192,7903,1,0,0:0:0:0:
64,192,8048,1,0,0:0:0:0:
448,192,8048,1,0,0:0:0:0:
64,192,8337,1,0,0:0:0:0:
448,192,8482,1,4,0:0:0:0:
320,192,8482,1,0,0:0:0:0:
448,192,8772,1,0,0:0:0:0:
64,192,8917,1,0,0:0:0:0:
320,192,8917,1,0,0:0:0:0:
448,192,9207,1,0,0:0:0:0:
64,192,9207,1,0,0:0:0:0:
192,192,9352,1,0,0:0:0:0:
320,192,9642,1,0,0:0:0:0:
64,192,9642,1,0,0:0:0:0:
448,192,9787,1,0,0:0:0:0:
64,192,9787,1,0,0:0:0:0:
320,192,10077,1,0,0:0:0:0:
64,192,10221,1,4,0:0:0:0:
192,192,10221,1,0,0:0:0:0:
448,192,10511,1,0,0:0:0:0:
64,192,10656,1,0,0:0:0:0:
320,192,10656,1,0,0:0:0:0:
448,192,10946,1,0,0:0:0:0:
320,192,11091,1,0,0:0:0:0:
64,192,11091,1,0,0:0:0:0:
448,192,11381,1,0,0:0:0:0:
320,192,11526,1,0,0:0:0:0:
64,192,11526,1,0,0:0:0:0:
320,192,11816,1,0,0:0:0:0:
192,192,11961,1,0,0:0:0:0:
448,192,11961,1,4,0:0:0:0:
448,192,12250,1,0,0:0:0:0:
320,192,12395,1,0,0:0:0:0:
64,192,12395,1,0,0:0:0:0:
192,192,12685,1,0,0:0:0:0:
64,192,12685,1,0,0:0:0:0:
320,192,12830,1,0,0:0:0:0:
192,192,13120,1,0,0:0:0:0:
448,192,13120,1,0,0:0:0:0:
448,192,13265,1,0,0:0:0:0:
64,192,13265,128,0,13700:0:0:0:0:
448,192,13555,1,0,0:0:0:0:
320,192,13627,1,0,0:0:0:0:
192,192,13700,1,0,0:0:0:0:
64,192,14135,128,0,14424:0:0:0:0:
192,192,14135,1,0,0:0:0:0:
448,192,14135,1,0,0:0:0:0:
320,192,14424,1,0,0:0:0:0:
64,192,14569,1,0,0:0:0:0:
192,192,14569,128,0,14859:0:0:0:0:
320,192,14859,1,0,0:0:0:0:
448,192,15004,128,0,15294:0:0:0:0:
64,192,15004,1,0,0:0:0:0:
320,192,15294,1,0,0:0:0:0:
192,192,15439,128,0,15729:0:0:0:0:
320,192,15729,1,0,0:0:0:0:
448,192,15874,1,0,0:0:0:0:
64,192,15874,128,0,16164:0:0:0:0:
192,192,16164,1,0,0:0:0:0:
320,192,16164,1,0,0:0:0:0:
448,192,16308,128,0,16598:0:0:0:0:
64,192,16598,1,0,0:0:0:0:
320,192,16598,1,0,0:0:0:0:
192,192,16743,128,0,17178:0:0:0:0:
448,192,16743,1,0,0:0:0:0:
64,192,17033,1,0,0:0:0:0:
320,192,17178,1,4,0:0:0:0:
448,192,17178,1,0,0:0:0:0:
192,192,17468,1,0,0:0:0:0:
320,192,17613,1,0,0:0:0:0:
448,192,17613,128,0,17903:0:0:0:0:
192,192,17903,1,0,0:0:0:0:
64,192,18048,1,0,0:0:0:0:
320,192,18048,128,0,18337:0:0:0:0:
192,192,18337,1,0,0:0:0:0:
320,192,18482,1,0,0:0:0:0:
448,192,18482,128,0,18772:0:0:0:0:
192,192,18772,1,0,0:0:0:0:
64,192,18917,128,0,19207:0:0:0:0:
448,192,19207,1,0,0:0:0:0:
192,192,19352,1,0,0:0:0:0:
320,192,19352,128,0,19642:0:0:0:0:
192,192,19642,1,0,0:0:0:0:
64,192,19642,1,0,0:0:0:0:
448,192,19787,128,0,20077:0:0:0:0:
320,192,20077,1,0,0:0:0:0:
192,192,20077,1,0,0:0:0:0:
64,192,20221,128,0,20511:0:0:0:0:
448,192,20221,1,0,0:0:0:0:
320,192,20511,1,8,0:0:0:0:
192,192,20584,1,8,0:0:0:0:
320,192,20656,1,8,0:0:0:0:
320,192,20946,1,8,0:0:0:0:
448,192,21091,128,0,21381:0:0:0:0:
192,192,21091,1,0,0:0:0:0:
64,192,21091,1,0,0:0:0:0:
192,192,21381,1,0,0:0:0:0:
448,192,21526,1,0,0:0:0:0:
320,192,21526,128,0,21816:0:0:0:0:
192,192,21816,1,0,0:0:0:0:
448,192,21961,1,0,0:0:0:0:
64,192,21961,128,0,22250:0:0:0:0:
192,192,22250,1,0,0:0:0:0:
320,192,22395,128,0,22685:0:0:0:0:
448,192,22685,1,0,0:0:0:0:
64,192,22830,1,0,0:0:0:0:
192,192,22830,128,0,23120:0:0:0:0:
320,192,23120,1,0,0:0:0:0:
448,192,23120,1,0,0:0:0:0:
64,192,23265,128,0,23555:0:0:0:0:
448,192,23555,1,0,0:0:0:0:
192,192,23555,1,0,0:0:0:0:
64,192,23700,1,0,0:0:0:0:
320,192,23700,128,0,24135:0:0:0:0:
192,192,23990,1,0,0:0:0:0:
64,192,24135,1,4,0:0:0:0:
448,192,24135,1,0,0:0:0:0:
320,192,24424,1,0,0:0:0:0:
64,192,24569,1,0,0:0:0:0:
448,192,24569,128,0,24859:0:0:0:0:
192,192,24859,1,0,0:0:0:0:
64,192,25004,128,0,25294:0:0:0:0:
320,192,25004,1,0,0:0:0:0:
448,192,25294,1,0,0:0:0:0:
192,192,25439,1,0,0:0:0:0:
320,192,25439,128,0,25729:0:0:0:0:
448,192,25729,1,0,0:0:0:0:
192,192,25874,128,0,26164:0:0:0:0:
320,192,26164,1,0,0:0:0:0:
448,192,26308,128,0,26598:0:0:0:0:
64,192,26308,1,0,0:0:0:0:
192,192,26598,1,0,0:0:0:0:
320,192,26598,1,0,0:0:0:0:
64,192,26743,128,0,27033:0:0:0:0:
320,192,27033,1,0,0:0:0:0:
448,192,27033,1,0,0:0:0:0:
192,192,27178,1,0,0:0:0:0:
64,192,27178,1,0,0:0:0:0:
64,192,27613,1,0,0:0:0:0:
320,192,27613,128,2,27903:0:0:0:0:
192,192,27903,1,0,0:0:0:0:
448,192,28048,128,0,28917:0:0:0:0:
64,192,28048,1,0,0:0:0:0:
320,192,28048,1,0,0:0:0:0:
320,192,28482,1,0,0:0:0:0:
64,192,28482,1,0,0:0:0:0:
64,192,28917,128,0,29352:0:0:0:0:
320,192,28917,1,0,0:0:0:0:
192,192,29207,1,0,0:0:0:0:
448,192,29352,1,0,0:0:0:0:
320,192,29424,1,0,0:0:0:0:
64,192,29497,1,0,0:0:0:0:
192,192,29569,1,0,0:0:0:0:
448,192,29642,1,0,0:0:0:0:
320,192,29714,1,0,0:0:0:0:
192,192,29787,1,0,0:0:0:0:
64,192,29787,1,0,0:0:0:0:
320,192,30077,1,0,0:0:0:0:
448,192,30077,1,0,0:0:0:0:
64,192,30221,1,0,0:0:0:0:
64,192,30511,1,0,0:0:0:0:
192,192,30511,1,0,0:0:0:0:
320,192,30656,1,0,0:0:0:0:
448,192,30656,1,0,0:0:0:0:
64,192,31091,1,0,0:0:0:0:
448,192,31091,128,4,31381:0:0:0:0:
320,192,31381,1,0,0:0:0:0:
64,192,31526,1,0,0:0:0:0:
448,192,31526,128,0,31816:0:0:0:0:
192,192,31816,1,0,0:0:0:0:
64,192,31961,128,0,32250:0:0:0:0:
320,192,31961,1,0,0:0:0:0:
192,192,32250,1,0,0:0:0:0:
448,192,32395,1,0,0:0:0:0:
64,192,32395,128,0,32685:0:0:0:0:
320,192,32685,1,0,0:0:0:0:
64,192,32830,1,0,0:0:0:0:
192,192,32903,1,0,0:0:0:0:
448,192,32975,1,0,0:0:0:0:
320,192,33048,1,0,0:0:0:0:
64,192,33120,1,0,0:0:0:0:
192,192,33193,1,0,0:0:0:0:
320,192,33265,1,0,0:0:0:0:
448,192,33265,128,0,33555:0:0:0:0:
320,192,33555,1,0,0:0:0:0:
64,192,33555,1,0,0:0:0:0:
448,192,33700,128,0,33990:0:0:0:0:
320,192,33990,1,0,0:0:0:0:
192,192,33990,1,0,0:0:0:0:
64,192,34135,128,0,34424:0:0:0:0:
448,192,34135,1,0,0:0:0:0:
192,192,34424,1,8,0:0:0:0:
320,192,34497,1,8,0:0:0:0:
192,192,34569,1,8,0:0:0:0:
448,192,34569,128,0,34859:0:0:0:0:
192,192,34859,1,8,0:0:0:0:
320,192,35004,1,0,0:0:0:0:
64,192,35004,128,0,35874:0:0:0:0:
448,192,35004,1,0,0:0:0:0:
320,192,35439,1,0,0:0:0:0:
448,192,35439,1,0,0:0:0:0:
192,192,35874,1,0,0:0:0:0:
448,192,35874,128,0,36308:0:0:0:0:
320,192,36164,1,0,0:0:0:0:
64,192,36308,1,0,0:0:0:0:
192,192,36381,1,0,0:0:0:0:
448,192,36453,1,0,0:0:0:0:
320,192,36526,1,0,0:0:0:0:
64,192,36598,1,0,0:0:0:0:
192,192,36671,1,0,0:0:0:0:
320,192,36743,1,0,0:0:0:0:
448,192,36743,1,0,0:0:0:0:
64,192,37033,1,0,0:0:0:0:
192,192,37033,1,0,0:0:0:0:
320,192,37178,1,0,0:0:0:0:
320,192,37468,1,0,0:0:0:0:
448,192,37468,1,0,0:0:0:0:
192,192,37613,1,0,0:0:0:0:
64,192,37613,1,0,0:0:0:0:
320,192,37903,1,0,0:0:0:0:
64,192,38048,128,0,38337:0:0:0:0:
448,192,38048,1,4,0:0:0:0:
192,192,38337,1,0,0:0:0:0:
448,192,38482,1,0,0:0:0:0:
64,192,38482,128,0,38772:0:0:0:0:
320,192,38772,1,0,0:0:0:0:
192,192,38917,1,0,0:0:0:0:
448,192,38917,128,0,39207:0:0:0:0:
64,192,39207,1,0,0:0:0:0:
320,192,39352,1,0,0:0:0:0:
448,192,39352,128,0,39642:0:0:0:0:
64,192,39642,1,0,0:0:0:0:
448,192,39787,1,0,0:0:0:0:
320,192,39859,1,0,0:0:0:0:
64,192,39932,1,0,0:0:0:0:
192,192,40004,1,0,0:0:0:0:
448,192,40077,1,0,0:0:0:0:
320,192,40149,1,0,0:0:0:0:
192,192,40221,1,0,0:0:0:0:
64,192,40221,128,0,40511:0:0:0:0:
448,192,40511,1,0,0:0:0:0:
192,192,40511,1,0,0:0:0:0:
64,192,40656,128,0,40946:0:0:0:0:
192,192,40946,1,0,0:0:0:0:
320,192,40946,1,0,0:0:0:0:
448,192,41091,128,0,41526:0:0:0:0:
64,192,41091,1,0,0:0:0:0:
320,192,41526,1,2,0:0:0:0:
64,192,41961,128,0,42250:0:0:0:0:
320,192,41961,1,0,0:0:0:0:
448,192,41961,1,0,0:0:0:0:
320,192,42250,1,0,0:0:0:0:
192,192,42323,1,0,0:0:0:0:
448,192,42395,128,0,42685:0:0:0:0:
64,192,42395,1,0,0:0:0:0:
320,192,42685,1,0,0:0:0:0:
64,192,42830,1,0,0:0:0:0:
192,192,42830,1,0,0:0:0:0:
448,192,43120,1,0,0:0:0:0:
320,192,43265,128,0,43555:0:0:0:0:
64,192,43555,1,0,0:0:0:0:
448,192,43700,128,0,43990:0:0:0:0:
192,192,43700,1,0,0:0:0:0:
320,192,43990,1,0,0:0:0:0:
192,192,44062,1,0,0:0:0:0:
64,192,44135,128,0,44424:0:0:0:0:
320,192,44424,1,0,0:0:0:0:
192,192,44424,1,0,0:0:0:0:
64,192,44569,1,0,0:0:0:0:
448,192,44569,1,0,0:0:0:0:
320,192,44859,1,0,0:0:0:0:
64,192,45004,1,0,0:0:0:0:
192,192,45004,1,4,0:0:0:0:
320,192,45294,1,0,0:0:0:0:
448,192,45439,1,0,0:0:0:0:
64,192,45439,128,0,45729:0:0:0:0:
320,192,45729,1,0,0:0:0:0:
192,192,45801,1,0,0:0:0:0:
448,192,45874,128,0,46164:0:0:0:0:
64,192,45874,1,0,0:0:0:0:
192,192,46164,1,0,0:0:0:0:
320,192,46308,1,0,0:0:0:0:
448,192,46308,1,0,0:0:0:0:
192,192,46598,1,0,0:0:0:0:
320,192,46743,128,0,47033:0:0:0:0:
64,192,47033,1,0,0:0:0:0:
448,192,47178,128,0,47468:0:0:0:0:
192,192,47178,1,0,0:0:0:0:
64,192,47468,1,0,0:0:0:0:
320,192,47468,1,0,0:0:0:0:
192,192,47613,128,0,47903:0:0:0:0:
448,192,47903,1,0,0:0:0:0:
320,192,47903,1,0,0:0:0:0:
64,192,48048,128,0,48337:0:0:0:0:
192,192,48048,1,0,0:0:0:0:
320,192,48337,1,8,0:0:0:0:
192,192,48410,1,8,0:0:0:0:
320,192,48482,1,8,0:0:0:0:
320,192,48772,1,8,0:0:0:0:
448,192,48917,128,0,49207:0:0:0:0:
192,192,48917,1,0,0:0:0:0:
64,192,48917,1,0,0:0:0:0:
192,192,49207,1,0,0:0:0:0:
320,192,49279,1,0,0:0:0:0:
448,192,49352,1,0,0:0:0:0:
64,192,49352,128,0,49642:0:0:0:0:
320,192,49642,1,0,0:0:0:0:
64,192,49787,1,0,0:0:0:0:
448,192,49787,1,0,0:0:0:0:
192,192,50077,1,0,0:0:0:0:
320,192,50221,128,0,50511:0:0:0:0:
192,192,50511,1,0,0:0:0:0:
64,192,50656,128,0,50946:0:0:0:0:
448,192,50656,1,0,0:0:0:0:
192,192,50946,1,0,0:0:0:0:
320,192,51019,1,0,0:0:0:0:
448,192,51091,128,0,51381:0:0:0:0:
192,192,51381,1,0,0:0:0:0:
320,192,51381,1,0,0:0:0:0:
64,192,51526,1,0,0:0:0:0:
448,192,51526,1,0,0:0:0:0:
64,192,51816,1,0,0:0:0:0:
448,192,51961,1,4,0:0:0:0:
320,192,51961,128,0,52250:0:0:0:0:
192,192,52250,1,0,0:0:0:0:
448,192,52395,128,0,53265:0:0:0:0:
64,192,52395,1,0,0:0:0:0:
64,192,52830,1,0,0:0:0:0:
320,192,52830,1,0,0:0:0:0:
64,192,53265,128,0,53555:0:0:0:0:
192,192,53265,1,0,0:0:0:0:
448,192,53555,1,0,0:0:0:0:
192,192,53700,128,0,53990:0:0:0:0:
448,192,53990,1,0,0:0:0:0:
320,192,54062,1,0,0:0:0:0:
64,192,54135,128,0,54424:0:0:0:0:
192,192,54135,1,0,0:0:0:0:
192,192,54424,1,0,0:0:0:0:
448,192,54424,1,0,0:0:0:0:
320,192,54569,1,0,0:0:0:0:
448,192,54859,1,0,0:0:0:0:
192,192,54859,1,0,0:0:0:0:
448,192,55004,128,0,55439:0:0:0:0:
64,192,55004,1,0,0:0:0:0:
64,192,55294,1,0,0:0:0:0:
192,192,55366,1,0,0:0:0:0:
320,192,55439,1,2,0:0:0:0:
64,192,55874,1,0,0:0:0:0:
448,192,55874,1,0,0:0:0:0:
192,192,55874,128,0,56164:0:0:0:0:
320,192,56164,1,0,0:0:0:0:
64,192,56308,1,0,0:0:0:0:
448,192,56308,128,0,56598:0:0:0:0:
192,192,56598,1,0,0:0:0:0:
448,192,56743,1,0,0:0:0:0:
320,192,56743,128,0,57033:0:0:0:0:
64,192,57033,1,0,0:0:0:0:
192,192,57178,128,0,57468:0:0:0:0:
448,192,57468,1,0,0:0:0:0:
320,192,57540,1,0,0:0:0:0:
192,192,57613,1,0,0:0:0:0:
64,192,57613,128,0,57903:0:0:0:0:
192,192,57903,1,0,0:0:0:0:
448,192,57903,1,0,0:0:0:0:
320,192,58048,128,0,58337:0:0:0:0:
192,192,58337,1,0,0:0:0:0:
64,192,58337,1,0,0:0:0:0:
64,192,58482,128,0,58917:0:0:0:0:
448,192,58482,1,0,0:0:0:0:
320,192,58772,1,0,0:0:0:0:
192,192,58917,1,4,0:0:0:0:
448,192,58917,1,0,0:0:0:0:
192,192,59207,1,0,0:0:0:0:
64,192,59352,128,0,59642:0:0:0:0:
448,192,59352,1,0,0:0:0:0:
320,192,59642,1,0,0:0:0:0:
192,192,59787,128,0,60077:0:0:0:0:
448,192,59787,1,0,0:0:0:0:
64,192,60077,1,0,0:0:0:0:
320,192,60221,1,0,0:0:0:0:
448,192,60221,128,0,60511:0:0:0:0:
64,192,60511,1,0,0:0:0:0:
320,192,60656,128,0,60946:0:0:0:0:
64,192,60946,1,0,0:0:0:0:
192,192,61019,1,0,0:0:0:0:
320,192,61091,1,0,0:0:0:0:
448,192,61091,128,0,61381:0:0:0:0:
192,192,61381,1,0,0:0:0:0:
320,192,61381,1,0,0:0:0:0:
64,192,61526,128,0,61816:0:0:0:0:
320,192,61816,1,0,0:0:0:0:
448,192,61816,1,0,0:0:0:0:
448,192,61961,128,0,62250:0:0:0:0:
64,192,61961,1,0,0:0:0:0:
192,192,62250,1,8,0:0:0:0:
320,192,62323,1,8,0:0:0:0:
192,192,62395,1,8,0:0:0:0:
192,192,62685,1,8,0:0:0:0:
320,192,62830,1,0,0:0:0:0:
448,192,62830,1,0,0:0:0:0:
64,192,62830,128,0,63120:0:0:0:0:
320,192,63120,1,0,0:0:0:0:
64,192,63265,1,0,0:0:0:0:
448,192,63265,128,0,63555:0:0:0:0:
192,192,63555,1,0,0:0:0:0:
448,192,63700,1,0,0:0:0:0:
64,192,63700,128,0,63990:0:0:0:0:
192,192,63990,1,0,0:0:0:0:
320,192,64135,128,0,64424:0:0:0:0:
64,192,64424,1,0,0:0:0:0:
192,192,64497,1,0,0:0:0:0:
320,192,64569,1,0,0:0:0:0:
448,192,64569,128,0,64859:0:0:0:0:
192,192,64859,1,0,0:0:0:0:
64,192,64859,1,0,0:0:0:0:
320,192,65004,128,0,65294:0:0:0:0:
64,192,65294,1,0,0:0:0:0:
192,192,65294,1,0,0:0:0:0:
64,192,65439,128,0,65874:0:0:0:0:
320,192,65439,1,0,0:0:0:0:
448,192,65729,1,0,0:0:0:0:
192,192,65874,1,4,0:0:0:0:
320,192,65874,1,0,0:0:0:0:
64,192,66164,1,0,0:0:0:0:
448,192,66308,1,0,0:0:0:0:
320,192,66308,128,0,66598:0:0:0:0:
64,192,66598,1,0,0:0:0:0:
448,192,66743,1,0,0:0:0:0:
192,192,66743,128,0,67033:0:0:0:0:
320,192,67033,1,0,0:0:0:0:
192,192,67178,1,0,0:0:0:0:
64,192,67178,128,0,67468:0:0:0:0:
320,192,67468,1,0,0:0:0:0:
448,192,67613,128,0,67903:0:0:0:0:
320,192,67903,1,0,0:0:0:0:
192,192,67975,1,0,0:0:0:0:
64,192,68048,1,0,0:0:0:0:
448,192,68048,1,0,0:0:0:0:
320,192,68337,1,0,0:0:0:0:
64,192,68337,1,0,0:0:0:0:
192,192,68482,128,0,68772:0:0:0:0:
64,192,68772,1,0,0:0:0:0:
448,192,68772,1,0,0:0:0:0:
320,192,68917,1,0,0:0:0:0:
64,192,68917,1,0,0:0:0:0:
192,192,69352,128,2,69642:0:0:0:0:
320,192,69642,1,0,0:0:0:0:
64,192,69787,1,0,0:0:0:0:
448,192,69787,128,0,70656:0:0:0:0:
192,192,69787,1,0,0:0:0:0:
320,192,70077,1,0,0:0:0:0:
64,192,70221,1,0,0:0:0:0:
192,192,70221,1,0,0:0:0:0:
192,192,70511,1,0,0:0:0:0:
320,192,70656,1,0,0:0:0:0:
64,192,70656,128,0,71091:0:0:0:0:
192,192,70946,1,0,0:0:0:0:
448,192,71091,1,0,0:0:0:0:
320,192,71164,1,0,0:0:0:0:
64,192,71236,1,0,0:0:0:0:
192,192,71308,1,0,0:0:0:0:
320,192,71381,1,0,0:0:0:0:
448,192,71453,1,0,0:0:0:0:
64,192,71526,1,0,0:0:0:0:
192,192,71526,1,0,0:0:0:0:
320,192,71816,1,0,0:0:0:0:
448,192,71816,1,0,0:0:0:0:
192,192,71961,1,0,0:0:0:0:
64,192,72250,1,0,0:0:0:0:
320,192,72250,1,0,0:0:0:0:
64,192,72395,1,0,0:0:0:0:
448,192,72395,1,0,0:0:0:0:
64,192,72685,1,0,0:0:0:0:
320,192,72830,1,0,0:0:0:0:
192,192,72830,1,4,0:0:0:0:
192,192,73120,1,0,0:0:0:0:
64,192,73265,1,0,0:0:0:0:
320,192,73265,128,0,73555:0:0:0:0:
192,192,73555,1,0,0:0:0:0:
64,192,73700,1,0,0:0:0:0:
448,192,73700,128,0,73990:0:0:0:0:
320,192,73990,1,0,0:0:0:0:
64,192,74135,128,0,74424:0:0:0:0:
448,192,74135,1,0,0:0:0:0:
192,192,74424,1,0,0:0:0:0:
448,192,74569,1,0,0:0:0:0:
320,192,74642,1,0,0:0:0:0:
64,192,74714,1,0,0:0:0:0:
192,192,74787,1,0,0:0:0:0:
448,192,74859,1,0,0:0:0:0:
320,192,74932,1,0,0:0:0:0:
192,192,75004,1,0,0:0:0:0:
64,192,75004,128,0,75294:0:0:0:0:
192,192,75294,128,0,75439:0:0:0:0:
320,192,75294,1,0,0:0:0:0:
64,192,75439,128,0,75729:0:0:0:0:
320,192,75729,128,0,75874:0:0:0:0:
192,192,75729,1,0,0:0:0:0:
64,192,75874,128,0,76164:0:0:0:0:
448,192,75874,1,0,0:0:0:0:
192,192,76164,1,8,0:0:0:0:
320,192,76236,1,8,0:0:0:0:
192,192,76308,1,8,0:0:0:0:
192,192,76598,1,8,0:0:0:0:
64,192,76743,1,0,0:0:0:0:
320,192,76743,128,0,77613:0:0:0:0:
448,192,76743,1,0,0:0:0:0:
192,192,77033,1,0,0:0:0:0:
64,192,77178,1,0,0:0:0:0:
448,192,77178,1,0,0:0:0:0:
192,192,77468,1,0,0:0:0:0:
448,192,77613,128,0,78048:0:0:0:0:
64,192,77613,1,0,0:0:0:0:
320,192,77903,1,0,0:0:0:0:
64,192,78048,1,0,0:0:0:0:
192,192,78120,1,0,0:0:0:0:
448,192,78193,1,0,0:0:0:0:
320,192,78265,1,0,0:0:0:0:
192,192,78337,1,0,0:0:0:0:
64,192,78410,1,0,0:0:0:0:
320,192,78482,1,0,0:0:0:0:
448,192,78482,1,0,0:0:0:0:
64,192,78772,1,0,0:0:0:0:
192,192,78772,1,0,0:0:0:0:
448,192,78917,1,0,0:0:0:0:
64,192,79207,1,0,0:0:0:0:
192,192,79207,1,0,0:0:0:0:
64,192,79352,1,0,0:0:0:0:
448,192,79352,1,0,0:0:0:0:
448,192,79642,1,0,0:0:0:0:
64,192,79787,1,0,0:0:0:0:
192,192,79787,1,4,0:0:0:0:
320,192,80077,1,0,0:0:0:0:
448,192,80221,1,0,0:0:0:0:
192,192,80221,128,0,80511:0:0:0:0:
320,192,80511,1,0,0:0:0:0:
192,192,80656,1,0,0:0:0:0:
64,192,80656,128,0,80946:0:0:0:0:
320,192,80946,1,0,0:0:0:0:
448,192,81091,128,0,81381:0:0:0:0:
64,192,81091,1,0,0:0:0:0:
320,192,81381,1,0,0:0:0:0:
64,192,81526,1,0,0:0:0:0:
192,192,81598,1,0,0:0:0:0:
448,192,81671,1,0,0:0:0:0:
320,192,81743,1,0,0:0:0:0:
64,192,81816,1,0,0:0:0:0:
192,192,81888,1,0,0:0:0:0:
320,192,81961,1,0,0:0:0:0:
448,192,81961,128,0,82250:0:0:0:0:
320,192,82250,128,0,82395:0:0:0:0:
192,192,82250,1,0,0:0:0:0:
448,192,82395,128,0,82685:0:0:0:0:
192,192,82685,128,0,82830:0:0:0:0:
320,192,82685,1,0,0:0:0:0:
448,192,82830,128,0,83120:0:0:0:0:
64,192,82830,1,0,0:0:0:0:
192,192,83120,1,0,0:0:0:0:
64,192,83265,128,2,83555:0:0:0:0:
448,192,83265,1,0,0:0:0:0:
320,192,83555,1,0,0:0:0:0:
448,192,83700,128,0,84424:0:0:0:0:
64,192,83700,1,0,0:0:0:0:
192,192,83700,1,0,0:0:0:0:
320,192,83990,1,0,0:0:0:0:
192,192,84135,1,0,0:0:0:0:
64,192,84135,1,0,0:0:0:0:
320,192,84424,1,0,0:0:0:0:
64,192,84569,128,0,85004:0:0:0:0:
448,192,84569,1,0,0:0:0:0:
192,192,84859,1,0,0:0:0:0:
448,192,85004,1,0,0:0:0:0:
320,192,85077,1,0,0:0:0:0:
64,192,85149,1,0,0:0:0:0:
192,192,85221,1,0,0:0:0:0:
320,192,85294,1,0,0:0:0:0:
448,192,85366,1,0,0:0:0:0:
64,192,85439,128,0,85729:0:0:0:0:
192,192,85439,1,0,0:0:0:0:
320,192,85729,128,0,85874:0:0:0:0:
448,192,85729,1,0,0:0:0:0:
192,192,85874,128,0,86164:0:0:0:0:
448,192,86164,128,0,86308:0:0:0:0:
320,192,86164,1,0,0:0:0:0:
64,192,86308,128,0,86598:0:0:0:0:
192,192,86308,1,0,0:0:0:0:
448,192,86598,1,0,0:0:0:0:
192,192,86743,128,0,87033:0:0:0:0:
320,192,86743,1,4,0:0:0:0:
320,192,87033,128,0,87178:0:0:0:0:
448,192,87178,128,0,87468:0:0:0:0:
192,192,87178,1,0,0:0:0:0:
320,192,87468,1,0,0:0:0:0:
64,192,87613,1,0,0:0:0:0:
192,192,87613,128,0,87903:0:0:0:0:
448,192,87903,128,0,88048:0:0:0:0:
320,192,88048,128,0,88337:0:0:0:0:
192,192,88048,1,0,0:0:0:0:
64,192,88337,1,0,0:0:0:0:
448,192,88482,1,0,0:0:0:0:
320,192,88555,1,0,0:0:0:0:
64,192,88627,1,0,0:0:0:0:
192,192,88700,1,0,0:0:0:0:
320,192,88772,1,0,0:0:0:0:
448,192,88845,1,0,0:0:0:0:
64,192,88917,128,0,89207:0:0:0:0:
192,192,88917,1,0,0:0:0:0:
320,192,89207,128,0,89352:0:0:0:0:
192,192,89207,1,0,0:0:0:0:
448,192,89352,128,0,89642:0:0:0:0:
192,192,89642,128,0,89787:0:0:0:0:
320,192,89642,1,0,0:0:0:0:
448,192,89787,1,0,0:0:0:0:
64,192,89787,128,0,90077:0:0:0:0:
192,192,90077,1,8,0:0:0:0:
320,192,90149,1,8,0:0:0:0:
192,192,90221,1,8,0:0:0:0:
192,192,90511,1,8,0:0:0:0:
64,192,90656,128,0,91381:0:0:0:0:
320,192,90656,1,0,0:0:0:0:
448,192,90656,1,0,0:0:0:0:
192,192,90946,1,0,0:0:0:0:
320,192,91091,1,0,0:0:0:0:
448,192,91091,1,0,0:0:0:0:
192,192,91381,1,0,0:0:0:0:
320,192,91526,1,0,0:0:0:0:
448,192,91526,128,0,91961:0:0:0:0:
192,192,91816,1,0,0:0:0:0:
64,192,91961,1,0,0:0:0:0:
192,192,92033,1,0,0:0:0:0:
448,192,92106,1,0,0:0:0:0:
320,192,92178,1,0,0:0:0:0:
192,192,92250,1,0,0:0:0:0:
64,192,92323,1,0,0:0:0:0:
320,192,92395,128,0,92685:0:0:0:0:
448,192,92395,1,0,0:0:0:0:
192,192,92685,128,0,92830:0:0:0:0:
64,192,92685,1,0,0:0:0:0:
448,192,92830,128,0,93120:0:0:0:0:
192,192,93120,1,0,0:0:0:0:
64,192,93120,128,0,93265:0:0:0:0:
448,192,93265,1,0,0:0:0:0:
320,192,93265,128,0,93555:0:0:0:0:
64,192,93555,1,0,0:0:0:0:
448,192,93700,1,0,0:0:0:0:
320,192,93700,1,4,0:0:0:0:
320,192,93990,1,0,0:0:0:0:
192,192,94135,128,0,94424:0:0:0:0:
448,192,94135,1,0,0:0:0:0:
448,192,94424,1,0,0:0:0:0:
192,192,94569,128,0,94859:0:0:0:0:
64,192,94569,1,0,0:0:0:0:
320,192,94859,128,0,95004:0:0:0:0:
448,192,95004,128,0,95294:0:0:0:0:
64,192,95004,1,0,0:0:0:0:
192,192,95294,1,0,0:0:0:0:
64,192,95439,1,0,0:0:0:0:
192,192,95511,1,0,0:0:0:0:
448,192,95584,1,0,0:0:0:0:
320,192,95656,1,0,0:0:0:0:
192,192,95729,1,0,0:0:0:0:
64,192,95801,1,0,0:0:0:0:
448,192,95874,128,0,96164:0:0:0:0:
320,192,95874,1,0,0:0:0:0:
320,192,96164,1,0,0:0:0:0:
192,192,96164,128,0,96308:0:0:0:0:
64,192,96308,128,0,96598:0:0:0:0:
192,192,96598,1,0,0:0:0:0:
320,192,96598,128,0,96743:0:0:0:0:
448,192,96743,128,0,97178:0:0:0:0:
64,192,96743,1,0,0:0:0:0:
320,192,97178,5,2,0:0:0:0:
192,192,97178,128,0,97468:0:0:0:0:
320,192,97468,128,0,97613:0:0:0:0:
64,192,97613,1,0,0:0:0:0:
448,192,97613,128,0,98482:0:0:0:0:
192,192,98048,1,0,0:0:0:0:
64,192,98048,1,0,0:0:0:0:
320,192,98482,1,0,0:0:0:0:
64,192,98482,128,0,98917:0:0:0:0:
448,192,98917,1,0,0:0:0:0:
192,192,99207,1,0,0:0:0:0:
320,192,99352,128,0,99642:0:0:0:0:
64,192,99352,1,0,0:0:0:0:
192,192,99642,1,0,0:0:0:0:
448,192,99642,128,0,99787:0:0:0:0:
64,192,99787,128,0,100077:0:0:0:0:
192,192,100077,128,0,100221:0:0:0:0:
448,192,100077,1,0,0:0:0:0:
320,192,100221,128,0,100511:0:0:0:0:
64,192,100656,128,4,100946:0:0:0:0:
320,192,100656,1,0,0:0:0:0:
192,192,100946,128,0,101091:0:0:0:0:
448,192,101091,1,0,0:0:0:0:
320,192,101091,128,0,101381:0:0:0:0:
448,192,101526,1,0,0:0:0:0:
320,192,101526,128,0,101816:0:0:0:0:
192,192,101816,128,0,101961:0:0:0:0:
448,192,101961,1,0,0:0:0:0:
320,192,101961,128,0,102250:0:0:0:0:
64,192,102395,128,0,102685:0:0:0:0:
192,192,102685,128,0,102830:0:0:0:0:
320,192,102830,128,0,103120:0:0:0:0:
448,192,102830,1,0,0:0:0:0:
448,192,103120,128,0,103265:0:0:0:0:
192,192,103120,1,0,0:0:0:0:
64,192,103265,128,0,103555:0:0:0:0:
320,192,103555,128,0,103700:0:0:0:0:
192,192,103555,1,0,0:0:0:0:
448,192,103700,128,0,103990:0:0:0:0:
192,192,103990,1,8,0:0:0:0:
320,192,104062,1,8,0:0:0:0:
192,192,104135,1,8,0:0:0:0:
192,192,104424,1,8,0:0:0:0:
64,192,104569,128,0,105439:0:0:0:0:
320,192,104569,1,0,0:0:0:0:
448,192,105004,1,0,0:0:0:0:
320,192,105004,1,0,0:0:0:0:
448,192,105439,128,0,105874:0:0:0:0:
320,192,105439,1,0,0:0:0:0:
64,192,105874,1,0,0:0:0:0:
320,192,106164,1,0,0:0:0:0:
448,192,106308,1,0,0:0:0:0:
192,192,106308,128,0,106598:0:0:0:0:
320,192,106598,1,0,0:0:0:0:
64,192,106598,128,0,106743:0:0:0:0:
448,192,106743,128,0,107033:0:0:0:0:
64,192,107033,1,0,0:0:0:0:
320,192,107033,128,0,107178:0:0:0:0:
192,192,107178,128,0,107468:0:0:0:0:
64,192,107613,128,0,107903:0:0:0:0:
448,192,107613,1,4,0:0:0:0:
320,192,107903,128,0,108048:0:0:0:0:
448,192,108048,1,0,0:0:0:0:
192,192,108048,128,0,108337:0:0:0:0:
192,192,108482,128,0,108772:0:0:0:0:
320,192,108482,1,0,0:0:0:0:
320,192,108772,128,0,108917:0:0:0:0:
192,192,108917,128,0,109207:0:0:0:0:
448,192,108917,1,0,0:0:0:0:
320,192,109352,128,0,109642:0:0:0:0:
448,192,109642,128,0,109787:0:0:0:0:
64,192,109787,128,0,110077:0:0:0:0:
192,192,109787,1,0,0:0:0:0:
192,192,110077,128,0,110221:0:0:0:0:
448,192,110077,1,0,0:0:0:0:
320,192,110221,128,0,110511:0:0:0:0:
64,192,110511,1,0,0:0:0:0:
448,192,110511,1,0,0:0:0:0:
448,192,110656,128,0,110946:0:0:0:0:
64,192,110656,128,0,110946:0:0:0:0:
192,192,110946,1,2,0:0:0:0:
320,192,111019,1,2,0:0:0:0:
192,192,111091,1,2,0:0:0:0:
