osu file format v14

[General]
AudioFilename: audio.mp3
AudioLeadIn: 0
PreviewTime: 66680
Countdown: 0
SampleSet: Soft
StackLeniency: 0.6
Mode: 0
LetterboxInBreaks: 0
WidescreenStoryboard: 0

[Editor]
Bookmarks: 21571,49397,66788,80701,94615,105049,118962,136354,150267,164180,178093,188528,202441,216354,230267
DistanceSpacing: 0.6
BeatDivisor: 4
GridSize: 8
TimelineZoom: 3.199999

[Metadata]
Title:Halloween of the Dead
TitleUnicode:Halloween of the DeadⅡ ~長い夜の悪夢~
Artist:Hatsuki Yura
ArtistUnicode:Hatsuki Yura
Creator:Skorpiik
Version:Collab Extra
Source:
Tags:
BeatmapID:2025046
BeatmapSetID:967661

[Difficulty]
HPDrainRate:4.5
CircleSize:4
OverallDifficulty:9
ApproachRate:9.6
SliderMultiplier:2
SliderTickRate:1

[Events]
//Background and Video events
0,0,"zcXLOS.jpg",0,0
//Break Periods
//Storyboard Layer 0 (Background)
//Storyboard Layer 1 (Fail)
//Storyboard Layer 2 (Pass)
//Storyboard Layer 3 (Foreground)
//Storyboard Sound Samples

[TimingPoints]
702,434.782608695652,4,2,0,60,1,0
2006,-149.253731343284,4,2,0,60,0,0
7658,-83.3333333333333,4,2,0,60,0,0
10701,-133.333333333333,4,2,0,60,0,0
21571,-90.9090909090909,4,2,0,60,0,0
32006,-66.6666666666667,4,2,0,60,0,0
32441,-100,4,2,0,60,0,0
32875,-66.6666666666667,4,2,0,60,0,0
33310,-100,4,2,0,60,0,0
35484,-90.9090909090909,4,2,0,60,0,0
49397,-133.333333333333,4,2,0,60,0,0
52441,-90.9090909090909,4,2,0,60,0,0
66354,-250,4,2,0,60,0,0
66788,-58.8235294117647,4,2,0,60,0,1
80701,-40,4,2,0,60,0,1
87658,-37.037037037037,4,2,0,60,0,1
94615,-66.6666666666667,4,2,0,60,0,0
99832,-57.1428571428571,4,2,0,60,0,0
103962,-80,4,2,0,60,0,0
104615,-66.6666666666667,4,2,0,60,0,0
105267,-100,4,2,0,60,0,0
120701,-125,4,2,0,60,0,0
121136,-100,4,2,0,60,0,0
121571,-74.0740740740741,4,2,0,60,0,0
122441,-83.3333333333333,4,2,0,60,0,0
122875,-74.0740740740741,4,2,0,60,0,0
123310,-58.8235294117647,4,2,0,60,0,0
123745,-66.6666666666667,4,2,0,60,0,0
123962,-58.8235294117647,4,2,0,60,0,0
124615,-66.6666666666667,4,2,0,60,0,0
125919,-66.6666666666667,4,2,0,60,0,0
129397,-55.5555555555556,4,2,0,60,0,0
134615,-55.5555555555556,4,2,0,60,0,0
135484,-66.6666666666667,4,2,0,60,0,0
135919,-250,4,2,0,60,0,0
136354,-55.5555555555556,4,2,0,60,0,1
137875,-100,4,2,0,60,0,1
138093,-55.5555555555556,4,2,0,60,0,1
144832,-100,4,2,0,60,0,1
145049,-55.5555555555556,4,2,0,60,0,1
150267,-50,4,2,0,60,0,1
163745,-66.6666666666667,4,2,0,60,0,1
164180,-100,4,2,0,60,0,0
202006,-200,4,2,0,60,0,0
202441,-100,4,2,0,60,0,1
230267,-100,4,2,0,60,0,0

[Colours]
Combo1 : 51,124,16
Combo2 : 194,48,12
Combo3 : 216,206,24
Combo4 : 118,22,248

[HitObjects]
443,220,484,5,0,0:0:0:0:
443,220,557,1,0,0:0:0:0:
443,220,629,1,0,0:0:0:0:
475,236,702,5,0,0:0:0:0:
370,301,919,1,0,0:0:0:0:
251,248,1136,1,0,0:0:0:0:
202,123,1354,1,0,0:0:0:0:
127,209,1571,2,0,P|86:191|37:223,1,100
0,282,1861,5,0,0:0:0:0:
0,282,1933,1,0,0:0:0:0:
0,307,2006,2,0,P|59:325|98:292,1,111.666661384583
85,213,2441,1,0,0:0:0:0:
216,254,2658,1,0,0:0:0:0:
193,120,2875,1,0,0:0:0:0:
336,179,3093,1,0,0:0:0:0:
467,117,3310,1,0,0:0:0:0:
356,48,3528,5,0,0:0:0:0:
280,156,3637,1,0,0:0:0:0:
200,277,3745,2,0,L|162:324,1,44.6666645538331
132,343,3962,5,0,0:0:0:0:
116,345,4035,1,0,0:0:0:0:
101,335,4107,1,0,0:0:0:0:
95,253,4180,5,0,0:0:0:0:
160,245,4288,1,0,0:0:0:0:
205,201,4397,1,0,0:0:0:0:
205,137,4506,1,0,0:0:0:0:
133,169,4615,5,0,0:0:0:0:
130,231,4723,1,0,0:0:0:0:
165,284,4832,1,0,0:0:0:0:
231,288,4941,1,0,0:0:0:0:
206,210,5049,5,0,0:0:0:0:
141,211,5158,1,0,0:0:0:0:
96,257,5267,1,0,0:0:0:0:
106,319,5375,1,0,0:0:0:0:
171,278,5484,5,0,0:0:0:0:
113,251,5593,1,0,0:0:0:0:
50,269,5701,1,0,0:0:0:0:
22,327,5810,1,0,0:0:0:0:
65,378,5919,5,0,0:0:0:0:
98,383,6028,1,0,0:0:0:0:
134,372,6136,1,0,0:0:0:0:
148,337,6245,1,0,0:0:0:0:
120,263,6354,5,0,0:0:0:0:
122,224,6462,1,0,0:0:0:0:
161,207,6571,1,0,0:0:0:0:
195,231,6680,1,0,0:0:0:0:
259,281,6788,5,0,0:0:0:0:
313,320,6897,1,0,0:0:0:0:
272,373,7006,1,0,0:0:0:0:
219,332,7115,1,0,0:0:0:0:
253,248,7223,5,0,0:0:0:0:
269,213,7332,1,0,0:0:0:0:
297,232,7441,1,0,0:0:0:0:
285,251,7549,1,0,0:0:0:0:
274,237,7658,6,0,P|203:225|150:253,1,119.999996337891
105,317,7984,1,0,0:0:0:0:
168,366,8093,2,0,P|206:380|236:368,1,59.9999981689454
246,296,8310,2,0,P|287:287|299:258,1,59.9999981689454
441,342,8528,6,0,P|386:306|378:238,1,119.999996337891
408,155,8817,5,0,0:0:0:0:
408,155,8890,1,0,0:0:0:0:
439,154,8962,2,0,P|495:194|502:258,1,119.999996337891
472,335,9288,1,0,0:0:0:0:
291,331,9397,6,0,L|344:275,1,59.9999981689454
379,199,9615,1,0,0:0:0:0:
387,240,9723,1,0,0:0:0:0:
313,229,9832,1,0,0:0:0:0:
302,190,9941,1,0,0:0:0:0:
377,85,10049,6,0,L|320:114,1,59.9999981689454
246,152,10267,1,0,0:0:0:0:
167,183,10375,1,0,0:0:0:0:
73,161,10484,1,0,0:0:0:0:
48,83,10593,1,0,0:0:0:0:
121,20,10701,2,0,P|162:36|163:53,1,50.0000019073487
161,101,10919,5,0,0:0:0:0:
139,106,10991,1,0,0:0:0:0:
135,87,11064,1,0,0:0:0:0:
213,39,11136,5,0,0:0:0:0:
247,112,11245,1,0,0:0:0:0:
217,187,11354,1,0,0:0:0:0:
140,206,11462,1,0,0:0:0:0:
158,133,11571,5,0,0:0:0:0:
237,122,11680,1,0,0:0:0:0:
298,171,11788,1,0,0:0:0:0:
285,245,11897,1,0,0:0:0:0:
222,202,12006,5,0,0:0:0:0:
300,185,12115,1,0,0:0:0:0:
350,247,12223,1,0,0:0:0:0:
299,307,12332,1,0,0:0:0:0:
285,245,12441,5,0,0:0:0:0:
338,301,12549,1,0,0:0:0:0:
273,347,12658,1,0,0:0:0:0:
223,290,12767,1,0,0:0:0:0:
342,369,12875,5,0,0:0:0:0:
402,348,12984,1,0,0:0:0:0:
444,297,13093,1,0,0:0:0:0:
457,232,13201,1,0,0:0:0:0:
346,246,13310,5,0,0:0:0:0:
307,176,13419,1,0,0:0:0:0:
324,100,13528,1,0,0:0:0:0:
400,81,13636,1,0,0:0:0:0:
226,67,13745,5,0,0:0:0:0:
166,236,13854,1,0,0:0:0:0:
107,119,13962,1,0,0:0:0:0:
271,183,14071,1,0,0:0:0:0:
319,63,14288,5,0,0:0:0:0:
413,158,14397,2,0,L|444:190,1,37.5000014305115
463,263,14615,5,0,0:0:0:0:
369,38,14832,1,0,0:0:0:0:
150,168,15049,1,0,0:0:0:0:
174,152,15158,1,0,0:0:0:0:
241,155,15267,1,0,0:0:0:0:
396,239,15375,2,0,L|306:295,1,75.0000028610231
272,314,15701,5,0,0:0:0:0:
0,215,15919,1,0,0:0:0:0:
354,93,16136,1,0,0:0:0:0:
361,349,16354,6,0,L|326:321,1,37.5000014305115
457,151,16571,1,0,0:0:0:0:
419,207,16680,1,0,0:0:0:0:
380,228,16788,1,0,0:0:0:0:
314,225,16897,1,0,0:0:0:0:
278,193,17006,1,0,0:0:0:0:
326,59,17115,6,0,L|416:93,1,75.0000028610231
198,137,17441,2,0,L|161:147,1,37.5000014305115
385,203,17658,6,0,L|490:260,1,112.500004291535
485,344,18093,5,0,0:0:0:0:
150,226,18310,1,0,0:0:0:0:
416,253,18528,1,0,0:0:0:0:
384,269,18636,1,0,0:0:0:0:
323,249,18745,1,0,0:0:0:0:
218,130,18854,2,0,L|307:88,1,75.0000028610231
351,71,19180,5,0,0:0:0:0:
40,181,19397,1,0,0:0:0:0:
391,297,19615,1,0,0:0:0:0:
14,375,19832,6,0,L|40:314,1,37.5000014305115
60,261,20049,1,0,0:0:0:0:
102,166,20158,2,0,L|152:201,1,37.5000014305115
186,308,20375,2,0,L|193:261,1,37.5000014305115
225,183,20557,1,0,0:0:0:0:
225,183,20629,1,0,0:0:0:0:
252,190,20701,5,0,0:0:0:0:
285,215,20810,1,0,0:0:0:0:
317,310,20919,1,0,0:0:0:0:
343,326,21028,1,0,0:0:0:0:
442,294,21136,1,0,0:0:0:0:
464,257,21245,1,0,0:0:0:0:
459,215,21354,1,0,0:0:0:0:
435,181,21462,1,0,0:0:0:0:
396,167,21571,5,0,0:0:0:0:
242,202,21788,2,0,P|230:170|230:142,1,55.0000016784668
146,32,22006,2,0,P|143:59|133:84,1,55.0000016784668
47,222,22223,2,0,P|72:211|99:209,1,55.0000016784668
239,51,22441,1,0,0:0:0:0:
163,309,22658,1,0,0:0:0:0:
163,309,22767,2,0,B|191:325|246:325,1,55.0000016784668
323,165,22984,2,0,B|345:165|374:182,1,55.0000016784668
409,356,23201,1,0,0:0:0:0:
319,362,23310,6,0,P|305:292|325:238,1,110.000003356934
448,116,23745,2,0,L|460:196,1,55.0000016784668
314,256,23962,1,0,0:0:0:0:
234,204,24071,1,0,0:0:0:0:
225,171,24180,2,0,P|198:156|139:157,1,55.0000016784668
38,260,24397,1,0,0:0:0:0:
63,353,24506,1,0,0:0:0:0:
96,357,24615,2,0,P|120:338|142:283,1,55.0000016784668
91,127,24832,2,0,P|66:145|44:200,1,55.0000016784668
212,344,25049,5,0,0:0:0:0:
291,183,25267,2,0,P|318:177|351:184,1,55.0000016784668
475,286,25484,2,0,P|447:291|415:285,1,55.0000016784668
220,255,25701,1,0,0:0:0:0:
306,306,25810,2,0,P|343:253|346:177,1,110.000003356934
313,72,26136,2,0,L|235:94,1,55.0000016784668
150,209,26354,2,0,P|157:166|152:138,1,55.0000016784668
18,25,26571,1,0,0:0:0:0:
36,41,26680,1,0,0:0:0:0:
64,130,26788,6,0,P|67:161|53:195,1,55.0000016784668
0,326,27006,2,0,P|-3:295|11:261,1,55.0000016784668
159,112,27223,1,0,0:0:0:0:
235,101,27332,1,0,0:0:0:0:
301,140,27441,1,0,0:0:0:0:
329,210,27549,1,0,0:0:0:0:
284,316,27658,5,0,0:0:0:0:
232,331,27767,1,0,0:0:0:0:
284,316,27875,1,0,0:0:0:0:
232,331,27984,1,0,0:0:0:0:
157,325,28093,5,0,0:0:0:0:
105,340,28202,1,0,0:0:0:0:
157,325,28310,1,0,0:0:0:0:
105,340,28419,1,0,0:0:0:0:
29,318,28528,5,0,0:0:0:0:
179,152,28745,2,0,L|192:77,1,55.0000016784668
25,29,28962,2,0,L|110:43,1,55.0000016784668
126,227,29180,1,0,0:0:0:0:
244,27,29397,1,0,0:0:0:0:
327,306,29615,1,0,0:0:0:0:
327,306,29723,2,0,P|361:307|390:296,1,55.0000016784668
479,205,29941,2,0,P|480:171|469:142,1,55.0000016784668
378,53,30158,1,0,0:0:0:0:
290,75,30267,6,0,P|279:134|294:188,1,110.000003356934
413,317,30701,2,0,P|380:311|341:314,1,55.0000016784668
152,346,30919,1,0,0:0:0:0:
212,280,31028,1,0,0:0:0:0:
214,246,31136,2,0,P|200:211|163:188,1,55.0000016784668
65,284,31354,1,0,0:0:0:0:
5,218,31463,1,0,0:0:0:0:
0,186,31571,1,0,0:0:0:0:
5,154,31680,1,0,0:0:0:0:
49,82,31788,2,0,P|80:67|105:63,1,55.0000016784668
234,302,32006,6,0,L|331:317,1,75.0000028610231
458,185,32223,1,0,0:0:0:0:
439,35,32332,1,0,0:0:0:0:
439,35,32441,2,0,P|377:40|360:51,1,50
512,104,32658,2,0,P|487:108|463:106,1,50
234,82,32875,6,0,L|331:67,1,75.0000028610231
458,199,33092,1,0,0:0:0:0:
439,349,33201,1,0,0:0:0:0:
439,349,33310,2,0,P|377:343|360:333,1,50
512,279,33527,2,0,P|487:275|463:278,1,50
264,340,33745,5,0,0:0:0:0:
221,342,33854,1,0,0:0:0:0:
187,317,33962,1,0,0:0:0:0:
176,276,34071,1,0,0:0:0:0:
235,192,34180,5,0,0:0:0:0:
278,190,34289,1,0,0:0:0:0:
312,215,34397,1,0,0:0:0:0:
323,256,34506,1,0,0:0:0:0:
254,350,34615,5,0,0:0:0:0:
171,358,34723,1,0,0:0:0:0:
106,304,34832,1,0,0:0:0:0:
95,220,34941,1,0,0:0:0:0:
171,116,35049,5,0,0:0:0:0:
254,108,35157,1,0,0:0:0:0:
319,162,35266,1,0,0:0:0:0:
330,246,35375,1,0,0:0:0:0:
244,360,35484,5,0,0:0:0:0:
442,333,35701,2,0,P|454:298|454:267,1,55.0000016784668
438,72,35919,2,0,P|450:107|450:138,1,55.0000016784668
313,296,36136,2,0,P|340:291|364:279,1,55.0000016784668
360,125,36354,1,0,0:0:0:0:
124,332,36571,1,0,0:0:0:0:
124,332,36680,2,0,L|111:267,1,55.0000016784668
63,130,36897,2,0,L|128:145,1,55.0000016784668
221,323,37115,1,0,0:0:0:0:
312,349,37223,6,0,P|334:283|318:210,1,110.000003356934
232,50,37658,2,0,P|218:98|220:117,1,55.0000016784668
330,243,37875,1,0,0:0:0:0:
420,263,37984,1,0,0:0:0:0:
449,255,38093,2,0,P|463:207|461:188,1,55.0000016784668
351,62,38310,1,0,0:0:0:0:
261,42,38419,1,0,0:0:0:0:
232,50,38528,2,0,P|218:98|220:117,1,55.0000016784668
91,282,38745,2,0,P|105:234|103:215,1,55.0000016784668
26,64,38962,5,0,0:0:0:0:
203,206,39180,2,0,L|272:197,1,55.0000016784668
455,116,39397,2,0,L|386:125,1,55.0000016784668
303,306,39615,1,0,0:0:0:0:
326,161,39723,2,0,P|362:212|362:274,1,110.000003356934
232,358,40049,2,0,P|217:305|221:280,1,55.0000016784668
47,268,40267,2,0,P|74:264|99:252,1,55.0000016784668
214,170,40484,1,0,0:0:0:0:
219,139,40593,1,0,0:0:0:0:
180,56,40701,6,0,P|136:49|94:54,1,55.0000016784668
275,241,40919,2,0,P|319:248|361:243,1,55.0000016784668
127,133,41136,1,0,0:0:0:0:
51,149,41245,1,0,0:0:0:0:
21,220,41354,1,0,0:0:0:0:
43,293,41462,1,0,0:0:0:0:
149,342,41571,5,0,0:0:0:0:
170,290,41680,1,0,0:0:0:0:
149,342,41788,1,0,0:0:0:0:
170,290,41897,1,0,0:0:0:0:
241,270,42006,5,0,0:0:0:0:
262,218,42115,1,0,0:0:0:0:
241,270,42223,1,0,0:0:0:0:
262,218,42332,1,0,0:0:0:0:
331,195,42441,5,0,0:0:0:0:
484,355,42658,2,0,P|447:363|422:360,1,55.0000016784668
323,141,42875,2,0,P|330:167|330:194,1,55.0000016784668
248,320,43093,2,0,P|220:320|194:313,1,55.0000016784668
106,139,43310,1,0,0:0:0:0:
450,204,43528,1,0,0:0:0:0:
450,204,43636,2,0,L|442:271,1,55.0000016784668
343,384,43854,2,0,L|336:329,1,55.0000016784668
217,190,44071,1,0,0:0:0:0:
167,275,44180,6,0,P|104:293|25:271,1,110.000003356934
29,94,44615,2,0,L|41:159,1,55.0000016784668
217,190,44832,1,0,0:0:0:0:
301,146,44941,1,0,0:0:0:0:
311,116,45049,2,0,P|358:102|388:104,1,55.0000016784668
464,172,45267,5,0,0:0:0:0:
438,262,45376,1,0,0:0:0:0:
407,284,45484,1,0,0:0:0:0:
370,295,45593,1,0,0:0:0:0:
332,300,45701,2,0,L|322:337,1,27.5000008392334
293,300,45810,2,0,L|285:273,1,27.5000008392334
201,266,45919,5,0,0:0:0:0:
171,219,46028,1,0,0:0:0:0:
171,164,46136,1,0,0:0:0:0:
200,117,46245,1,0,0:0:0:0:
240,30,46354,5,0,0:0:0:0:
184,27,46463,1,0,0:0:0:0:
136,55,46571,1,0,0:0:0:0:
110,103,46680,1,0,0:0:0:0:
171,219,46788,5,0,0:0:0:0:
250,240,46897,1,0,0:0:0:0:
332,239,47006,1,0,0:0:0:0:
412,217,47115,1,0,0:0:0:0:
458,92,47223,5,0,0:0:0:0:
365,77,47332,1,0,0:0:0:0:
307,150,47441,1,0,0:0:0:0:
332,239,47549,1,0,0:0:0:0:
442,324,47658,5,0,0:0:0:0:
412,217,47767,1,0,0:0:0:0:
426,270,47875,1,0,0:0:0:0:
307,150,47984,5,0,0:0:0:0:
332,239,48093,1,0,0:0:0:0:
320,195,48201,1,0,0:0:0:0:
255,304,48310,2,0,L|244:357,1,55.0000016784668
126,360,48528,5,0,0:0:0:0:
47,310,48636,1,0,0:0:0:0:
28,229,48745,1,0,0:0:0:0:
58,164,48854,1,0,0:0:0:0:
116,150,48962,1,0,0:0:0:0:
159,173,49071,1,0,0:0:0:0:
170,209,49180,1,0,0:0:0:0:
163,235,49288,1,0,0:0:0:0:
142,243,49397,6,0,P|106:239|96:219,1,37.5000014305115
39,127,49615,2,0,P|56:99|76:94,1,37.5000014305115
199,87,49832,2,0,P|161:138|162:187,1,112.500004291535
196,286,50267,6,0,P|232:281|245:266,1,37.5000014305115
298,178,50484,2,0,P|285:155|250:148,1,37.5000014305115
146,162,50701,2,0,P|161:208|116:290,1,112.500004291535
56,320,51136,6,0,P|88:275|163:275,1,112.500004291535
218,307,51571,1,0,0:0:0:0:
343,212,51788,1,0,0:0:0:0:
498,265,52006,6,0,P|450:307|387:317,1,112.500004291535
263,250,52441,2,0,P|237:182|244:120,1,110.000003356934
265,78,52730,1,0,0:0:0:0:
265,78,52803,1,0,0:0:0:0:
311,72,52875,6,0,L|495:109,1,165.000005035401
182,183,53310,6,0,L|-4:244,1,165.000005035401
460,315,53745,6,0,L|271:284,1,165.000005035401
156,111,54180,6,0,L|0:165,1,165.000005035401
442,54,54615,6,0,L|394:224,1,165.000005035401
259,369,55049,6,0,L|219:199,1,165.000005035401
118,45,55484,6,0,L|133:110,1,55.0000016784668
142,298,55701,2,0,L|159:364,1,55.0000016784668
337,164,55919,2,0,L|482:42,1,165.000005035401
350,43,56354,6,0,P|324:43|287:68,1,55.0000016784668
239,197,56571,2,0,P|255:219|287:235,1,55.0000016784668
443,185,56788,1,0,0:0:0:0:
164,157,57006,1,0,0:0:0:0:
148,42,57223,6,0,P|178:62|186:89,1,55.0000016784668
113,219,57441,2,0,P|78:222|48:201,1,55.0000016784668
47,95,57658,1,0,0:0:0:0:
345,322,57875,1,0,0:0:0:0:
451,293,58093,6,0,P|435:264|409:253,1,55.0000016784668
266,210,58310,2,0,P|295:227|312:264,1,55.0000016784668
279,361,58528,2,0,P|249:348|228:320,1,55.0000016784668
223,133,58745,2,0,P|201:134|166:170,1,55.0000016784668
21,301,58962,2,0,P|102:279|164:226,1,165.000005035401
376,329,59397,6,0,L|257:184,1,165.000005035401
255,86,59832,5,0,0:0:0:0:
347,78,59941,1,0,0:0:0:0:
434,114,60049,1,0,0:0:0:0:
474,206,60158,1,0,0:0:0:0:
499,318,60267,5,0,0:0:0:0:
412,319,60375,1,0,0:0:0:0:
327,283,60484,1,0,0:0:0:0:
284,201,60593,1,0,0:0:0:0:
373,173,60701,5,0,0:0:0:0:
346,262,60810,1,0,0:0:0:0:
254,292,60919,1,0,0:0:0:0:
170,258,61028,1,0,0:0:0:0:
245,219,61136,5,0,0:0:0:0:
233,312,61245,1,0,0:0:0:0:
147,298,61354,1,0,0:0:0:0:
161,211,61462,1,0,0:0:0:0:
249,365,61571,5,0,0:0:0:0:
295,351,61680,1,0,0:0:0:0:
289,308,61788,1,0,0:0:0:0:
340,301,61897,1,0,0:0:0:0:
323,251,62006,5,0,0:0:0:0:
384,232,62115,1,0,0:0:0:0:
338,188,62223,1,0,0:0:0:0:
395,169,62332,1,0,0:0:0:0:
366,110,62441,5,0,0:0:0:0:
297,138,62549,1,0,0:0:0:0:
303,67,62658,1,0,0:0:0:0:
237,97,62767,1,0,0:0:0:0:
234,22,62875,5,0,0:0:0:0:
147,69,62984,1,0,0:0:0:0:
238,121,63093,1,0,0:0:0:0:
159,167,63201,1,0,0:0:0:0:
319,78,63310,5,0,0:0:0:0:
353,73,63419,1,0,0:0:0:0:
340,107,63528,1,0,0:0:0:0:
126,126,63745,5,0,0:0:0:0:
83,106,63854,1,0,0:0:0:0:
86,151,63962,1,0,0:0:0:0:
247,325,64180,5,0,0:0:0:0:
183,333,64288,1,0,0:0:0:0:
206,276,64397,1,0,0:0:0:0:
433,257,64615,5,0,0:0:0:0:
472,343,64723,1,0,0:0:0:0:
374,330,64832,1,0,0:0:0:0:
360,324,64904,1,0,0:0:0:0:
348,313,64977,1,0,0:0:0:0:
345,260,65049,6,0,L|407:152,1,110.000003356934
164,66,65375,6,0,L|88:180,1,110.000003356934
211,340,65701,6,0,L|251:275,1,55.0000016784668
39,30,65919,6,0,L|39:166,1,110.000003356934
39,182,66209,1,0,0:0:0:0:
39,217,66281,1,0,0:0:0:0:
38,270,66354,6,0,L|37:333,1,60
320,317,66788,6,0,P|340:268|339:223,1,85.0000016212464
238,32,67006,2,0,P|218:81|219:126,1,85.0000016212464
439,216,67223,2,0,P|423:178|381:145,1,85.0000016212464
119,133,67441,2,0,P|135:171|177:204,1,85.0000016212464
460,45,67658,6,0,L|355:56,1,85.0000016212464
136,53,67875,1,0,0:0:0:0:
200,167,67984,1,0,0:0:0:0:
116,38,68093,2,0,P|85:94|90:142,1,85.0000016212464
136,281,68310,1,0,0:0:0:0:
200,167,68419,1,0,0:0:0:0:
118,296,68528,5,0,0:0:0:0:
44,275,68636,1,0,0:0:0:0:
5,198,68745,1,0,0:0:0:0:
26,106,68854,1,0,0:0:0:0:
118,65,68962,1,0,0:0:0:0:
227,83,69071,1,0,0:0:0:0:
285,186,69180,1,0,0:0:0:0:
410,204,69288,1,0,0:0:0:0:
507,73,69397,5,0,0:0:0:0:
433,32,69505,1,0,0:0:0:0:
350,38,69614,1,0,0:0:0:0:
284,90,69723,1,0,0:0:0:0:
466,224,69832,5,0,0:0:0:0:
458,173,69941,1,0,0:0:0:0:
428,131,70049,1,0,0:0:0:0:
380,111,70158,1,0,0:0:0:0:
357,204,70267,6,0,L|265:182,1,85.0000016212464
169,295,70484,2,0,P|163:336|143:374,1,85.0000016212464
8,188,70701,2,0,P|13:146|33:108,1,85.0000016212464
212,26,70919,1,0,0:0:0:0:
135,188,71028,1,0,0:0:0:0:
246,12,71136,2,0,L|356:26,1,85.0000016212464
96,203,71354,2,0,L|85:287,1,85.0000016212464
301,3,71571,2,0,P|371:20|401:51,1,85.0000016212464
68,250,71788,2,0,P|67:312|85:346,1,85.0000016212464
333,141,72006,5,0,0:0:0:0:
462,183,72115,1,0,0:0:0:0:
483,299,72223,1,0,0:0:0:0:
410,370,72332,1,0,0:0:0:0:
325,357,72441,1,0,0:0:0:0:
303,275,72549,1,0,0:0:0:0:
221,212,72658,1,0,0:0:0:0:
101,203,72767,1,0,0:0:0:0:
1,293,72875,6,0,P|6:337|38:370,1,85.0000016212464
380,220,73093,2,0,P|375:176|343:143,1,85.0000016212464
176,67,73310,1,0,0:0:0:0:
54,86,73418,1,0,0:0:0:0:
0,195,73527,1,0,0:0:0:0:
50,306,73636,1,0,0:0:0:0:
171,329,73745,6,0,P|221:321|285:285,1,85.0000016212464
459,117,73962,2,0,P|409:125|345:161,1,85.0000016212464
123,259,74180,2,0,P|162:243|205:238,1,85.0000016212464
506,186,74397,2,0,P|466:201|424:207,1,85.0000016212464
152,83,74615,1,0,0:0:0:0:
304,205,74723,1,0,0:0:0:0:
124,61,74832,2,0,P|79:55|31:65,1,85.0000016212464
104,339,75049,2,0,L|205:369,1,85.0000016212464
462,310,75267,2,0,L|360:279,1,85.0000016212464
119,181,75484,5,0,0:0:0:0:
271,303,75592,1,0,0:0:0:0:
93,159,75701,2,0,P|87:114|97:66,1,85.0000016212464
357,26,75919,2,0,P|363:71|353:119,1,85.0000016212464
15,64,76136,2,0,P|43:14|113:-4,1,85.0000016212464
294,187,76354,5,0,0:0:0:0:
282,236,76462,1,0,0:0:0:0:
256,280,76571,1,0,0:0:0:0:
214,310,76680,1,0,0:0:0:0:
92,189,76788,5,0,0:0:0:0:
135,116,76896,1,0,0:0:0:0:
209,79,77005,1,0,0:0:0:0:
293,92,77114,1,0,0:0:0:0:
389,188,77223,6,0,P|396:132|377:76,1,85.0000016212464
139,284,77441,2,0,L|53:301,1,85.0000016212464
205,92,77658,2,0,P|202:49|188:9,1,85.0000016212464
354,349,77875,1,0,0:0:0:0:
254,210,77984,1,0,0:0:0:0:
380,379,78093,2,0,P|433:362|456:334,1,85.0000016212464
388,22,78310,2,0,P|335:39|312:67,1,85.0000016212464
295,291,78528,2,0,P|350:304|390:303,1,85.0000016212464
473,110,78745,2,0,P|418:97|378:98,1,85.0000016212464
239,193,78962,5,0,0:0:0:0:
107,230,79071,1,0,0:0:0:0:
12,156,79180,1,0,0:0:0:0:
19,55,79288,1,0,0:0:0:0:
99,20,79397,1,0,0:0:0:0:
118,102,79506,1,0,0:0:0:0:
138,184,79615,1,0,0:0:0:0:
157,266,79723,1,0,0:0:0:0:
177,348,79832,2,0,P|234:304|243:257,1,85.0000016212464
331,103,80049,2,0,L|241:116,1,85.0000016212464
50,194,80267,5,0,0:0:0:0:
88,203,80375,1,0,0:0:0:0:
127,212,80484,1,0,0:0:0:0:
166,221,80593,1,0,0:0:0:0:
203,229,80701,6,0,P|146:288|263:336,1,250
512,36,81136,2,0,P|412:78|513:132,1,250
339,96,81426,2,0,P|349:137|392:190,1,83.3333333333333
402,256,81571,6,0,L|280:224,1,125
224,117,81788,2,0,L|110:37,1,125
19,84,82006,2,0,L|45:231,1,125
125,358,82223,2,0,P|63:330|96:279,1,125
338,225,82441,6,0,P|387:292|269:304,1,250
318,43,82875,2,0,P|443:26|428:115,1,250
372,153,83165,2,0,P|341:195|340:241,1,83.3333333333333
386,308,83310,6,0,L|511:268,1,125
300,202,83528,2,0,L|163:159,1,125
473,79,83745,2,0,L|358:162,1,125
174,246,83962,2,0,P|98:225|119:172,1,125
380,233,84180,6,0,P|384:347|295:304,1,250
114,101,84615,2,0,P|-3:112|47:187,1,250
105,214,84904,2,0,P|137:247|142:300,1,83.3333333333333
45,296,85049,5,0,0:0:0:0:
44,236,85158,1,0,0:0:0:0:
118,245,85267,1,0,0:0:0:0:
108,162,85375,1,0,0:0:0:0:
193,208,85484,1,0,0:0:0:0:
221,90,85593,1,0,0:0:0:0:
319,184,85701,1,0,0:0:0:0:
299,50,85810,1,0,0:0:0:0:
177,106,85919,6,0,P|152:175|186:214,1,125
298,243,86136,1,0,0:0:0:0:
446,188,86245,1,0,0:0:0:0:
459,39,86354,2,0,P|347:63|415:160,1,250
97,335,86788,6,0,L|67:201,1,125
421,268,87006,2,0,L|528:167,1,125
294,23,87223,1,0,0:0:0:0:
234,55,87332,1,0,0:0:0:0:
212,120,87441,1,0,0:0:0:0:
233,184,87549,1,0,0:0:0:0:
339,130,87658,6,0,P|265:210|387:225,1,270.000001029968
0,89,88093,2,0,P|147:10|264:16,1,270.000001029968
403,87,88383,2,0,P|441:119|461:163,1,90.0000003433228
470,215,88528,1,0,0:0:0:0:
333,152,88636,6,0,P|191:137|93:216,1,270.000001029968
357,303,88962,2,0,P|448:295|481:254,1,135.000000514984
395,31,89180,2,0,P|314:42|266:96,1,135.000000514984
128,359,89397,5,0,0:0:0:0:
105,343,89506,1,0,0:0:0:0:
119,306,89615,1,0,0:0:0:0:
81,286,89723,1,0,0:0:0:0:
121,257,89832,5,0,0:0:0:0:
80,186,89941,1,0,0:0:0:0:
167,189,90049,1,0,0:0:0:0:
134,94,90158,1,0,0:0:0:0:
252,175,90267,5,0,0:0:0:0:
253,51,90375,1,0,0:0:0:0:
354,125,90484,1,0,0:0:0:0:
365,201,90593,1,0,0:0:0:0:
420,168,90701,1,0,0:0:0:0:
405,225,90810,1,0,0:0:0:0:
439,235,90919,1,0,0:0:0:0:
427,275,91028,1,0,0:0:0:0:
416,313,91136,6,0,P|504:204|449:95,1,270.000001029968
41,319,91571,2,0,P|95:230|118:335,1,270.000001029968
186,373,91861,2,0,P|214:322|216:270,1,90.0000003433228
153,113,92006,6,0,P|219:134|275:193,1,135.000000514984
399,349,92223,2,0,P|311:341|256:305,1,135.000000514984
463,72,92441,6,0,P|448:144|389:193,1,135.000000514984
26,269,92658,2,0,P|66:207|139:175,1,135.000000514984
192,174,92875,5,0,0:0:0:0:
243,227,92984,1,0,0:0:0:0:
278,288,93093,1,0,0:0:0:0:
324,348,93201,1,0,0:0:0:0:
406,351,93310,1,0,0:0:0:0:
474,309,93419,1,0,0:0:0:0:
415,213,93528,5,0,0:0:0:0:
478,136,93636,1,0,0:0:0:0:
400,52,93745,5,0,0:0:0:0:
303,46,93854,1,0,0:0:0:0:
218,92,93962,1,0,0:0:0:0:
209,185,94071,1,0,0:0:0:0:
271,253,94180,1,0,0:0:0:0:
367,253,94288,1,0,0:0:0:0:
366,152,94397,5,0,0:0:0:0:
266,152,94506,1,0,0:0:0:0:
164,255,94615,6,0,P|124:269|85:261,1,75.0000028610231
0,85,94832,2,0,P|36:80|71:94,1,75.0000028610231
234,172,95049,1,0,0:0:0:0:
269,313,95158,2,0,L|282:239,1,75.0000028610231
422,62,95375,1,0,0:0:0:0:
479,174,95484,6,0,P|477:216|397:303,1,150.000005722046
309,125,95810,1,0,0:0:0:0:
302,262,95919,2,0,P|271:277|232:281,1,75.0000028610231
113,70,96136,2,0,P|150:72|183:88,1,75.0000028610231
79,366,96354,6,0,L|64:281,1,75.0000028610231
31,101,96571,1,0,0:0:0:0:
108,203,96680,1,0,0:0:0:0:
24,78,96788,1,0,0:0:0:0:
1,174,96897,1,0,0:0:0:0:
17,55,97006,1,0,0:0:0:0:
104,120,97115,1,0,0:0:0:0:
155,54,97223,6,0,P|197:40|267:48,1,75.0000028610231
315,205,97441,2,0,L|304:279,1,75.0000028610231
458,22,97658,2,0,L|476:205,1,150.000005722046
486,320,97984,1,0,0:0:0:0:
384,141,98093,6,0,P|352:117|290:115,1,75.0000028610231
193,241,98310,2,0,L|182:315,1,75.0000028610231
74,50,98528,1,0,0:0:0:0:
0,151,98636,2,0,L|8:257,1,75.0000028610231
162,42,98854,1,0,0:0:0:0:
87,192,98962,6,0,P|94:245|185:326,1,150.000005722046
344,327,99288,1,0,0:0:0:0:
404,238,99397,2,0,P|367:224|323:221,1,75.0000028610231
147,126,99615,2,0,P|179:113|228:109,1,75.0000028610231
448,57,99832,6,0,L|435:174,1,87.500000834465
417,317,100049,1,0,0:0:0:0:
362,190,100158,1,0,0:0:0:0:
411,343,100267,1,0,0:0:0:0:
488,234,100375,1,0,0:0:0:0:
405,369,100484,1,0,0:0:0:0:
346,277,100593,1,0,0:0:0:0:
247,341,100701,5,0,0:0:0:0:
135,315,100810,1,0,0:0:0:0:
104,223,100919,1,0,0:0:0:0:
151,160,101028,1,0,0:0:0:0:
211,157,101136,1,0,0:0:0:0:
242,187,101245,1,0,0:0:0:0:
247,212,101354,1,0,0:0:0:0:
235,225,101462,1,0,0:0:0:0:
226,224,101571,5,0,0:0:0:0:
256,192,101680,12,0,103745,0:0:0:0:
196,127,103962,6,0,L|204:186,2,41.6666666666667
282,177,104180,5,0,0:0:0:0:
319,167,104252,1,0,0:0:0:0:
358,168,104324,1,0,0:0:0:0:
395,178,104397,1,0,0:0:0:0:
429,197,104469,1,0,0:0:0:0:
457,224,104542,1,0,0:0:0:0:
477,257,104615,2,0,B|489:310|416:348|370:291|370:291|256:304,1,225.000008583069
227,309,105049,5,0,0:0:0:0:
154,141,105267,2,0,P|127:118|94:117,1,50
65,204,105484,2,0,P|30:209|-6:227,1,50
80,299,105701,2,0,P|67:328|76:359,1,50
241,207,105919,2,0,P|267:194|301:192,1,50
436,237,106136,5,0,0:0:0:0:
417,317,106245,1,0,0:0:0:0:
384,298,106354,5,0,0:0:0:0:
331,305,106462,2,0,P|295:293|266:301,1,50
181,343,106680,2,0,P|153:281|177:247,1,100
266,156,107006,1,0,0:0:0:0:
446,257,107223,1,0,0:0:0:0:
252,362,107441,1,0,0:0:0:0:
170,369,107549,6,0,L|88:291,1,100
264,165,107875,2,0,L|241:216,1,50
424,90,108093,2,0,L|430:256,1,150
435,340,108528,5,0,0:0:0:0:
336,171,108745,2,0,P|310:167|286:173,1,50
195,312,108962,2,0,P|228:316|261:304,1,50
122,141,109180,1,0,0:0:0:0:
93,229,109288,1,0,0:0:0:0:
127,219,109397,5,0,0:0:0:0:
162,226,109506,1,0,0:0:0:0:
220,252,109615,2,0,P|247:262|292:248,1,50
352,147,109832,2,0,P|380:159|402:179,1,50
449,266,110049,5,0,0:0:0:0:
448,304,110158,1,0,0:0:0:0:
330,263,110267,1,0,0:0:0:0:
302,243,110375,1,0,0:0:0:0:
323,212,110484,1,0,0:0:0:0:
350,234,110593,1,0,0:0:0:0:
268,326,110701,5,0,0:0:0:0:
237,327,110810,1,0,0:0:0:0:
237,292,110919,1,0,0:0:0:0:
268,292,111028,1,0,0:0:0:0:
166,320,111136,6,0,L|183:297,1,25
130,292,111245,2,0,L|152:265,1,25
100,266,111354,2,0,L|118:237,1,25
94,196,111462,1,0,0:0:0:0:
58,125,111571,6,0,L|70:150,1,25
98,143,111680,2,0,L|111:175,1,25
145,161,111789,2,0,L|162:190,1,25
197,108,111897,1,0,0:0:0:0:
268,183,112006,5,0,0:0:0:0:
382,109,112223,2,0,P|412:106|436:117,1,50
451,210,112441,2,0,P|476:234|490:264,1,50
402,304,112658,2,0,P|410:338|404:362,1,50
281,127,112875,2,0,P|261:113|221:104,1,50
100,103,113093,1,0,0:0:0:0:
57,177,113201,1,0,0:0:0:0:
87,177,113310,5,0,0:0:0:0:
139,210,113419,2,0,P|160:227|191:223,1,50
288,150,113636,2,0,P|316:186|299:250,1,100
230,298,113962,5,0,0:0:0:0:
451,175,114180,1,0,0:0:0:0:
217,96,114397,1,0,0:0:0:0:
252,162,114506,6,0,L|354:207,1,100
278,44,114832,2,0,L|211:15,1,50
29,152,115049,2,0,L|84:116,1,50
159,99,115267,5,0,0:0:0:0:
169,100,115339,1,0,0:0:0:0:
179,107,115412,1,0,0:0:0:0:
212,131,115484,5,0,0:0:0:0:
213,167,115593,1,0,0:0:0:0:
195,207,115701,1,0,0:0:0:0:
153,222,115810,1,0,0:0:0:0:
141,158,115919,5,0,0:0:0:0:
184,132,116028,1,0,0:0:0:0:
235,124,116136,2,0,L|299:142,1,50
338,314,116354,5,0,0:0:0:0:
276,292,116462,1,0,0:0:0:0:
242,239,116571,1,0,0:0:0:0:
243,172,116680,1,0,0:0:0:0:
348,144,116788,5,0,0:0:0:0:
332,209,116897,1,0,0:0:0:0:
453,187,117006,2,0,P|476:172|475:148,1,50
433,63,117223,5,0,0:0:0:0:
354,19,117332,1,0,0:0:0:0:
314,101,117441,1,0,0:0:0:0:
358,83,117549,5,0,0:0:0:0:
260,37,117658,1,0,0:0:0:0:
185,99,117767,1,0,0:0:0:0:
216,192,117875,1,0,0:0:0:0:
254,223,117984,1,0,0:0:0:0:
264,175,118093,5,0,0:0:0:0:
217,170,118201,1,0,0:0:0:0:
171,186,118310,1,0,0:0:0:0:
141,224,118419,1,0,0:0:0:0:
137,248,118528,1,0,0:0:0:0:
147,270,118636,1,0,0:0:0:0:
161,285,118745,1,0,0:0:0:0:
178,292,118854,1,0,0:0:0:0:
197,292,118962,5,0,0:0:0:0:
198,296,119071,1,0,0:0:0:0:
199,300,119180,1,0,0:0:0:0:
200,304,119288,1,0,0:0:0:0:
201,308,119397,1,0,0:0:0:0:
188,214,119615,1,0,0:0:0:0:
317,264,119832,5,0,0:0:0:0:
316,268,119941,1,0,0:0:0:0:
315,272,120050,1,0,0:0:0:0:
314,276,120158,1,0,0:0:0:0:
313,280,120267,1,0,0:0:0:0:
326,186,120484,1,0,0:0:0:0:
229,116,120701,6,0,L|82:101,1,120
41,147,121136,2,0,P|36:184|46:222,1,50
114,281,121354,1,0,0:0:0:0:
114,281,121462,1,0,0:0:0:0:
114,281,121571,6,0,P|151:285|186:278,1,67.5000002574921
296,208,121788,1,0,0:0:0:0:
300,185,121861,1,0,0:0:0:0:
304,162,121933,1,0,0:0:0:0:
309,140,122006,2,0,P|360:91|429:149,1,135.000000514984
445,345,122441,6,0,L|226:324,1,179.999994506836
80,251,122875,2,0,L|291:202,1,202.500000772476
427,66,123310,6,0,P|313:40|169:99,1,255.000004863739
146,237,123745,2,0,L|131:310,1,75.0000028610231
26,87,123962,2,0,L|42:171,1,85.0000016212464
248,300,124180,6,0,B|332:325|396:280|403:201|403:201|457:128,1,255.000004863739
403,49,124615,2,0,L|305:28,1,75.0000028610231
260,125,124832,2,0,L|162:104,1,75.0000028610231
27,59,125049,1,0,0:0:0:0:
16,103,125158,1,0,0:0:0:0:
56,126,125266,1,0,0:0:0:0:
91,97,125375,1,0,0:0:0:0:
72,54,125484,5,0,0:0:0:0:
56,126,125593,1,0,0:0:0:0:
87,193,125701,1,0,0:0:0:0:
71,264,125810,1,0,0:0:0:0:
102,331,125919,6,0,P|137:344|208:332,1,75.0000028610231
410,293,126136,2,0,P|375:280|304:292,1,75.0000028610231
257,315,126354,1,0,0:0:0:0:
478,347,126571,1,0,0:0:0:0:
387,128,126788,5,0,0:0:0:0:
362,174,126897,1,0,0:0:0:0:
282,143,127006,1,0,0:0:0:0:
257,189,127115,1,0,0:0:0:0:
177,158,127223,2,0,P|135:153|91:164,1,75.0000028610231
23,257,127441,1,0,0:0:0:0:
15,279,127549,1,0,0:0:0:0:
82,345,127658,6,0,L|182:355,1,75.0000028610231
374,286,127875,2,0,L|272:306,1,75.0000028610231
122,191,128093,2,0,L|106:93,1,75.0000028610231
416,9,128310,2,0,L|403:83,1,75.0000028610231
237,251,128528,5,0,0:0:0:0:
204,176,128636,1,0,0:0:0:0:
244,105,128745,1,0,0:0:0:0:
324,95,128854,1,0,0:0:0:0:
381,154,128962,1,0,0:0:0:0:
301,164,129071,1,0,0:0:0:0:
244,105,129179,1,0,0:0:0:0:
219,100,129252,1,0,0:0:0:0:
194,95,129325,1,0,0:0:0:0:
169,91,129397,6,0,P|118:93|71:107,1,89.9999972534181
280,269,129615,2,0,P|331:267|378:253,1,89.9999972534181
77,182,129832,2,0,P|50:225|44:278,1,89.9999972534181
372,178,130049,2,0,P|399:135|405:82,1,89.9999972534181
123,273,130267,6,0,L|144:360,1,89.9999972534181
327,88,130484,2,0,L|305:0,1,89.9999972534181
321,276,130701,2,0,L|299:363,1,89.9999972534181
116,90,130919,2,0,L|138:3,1,89.9999972534181
224,287,131136,5,0,0:0:0:0:
270,314,131245,1,0,0:0:0:0:
323,320,131354,1,0,0:0:0:0:
382,299,131462,1,0,0:0:0:0:
424,240,131571,1,0,0:0:0:0:
427,158,131680,1,0,0:0:0:0:
379,82,131788,1,0,0:0:0:0:
343,73,131897,1,0,0:0:0:0:
307,64,132006,5,0,0:0:0:0:
320,153,132115,1,0,0:0:0:0:
288,236,132223,1,0,0:0:0:0:
200,283,132332,1,0,0:0:0:0:
101,268,132441,1,0,0:0:0:0:
35,182,132549,1,0,0:0:0:0:
46,74,132658,1,0,0:0:0:0:
82,65,132766,1,0,0:0:0:0:
118,56,132875,5,0,0:0:0:0:
167,160,132984,1,0,0:0:0:0:
233,66,133093,1,0,0:0:0:0:
245,295,133310,5,0,0:0:0:0:
297,219,133419,1,0,0:0:0:0:
337,302,133528,1,0,0:0:0:0:
340,85,133745,5,0,0:0:0:0:
373,151,133854,1,0,0:0:0:0:
414,90,133963,1,0,0:0:0:0:
425,260,134180,5,0,0:0:0:0:
457,211,134289,1,0,0:0:0:0:
484,263,134397,1,0,0:0:0:0:
488,280,134469,1,0,0:0:0:0:
491,297,134541,1,0,0:0:0:0:
494,314,134615,6,0,P|436:350|334:268,1,179.999994506836
284,91,134941,2,0,P|344:123|324:252,1,179.999994506836
251,348,135267,2,0,P|249:296|342:259,1,89.9999972534181
478,184,135484,6,0,P|505:120|455:35,1,150.000005722046
460,46,135774,1,0,0:0:0:0:
445,43,135846,1,0,0:0:0:0:
430,40,135919,2,0,L|359:27,1,60
136,112,136354,6,0,P|122:162|143:216,1,89.9999972534181
289,349,136571,2,0,P|284:288|265:253,1,89.9999972534181
35,267,136788,6,0,P|79:284|126:278,1,89.9999972534181
391,195,137006,2,0,P|344:181|295:187,1,89.9999972534181
161,367,137223,6,0,P|189:324|194:280,1,89.9999972534181
102,111,137441,1,0,0:0:0:0:
171,277,137549,1,0,0:0:0:0:
196,237,137658,2,0,L|296:210,1,89.9999972534181
466,54,137875,6,0,L|452:121,1,50
436,237,138093,5,0,0:0:0:0:
356,265,138201,1,0,0:0:0:0:
279,231,138310,1,0,0:0:0:0:
261,148,138419,1,0,0:0:0:0:
211,62,138528,5,0,0:0:0:0:
105,81,138636,1,0,0:0:0:0:
60,166,138745,1,0,0:0:0:0:
77,261,138854,1,0,0:0:0:0:
189,247,138962,5,0,0:0:0:0:
231,191,139071,1,0,0:0:0:0:
171,148,139180,1,0,0:0:0:0:
132,206,139288,1,0,0:0:0:0:
101,292,139397,5,0,0:0:0:0:
101,342,139506,1,0,0:0:0:0:
154,342,139615,1,0,0:0:0:0:
153,290,139723,1,0,0:0:0:0:
12,322,139832,6,0,P|31:267|65:236,1,89.9999972534181
258,96,140049,2,0,P|249:147|217:193,1,89.9999972534181
127,319,140267,6,0,P|167:340|216:336,1,89.9999972534181
440,170,140484,2,0,P|386:164|336:180,1,89.9999972534181
365,369,140701,6,0,P|395:322|391:265,1,89.9999972534181
314,62,140919,1,0,0:0:0:0:
274,248,141028,1,0,0:0:0:0:
252,221,141136,2,0,P|200:228|166:211,1,89.9999972534181
92,32,141354,6,0,P|48:68|46:114,1,89.9999972534181
159,119,141571,5,0,0:0:0:0:
228,78,141680,1,0,0:0:0:0:
309,85,141788,1,0,0:0:0:0:
361,146,141897,1,0,0:0:0:0:
426,248,142006,5,0,0:0:0:0:
452,139,142115,1,0,0:0:0:0:
384,40,142223,1,0,0:0:0:0:
268,18,142332,1,0,0:0:0:0:
180,84,142441,5,0,0:0:0:0:
180,134,142549,1,0,0:0:0:0:
228,134,142658,1,0,0:0:0:0:
228,82,142767,1,0,0:0:0:0:
96,127,142875,5,0,0:0:0:0:
103,220,142984,1,0,0:0:0:0:
195,199,143093,1,0,0:0:0:0:
200,298,143201,1,0,0:0:0:0:
301,330,143310,6,0,P|358:327|392:302,1,89.9999972534181
442,65,143528,2,0,P|380:68|353:86,1,89.9999972534181
150,261,143745,6,0,P|200:277|247:253,1,89.9999972534181
81,43,143962,2,0,P|62:76|67:141,1,89.9999972534181
277,207,144180,6,0,P|294:158|280:99,1,89.9999972534181
91,242,144397,1,0,0:0:0:0:
246,68,144506,1,0,0:0:0:0:
286,91,144615,2,0,P|336:93|376:62,1,89.9999972534181
451,296,144832,6,0,L|444:235,1,50
413,67,145049,5,0,0:0:0:0:
444,176,145158,1,0,0:0:0:0:
347,66,145267,2,0,P|296:67|261:100,1,89.9999972534181
249,265,145484,5,0,0:0:0:0:
330,177,145593,1,0,0:0:0:0:
177,238,145701,2,0,P|202:207|265:192,1,89.9999972534181
361,243,145919,5,0,0:0:0:0:
419,303,146028,1,0,0:0:0:0:
479,242,146136,1,0,0:0:0:0:
418,185,146245,1,0,0:0:0:0:
360,301,146354,5,0,0:0:0:0:
480,303,146462,1,0,0:0:0:0:
480,182,146571,1,0,0:0:0:0:
357,183,146680,1,0,0:0:0:0:
259,248,146788,6,0,P|246:198|265:146,1,89.9999972534181
314,0,147006,2,0,P|256:1|208:33,1,89.9999972534181
91,235,147223,6,0,P|136:231|173:208,1,89.9999972534181
31,98,147441,2,0,P|15:146|26:201,1,89.9999972534181
398,179,147658,6,0,P|417:126|399:78,1,89.9999972534181
249,50,147875,1,0,0:0:0:0:
202,188,147984,1,0,0:0:0:0:
207,230,148093,2,0,P|183:263|131:266,1,89.9999972534181
13,229,148310,6,0,P|16:280|44:317,1,89.9999972534181
103,357,148528,5,0,0:0:0:0:
180,288,148636,1,0,0:0:0:0:
106,285,148745,1,0,0:0:0:0:
177,361,148854,1,0,0:0:0:0:
260,351,148962,5,0,0:0:0:0:
306,351,149071,1,0,0:0:0:0:
306,309,149180,1,0,0:0:0:0:
262,308,149288,1,0,0:0:0:0:
354,310,149397,6,0,L|442:352,1,89.9999972534181
136,279,149615,6,0,L|73:348,1,89.9999972534181
429,186,149832,5,0,0:0:0:0:
396,190,149941,1,0,0:0:0:0:
356,196,150049,1,0,0:0:0:0:
315,202,150158,1,0,0:0:0:0:
274,208,150267,6,0,P|221:164|288:52,1,200
470,260,150701,2,0,L|244:297,1,200
174,384,151028,1,0,0:0:0:0:
113,269,151136,5,0,0:0:0:0:
199,243,151245,1,0,0:0:0:0:
287,258,151354,1,0,0:0:0:0:
346,325,151462,1,0,0:0:0:0:
434,340,151571,2,0,P|490:321|517:273,1,100
476,80,151788,2,0,L|378:57,1,100
234,119,152006,6,0,P|173:51|42:81,1,200
100,332,152441,2,0,L|136:110,1,200
218,241,152767,1,0,0:0:0:0:
257,109,152875,5,0,0:0:0:0:
333,60,152984,1,0,0:0:0:0:
422,69,153093,1,0,0:0:0:0:
482,134,153201,1,0,0:0:0:0:
489,223,153310,2,0,P|481:265|439:315,1,100
234,339,153528,2,0,L|216:231,1,100
78,28,153745,6,0,P|27:81|101:192,1,200
363,136,154180,2,0,P|249:117|141:173,1,200
128,267,154506,1,0,0:0:0:0:
179,131,154615,5,0,0:0:0:0:
258,90,154723,1,0,0:0:0:0:
348,90,154832,1,0,0:0:0:0:
427,132,154941,1,0,0:0:0:0:
468,211,155049,2,0,P|471:268|441:333,1,100
252,349,155267,2,0,L|145:322,1,100
40,92,155484,6,0,P|159:46|261:137,1,200
39,320,155919,2,0,P|93:252|122:133,1,200
201,260,156245,1,0,0:0:0:0:
265,130,156354,6,0,L|373:113,1,100
407,213,156571,2,0,L|424:321,1,100
267,369,156788,2,0,L|159:386,1,100
29,172,157006,1,0,0:0:0:0:
23,147,157115,1,0,0:0:0:0:
89,41,157223,6,0,P|237:14|309:52,1,200
266,160,157549,1,0,0:0:0:0:
122,127,157658,2,0,P|220:93|266:172,1,200
170,237,157984,1,0,0:0:0:0:
172,89,158093,5,0,0:0:0:0:
247,40,158201,1,0,0:0:0:0:
337,36,158310,1,0,0:0:0:0:
416,77,158419,1,0,0:0:0:0:
461,154,158528,2,0,P|463:211|427:276,1,100
218,365,158745,2,0,P|216:308|252:243,1,100
345,186,158962,5,0,0:0:0:0:
360,211,159071,1,0,0:0:0:0:
354,250,159180,1,0,0:0:0:0:
308,269,159288,1,0,0:0:0:0:
257,236,159397,1,0,0:0:0:0:
245,166,159506,1,0,0:0:0:0:
294,102,159615,1,0,0:0:0:0:
383,96,159723,1,0,0:0:0:0:
446,173,159832,5,0,0:0:0:0:
437,262,159941,1,0,0:0:0:0:
386,323,160049,1,0,0:0:0:0:
319,344,160158,1,0,0:0:0:0:
260,331,160267,1,0,0:0:0:0:
222,298,160375,1,0,0:0:0:0:
183,288,160484,1,0,0:0:0:0:
153,295,160593,1,0,0:0:0:0:
139,309,160701,6,0,P|87:324|46:205,1,200
304,122,161136,2,0,L|92:143,1,200
219,214,161462,1,0,0:0:0:0:
292,35,161571,6,0,P|351:48|394:108,1,100
415,187,161788,2,0,P|402:246|342:289,1,100
207,332,162006,1,0,0:0:0:0:
177,320,162115,1,0,0:0:0:0:
123,180,162223,1,0,0:0:0:0:
63,204,162332,1,0,0:0:0:0:
7,341,162441,5,0,0:0:0:0:
33,354,162549,1,0,0:0:0:0:
73,352,162658,1,0,0:0:0:0:
117,328,162767,1,0,0:0:0:0:
144,275,162875,1,0,0:0:0:0:
133,205,162984,1,0,0:0:0:0:
66,160,163093,1,0,0:0:0:0:
44,73,163201,1,0,0:0:0:0:
127,16,163310,5,0,0:0:0:0:
207,57,163419,1,0,0:0:0:0:
222,135,163528,1,0,0:0:0:0:
265,189,163636,1,0,0:0:0:0:
325,192,163745,2,0,P|376:177|403:144,1,75.0000028610231
447,48,163962,1,0,0:0:0:0:
254,340,164180,5,0,0:0:0:0:
214,216,164397,1,0,0:0:0:0:
145,327,164615,1,0,0:0:0:0:
233,226,164832,1,0,0:0:0:0:
78,237,165049,1,0,0:0:0:0:
265,231,165267,1,0,0:0:0:0:
461,116,165484,5,0,0:0:0:0:
450,143,165593,1,0,0:0:0:0:
440,173,165701,1,0,0:0:0:0:
430,197,165810,1,0,0:0:0:0:
422,222,165919,5,0,0:0:0:0:
316,335,166136,1,0,0:0:0:0:
296,197,166354,1,0,0:0:0:0:
347,326,166571,1,0,0:0:0:0:
186,321,166788,5,0,0:0:0:0:
96,207,167006,1,0,0:0:0:0:
22,305,167223,5,0,0:0:0:0:
221,249,167441,1,0,0:0:0:0:
45,204,167658,5,0,0:0:0:0:
213,203,167875,1,0,0:0:0:0:
115,320,168093,1,0,0:0:0:0:
197,189,168310,1,0,0:0:0:0:
372,249,168528,5,0,0:0:0:0:
392,225,168636,1,0,0:0:0:0:
413,199,168745,1,0,0:0:0:0:
430,175,168854,1,0,0:0:0:0:
441,145,168962,1,0,0:0:0:0:
431,110,169071,1,0,0:0:0:0:
413,87,169180,1,0,0:0:0:0:
392,60,169288,1,0,0:0:0:0:
364,29,169397,5,0,0:0:0:0:
170,24,169615,1,0,0:0:0:0:
234,163,169832,1,0,0:0:0:0:
61,101,170049,5,0,0:0:0:0:
64,111,170122,1,0,0:0:0:0:
67,123,170194,1,0,0:0:0:0:
69,132,170267,5,0,0:0:0:0:
255,176,170484,1,0,0:0:0:0:
127,258,170701,1,0,0:0:0:0:
275,188,170919,1,0,0:0:0:0:
456,294,171136,6,0,L|364:218,1,100
235,252,171571,6,0,L|130:160,1,100
26,134,172006,6,0,L|127:69,1,100
291,100,172441,5,0,0:0:0:0:
255,127,172549,1,0,0:0:0:0:
218,157,172658,1,0,0:0:0:0:
179,186,172767,1,0,0:0:0:0:
139,201,172875,6,0,B|231:241|231:241|130:297,1,200
351,177,173528,5,0,0:0:0:0:
359,341,173745,5,0,0:0:0:0:
235,275,173962,1,0,0:0:0:0:
76,209,174180,5,0,0:0:0:0:
268,43,174397,1,0,0:0:0:0:
489,154,174615,1,0,0:0:0:0:
206,110,174832,5,0,0:0:0:0:
108,176,174941,1,0,0:0:0:0:
205,242,175049,1,0,0:0:0:0:
266,224,175267,5,0,0:0:0:0:
330,212,175375,1,0,0:0:0:0:
316,270,175484,1,0,0:0:0:0:
317,300,175593,1,0,0:0:0:0:
318,330,175701,5,0,0:0:0:0:
316,379,175810,1,0,0:0:0:0:
261,344,175919,1,0,0:0:0:0:
303,303,176028,5,0,0:0:0:0:
343,261,176136,1,0,0:0:0:0:
380,219,176245,1,0,0:0:0:0:
394,151,176354,5,0,0:0:0:0:
329,81,176462,1,0,0:0:0:0:
297,175,176571,1,0,0:0:0:0:
327,200,176680,1,0,0:0:0:0:
372,188,176788,5,0,0:0:0:0:
300,75,176897,1,0,0:0:0:0:
207,152,177006,1,0,0:0:0:0:
203,168,177078,1,0,0:0:0:0:
208,181,177151,1,0,0:0:0:0:
236,193,177223,5,0,0:0:0:0:
259,66,177332,1,0,0:0:0:0:
113,118,177441,1,0,0:0:0:0:
116,182,177549,1,0,0:0:0:0:
171,210,177658,5,0,0:0:0:0:
219,55,177767,1,0,0:0:0:0:
70,37,177875,2,0,L|43:88,1,50
31,244,178093,5,0,0:0:0:0:
73,294,178201,1,0,0:0:0:0:
133,322,178310,1,0,0:0:0:0:
199,324,178419,1,0,0:0:0:0:
44,300,178528,5,0,0:0:0:0:
98,337,178636,1,0,0:0:0:0:
163,349,178745,1,0,0:0:0:0:
227,333,178854,1,0,0:0:0:0:
301,226,178962,5,0,0:0:0:0:
258,175,179070,1,0,0:0:0:0:
198,147,179179,1,0,0:0:0:0:
132,145,179288,1,0,0:0:0:0:
288,170,179397,5,0,0:0:0:0:
234,133,179505,1,0,0:0:0:0:
169,121,179614,1,0,0:0:0:0:
105,137,179723,1,0,0:0:0:0:
153,302,179832,5,0,0:0:0:0:
204,259,179940,1,0,0:0:0:0:
232,199,180049,1,0,0:0:0:0:
234,133,180158,1,0,0:0:0:0:
209,289,180267,5,0,0:0:0:0:
246,235,180375,1,0,0:0:0:0:
258,170,180484,1,0,0:0:0:0:
242,106,180593,1,0,0:0:0:0:
135,32,180701,5,0,0:0:0:0:
84,74,180809,1,0,0:0:0:0:
56,134,180918,1,0,0:0:0:0:
54,200,181027,1,0,0:0:0:0:
79,45,181136,5,0,0:0:0:0:
42,99,181244,1,0,0:0:0:0:
30,164,181353,1,0,0:0:0:0:
46,228,181462,1,0,0:0:0:0:
154,299,181571,5,0,0:0:0:0:
286,93,181716,1,0,0:0:0:0:
398,310,181861,1,0,0:0:0:0:
279,234,182006,1,0,0:0:0:0:
160,158,182441,5,0,0:0:0:0:
404,169,182586,1,0,0:0:0:0:
272,374,182731,1,0,0:0:0:0:
279,233,182876,1,0,0:0:0:0:
154,299,183093,1,0,0:0:0:0:
135,293,183165,1,0,0:0:0:0:
115,287,183238,1,0,0:0:0:0:
97,277,183310,5,0,0:0:0:0:
78,134,183455,1,0,0:0:0:0:
192,46,183600,1,0,0:0:0:0:
211,189,183745,1,0,0:0:0:0:
325,277,184180,5,0,0:0:0:0:
344,134,184325,1,0,0:0:0:0:
230,46,184470,1,0,0:0:0:0:
211,189,184615,1,0,0:0:0:0:
416,218,184904,1,0,0:0:0:0:
422,237,184977,1,0,0:0:0:0:
428,255,185049,6,0,B|416:389|224:368|262:206|262:206|286:94|184:-9|15:85|67:215,1,700
59,190,187006,5,0,0:0:0:0:
421,122,187223,1,0,0:0:0:0:
74,282,187441,1,0,0:0:0:0:
402,288,187658,1,0,0:0:0:0:
194,102,187875,1,0,0:0:0:0:
186,120,187948,1,0,0:0:0:0:
181,139,188020,1,0,0:0:0:0:
179,159,188093,2,0,P|181:225|218:289,1,100
414,357,188528,5,0,0:0:0:0:
370,269,188745,1,0,0:0:0:0:
319,323,188962,5,0,0:0:0:0:
280,236,189180,1,0,0:0:0:0:
189,338,189397,5,0,0:0:0:0:
199,322,189506,1,0,0:0:0:0:
212,307,189615,1,0,0:0:0:0:
169,215,189832,5,0,0:0:0:0:
58,334,190267,5,0,0:0:0:0:
36,363,190375,1,0,0:0:0:0:
58,334,190484,1,0,0:0:0:0:
115,245,190701,5,0,0:0:0:0:
172,158,190919,1,0,0:0:0:0:
226,67,191136,1,0,0:0:0:0:
380,278,191571,1,0,0:0:0:0:
476,196,192006,5,0,0:0:0:0:
512,125,192223,1,0,0:0:0:0:
386,158,192441,1,0,0:0:0:0:
415,86,192658,5,0,0:0:0:0:
430,57,192767,1,0,0:0:0:0:
444,28,192875,1,0,0:0:0:0:
328,49,193093,5,0,0:0:0:0:
222,15,193310,1,0,0:0:0:0:
126,79,193528,1,0,0:0:0:0:
0,5,193745,5,0,0:0:0:0:
12,110,193962,1,0,0:0:0:0:
112,136,194180,5,0,0:0:0:0:
193,206,194397,1,0,0:0:0:0:
346,107,194615,6,0,P|367:106|399:118,1,50
467,182,194832,5,0,0:0:0:0:
467,182,194904,1,0,0:0:0:0:
467,182,194977,1,0,0:0:0:0:
479,187,195049,6,0,L|377:302,1,150
69,335,195484,5,0,0:0:0:0:
164,144,195701,1,0,0:0:0:0:
208,301,195919,1,0,0:0:0:0:
29,180,196136,5,0,0:0:0:0:
88,196,196245,1,0,0:0:0:0:
209,235,196354,6,0,L|140:98,1,150
472,230,196788,6,0,L|343:305,1,150
331,172,197223,5,0,0:0:0:0:
279,179,197332,1,0,0:0:0:0:
253,218,197441,1,0,0:0:0:0:
257,271,197549,1,0,0:0:0:0:
325,243,197658,5,0,0:0:0:0:
278,250,197767,1,0,0:0:0:0:
247,281,197875,1,0,0:0:0:0:
241,326,197984,1,0,0:0:0:0:
325,324,198093,5,0,0:0:0:0:
345,300,198201,1,0,0:0:0:0:
379,329,198310,1,0,0:0:0:0:
402,302,198419,1,0,0:0:0:0:
436,266,198528,5,0,0:0:0:0:
417,221,198636,1,0,0:0:0:0:
385,266,198745,1,0,0:0:0:0:
362,217,198854,1,0,0:0:0:0:
294,171,198962,6,0,P|229:159|152:207,1,150
32,39,199397,6,0,P|104:50|164:117,1,150
0,362,199832,6,0,L|16:298,1,50
127,124,200049,2,0,L|106:196,1,50
230,282,200267,6,0,L|247:222,1,50
333,111,200484,2,0,L|373:62,1,50
471,66,200701,5,0,0:0:0:0:
509,110,200810,1,0,0:0:0:0:
467,151,200919,1,0,0:0:0:0:
428,109,201028,1,0,0:0:0:0:
476,217,201136,5,0,0:0:0:0:
361,271,201245,1,0,0:0:0:0:
394,185,201354,1,0,0:0:0:0:
446,300,201462,1,0,0:0:0:0:
361,361,201571,6,0,L|296:328,1,50
212,124,201788,6,0,L|273:91,1,50
42,285,202006,6,0,L|22:373,1,75
