osu file format v14

[General]
AudioFilename: audio.mp3
AudioLeadIn: 0
PreviewTime: 49333
Countdown: 0
SampleSet: Soft
StackLeniency: 0.3
Mode: 0
LetterboxInBreaks: 0
WidescreenStoryboard: 0

[Editor]
Bookmarks: 471,11968,23465,34962,46459,49333,60830,72327,83824,95321,101069,106818,121189,126938,138435,149932,161429,172926,184423,190171,201668,213165,216039,224662,236159,241189
DistanceSpacing: 2
BeatDivisor: 4
GridSize: 4
TimelineZoom: 3.199999

[Metadata]
Title:Halloween of the Dead
TitleUnicode:Halloween of the Dead
Artist:Hatsuki Yura
ArtistUnicode:葉月ゆら
Creator:Gamu
Version:Insane
Source:
Tags:Drop 清風明月 SeifuuMeigetsu Seifuu Meigetsu Japanese Pop Dark Gothic Marchen
BeatmapID:2184660
BeatmapSetID:1041518

[Difficulty]
HPDrainRate:5.5
CircleSize:4
OverallDifficulty:8
ApproachRate:9
SliderMultiplier:1.8
SliderTickRate:1

[Events]
//Background and Video events
0,0,"bg.jpg",0,0
//Break Periods
2,96958,99389
//Storyboard Layer 0 (Background)
//Storyboard Layer 1 (Fail)
//Storyboard Layer 2 (Pass)
//Storyboard Layer 3 (Foreground)
//Storyboard Layer 4 (Overlay)
//Storyboard Sound Samples

[TimingPoints]
471,359.281437125748,4,2,1,60,1,0
650,-100,4,2,1,40,0,0
10531,-100,4,2,1,60,0,0
10890,-100,4,2,1,40,0,0
11608,-100,4,2,1,60,0,0
12956,-100,4,2,1,5,0,0
13045,-100,4,2,1,60,0,0
13674,-100,4,2,1,5,0,0
13764,-100,4,2,1,60,0,0
17267,-100,4,2,1,5,0,0
17357,-100,4,2,1,60,0,0
18704,-100,4,2,1,5,0,0
18794,-100,4,2,1,60,0,0
19423,-100,4,2,1,5,0,0
19513,-100,4,2,1,60,0,0
23465,-100,4,2,1,50,0,0
32357,-100,4,2,1,5,0,0
32447,-83.3333333333333,4,2,1,50,0,0
32806,-100,4,2,1,50,0,0
33075,-100,4,2,1,5,0,0
33165,-83.3333333333333,4,2,1,50,0,0
33525,-100,4,2,1,50,0,0
34962,-125,4,2,1,50,0,0
37836,-100,4,2,1,60,0,0
40710,-125,4,2,1,50,0,0
43584,-100,4,2,1,60,0,0
46459,-125,4,2,1,60,0,0
46728,-125,4,2,1,5,0,0
46818,-125,4,2,1,60,0,0
47447,-125,4,2,1,5,0,0
47536,-125,4,2,1,60,0,0
48075,-125,4,2,2,50,0,0
48494,-125,4,2,1,50,0,0
48614,-125,4,2,2,50,0,0
49243,-125,4,2,1,5,0,0
49333,-100,4,2,1,70,0,1
53195,-100,4,2,1,5,0,1
53285,-100,4,2,1,70,0,1
58225,-100,4,2,1,5,0,1
58315,-83.3333333333333,4,2,1,70,0,1
58674,-100,4,2,1,70,0,1
58944,-100,4,2,1,5,0,1
59033,-83.3333333333333,4,2,1,70,0,1
59393,-100,4,2,1,70,0,1
64692,-100,4,2,1,5,0,1
64782,-100,4,2,1,70,0,1
69722,-100,4,2,1,5,0,1
69812,-83.3333333333333,4,2,1,70,0,1
70171,-100,4,2,1,70,0,1
70441,-100,4,2,1,5,0,1
70531,-83.3333333333333,4,2,1,70,0,1
70890,-100,4,2,1,70,0,1
72327,-125,4,2,1,50,0,0
83824,-100,4,2,1,60,0,0
96758,-100,4,2,1,5,0,0
101069,-100,4,2,1,50,0,0
109962,-100,4,2,1,5,0,0
110051,-83.3333333333333,4,2,1,50,0,0
110411,-100,4,2,1,50,0,0
110680,-100,4,2,1,5,0,0
110770,-83.3333333333333,4,2,1,50,0,0
111129,-100,4,2,1,50,0,0
112566,-125,4,2,1,50,0,0
115441,-100,4,2,1,60,0,0
118315,-125,4,2,1,50,0,0
121189,-100,4,2,1,60,0,0
124063,-125,4,2,1,60,0,0
124333,-125,4,2,1,5,0,0
124423,-125,4,2,1,60,0,0
125051,-125,4,2,1,5,0,0
125141,-125,4,2,1,60,0,0
125680,-125,4,2,2,50,0,0
126099,-125,4,2,1,50,0,0
126219,-125,4,2,2,50,0,0
126848,-125,4,2,1,5,0,0
126938,-100,4,2,1,70,0,1
130800,-100,4,2,1,5,0,1
130890,-100,4,2,1,70,0,1
135830,-100,4,2,1,5,0,1
135920,-83.3333333333333,4,2,1,70,0,1
136279,-100,4,2,1,70,0,1
136548,-100,4,2,1,5,0,1
136638,-83.3333333333333,4,2,1,70,0,1
136998,-100,4,2,1,70,0,1
142297,-100,4,2,1,5,0,1
142387,-100,4,2,1,70,0,1
147327,-100,4,2,1,5,0,1
147417,-83.3333333333333,4,2,1,70,0,1
147776,-100,4,2,1,70,0,1
148045,-100,4,2,1,5,0,1
148135,-83.3333333333333,4,2,1,70,0,1
148495,-100,4,2,1,70,0,1
149932,-125,4,2,1,40,0,0
161429,-100,4,2,1,60,0,0
172926,-125,4,2,1,50,0,0
175800,-100,4,2,1,60,0,0
178674,-125,4,2,1,50,0,0
181548,-100,4,2,1,60,0,0
184423,-125,4,2,1,50,0,0
187297,-100,4,2,1,60,0,0
187566,-100,4,2,1,5,0,0
187656,-100,4,2,1,60,0,0
188285,-100,4,2,1,5,0,0
188375,-100,4,2,1,60,0,0
188914,-125,4,2,2,50,0,0
189333,-125,4,2,1,50,0,0
189453,-125,4,2,2,50,0,0
190081,-125,4,2,1,5,0,0
190171,-125,4,2,1,50,0,0
193315,-125,4,2,1,5,0,0
193405,-125,4,2,1,50,0,0
194033,-125,4,2,1,5,0,0
194123,-125,4,2,1,50,0,0
194393,-125,4,2,1,5,0,0
194483,-125,4,2,1,50,0,0
194752,-125,4,2,1,5,0,0
194842,-125,4,2,1,50,0,0
195471,-125,4,2,1,5,0,0
195560,-125,4,2,1,50,0,0
195830,-125,4,2,1,5,0,0
195920,-125,4,2,1,50,0,0
200231,-125,4,2,1,60,0,0
201309,-100,4,2,1,60,0,0
201668,-100,4,2,1,70,0,1
205531,-100,4,2,1,5,0,1
205620,-100,4,2,1,70,0,1
210560,-100,4,2,1,5,0,1
210650,-83.3333333333333,4,2,1,70,0,1
211010,-100,4,2,1,70,0,1
211279,-100,4,2,1,5,0,1
211369,-83.3333333333333,4,2,1,70,0,1
211728,-100,4,2,1,70,0,1
213165,-100,4,2,1,50,0,0
213525,-83.3333333333333,4,2,1,70,0,0
213884,-100,4,2,1,50,0,0
214243,-83.3333333333333,4,2,1,70,0,0
214602,-100,4,2,1,30,0,0
214692,-100,4,2,1,35,0,0
214782,-100,4,2,1,40,0,0
214872,-100,4,2,1,45,0,0
214962,-100,4,2,1,50,0,0
215051,-100,4,2,1,55,0,0
215141,-100,4,2,1,60,0,0
215231,-100,4,2,1,65,0,0
215321,-100,4,2,1,70,0,0
215680,-83.3333333333333,4,2,1,70,0,0
215950,-83.3333333333333,4,2,1,5,0,0
216039,-100,4,2,1,70,0,1
217028,-100,4,2,1,5,0,1
217117,-100,4,2,1,70,0,1
222057,-100,4,2,1,5,0,1
222147,-83.3333333333333,4,2,1,70,0,1
222507,-100,4,2,1,70,0,1
222776,-100,4,2,1,5,0,1
222866,-83.3333333333333,4,2,1,70,0,1
223225,-100,4,2,1,70,0,1
224662,-100,4,2,1,60,0,0
225650,-100,4,2,1,5,0,0
225740,-100,4,2,1,60,0,0
226369,-100,4,2,1,5,0,0
226459,-100,4,2,1,60,0,0
231399,-100,4,2,1,5,0,0
231489,-100,4,2,1,60,0,0
232117,-100,4,2,1,5,0,0
232207,-100,4,2,1,60,0,0
236159,-100,4,2,1,40,0,0
237596,-100,4,2,1,50,0,0
239033,-100,4,2,1,60,0,0
241099,-100,4,2,1,5,0,0
241189,-100,4,2,1,70,0,0

[Colours]
Combo1 : 255,176,138
Combo2 : 108,255,146
Combo3 : 255,255,166
Combo4 : 132,255,255

[HitObjects]
424,64,471,5,6,1:2:0:0:
432,180,650,1,2,0:0:0:0:
440,296,830,1,2,0:0:0:0:
324,352,1189,5,10,0:0:0:0:
332,236,1368,1,2,0:0:0:0:
340,120,1548,1,2,0:0:0:0:
424,64,1908,5,2,1:2:0:0:
432,180,2267,1,2,1:2:0:0:
440,296,2626,1,10,1:2:0:0:
88,320,3345,5,2,1:2:0:0:
80,204,3524,1,2,0:0:0:0:
72,88,3704,1,2,0:0:0:0:
188,32,4063,5,10,0:0:0:0:
180,148,4242,1,2,0:0:0:0:
172,264,4422,1,2,0:0:0:0:
88,320,4782,5,2,1:2:0:0:
80,204,5141,1,2,1:2:0:0:
72,88,5500,1,10,1:2:0:0:
424,64,6219,5,6,1:2:0:0:
432,180,6398,1,2,0:0:0:0:
440,296,6578,2,0,L|348:292,1,90,2|0,1:2|0:0,0:0:0:0:
211,222,6938,5,10,1:2:0:0:
327,214,7117,1,2,0:0:0:0:
443,206,7297,2,0,L|439:298,1,90,2|0,1:2|0:0,0:0:0:0:
224,340,7656,5,2,1:2:0:0:
211,222,8016,1,2,1:2:0:0:
224,104,8375,2,0,L|320:100,1,90,10|0,1:2|0:0,0:0:0:0:
432,96,8734,1,0,1:0:0:0:
456,324,9093,5,2,1:2:0:0:
340,332,9272,1,2,0:0:0:0:
224,340,9452,2,0,L|228:248,1,90,2|0,1:2|0:0,0:0:0:0:
297,111,9812,5,10,1:2:0:0:
305,227,9991,1,2,0:0:0:0:
313,343,10171,2,0,L|221:339,1,90,2|0,1:2|0:0,0:0:0:0:
179,124,10531,5,14,1:2:0:0:
297,111,10890,1,2,0:0:0:0:
415,124,11249,1,2,0:0:0:0:
313,343,11608,5,8,0:0:0:0:
313,343,11698,1,8,0:0:0:0:
313,343,11788,1,8,0:0:0:0:
313,343,11878,1,8,0:0:0:0:
313,343,11968,2,0,P|266:339|224:344,1,90,4|0,1:2|0:0,0:0:0:0:
56,304,12327,2,0,P|102:307|145:303,1,90,8|0,1:2|0:0,0:0:0:0:
248,248,12686,2,0,P|256:180|252:112,1,135,2|0,1:2|0:0,0:0:0:0:
240,72,13045,2,0,L|144:68,1,90,8|0,1:2|0:0,0:0:0:0:
248,248,13405,6,0,P|316:256|384:252,1,135,2|0,1:2|0:0,0:0:0:0:
424,240,13764,2,0,L|428:144,1,90,8|0,1:2|0:0,0:0:0:0:
248,248,14123,1,2,1:2:0:0:
252,364,14303,1,2,0:0:0:0:
304,160,14483,2,0,P|264:144|214:150,1,90,10|0,1:2|0:0,0:0:0:0:
124,220,14842,6,0,L|120:312,1,90,0|0,1:0|0:0,0:0:0:0:
391,309,15201,2,0,L|388:220,1,90,8|0,1:2|0:0,0:0:0:0:
188,76,15560,2,0,L|184:165,1,90,0|0,1:0|0:0,0:0:0:0:
327,165,15920,2,0,L|324:76,1,90,8|0,1:2|0:0,0:0:0:0:
180,248,16279,5,0,1:0:0:0:
296,244,16459,1,0,0:0:0:0:
443,169,16638,1,8,1:2:0:0:
327,165,16818,1,0,0:0:0:0:
440,344,16998,2,0,P|456:280|456:204,1,135,0|0,1:0|0:0,0:0:0:0:
443,169,17357,1,8,1:2:0:0:
296,244,17536,5,8,0:0:0:0:
296,244,17626,1,8,0:0:0:0:
296,244,17716,2,0,L|204:240,1,90,4|0,1:2|0:0,0:0:0:0:
144,88,18075,2,0,L|233:91,1,90,8|0,1:2|0:0,0:0:0:0:
308,328,18435,2,0,L|136:320,1,135,2|0,1:2|0:0,0:0:0:0:
128,320,18794,2,0,P|122:276|124:228,1,90,8|0,1:2|0:0,0:0:0:0:
260,172,19153,6,0,L|431:164,1,135,2|0,1:2|0:0,0:0:0:0:
440,164,19512,2,0,P|445:120|444:72,1,90,8|0,1:2|0:0,0:0:0:0:
308,16,19872,1,2,1:2:0:0:
284,132,20051,1,2,0:0:0:0:
196,56,20231,2,0,P|152:48|104:52,1,90,10|0,1:2|0:0,0:0:0:0:
195,136,20590,6,0,P|239:140|284:132,1,90,0|0,1:0|0:0,0:0:0:0:
464,164,20950,2,0,P|419:160|375:168,1,90,8|0,1:2|0:0,0:0:0:0:
292,252,21309,2,0,P|288:296|296:340,1,90,0|0,1:0|0:0,0:0:0:0:
464,164,21668,2,0,P|467:119|459:75,1,90,8|0,1:2|0:0,0:0:0:0:
276,16,22028,5,0,1:0:0:0:
284,132,22207,1,0,0:0:0:0:
367,284,22387,1,8,1:2:0:0:
375,168,22566,1,0,0:0:0:0:
296,340,22746,1,8,1:2:0:0:
331,368,22836,1,8,0:0:0:0:
375,375,22926,1,8,0:0:0:0:
417,360,23016,1,8,0:0:0:0:
446,326,23105,2,0,P|453:304|456:282,3,45,8|8|8|8,1:2|0:0|0:0|0:0,0:0:0:0:
464,200,23465,6,0,L|374:196,1,90,4|0,1:2|0:0,0:0:0:0:
264,236,23824,1,0,1:0:0:0:
284,120,24004,1,0,0:0:0:0:
374,196,24183,2,0,P|379:245|376:292,1,90,0|0,1:0|0:0,0:0:0:0:
196,352,24542,2,0,P|190:303|194:256,1,90,0|0,1:0|0:0,0:0:0:0:
284,120,24902,6,0,L|376:116,1,90,2|0,1:2|0:0,0:0:0:0:
465,281,25261,2,0,L|376:285,1,90,2|0,1:2|0:0,0:0:0:0:
192,168,25620,2,0,P|181:124|192:72,1,90,2|0,1:2|0:0,0:0:0:0:
272,212,25980,1,2,1:2:0:0:
264,328,26159,1,2,1:2:0:0:
164,264,26339,6,0,P|120:260|72:264,1,90,2|0,1:2|0:0,0:0:0:0:
36,284,26608,1,0,0:0:0:0:
36,284,26698,1,2,1:2:0:0:
44,168,26878,1,2,0:2:0:0:
164,264,27057,2,0,P|208:268|256:264,1,90,2|0,1:2|0:0,0:0:0:0:
404,200,27417,2,0,P|360:196|312:200,1,90,2|0,1:2|0:0,0:0:0:0:
405,334,27776,6,0,P|412:292|412:244,1,90,2|0,1:2|0:0,0:0:0:0:
404,200,28045,1,0,0:0:0:0:
404,200,28135,1,0,1:0:0:0:
316,280,28315,1,0,0:0:0:0:
228,204,28495,1,2,1:2:0:0:
320,364,28674,1,2,0:2:0:0:
404,200,28854,2,0,L|412:96,1,90,2|0,1:2|0:0,0:0:0:0:
320,36,29213,6,0,L|313:125,1,90,0|0,1:0|0:0,0:0:0:0:
228,204,29572,1,0,1:0:0:0:
200,88,29752,1,0,0:0:0:0:
116,168,29932,2,0,P|72:176|24:168,1,90,0|0,1:0|0:0,0:0:0:0:
200,88,30291,2,0,P|244:80|292:88,1,90,0|0,1:0|0:0,0:0:0:0:
273,279,30650,6,0,P|244:244|227:199,1,90,2|0,1:2|0:0,0:0:0:0:
446,195,31010,2,0,P|431:237|403:272,1,90,2|0,1:2|0:0,0:0:0:0:
288,85,31369,2,0,P|332:77|376:84,1,90,2|0,1:2|0:0,0:0:0:0:
446,195,31728,1,2,1:2:0:0:
456,312,31908,1,2,1:2:0:0:
328,204,32087,6,0,P|264:192|192:204,1,135,2|0,1:2|0:0,0:0:0:0:
160,228,32447,6,0,L|156:344,1,107.999996704102,12|0,1:2|0:0,0:0:0:0:
328,204,32806,6,0,P|340:140|328:68,1,135,2|0,1:2|0:0,0:0:0:0:
304,36,33166,6,0,L|188:32,1,107.999996704102,12|0,1:2|0:0,0:0:0:0:
40,100,33525,6,0,L|156:96,1,90,0|0,1:0|0:0,0:0:0:0:
240,140,33884,2,0,L|356:136,1,90,0|0,1:0|0:0,0:0:0:0:
440,180,34243,1,0,1:0:0:0:
460,212,34333,1,0,0:0:0:0:
464,248,34423,1,0,0:0:0:0:
460,284,34513,1,0,0:0:0:0:
440,312,34602,2,0,L|388:316,1,45,0|0,1:0|0:0,0:0:0:0:
308,316,34782,2,0,L|256:320,1,45,8|0,0:0|0:0,0:0:0:0:
176,320,34962,6,0,P|193:265|277:231,1,144,4|0,1:2|0:0,0:0:0:0:
263,319,35501,1,0,1:0:0:0:
176,320,35680,2,0,L|104:316,1,72,10|0,0:0|0:0,0:0:0:0:
16,308,36039,1,2,0:0:0:0:
28,224,36219,1,0,1:0:0:0:
40,138,36399,6,0,L|36:66,1,72,2|0,1:2|0:0,0:0:0:0:
120,40,36758,2,0,L|124:112,1,72,2|0,0:0|1:0,0:0:0:0:
180,176,37117,2,0,P|252:192|320:176,1,144,10|2,0:0|0:0,0:0:0:0:
380,116,37656,1,0,0:0:0:0:
444,176,37836,6,0,L|452:272,1,90,4|0,1:2|0:0,0:0:0:0:
380,360,38195,1,8,1:2:0:0:
268,324,38375,1,0,0:0:0:0:
160,364,38554,2,0,P|116:368|60:360,1,90,0|0,1:0|0:0,0:0:0:0:
36,192,38914,2,0,P|80:188|136:196,1,90,8|0,1:2|0:0,0:0:0:0:
268,324,39273,6,0,L|360:320,1,90,0|0,1:0|0:0,0:0:0:0:
508,236,39632,2,0,L|416:232,1,90,8|0,1:2|0:0,0:0:0:0:
268,148,39992,1,10,1:2:0:0:
260,32,40171,1,10,0:0:0:0:
364,84,40351,1,10,1:2:0:0:
276,264,40531,1,10,0:0:0:0:
172,212,40710,6,0,L|164:64,1,144,6|0,1:2|0:0,0:0:0:0:
84,32,41249,1,0,1:0:0:0:
16,84,41429,2,0,L|20:173,1,72,8|0,0:0|0:0,0:0:0:0:
24,244,41788,1,0,0:0:0:0:
104,276,41968,1,2,1:2:0:0:
188,252,42147,6,0,P|222:246|264:248,1,72,2|0,1:2|0:0,0:0:0:0:
332,296,42507,1,2,0:0:0:0:
392,232,42686,1,0,1:0:0:0:
464,284,42866,2,0,L|470:355,1,72,10|0,0:0|0:0,0:0:0:0:
392,232,43225,2,0,L|398:160,1,72,2|0,0:0|0:0,0:0:0:0:
408,72,43584,6,0,P|361:80|316:192,1,180,4|8,1:2|1:2,0:0:0:0:
352,304,44123,1,0,0:0:0:0:
240,268,44303,2,0,P|196:264|148:268,1,90,0|0,1:0|0:0,0:0:0:0:
8,208,44662,2,0,P|52:212|100:208,1,90,8|0,1:2|0:0,0:0:0:0:
196,144,45022,6,0,L|200:52,1,90,0|0,1:0|0:0,0:0:0:0:
97,208,45381,2,0,L|100:297,1,90,8|0,1:2|0:0,0:0:0:0:
284,150,45740,2,0,P|240:140|196:144,1,90,0|0,1:0|0:0,0:0:0:0:
280,308,46099,1,8,1:2:0:0:
396,300,46279,1,0,1:0:0:0:
512,292,46459,6,0,L|504:184,1,108,0|0,1:0|0:0,0:0:0:0:
500,140,46818,1,8,0:0:0:0:
384,148,46998,1,0,1:0:0:0:
396,300,47177,2,0,L|388:192,1,108,0|0,1:0|0:0,0:0:0:0:
384,148,47536,1,8,0:0:0:0:
268,156,47716,1,0,1:0:0:0:
280,308,47896,5,4,1:2:0:0:
280,308,48075,2,0,L|200:304,1,72,0|0,0:0|0:0,0:0:0:0:
104,316,48435,2,0,L|100:348,3,24,0|0|0|0,0:3|0:3|0:3|0:3,0:0:0:0:
104,316,48974,2,0,L|96:208,1,108,0|0,0:0|0:0,0:0:0:0:
92,164,49333,5,4,1:2:0:0:
188,232,49513,1,0,0:0:0:0:
268,148,49692,2,0,P|276:104|272:56,1,90,8|0,1:2|0:0,0:0:0:0:
92,164,50051,1,0,1:0:0:0:
24,260,50231,1,0,0:0:0:0:
108,340,50410,2,0,P|152:348|200:344,1,90,8|0,1:2|0:0,0:0:0:0:
356,152,50770,6,0,P|312:144|268:148,1,90,0|0,1:0|0:0,0:0:0:0:
308,260,51129,1,8,1:2:0:0:
424,248,51309,1,0,0:0:0:0:
464,136,51489,2,0,L|460:40,1,90,0|0,1:0|0:0,0:0:0:0:
260,32,51848,1,8,1:2:0:0:
268,148,52028,1,0,1:0:0:0:
276,264,52207,6,0,L|180:260,1,90,0|0,1:0|0:0,0:0:0:0:
24,140,52566,2,0,L|120:144,1,90,8|0,1:2|0:0,0:0:0:0:
268,148,52926,2,0,P|280:80|268:16,1,135,0|0,1:0|0:0,0:0:0:0:
228,36,53285,2,0,P|184:40|136:32,1,90,8|0,1:2|0:0,0:0:0:0:
268,148,53644,6,0,P|312:152|360:144,1,90,0|0,1:0|0:0,0:0:0:0:
464,20,54004,2,0,P|438:56|421:101,1,90,8|0,1:2|0:0,0:0:0:0:
476,253,54363,2,0,P|457:212|426:175,1,90,0|8,1:0|0:0,0:0:0:0:
360,272,54722,1,0,1:0:0:0:
256,216,54902,5,8,0:0:0:0:
256,216,54992,1,8,0:0:0:0:
256,216,55081,2,0,L|252:312,1,90,4|0,1:2|0:0,0:0:0:0:
104,344,55441,2,0,L|107:254,1,90,8|0,1:2|0:0,0:0:0:0:
256,216,55800,2,0,L|346:220,1,90,0|0,1:0|0:0,0:0:0:0:
306,70,56159,2,0,L|217:67,1,90,8|0,1:2|0:0,0:0:0:0:
107,254,56519,5,0,1:0:0:0:
96,140,56698,1,0,0:0:0:0:
255,215,56878,1,8,1:2:0:0:
243,329,57057,1,0,0:0:0:0:
188,148,57237,2,0,P|227:126|272:120,1,90,0|0,1:0|0:0,0:0:0:0:
380,160,57596,1,8,1:2:0:0:
412,272,57776,1,0,1:0:0:0:
496,192,57956,6,0,L|500:48,1,135,0|0,1:0|0:0,0:0:0:0:
460,36,58315,6,0,P|412:28|352:36,1,107.999996704102,12|0,1:2|0:0,0:0:0:0:
271,119,58674,6,0,L|275:263,1,135,0|0,1:0|0:0,0:0:0:0:
235,275,59033,6,0,P|187:283|127:275,1,107.999996704102,12|0,1:2|0:0,0:0:0:0:
32,208,59393,6,0,L|28:116,1,90,4|0,1:2|0:0,0:0:0:0:
172,28,59752,2,0,L|175:117,1,90,4|0,1:2|0:0,0:0:0:0:
235,275,60111,1,12,1:2:0:0:
264,300,60201,1,8,0:0:0:0:
298,311,60291,1,8,0:0:0:0:
334,310,60381,1,8,0:0:0:0:
368,298,60471,2,0,L|416:300,3,45,12|8|8|8,1:2|0:0|0:0|0:0,0:0:0:0:
492,304,60830,5,4,1:2:0:0:
484,188,61010,1,0,0:0:0:0:
432,84,61189,2,0,P|388:80|332:84,1,90,8|0,1:2|0:0,0:0:0:0:
236,132,61548,1,0,1:0:0:0:
228,248,61728,1,0,0:0:0:0:
176,352,61907,2,0,P|132:356|76:352,1,90,8|0,1:2|0:0,0:0:0:0:
40,184,62267,6,0,P|84:180|140:184,1,90,0|0,1:0|0:0,0:0:0:0:
228,248,62626,1,8,1:2:0:0:
236,132,62806,1,0,0:0:0:0:
129,182,62986,2,0,L|135:279,1,90,0|0,1:0|0:0,0:0:0:0:
320,196,63345,1,8,1:2:0:0:
312,80,63525,1,0,1:0:0:0:
204,36,63704,6,0,P|160:32|104:36,1,90,0|0,1:0|0:0,0:0:0:0:
39,180,64063,2,0,P|83:184|128:181,1,90,8|0,1:2|0:0,0:0:0:0:
272,164,64423,2,0,P|284:236|280:308,1,135,0|0,1:0|0:0,0:0:0:0:
268,340,64782,2,0,P|223:344|178:341,1,90,8|0,1:2|0:0,0:0:0:0:
272,164,65141,6,0,L|364:160,1,90,0|0,1:0|0:0,0:0:0:0:
496,280,65501,2,0,L|404:276,1,90,8|0,1:2|0:0,0:0:0:0:
272,164,65860,2,0,L|268:74,1,90,0|8,1:0|0:0,0:0:0:0:
164,120,66219,1,0,1:0:0:0:
68,56,66399,5,8,0:0:0:0:
68,56,66489,1,8,0:0:0:0:
68,56,66578,2,0,L|72:148,1,90,4|0,1:2|0:0,0:0:0:0:
124,332,66938,2,0,L|127:242,1,90,8|0,1:2|0:0,0:0:0:0:
164,120,67297,1,0,1:0:0:0:
272,164,67477,1,0,0:0:0:0:
256,48,67656,1,8,1:2:0:0:
164,120,67836,1,0,0:0:0:0:
272,164,68016,5,0,1:0:0:0:
256,48,68195,1,0,0:0:0:0:
76,48,68375,1,8,1:2:0:0:
60,164,68554,1,0,0:0:0:0:
272,164,68734,2,0,P|280:120|272:76,1,90,0|0,1:0|0:0,0:0:0:0:
164,120,69093,1,8,1:2:0:0:
180,236,69273,1,0,1:0:0:0:
272,164,69453,6,0,P|340:152|408:164,1,135,0|0,1:0|0:0,0:0:0:0:
440,192,69812,6,0,L|448:304,1,107.999996704102,12|0,1:2|0:0,0:0:0:0:
300,356,70171,6,0,P|232:368|164:356,1,135,0|0,1:0|0:0,0:0:0:0:
132,328,70531,6,0,L|124:216,1,107.999996704102,12|0,1:2|0:0,0:0:0:0:
278,74,70890,6,0,L|271:163,1,90,4|0,1:2|0:0,0:0:0:0:
167,357,71249,2,0,L|160:267,1,90,12|0,1:2|0:0,0:0:0:0:
152,116,71608,1,12,1:2:0:0:
136,83,71698,1,8,0:0:0:0:
109,58,71788,1,8,0:0:0:0:
75,43,71878,1,8,0:0:0:0:
38,43,71968,2,0,L|29:94,3,45,12|8|8|8,1:2|0:0|0:0|0:0,0:0:0:0:
20,172,72327,6,0,P|32:248|24:328,1,144,4|0,1:2|0:0,0:0:0:0:
100,360,72866,1,0,1:0:0:0:
180,324,73045,2,0,P|256:312|336:320,1,144,8|0,0:0|0:0,0:0:0:0:
400,356,73584,1,0,1:0:0:0:
480,320,73764,6,0,P|484:248|473:177,1,144,0|0,1:0|0:0,0:0:0:0:
420,108,74303,1,0,1:0:0:0:
344,152,74483,2,0,P|272:156|201:145,1,144,8|0,0:0|0:0,0:0:0:0:
132,92,75022,1,0,1:0:0:0:
76,156,75201,6,0,P|164:172|215:70,1,216,4|0,1:2|1:0,0:0:0:0:
132,92,75920,1,8,0:0:0:0:
148,264,76279,1,0,1:0:0:0:
148,264,76459,1,0,1:0:0:0:
148,264,76638,6,0,P|205:332|310:288,1,216,4|0,1:2|1:0,0:0:0:0:
232,248,77357,1,8,0:0:0:0:
68,304,77716,1,0,1:0:0:0:
68,304,77896,1,0,1:0:0:0:
68,304,78075,6,0,L|64:160,1,144,4|0,1:2|0:0,0:0:0:0:
16,88,78614,1,0,1:0:0:0:
84,36,78794,2,0,P|152:28|228:32,1,144,8|0,0:0|0:0,0:0:0:0:
280,100,79333,1,0,1:0:0:0:
344,40,79513,6,0,P|368:99|333:172,1,144,0|0,1:0|0:0,0:0:0:0:
260,208,80051,1,0,1:0:0:0:
196,152,80231,2,0,P|132:140|56:156,1,144,8|0,0:0|0:0,0:0:0:0:
20,236,80770,1,0,1:0:0:0:
68,308,80950,6,0,P|104:216|4:150,1,216,4|0,1:2|1:0,0:0:0:0:
20,236,81668,1,8,0:0:0:0:
160,336,82028,1,0,1:0:0:0:
160,336,82207,1,0,1:0:0:0:
160,336,82387,6,0,P|264:360|368:324,1,216,4|0,1:2|1:0,0:0:0:0:
416,256,83105,1,8,0:0:0:0:
420,240,83285,1,8,0:0:0:0:
424,224,83465,1,8,0:0:0:0:
428,212,83644,1,8,0:0:0:0:
432,200,83824,6,0,L|328:196,1,90,4|0,1:2|0:0,0:0:0:0:
236,64,84183,2,0,L|340:60,1,90,8|0,1:2|0:0,0:0:0:0:
432,200,84542,2,0,P|440:244|436:292,1,90,0|0,1:0|0:0,0:0:0:0:
264,260,84902,2,0,P|260:215|268:171,1,90,8|0,1:2|0:0,0:0:0:0:
340,344,85261,6,0,P|276:372|176:328,1,180,0|8,1:0|1:2,0:0:0:0:
124,228,85800,1,0,0:0:0:0:
32,300,85980,1,0,1:0:0:0:
32,300,86069,1,0,0:0:0:0:
32,300,86159,1,0,0:0:0:0:
32,300,86249,1,0,0:0:0:0:
32,300,86339,2,0,L|28:248,1,45,8|0,1:2|0:0,0:0:0:0:
60,128,86519,2,0,L|56:172,1,45,0|0,1:0|0:0,0:0:0:0:
124,228,86698,6,0,L|216:224,1,90,4|0,1:2|0:0,0:0:0:0:
312,76,87057,2,0,L|222:79,1,90,8|0,1:2|0:0,0:0:0:0:
124,228,87417,2,0,P|120:276|120:320,1,90,0|0,1:0|0:0,0:0:0:0:
296,244,87776,2,0,P|295:199|291:154,1,90,8|0,1:2|0:0,0:0:0:0:
224,328,88135,6,0,P|288:356|388:312,1,180,0|8,1:0|1:2,0:0:0:0:
444,216,88674,1,0,0:0:0:0:
464,332,88854,1,0,1:0:0:0:
328,196,89033,1,8,0:0:0:0:
464,332,89213,1,0,1:0:0:0:
328,196,89392,5,8,0:0:0:0:
324,160,89483,1,8,0:0:0:0:
320,124,89572,2,0,L|324:32,1,90,4|0,1:2|0:0,0:0:0:0:
447,126,89932,2,0,L|444:216,1,90,8|0,1:2|0:0,0:0:0:0:
340,332,90291,2,0,P|296:340|248:336,1,90,0|0,1:0|0:0,0:0:0:0:
235,164,90650,2,0,P|279:156|324:160,1,90,8|0,1:2|0:0,0:0:0:0:
429,335,91010,6,0,L|340:332,1,90,4|0,1:2|0:0,0:0:0:0:
120,260,91369,2,0,L|209:256,1,90,8|0,1:2|0:0,0:0:0:0:
429,184,91728,2,0,L|339:180,1,90,4|0,1:2|0:0,0:0:0:0:
120,108,92087,1,8,1:2:0:0:
236,104,92266,1,0,1:0:0:0:
44,48,92447,6,0,P|24:96|28:140,1,90,0|0,1:0|0:0,0:0:0:0:
100,224,92806,1,8,1:2:0:0:
120,108,92986,1,0,0:0:0:0:
208,184,93165,1,0,1:0:0:0:
216,220,93255,1,0,0:0:0:0:
210,255,93345,1,0,0:0:0:0:
196,288,93435,1,0,0:0:0:0:
171,314,93525,2,0,L|120:319,3,45,8|0|0|0,1:2|0:0|0:0|0:0,0:0:0:0:
236,360,93884,6,0,P|280:368|328:364,1,90,0|0,1:0|0:0,0:0:0:0:
392,268,94243,1,8,1:2:0:0:
476,352,94423,1,0,0:0:0:0:
504,240,94602,1,8,1:2:0:0:
500,204,94692,1,8,0:0:0:0:
496,168,94782,1,8,0:0:0:0:
492,132,94872,1,8,0:0:0:0:
488,96,94962,2,0,L|492:44,3,45,8|8|8|8,1:2|0:0|0:0|0:0,0:0:0:0:
408,124,95321,5,4,1:2:0:0:
256,192,95411,12,0,96758,0:0:0:0:
408,124,101069,6,0,L|412:224,1,90,4|0,1:2|0:0,0:0:0:0:
416,332,101429,1,8,1:2:0:0:
312,276,101608,1,0,0:0:0:0:
220,348,101788,2,0,L|124:344,1,90,0|0,1:0|0:0,0:0:0:0:
12,220,102147,2,0,L|101:223,1,90,8|0,1:2|0:0,0:0:0:0:
268,184,102507,6,0,P|274:140|272:88,1,90,2|0,1:2|0:0,0:0:0:0:
101,223,102866,2,0,P|94:266|97:319,1,90,10|0,1:2|0:0,0:0:0:0:
172,156,103225,2,0,P|136:132|90:125,1,90,2|0,1:2|0:0,0:0:0:0:
184,344,103584,1,10,1:2:0:0:
300,336,103764,1,2,1:2:0:0:
416,328,103944,6,0,L|420:220,1,90,2|0,1:2|0:0,0:0:0:0:
420,192,104213,1,0,0:0:0:0:
420,192,104303,1,10,1:2:0:0:
304,216,104483,1,2,0:0:0:0:
340,104,104662,2,0,P|344:60|340:8,1,90,2|0,1:2|0:0,0:0:0:0:
170,14,105022,2,0,P|167:59|172:104,1,90,10|0,1:2|0:0,0:0:0:0:
304,216,105381,6,0,L|400:212,1,90,2|0,1:2|0:0,0:0:0:0:
440,212,105650,1,0,0:0:0:0:
440,212,105740,1,8,1:2:0:0:
376,312,105920,1,0,0:0:0:0:
304,216,106099,1,2,1:2:0:0:
492,316,106279,1,2,0:0:0:0:
304,216,106459,2,0,P|258:210|208:216,1,90,10|0,1:2|0:0,0:0:0:0:
68,320,106818,6,0,P|113:325|164:320,1,90,0|0,1:0|0:0,0:0:0:0:
214,214,107177,1,8,1:2:0:0:
292,300,107357,1,0,0:0:0:0:
388,236,107536,2,0,L|392:140,1,90,0|0,1:0|0:0,0:0:0:0:
217,124,107896,2,0,L|214:214,1,90,8|0,1:2|0:0,0:0:0:0:
360,344,108255,6,0,P|404:352|452:348,1,90,2|0,1:2|0:0,0:0:0:0:
302,218,108614,2,0,P|258:210|214:214,1,90,10|0,1:2|0:0,0:0:0:0:
68,344,108974,2,0,P|112:348|157:340,1,90,2|0,1:2|0:0,0:0:0:0:
302,218,109333,1,10,1:2:0:0:
332,332,109513,1,2,1:2:0:0:
416,252,109692,6,0,L|424:108,1,135,0|0,1:0|0:0,0:0:0:0:
424,72,110051,6,0,P|372:84|312:80,1,107.999996704102,12|0,1:2|0:0,0:0:0:0:
184,40,110411,6,0,P|116:28|44:36,1,135,0|0,1:0|0:0,0:0:0:0:
12,56,110770,6,0,L|16:176,1,107.999996704102,12|0,1:2|0:0,0:0:0:0:
20,304,111129,6,0,P|64:296|112:296,1,90,0|0,1:0|0:0,0:0:0:0:
224,320,111489,2,0,P|268:327|316:328,1,90,8|0,1:2|0:0,0:0:0:0:
428,304,111848,1,0,1:0:0:0:
436,268,111938,1,0,0:0:0:0:
444,232,112028,2,0,L|440:184,1,45,8|0,0:0|0:0,0:0:0:0:
356,140,112207,2,0,L|352:184,1,45,8|0,1:2|0:0,0:0:0:0:
272,240,112387,5,8,0:0:0:0:
272,240,112477,1,8,0:0:0:0:
272,240,112566,2,0,P|200:252|128:236,1,144,4|0,1:2|0:0,0:0:0:0:
76,172,113105,1,0,1:0:0:0:
40,252,113285,2,0,L|44:328,1,72,8|0,0:0|0:0,0:0:0:0:
124,352,113644,1,2,0:0:0:0:
212,348,113824,1,0,1:0:0:0:
300,344,114004,6,0,P|304:306|304:272,1,72,2|0,1:2|0:0,0:0:0:0:
288,188,114363,1,2,0:0:0:0:
232,120,114542,1,0,1:0:0:0:
156,160,114722,2,0,P|84:168|16:148,1,144,10|2,0:0|0:0,0:0:0:0:
4,64,115261,1,0,0:0:0:0:
16,148,115441,6,0,L|12:240,1,90,4|0,1:2|0:0,0:0:0:0:
48,348,115800,1,8,1:2:0:0:
152,296,115980,1,0,0:0:0:0:
252,356,116159,2,0,P|296:364|344:352,1,90,0|0,1:0|0:0,0:0:0:0:
404,200,116519,2,0,P|375:234|361:281,1,90,8|0,1:2|0:0,0:0:0:0:
512,212,116878,6,0,L|504:120,1,90,0|0,1:0|0:0,0:0:0:0:
352,40,117237,2,0,L|344:129,1,90,8|0,1:2|0:0,0:0:0:0:
192,212,117596,1,10,1:2:0:0:
76,204,117776,1,10,0:0:0:0:
140,104,117956,1,10,1:2:0:0:
308,220,118135,1,10,0:0:0:0:
244,320,118315,6,0,L|84:312,1,144,6|0,1:2|0:0,0:0:0:0:
16,336,118854,1,0,1:0:0:0:
36,252,119033,2,0,L|32:180,1,72,8|0,0:0|0:0,0:0:0:0:
96,120,119393,1,0,0:0:0:0:
168,164,119572,1,2,1:2:0:0:
252,144,119752,6,0,P|289:141|328:144,1,72,2|0,1:2|0:0,0:0:0:0:
396,188,120111,1,2,0:0:0:0:
444,260,120291,1,0,1:0:0:0:
484,184,120471,2,0,L|488:112,1,72,10|0,0:0|0:0,0:0:0:0:
408,20,120830,2,0,L|404:92,1,72,2|0,0:0|0:0,0:0:0:0:
396,188,121189,6,0,P|308:216|224:192,1,180,4|8,1:2|1:2,0:0:0:0:
156,100,121728,1,0,0:0:0:0:
64,176,121908,2,0,P|56:220|60:268,1,90,0|0,1:0|0:0,0:0:0:0:
212,356,122267,2,0,P|220:312|216:264,1,90,8|0,1:2|0:0,0:0:0:0:
156,100,122626,6,0,L|60:96,1,90,0|0,1:0|0:0,0:0:0:0:
232,24,122986,2,0,P|276:20|321:27,1,90,8|0,1:2|0:0,0:0:0:0:
436,168,123345,2,0,P|443:213|440:260,1,90,0|0,1:0|0:0,0:0:0:0:
288,356,123704,1,8,1:2:0:0:
256,244,123884,1,0,1:0:0:0:
296,136,124063,6,0,P|348:132|408:140,1,108,0|0,1:0|0:0,0:0:0:0:
436,168,124423,1,8,0:0:0:0:
420,52,124602,1,0,1:0:0:0:
296,136,124782,2,0,P|244:140|184:132,1,108,0|0,1:0|0:0,0:0:0:0:
156,104,125142,1,8,0:0:0:0:
172,220,125321,1,0,1:0:0:0:
232,48,125501,5,0,1:0:0:0:
232,48,125680,2,0,L|312:44,1,72,0|0,0:0|0:0,0:0:0:0:
408,40,126039,2,0,L|412:12,3,24,0|0|0|0,0:0|0:0|0:0|0:0,0:0:0:0:
408,40,126578,2,0,L|416:156,1,108,0|0,0:0|0:0,0:0:0:0:
420,192,126938,5,4,1:2:0:0:
316,136,127117,1,0,0:0:0:0:
256,236,127297,2,0,P|248:280|248:332,1,90,8|0,1:2|0:0,0:0:0:0:
420,192,127656,1,0,1:2:0:0:
476,88,127835,1,0,0:0:0:0:
376,28,128015,2,0,P|332:20|280:20,1,90,8|0,1:2|0:0,0:0:0:0:
106,103,128375,6,0,P|150:102|195:94,1,90,0|0,1:0|0:0,0:0:0:0:
286,19,128734,1,8,1:2:0:0:
320,132,128914,1,0,0:0:0:0:
354,245,129093,2,0,P|358:293|350:337,1,90,0|0,1:0|0:0,0:0:0:0:
240,288,129453,1,8,1:2:0:0:
212,176,129632,1,0,1:0:0:0:
320,132,129812,6,0,L|412:128,1,90,0|0,1:0|0:0,0:0:0:0:
212,176,130171,2,0,L|122:172,1,90,8|0,1:2|0:0,0:0:0:0:
320,220,130531,2,0,P|340:284|320:348,1,135,0|0,1:0|0:0,0:0:0:0:
276,360,130890,2,0,L|184:356,1,90,8|0,1:2|0:0,0:0:0:0:
16,316,131249,6,0,P|60:324|105:315,1,90,0|0,1:0|0:0,0:0:0:0:
320,220,131608,2,0,P|276:212|230:220,1,90,8|0,1:2|0:0,0:0:0:0:
16,316,131968,2,0,L|12:224,1,90,0|8,1:0|0:0,0:0:0:0:
48,116,132327,1,0,1:0:0:0:
128,204,132507,5,8,0:0:0:0:
128,204,132596,1,8,0:0:0:0:
128,204,132686,2,0,P|172:216|224:212,1,90,4|0,1:2|0:0,0:0:0:0:
411,158,133045,2,0,P|367:156|324:168,1,90,8|0,1:2|0:0,0:0:0:0:
476,280,133405,2,0,L|480:184,1,90,0|0,1:0|0:0,0:0:0:0:
320,78,133764,2,0,L|324:168,1,90,8|0,1:2|0:0,0:0:0:0:
300,284,134123,5,0,1:0:0:0:
184,272,134303,1,0,0:0:0:0:
324,168,134483,1,8,1:2:0:0:
440,156,134663,1,0,0:0:0:0:
300,52,134842,2,0,P|255:45|208:48,1,90,0|0,1:0|0:0,0:0:0:0:
100,84,135201,1,8,1:2:0:0:
60,196,135381,1,0,1:0:0:0:
88,308,135560,6,0,L|236:304,1,135,0|0,1:0|0:0,0:0:0:0:
264,324,135920,6,0,P|316:336|372:324,1,107.999996704102,12|0,1:2|0:0,0:0:0:0:
440,156,136279,6,0,L|292:160,1,135,0|0,1:0|0:0,0:0:0:0:
264,140,136639,6,0,P|212:128|156:140,1,107.999996704102,12|0,1:2|0:0,0:0:0:0:
36,248,136998,6,0,L|32:340,1,90,4|0,1:2|0:0,0:0:0:0:
176,232,137357,2,0,L|172:324,1,90,12|0,1:2|0:0,0:0:0:0:
316,216,137716,1,12,1:2:0:0:
315,251,137805,1,8,0:0:0:0:
314,286,137896,1,8,0:0:0:0:
313,321,137986,1,8,0:0:0:0:
312,356,138075,2,0,L|368:352,3,45,12|8|8|8,1:2|0:0|0:0|0:0,0:0:0:0:
436,348,138435,5,4,1:2:0:0:
476,236,138614,1,0,0:0:0:0:
444,124,138794,2,0,P|404:116|348:112,1,90,8|0,1:2|0:0,0:0:0:0:
240,132,139153,1,0,1:2:0:0:
200,244,139332,1,0,0:0:0:0:
232,356,139512,2,0,P|272:364|328:368,1,90,8|0,1:2|0:0,0:0:0:0:
436,348,139872,6,0,P|442:304|440:256,1,90,0|0,1:0|0:0,0:0:0:0:
355,112,140231,2,0,P|348:155|351:204,1,90,8|0,1:2|0:0,0:0:0:0:
432,52,140590,2,0,P|396:24|344:16,1,90,0|0,1:0|0:0,0:0:0:0:
248,72,140950,1,8,1:2:0:0:
140,32,141129,1,0,1:0:0:0:
40,96,141309,6,0,L|36:192,1,90,0|0,1:0|0:0,0:0:0:0:
116,368,141668,1,8,1:2:0:0:
132,252,141848,1,0,0:0:0:0:
224,324,142028,2,0,P|292:336|356:324,1,135,0|0,1:0|0:0,0:0:0:0:
396,304,142387,2,0,L|400:212,1,90,8|0,1:2|0:0,0:0:0:0:
312,84,142746,6,0,P|304:128|308:173,1,90,0|0,1:0|0:0,0:0:0:0:
473,262,143105,2,0,P|439:233|399:214,1,90,8|0,1:2|0:0,0:0:0:0:
237,313,143465,2,0,P|279:297|316:272,1,90,0|8,1:0|0:0,0:0:0:0:
228,196,143824,1,0,1:0:0:0:
132,264,144004,5,8,0:0:0:0:
132,264,144093,1,8,0:0:0:0:
132,264,144183,2,0,L|128:360,1,90,4|0,1:2|0:0,0:0:0:0:
228,196,144542,2,0,L|224:106,1,90,8|0,1:2|0:0,0:0:0:0:
128,40,144902,1,0,1:0:0:0:
24,96,145081,1,0,0:0:0:0:
120,156,145261,1,8,1:2:0:0:
128,40,145441,1,0,0:0:0:0:
24,96,145620,5,0,1:0:0:0:
20,212,145800,1,0,0:0:0:0:
224,212,145980,1,8,1:2:0:0:
220,96,146160,1,0,0:0:0:0:
120,156,146339,2,0,P|115:200|116:248,1,90,0|0,1:0|0:0,0:0:0:0:
152,356,146698,1,8,1:2:0:0:
268,328,146878,1,0,1:0:0:0:
380,360,147057,6,0,P|448:364|492:312,1,135,0|0,1:0|0:0,0:0:0:0:
500,276,147417,6,0,L|496:168,1,107.999996704102,12|0,1:2|0:0,0:0:0:0:
472,36,147776,6,0,P|404:32|360:84,1,135,0|0,1:0|0:0,0:0:0:0:
352,120,148136,6,0,L|356:228,1,107.999996704102,12|0,1:2|0:0,0:0:0:0:
268,328,148495,6,0,L|176:324,1,90,4|0,1:2|0:0,0:0:0:0:
20,192,148854,2,0,L|112:188,1,90,12|0,1:2|0:0,0:0:0:0:
268,328,149213,1,12,1:2:0:0:
300,344,149303,1,8,0:0:0:0:
340,351,149393,1,8,0:0:0:0:
376,344,149483,1,8,0:0:0:0:
408,328,149572,2,0,L|416:280,3,45,12|8|8|8,1:2|0:0|0:0|0:0,0:0:0:0:
428,204,149932,5,6,1:2:0:0:
312,196,150111,1,2,0:0:0:0:
196,188,150291,1,2,0:0:0:0:
0,96,150650,5,2,1:2:0:0:
116,88,150829,1,2,0:0:0:0:
232,80,151009,1,2,0:0:0:0:
428,204,151369,5,2,1:2:0:0:
312,196,151728,1,2,1:2:0:0:
196,188,152087,2,0,L|208:332,1,144,2|0,1:2|0:0,0:0:0:0:
100,288,152626,1,0,1:0:0:0:
207,331,152806,5,2,1:2:0:0:
280,240,152986,1,2,0:0:0:0:
296,128,153165,1,2,0:0:0:0:
88,28,153525,5,2,1:2:0:0:
104,140,153704,1,2,0:0:0:0:
176,231,153884,1,2,0:0:0:0:
396,300,154243,5,2,1:2:0:0:
468,208,154602,1,2,1:2:0:0:
484,96,154962,2,0,P|420:76|340:84,1,144,2|0,1:2|0:0,0:0:0:0:
256,156,155501,1,0,1:0:0:0:
160,92,155680,5,6,1:2:0:0:
152,208,155860,1,2,0:0:0:0:
144,324,156039,1,2,0:0:0:0:
396,360,156399,5,10,1:2:0:0:
388,244,156578,1,2,0:0:0:0:
380,128,156758,1,2,0:0:0:0:
160,92,157117,5,2,1:2:0:0:
152,208,157477,1,2,1:2:0:0:
144,324,157836,2,0,L|288:320,1,144,10|0,1:2|0:0,0:0:0:0:
396,360,158375,1,0,1:0:0:0:
484,284,158554,5,2,1:2:0:0:
480,168,158734,1,2,0:0:0:0:
476,52,158914,1,2,0:0:0:0:
404,252,159273,5,10,1:2:0:0:
342,153,159453,1,2,0:0:0:0:
281,56,159633,1,2,0:0:0:0:
318,264,159992,5,2,0:0:0:0:
215,209,160351,1,2,0:0:0:0:
114,156,160710,1,2,0:0:0:0:
114,156,160890,2,0,L|32:160,2,72,8|4|0,0:3|0:3|1:0,0:0:0:0:
215,209,161429,6,0,P|220:256|219:305,1,90,4|0,1:2|0:0,0:0:0:0:
38,248,161788,2,0,P|37:203|42:159,1,90,8|0,1:2|0:0,0:0:0:0:
104,40,162147,1,0,1:0:0:0:
200,108,162327,1,0,0:0:0:0:
308,60,162507,2,0,L|400:64,1,90,8|0,1:2|0:0,0:0:0:0:
489,183,162866,6,0,L|400:180,1,90,0|0,1:0|0:0,0:0:0:0:
292,224,163225,2,0,P|284:268|288:316,1,90,8|0,1:2|0:0,0:0:0:0:
400,180,163584,2,0,P|408:136|404:88,1,90,0|0,1:0|0:0,0:0:0:0:
316,12,163944,1,8,1:2:0:0:
308,128,164123,1,0,1:0:0:0:
208,64,164303,6,0,P|161:56|112:60,1,90,4|0,1:2|0:0,0:0:0:0:
36,140,164662,2,0,L|32:232,1,90,8|0,1:2|0:0,0:0:0:0:
143,361,165022,2,0,L|140:272,1,90,0|0,1:0|0:0,0:0:0:0:
259,150,165381,1,8,1:2:0:0:
252,268,165560,1,0,0:0:0:0:
348,124,165740,6,0,P|324:88|268:56,1,90,0|0,1:0|0:0,0:0:0:0:
169,151,166099,2,0,L|259:150,1,90,8|0,1:2|0:0,0:0:0:0:
436,148,166459,1,0,1:0:0:0:
452,324,166638,1,8,0:0:0:0:
436,148,166818,1,0,1:0:0:0:
452,324,166998,1,8,0:0:0:0:
416,320,167087,1,8,0:0:0:0:
380,316,167177,6,0,L|288:320,1,90,4|0,1:2|0:0,0:0:0:0:
182,211,167536,2,0,L|274:215,1,90,8|0,1:2|0:0,0:0:0:0:
379,106,167896,1,0,1:0:0:0:
260,112,168076,1,0,0:0:0:0:
141,118,168255,2,0,L|136:24,1,90,8|0,1:2|0:0,0:0:0:0:
36,152,168614,6,0,P|32:196|40:241,1,90,0|0,1:0|0:0,0:0:0:0:
141,118,168974,2,0,P|104:92|61:77,1,90,8|0,1:2|0:0,0:0:0:0:
117,225,169333,2,0,P|157:206|191:176,1,90,0|0,1:0|0:0,0:0:0:0:
248,72,169692,1,8,1:2:0:0:
300,176,169872,1,0,1:0:0:0:
364,80,170051,6,0,L|460:76,1,90,4|0,1:2|0:0,0:0:0:0:
512,220,170411,2,0,P|467:212|423:216,1,90,8|0,1:2|0:0,0:0:0:0:
328,336,170770,2,0,P|372:343|416:339,1,90,0|0,1:2|0:0,0:0:0:0:
512,220,171129,1,8,1:2:0:0:
496,104,171309,1,0,0:0:0:0:
400,36,171489,6,0,P|353:31|308:36,1,90,4|0,1:2|0:0,0:0:0:0:
128,124,171848,2,0,P|174:119|220:124,1,90,12|0,1:2|0:0,0:0:0:0:
400,212,172207,1,12,1:2:0:0:
412,244,172296,1,8,0:0:0:0:
412,280,172386,1,8,0:0:0:0:
403,315,172476,1,8,0:0:0:0:
382,344,172566,2,0,L|334:350,3,45,12|8|8|8,1:2|0:0|0:0|0:0,0:0:0:0:
256,352,172926,6,0,P|192:332|116:344,1,144,4|0,1:2|0:0,0:0:0:0:
36,312,173465,1,0,1:0:0:0:
20,228,173644,2,0,L|24:152,1,72,8|0,0:0|0:0,0:0:0:0:
84,92,174004,1,0,0:0:0:0:
108,176,174183,1,0,1:0:0:0:
168,116,174363,6,0,P|236:104|316:112,1,144,4|0,1:2|0:0,0:0:0:0:
376,168,174902,1,0,1:0:0:0:
444,112,175081,2,0,L|448:40,1,72,8|0,0:0|0:0,0:0:0:0:
376,168,175441,1,0,1:0:0:0:
460,244,175620,5,8,0:0:0:0:
460,244,175709,1,8,0:0:0:0:
460,244,175800,2,0,P|467:288|465:345,1,90,4|0,1:2|0:0,0:0:0:0:
256,308,176159,2,0,P|249:264|251:207,1,90,8|0,1:2|0:0,0:0:0:0:
453,154,176519,2,0,P|460:198|458:255,1,90,0|0,1:0|0:0,0:0:0:0:
372,320,176878,1,8,1:2:0:0:
256,308,177057,1,0,0:0:0:0:
144,348,177237,6,0,L|48:344,1,90,0|0,1:0|0:0,0:0:0:0:
0,200,177596,2,0,L|89:203,1,90,8|0,1:2|0:0,0:0:0:0:
208,208,177956,1,0,1:0:0:0:
152,104,178135,1,8,0:0:0:0:
120,276,178315,1,0,1:0:0:0:
152,104,178495,1,8,0:0:0:0:
148,68,178584,1,8,0:0:0:0:
144,32,178674,6,0,L|132:180,1,144,4|0,1:2|0:0,0:0:0:0:
120,276,179213,1,0,1:0:0:0:
120,276,179303,1,0,0:0:0:0:
120,276,179393,1,8,0:0:0:0:
208,236,179572,1,0,0:0:0:0:
292,292,179752,2,0,L|368:288,1,72,0|0,0:0|1:0,0:0:0:0:
455,200,180111,6,0,L|305:208,1,144,4|0,1:2|0:0,0:0:0:0:
242,156,180650,1,0,1:0:0:0:
208,236,180830,2,0,L|128:231,1,72,8|0,0:0|0:0,0:0:0:0:
64,280,181189,1,0,1:0:0:0:
28,172,181369,5,8,0:0:0:0:
28,172,181459,1,8,0:0:0:0:
28,172,181548,2,0,P|24:128|32:76,1,90,4|0,1:2|0:0,0:0:0:0:
135,230,181908,2,0,P|139:275|133:320,1,90,8|0,1:2|0:0,0:0:0:0:
92,128,182267,2,0,P|140:120|184:128,1,90,2|0,1:2|0:0,0:0:0:0:
300,280,182626,2,0,P|252:288|208:280,1,90,8|0,1:2|0:0,0:0:0:0:
392,192,182986,5,8,1:2:0:0:
413,220,183075,1,8,0:0:0:0:
424,254,183165,1,8,0:0:0:0:
429,289,183255,1,8,0:0:0:0:
421,324,183345,2,0,L|376:320,3,45,8|8|8|8,1:2|0:0|0:0|0:0,0:0:0:0:
300,280,183704,5,8,1:2:0:0:
272,259,183793,1,8,0:0:0:0:
238,248,183883,1,8,0:0:0:0:
203,243,183973,1,8,0:0:0:0:
168,251,184063,2,0,L|160:296,3,45,8|8|8|8,1:2|0:0|0:0|0:0,0:0:0:0:
88,257,184423,6,0,B|116:307|157:326|234:328|269:248|269:248|293:179|401:121|507:233|463:319|432:348,1,576,4|0,1:2|0:0,0:0:0:0:
360,284,186219,6,0,P|293:269|215:281,2,144,0|0|0,0:0|0:0|0:0,0:0:0:0:
208,356,187297,6,0,L|68:352,1,135,4|0,1:2|0:0,0:0:0:0:
28,352,187656,1,8,0:0:0:0:
24,236,187836,1,0,1:0:0:0:
204,240,188016,2,0,L|64:236,1,135,4|0,1:2|0:0,0:0:0:0:
24,236,188375,1,8,0:0:0:0:
20,120,188555,1,0,1:0:0:0:
200,124,188734,5,4,1:2:0:0:
200,124,188914,2,0,L|204:52,1,72,0|0,0:0|0:0,0:0:0:0:
304,92,189273,2,0,L|308:120,3,24,0|0|0|0,0:0|0:0|0:0|0:0,0:0:0:0:
304,92,189812,2,0,L|293:216,1,108,0|0,0:0|0:0,0:0:0:0:
284,284,190171,6,0,L|360:280,2,72,4|0|0,1:2|0:0|0:0,0:0:0:0:
208,244,190710,1,0,1:0:0:0:
144,304,190890,2,0,L|68:300,2,72,8|0|0,0:0|0:0|0:0,0:0:0:0:
208,244,191429,1,0,1:0:0:0:
284,284,191608,6,0,P|288:320|284:360,1,72,0|0,0:0|0:0,0:0:0:0:
208,244,191968,2,0,P|204:208|208:168,1,72,0|0,1:0|0:0,0:0:0:0:
236,92,192327,1,8,0:0:0:0:
236,92,192686,2,0,L|308:88,1,72,0|0,0:0|0:0,0:0:0:0:
207,172,193045,6,0,L|97:165,1,108,0|0,1:0|0:0,0:0:0:0:
56,164,193405,1,0,0:0:0:0:
48,248,193584,1,0,1:0:0:0:
64,332,193764,2,0,P|116:340|172:332,1,108,8|0,0:0|0:0,0:0:0:0:
208,312,194123,2,0,P|260:304|316:312,1,108,0|0,0:0|0:0,0:0:0:0:
352,332,194483,6,0,P|404:340|460:332,1,108,0|0,1:0|0:0,0:0:0:0:
496,312,194842,1,0,1:0:0:0:
492,224,195022,1,0,0:0:0:0:
452,148,195201,2,0,P|400:140|344:148,1,108,8|0,0:0|0:0,0:0:0:0:
308,168,195560,2,0,P|256:176|200:168,1,108,0|0,0:0|0:0,0:0:0:0:
164,148,195920,6,0,L|160:76,2,72,4|0|0,1:2|0:0|0:0,0:0:0:0:
88,188,196459,1,0,1:0:0:0:
20,136,196638,2,0,L|16:64,2,72,8|0|0,0:0|0:0|0:0,0:0:0:0:
88,188,197177,1,0,1:0:0:0:
164,148,197357,6,0,P|200:140|236:144,1,72,0|0,0:0|0:0,0:0:0:0:
216,248,197716,2,0,P|180:256|144:252,1,72,0|0,1:0|0:0,0:0:0:0:
88,188,198075,1,8,0:0:0:0:
88,188,198435,2,0,L|84:100,1,72,0|0,0:0|0:0,0:0:0:0:
157,4,198794,6,0,L|164:148,1,144,0|0,1:0|0:0,0:0:0:0:
216,248,199333,1,0,1:0:0:0:
216,248,199423,1,0,0:0:0:0:
216,248,199513,2,0,L|296:244,1,72,8|0,0:0|0:0,0:0:0:0:
360,292,199872,2,0,L|440:288,1,72,0|0,0:0|0:0,0:0:0:0:
504,336,200231,5,2,0:0:0:0:
496,204,200411,1,2,0:0:0:0:
360,292,200590,1,2,0:0:0:0:
352,160,200770,1,2,0:0:0:0:
216,248,200950,1,2,0:0:0:0:
216,248,201309,5,8,0:0:0:0:
180,244,201399,1,8,0:0:0:0:
144,240,201489,1,8,0:0:0:0:
108,236,201578,1,8,0:0:0:0:
72,232,201668,5,4,1:2:0:0:
132,332,201848,1,0,0:0:0:0:
216,248,202028,2,0,P|224:201|224:152,1,90,8|0,1:2|0:0,0:0:0:0:
151,6,202387,1,0,1:0:0:0:
51,66,202567,1,0,0:0:0:0:
135,150,202746,2,0,P|182:158|231:158,1,90,8|0,1:2|0:0,0:0:0:0:
429,127,203105,6,0,P|384:128|340:136,1,90,0|0,1:0|0:0,0:0:0:0:
300,248,203465,1,8,1:2:0:0:
224,158,203644,1,0,0:0:0:0:
164,260,203824,2,0,L|160:352,1,90,0|0,1:0|0:0,0:0:0:0:
300,248,204183,1,8,1:2:0:0:
224,158,204363,1,0,1:0:0:0:
112,184,204542,6,0,P|68:188|16:180,1,90,0|0,1:0|0:0,0:0:0:0:
48,32,204902,2,0,P|92:28|144:36,1,90,8|0,1:2|0:0,0:0:0:0:
224,158,205261,2,0,L|232:306,1,135,0|0,1:0|0:0,0:0:0:0:
232,336,205620,2,0,L|328:332,1,90,8|0,1:2|0:0,0:0:0:0:
489,240,205980,6,0,P|447:259|401:259,1,90,0|0,1:0|0:0,0:0:0:0:
312,180,206339,2,0,P|305:133|316:89,1,90,8|0,1:2|0:0,0:0:0:0:
424,140,206698,1,8,1:2:0:0:
424,140,206788,1,8,0:0:0:0:
424,140,206878,1,8,0:0:0:0:
312,180,207057,1,0,1:0:0:0:
200,144,207237,5,8,1:2:0:0:
200,144,207327,1,8,0:0:0:0:
200,144,207417,2,0,P|156:138|104:140,1,90,4|0,1:2|0:0,0:0:0:0:
60,296,207776,2,0,P|103:301|156:300,1,90,8|0,1:2|0:0,0:0:0:0:
200,144,208135,2,0,L|204:48,1,90,0|0,1:0|0:0,0:0:0:0:
312,180,208495,2,0,L|315:269,1,90,8|0,1:2|0:0,0:0:0:0:
424,144,208854,5,0,1:0:0:0:
432,28,209034,1,0,0:0:0:0:
304,64,209213,1,8,1:2:0:0:
312,180,209393,1,0,0:0:0:0:
184,144,209572,2,0,P|138:136|96:144,1,90,0|0,1:0|0:0,0:0:0:0:
12,228,209932,1,8,1:2:0:0:
20,344,210111,1,0,1:0:0:0:
120,284,210291,6,0,P|188:272|260:280,1,135,0|0,1:0|0:0,0:0:0:0:
292,300,210650,6,0,L|432:296,1,107.999996704102,12|0,1:2|0:0,0:0:0:0:
484,164,211010,6,0,P|416:152|344:160,1,135,0|0,1:0|0:0,0:0:0:0:
312,180,211369,6,0,L|172:176,1,107.999996704102,12|0,1:2|0:0,0:0:0:0:
48,172,211728,6,0,L|52:264,1,90,4|0,1:2|0:0,0:0:0:0:
204,176,212087,2,0,L|200:86,1,90,4|0,1:2|0:0,0:0:0:0:
40,32,212447,1,12,1:2:0:0:
42,67,212536,1,8,0:0:0:0:
44,102,212626,1,8,0:0:0:0:
46,137,212716,1,8,0:0:0:0:
48,172,212806,2,0,L|98:167,1,45,12|8,1:2|0:0,0:0:0:0:
204,176,212986,2,0,L|254:171,1,45,8|8,0:0|0:0,0:0:0:0:
360,180,213165,5,0,0:0:0:0:
360,180,213345,1,0,0:0:0:0:
360,180,213525,2,0,B|366:234|366:234|364:292,1,107.999996704102,4|0,1:2|0:0,0:0:0:0:
144,336,213884,5,0,0:0:0:0:
144,336,214064,1,0,0:0:0:0:
144,336,214244,2,0,B|137:281|137:281|140:224,1,107.999996704102,4|0,1:2|0:0,0:0:0:0:
316,88,214602,5,8,0:0:0:0:
351,80,214692,1,8,0:0:0:0:
386,84,214782,1,8,0:0:0:0:
418,99,214872,1,8,0:0:0:0:
442,125,214962,2,0,L|448:173,1,45,8|8,0:0|0:0,0:0:0:0:
448,248,215141,2,0,L|454:296,1,45,8|8,0:0|0:0,0:0:0:0:
454,371,215321,1,8,0:0:0:0:
372,288,215501,1,0,1:0:0:0:
268,340,215680,6,0,L|100:336,1,161.999995056153,4|0,1:2|0:0,0:0:0:0:
32,280,216039,6,0,P|16:332|24:384,1,90,4|0,1:2|0:0,0:0:0:0:
116,248,216399,2,0,P|117:203|102:161,1,90,8|0,1:2|0:0,0:0:0:0:
24,32,216758,2,0,L|160:24,1,135,0|0,1:2|0:0,0:0:0:0:
192,52,217117,2,0,L|288:46,1,90,8|0,1:2|0:0,0:0:0:0:
400,40,217477,6,0,P|407:85|408:136,1,90,0|0,1:0|0:0,0:0:0:0:
256,244,217836,2,0,P|248:198|248:148,1,90,8|0,1:2|0:0,0:0:0:0:
281,46,218195,1,0,1:0:0:0:
328,152,218375,1,8,0:0:0:0:
160,192,218554,1,0,1:0:0:0:
177,77,218734,5,8,0:0:0:0:
177,77,218824,1,8,0:0:0:0:
177,77,218914,2,0,L|80:72,1,90,4|0,1:2|0:0,0:0:0:0:
0,204,219273,2,0,L|89:199,1,90,8|0,1:2|0:0,0:0:0:0:
256,256,219632,2,0,P|264:300|256:348,1,90,0|0,1:2|0:0,0:0:0:0:
144,304,219992,1,8,1:2:0:0:
160,192,220171,1,0,0:0:0:0:
256,256,220351,5,0,1:0:0:0:
144,304,220531,1,0,0:0:0:0:
140,76,220710,1,8,1:2:0:0:
252,124,220890,1,0,0:0:0:0:
160,192,221069,1,0,1:0:0:0:
44,188,221249,1,8,0:0:0:0:
144,304,221429,1,0,1:0:0:0:
256,256,221608,5,8,0:0:0:0:
256,256,221698,1,8,0:0:0:0:
256,256,221788,2,0,P|320:244|400:256,1,135,4|0,1:2|0:0,0:0:0:0:
428,276,222147,6,0,L|420:168,1,107.999996704102,12|0,1:2|0:0,0:0:0:0:
308,108,222507,6,0,P|244:96|164:108,1,135,4|0,1:2|0:0,0:0:0:0:
136,128,222866,6,0,L|144:20,1,107.999996704102,12|0,1:2|0:0,0:0:0:0:
24,108,223225,5,8,1:2:0:0:
28,144,223315,1,8,0:0:0:0:
32,180,223405,1,8,0:0:0:0:
36,216,223495,1,8,0:0:0:0:
40,252,223584,2,0,L|36:304,3,45,8|8|8|8,1:2|0:0|0:0|0:0,0:0:0:0:
120,248,223944,5,8,1:2:0:0:
152,236,224033,1,8,0:0:0:0:
188,232,224123,1,8,0:0:0:0:
224,236,224213,1,8,0:0:0:0:
256,248,224303,2,0,L|264:308,3,45,0|8|8|8,1:2|0:0|0:2|0:0,0:0:0:0:
332,357,224662,6,0,P|352:315|354:273,1,90,4|0,1:2|0:0,0:0:0:0:
188,232,225022,2,0,P|169:274|171:320,1,90,8|0,1:2|0:0,0:0:0:0:
280,160,225381,2,0,L|136:148,1,135,2|0,1:2|0:0,0:0:0:0:
100,144,225740,2,0,P|92:100|96:48,1,90,8|0,1:2|0:0,0:0:0:0:
228,16,226099,6,0,L|372:28,1,135,2|0,1:2|0:0,0:0:0:0:
408,32,226458,2,0,P|416:76|412:128,1,90,8|0,1:2|0:0,0:0:0:0:
280,160,226818,1,2,1:2:0:0:
460,228,226998,1,2,0:0:0:0:
280,160,227177,2,0,L|184:164,1,90,10|0,1:2|0:0,0:0:0:0:
72,168,227536,6,0,P|64:124|64:76,1,90,0|0,1:0|0:0,0:0:0:0:
190,163,227896,2,0,P|198:207|198:255,1,90,8|0,1:2|0:0,0:0:0:0:
63,78,228255,2,0,P|88:41|122:7,1,90,0|0,1:0|0:0,0:0:0:0:
198,252,228614,2,0,P|172:288|138:322,1,90,8|0,1:2|0:0,0:0:0:0:
72,168,228974,5,0,1:0:0:0:
190,163,229153,1,0,0:0:0:0:
316,257,229333,1,8,1:2:0:0:
198,252,229512,1,0,0:0:0:0:
388,184,229692,2,0,L|391:273,1,90,0|8,1:0|0:0,0:0:0:0:
464,368,230051,1,0,1:0:0:0:
500,256,230231,5,8,0:0:0:0:
500,256,230321,1,8,0:0:0:0:
500,256,230411,2,0,L|504:164,1,90,4|0,1:2|0:0,0:0:0:0:
391,6,230770,2,0,L|388:96,1,90,8|0,1:2|0:0,0:0:0:0:
272,160,231129,2,0,P|212:176|136:160,1,135,2|0,1:2|0:0,0:0:0:0:
100,144,231489,2,0,P|92:100|96:56,1,90,8|0,1:2|0:0,0:0:0:0:
272,160,231848,6,0,P|288:220|272:296,1,135,2|0,1:2|0:0,0:0:0:0:
256,332,232208,2,0,P|212:340|168:336,1,90,8|0,1:2|0:0,0:0:0:0:
272,160,232566,1,2,1:2:0:0:
344,340,232746,1,2,0:0:0:0:
272,160,232926,2,0,L|276:68,1,90,10|0,1:2|0:0,0:0:0:0:
396,28,233285,6,0,P|404:72|392:117,1,90,0|0,1:0|0:0,0:0:0:0:
269,247,233644,2,0,P|261:203|272:160,1,90,8|0,1:2|0:0,0:0:0:0:
429,204,234004,2,0,L|340:208,1,90,0|0,1:0|0:0,0:0:0:0:
176,324,234363,2,0,L|265:327,1,90,8|0,1:2|0:0,0:0:0:0:
429,204,234722,5,8,1:2:0:0:
429,204,234812,1,8,0:0:0:0:
429,204,234902,1,8,0:0:0:0:
380,308,235081,1,8,1:2:0:0:
276,252,235261,1,8,0:2:0:0:
276,252,235351,1,8,0:0:0:0:
276,252,235441,2,0,L|224:248,3,45,8|8|8|8,1:2|0:0|0:0|0:0,0:0:0:0:
152,256,235800,2,0,L|100:252,3,45,8|8|8|8,1:2|0:0|0:0|0:0,0:0:0:0:
28,260,236159,5,4,1:2:0:0:
44,144,236339,1,0,0:0:0:0:
44,144,236429,1,0,0:0:0:0:
44,144,236519,1,0,1:0:0:0:
156,172,236698,1,0,0:0:0:0:
260,116,236878,2,0,P|264:72|260:24,1,90,0|0,1:0|0:0,0:0:0:0:
156,172,237237,2,0,P|152:216|156:264,1,90,0|0,1:0|0:0,0:0:0:0:
212,368,237596,5,4,1:2:0:0:
316,284,237776,1,0,0:0:0:0:
316,284,237866,1,0,0:0:0:0:
316,284,237956,1,0,1:0:0:0:
428,356,238135,1,0,0:0:0:0:
504,244,238315,2,0,P|512:200|508:152,1,90,0|0,1:0|0:0,0:0:0:0:
360,32,238674,2,0,P|352:76|356:124,1,90,0|0,1:0|0:0,0:0:0:0:
380,252,239033,5,2,1:2:0:0:
232,148,239213,1,2,0:0:0:0:
232,148,239303,1,2,0:0:0:0:
232,148,239393,1,2,1:2:0:0:
216,328,239572,1,0,0:0:0:0:
116,180,239752,2,0,P|72:172|24:176,1,90,2|2,1:2|0:0,0:0:0:0:
232,148,240111,2,0,P|260:113|281:70,1,90,2|2,1:2|0:0,0:0:0:0:
216,328,240471,5,2,1:2:0:0:
216,328,240830,2,0,L|76:332,1,135,4|0,1:2|0:0,0:0:0:0:
0,296,241189,5,4,1:2:0:0:
