osu file format v14

[General]
AudioFilename: audio.mp3
AudioLeadIn: 0
PreviewTime: 49333
Countdown: 0
SampleSet: Soft
StackLeniency: 0.3
Mode: 0
LetterboxInBreaks: 0
WidescreenStoryboard: 0

[Editor]
Bookmarks: 471,11968,23465,34962,46459,49333,60830,72327,83824,95321,101069,106818,121189,126938,138435,149932,161429,172926,184423,190171,201668,213165,216039,224662,236159,241189
DistanceSpacing: 1.1
BeatDivisor: 4
GridSize: 4
TimelineZoom: 0.9999996

[Metadata]
Title:Halloween of the Dead
TitleUnicode:Halloween of the Dead
Artist:Hatsuki Yura
ArtistUnicode:葉月ゆら
Creator:Gamu
Version:Easy
Source:
Tags:Drop 清風明月 SeifuuMeigetsu Seifuu Meigetsu Japanese Pop Dark Gothic Marchen
BeatmapID:2183041
BeatmapSetID:1041518

[Difficulty]
HPDrainRate:2
CircleSize:3
OverallDifficulty:2
ApproachRate:3
SliderMultiplier:0.9
SliderTickRate:1

[Events]
//Background and Video events
0,0,"bg.jpg",0,0
//Break Periods
2,96958,99629
2,190371,200228
//Storyboard Layer 0 (Background)
//Storyboard Layer 1 (Fail)
//Storyboard Layer 2 (Pass)
//Storyboard Layer 3 (Foreground)
//Storyboard Layer 4 (Overlay)
//Storyboard Sound Samples

[TimingPoints]
471,359.281437125748,4,2,1,60,1,0
650,-100,4,2,1,40,0,0
10531,-100,4,2,1,60,0,0
10890,-100,4,2,1,40,0,0
11608,-100,4,2,1,60,0,0
23465,-100,4,2,1,50,0,0
37836,-100,4,2,1,60,0,0
40710,-100,4,2,1,50,0,0
43584,-100,4,2,1,60,0,0
49333,-100,4,2,1,70,0,1
72327,-100,4,2,1,50,0,0
83824,-100,4,2,1,60,0,0
96758,-100,4,2,1,5,0,0
101069,-100,4,2,1,50,0,0
115441,-100,4,2,1,60,0,0
118315,-100,4,2,1,50,0,0
121189,-100,4,2,1,60,0,0
126938,-100,4,2,1,70,0,1
149932,-100,4,2,1,40,0,0
161429,-100,4,2,1,60,0,0
172926,-100,4,2,1,50,0,0
175800,-100,4,2,1,60,0,0
178674,-100,4,2,1,50,0,0
181548,-100,4,2,1,60,0,0
184423,-100,4,2,1,50,0,0
187297,-100,4,2,1,60,0,0
190171,-100,4,2,1,50,0,0
201668,-100,4,2,1,70,0,1
213165,-100,4,2,1,50,0,0
213525,-100,4,2,1,70,0,0
214602,-100,4,2,1,30,0,0
214962,-100,4,2,1,50,0,0
215321,-100,4,2,1,70,0,0
216039,-100,4,2,1,70,0,1
224662,-100,4,2,1,60,0,0
236159,-100,4,2,1,40,0,0
237596,-100,4,2,1,50,0,0
239033,-100,4,2,1,60,0,0
241189,-100,4,2,1,70,0,0

[Colours]
Combo1 : 255,176,138
Combo2 : 108,255,146
Combo3 : 255,255,166
Combo4 : 132,255,255

[HitObjects]
72,36,471,6,0,L|168:32,1,90,6|2,1:2|0:0,0:0:0:0:
236,100,1189,2,0,L|332:96,1,90,10|2,0:0|0:0,0:0:0:0:
412,144,1908,2,0,P|421:100|413:56,2,90,2|2|10,1:2|1:2|1:2,0:0:0:0:
440,348,3345,6,0,L|344:352,1,90,2|2,1:2|0:0,0:0:0:0:
276,284,4063,2,0,L|180:288,1,90,10|2,0:0|0:0,0:0:0:0:
100,240,4782,2,0,P|90:283|98:327,2,90,2|2|10,1:2|1:2|1:2,0:0:0:0:
256,120,6219,6,0,L|360:116,1,90,6|2,1:2|1:2,0:0:0:0:
372,212,6938,2,0,L|282:215,1,90,10|2,1:2|1:2,0:0:0:0:
184,220,7656,2,0,P|197:264|226:297,2,90,2|2|10,1:2|1:2|1:2,0:0:0:0:
228,132,8734,1,0,1:0:0:0:
180,44,9093,6,0,L|80:40,1,90,2|2,1:2|1:2,0:0:0:0:
40,128,9812,2,0,L|129:131,1,90,10|2,1:2|1:2,0:0:0:0:
228,132,10531,2,0,P|264:100|279:56,2,90,14|2|2,1:2|0:0|0:0,0:0:0:0:
176,216,11608,1,8,0:0:0:0:
224,304,11968,6,0,L|328:300,1,90,4|8,1:2|1:2,0:0:0:0:
400,352,12686,2,0,P|412:316|409:263,1,90,2|8,1:2|1:2,0:0:0:0:
364,176,13405,2,0,P|352:140|355:87,1,90,2|8,1:2|1:2,0:0:0:0:
428,20,14123,1,2,1:2:0:0:
452,120,14483,1,10,1:2:0:0:
364,176,14842,6,0,L|260:172,1,90,0|8,1:0|1:2,0:0:0:0:
188,224,15560,2,0,L|84:220,1,90,0|8,1:0|1:2,0:0:0:0:
12,272,16279,1,0,1:0:0:0:
4,172,16638,1,8,1:2:0:0:
12,72,16998,2,0,P|64:92|96:128,1,90,0|8,1:0|1:2,0:0:0:0:
120,208,17716,6,0,L|124:312,1,90,4|8,1:2|1:2,0:0:0:0:
204,352,18435,2,0,P|248:356|296:348,1,90,2|8,1:2|1:2,0:0:0:0:
380,300,19153,2,0,P|424:296|472:304,1,90,2|8,1:2|1:2,0:0:0:0:
500,208,19872,1,2,1:2:0:0:
492,108,20231,1,10,1:2:0:0:
412,164,20590,6,0,L|308:160,1,90,0|8,1:0|1:2,0:0:0:0:
240,104,21309,2,0,L|150:100,1,90,0|8,1:0|1:2,0:0:0:0:
64,148,22028,2,0,P|52:192|56:240,1,90,0|8,1:0|1:2,0:0:0:0:
140,288,22746,2,0,P|152:244|148:196,1,90,8|8,1:2|1:2,0:0:0:0:
64,148,23465,6,0,L|68:52,1,90,4|0,1:2|1:0,0:0:0:0:
160,24,24183,2,0,L|156:113,1,90,0|0,1:0|1:0,0:0:0:0:
152,212,24902,2,0,P|196:216|248:208,1,90,2|2,1:2|1:2,0:0:0:0:
332,172,25620,2,0,P|376:168|428:176,1,90,2|2,1:2|1:2,0:0:0:0:
500,236,26339,6,0,L|496:328,1,90,2|2,1:2|1:2,0:0:0:0:
400,344,27057,2,0,L|403:254,1,90,2|2,1:2|1:2,0:0:0:0:
306,272,27776,2,0,L|303:362,2,90,2|0|2,1:2|1:0|1:2,0:0:0:0:
256,188,28854,1,2,1:2:0:0:
172,244,29213,6,0,P|128:252|80:248,1,90,0|0,1:0|1:0,0:0:0:0:
40,160,29932,2,0,P|32:116|36:68,1,90,0|0,1:0|1:0,0:0:0:0:
128,36,30650,2,0,L|224:32,1,90,2|2,1:2|1:2,0:0:0:0:
288,104,31369,2,0,L|384:100,1,90,2|2,1:2|1:2,0:0:0:0:
456,164,32087,6,0,P|461:209|460:264,1,90,2|12,1:2|1:2,0:0:0:0:
368,284,32806,2,0,P|362:238|364:184,1,90,2|12,1:2|1:2,0:0:0:0:
377,100,33525,1,0,1:0:0:0:
300,40,33884,1,0,1:0:0:0:
220,96,34243,2,0,P|176:104|120:100,1,90,0|0,1:0|1:0,0:0:0:0:
36,80,34962,6,0,L|32:172,1,90,4|0,1:2|0:0,0:0:0:0:
28,268,35680,2,0,P|72:272|120:264,1,90,10|2,0:0|0:0,0:0:0:0:
212,236,36399,2,0,L|208:325,2,90,2|2|10,1:2|0:0|0:0,0:0:0:0:
216,136,37477,1,2,0:0:0:0:
124,104,37836,6,0,P|148:68|192:40,1,90,4|8,1:2|1:2,0:0:0:0:
284,64,38554,2,0,P|328:68|376:60,1,90,0|8,1:0|1:2,0:0:0:0:
468,28,39273,2,0,L|476:120,1,90,0|8,1:0|1:2,0:0:0:0:
456,216,39992,2,0,L|464:308,1,90,10|10,1:2|1:2,0:0:0:0:
368,336,40710,6,0,L|360:246,1,90,6|0,1:2|0:0,0:0:0:0:
300,168,41429,2,0,P|254:160|208:164,1,90,8|0,0:0|0:0,0:0:0:0:
136,228,42147,2,0,L|132:320,2,90,2|2|10,1:2|0:0|0:0,0:0:0:0:
88,140,43225,1,2,0:0:0:0:
144,60,43584,6,0,L|248:56,1,90,4|8,1:2|1:2,0:0:0:0:
276,148,44303,2,0,L|186:151,1,90,0|8,1:0|1:2,0:0:0:0:
132,232,45022,2,0,P|130:279|136:324,1,90,0|8,1:0|1:2,0:0:0:0:
228,288,45740,2,0,P|275:286|320:292,1,90,0|8,1:0|1:2,0:0:0:0:
408,336,46459,6,0,P|408:248|336:192,2,180,0|0|4,1:0|1:0|1:2,0:0:0:0:
12,312,49333,6,0,P|7:268|8:220,1,90,4|8,1:2|1:2,0:0:0:0:
52,132,50051,2,0,P|79:97|114:64,1,90,0|8,1:0|1:2,0:0:0:0:
208,32,50770,2,0,L|304:28,2,90,0|8|0,1:0|1:2|1:0,0:0:0:0:
188,128,51848,1,8,1:2:0:0:
112,65,52207,6,0,P|93:103|92:152,1,90,0|8,1:0|1:2,0:0:0:0:
160,224,52926,2,0,P|208:228|248:208,1,90,0|8,1:0|1:2,0:0:0:0:
288,120,53644,2,0,L|292:20,1,90,0|8,1:0|1:2,0:0:0:0:
384,68,54363,2,0,L|380:157,1,90,0|0,1:0|1:0,0:0:0:0:
408,252,55081,6,0,L|500:248,1,90,4|8,1:2|1:2,0:0:0:0:
472,344,55800,2,0,L|382:347,1,90,0|8,1:0|1:2,0:0:0:0:
292,312,56519,2,0,L|288:220,2,90,0|8|0,1:0|1:2|1:0,0:0:0:0:
200,348,57596,1,8,1:2:0:0:
124,280,57956,6,0,P|80:275|32:280,1,90,0|12,1:0|1:2,0:0:0:0:
72,188,58674,2,0,P|76:144|72:96,1,90,0|12,1:0|1:2,0:0:0:0:
144,32,59393,1,4,1:2:0:0:
228,84,59752,1,4,1:2:0:0:
320,52,60111,2,0,P|364:48|416:52,1,90,12|12,1:2|1:2,0:0:0:0:
492,108,60830,6,0,L|500:200,1,90,4|8,1:2|1:2,0:0:0:0:
412,244,61548,2,0,L|404:154,1,90,0|8,1:0|1:2,0:0:0:0:
328,92,62267,2,0,P|363:64|412:56,2,90,0|8|0,1:0|1:2|1:0,0:0:0:0:
284,180,63345,1,8,1:2:0:0:
228,96,63704,6,0,P|188:84|136:88,1,90,0|8,1:0|1:2,0:0:0:0:
52,136,64423,2,0,P|40:176|44:228,1,90,0|8,1:0|1:2,0:0:0:0:
76,316,65141,1,0,1:0:0:0:
172,288,65501,1,8,1:2:0:0:
256,344,65860,2,0,L|352:340,1,90,0|0,1:0|1:0,0:0:0:0:
444,332,66578,6,0,P|451:284|448:240,1,90,4|8,1:2|1:2,0:0:0:0:
352,220,67297,2,0,P|345:172|348:128,1,90,0|8,1:0|1:2,0:0:0:0:
380,36,68016,2,0,L|480:32,2,90,0|8|0,1:0|1:2|1:0,0:0:0:0:
284,56,69093,1,8,1:2:0:0:
184,44,69453,6,0,P|139:39|88:40,1,90,0|12,1:0|1:2,0:0:0:0:
84,136,70171,2,0,P|128:140|180:140,1,90,0|12,1:0|1:2,0:0:0:0:
264,104,70890,1,4,1:2:0:0:
272,204,71249,1,12,1:2:0:0:
280,304,71608,2,0,L|376:300,1,90,12|12,1:2|1:2,0:0:0:0:
452,352,72327,6,0,P|461:270|395:205,1,180,4|8,1:2|0:0,0:0:0:0:
204,260,73764,2,0,P|140:200|148:113,1,180,0|8,1:0|0:0,0:0:0:0:
332,36,75201,6,0,L|512:40,1,180,4|8,1:2|0:0,0:0:0:0:
476,236,76638,2,0,L|296:232,1,180,4|8,1:2|0:0,0:0:0:0:
128,340,78075,6,0,P|81:301|107:190,1,180,4|8,1:2|0:0,0:0:0:0:
296,232,79513,2,0,P|343:193|317:82,1,180,0|8,1:0|0:0,0:0:0:0:
128,44,80950,6,0,L|136:228,1,180,4|8,1:2|0:0,0:0:0:0:
292,348,82387,2,0,L|299:168,1,180,4|8,1:2|0:0,0:0:0:0:
308,68,83465,1,8,0:0:0:0:
388,128,83824,6,0,L|484:124,1,90,4|8,1:2|1:2,0:0:0:0:
496,220,84542,2,0,L|406:223,1,90,0|8,1:0|1:2,0:0:0:0:
308,232,85261,2,0,L|304:332,2,90,0|8|0,1:0|1:2|1:0,0:0:0:0:
248,156,86339,1,8,1:2:0:0:
160,200,86698,6,0,P|116:208|72:200,1,90,4|8,1:2|1:2,0:0:0:0:
76,100,87417,2,0,P|120:92|164:100,1,90,0|8,1:0|1:2,0:0:0:0:
248,156,88135,2,0,L|252:252,2,90,0|8|0,1:0|1:2|1:0,0:0:0:0:
280,60,89213,1,0,1:0:0:0:
360,120,89572,6,0,L|452:116,1,90,4|8,1:2|1:2,0:0:0:0:
472,212,90291,2,0,L|382:215,1,90,0|8,1:0|1:2,0:0:0:0:
292,256,91010,2,0,L|288:352,1,90,4|8,1:2|1:2,0:0:0:0:
192,320,91728,2,0,L|195:230,1,90,4|8,1:2|1:2,0:0:0:0:
140,148,92447,6,0,L|44:144,2,90,0|8|0,1:0|1:2|1:0,0:0:0:0:
208,76,93525,1,8,1:2:0:0:
288,132,93884,2,0,P|332:136|384:128,1,90,0|8,1:0|1:2,0:0:0:0:
464,80,94602,2,0,L|472:176,1,90,8|8,1:2|1:2,0:0:0:0:
256,192,95321,12,4,96758,1:2:0:0:
480,268,101069,6,0,P|436:261|380:264,1,90,4|8,1:2|1:2,0:0:0:0:
296,296,101788,2,0,P|252:303|196:300,1,90,0|8,1:0|1:2,0:0:0:0:
108,292,102507,2,0,L|100:192,1,90,2|10,1:2|1:2,0:0:0:0:
20,144,103225,2,0,P|56:112|104:104,1,90,2|10,1:2|1:2,0:0:0:0:
184,148,103944,6,0,P|220:180|268:188,1,90,2|10,1:2|1:2,0:0:0:0:
356,164,104662,2,0,P|398:159|452:164,1,90,2|10,1:2|1:2,0:0:0:0:
480,256,105381,2,0,L|476:352,1,90,2|8,1:2|1:2,0:0:0:0:
380,320,106099,1,2,1:2:0:0:
288,352,106459,1,10,1:2:0:0:
192,328,106818,6,0,P|184:284|188:232,1,90,0|8,1:0|1:2,0:0:0:0:
220,144,107536,2,0,P|228:100|224:48,1,90,0|8,1:0|1:2,0:0:0:0:
136,96,108255,2,0,L|40:92,2,90,2|10|2,1:2|1:2|1:2,0:0:0:0:
225,55,109333,1,10,1:2:0:0:
320,88,109692,6,0,L|416:84,1,90,0|12,1:0|1:2,0:0:0:0:
440,180,110411,2,0,L|350:183,1,90,0|12,1:0|1:2,0:0:0:0:
268,240,111129,2,0,P|312:276|344:284,2,90,0|8|0,1:0|1:2|1:0,0:0:0:0:
236,144,112207,1,8,1:2:0:0:
152,196,112566,6,0,L|52:192,1,90,4|0,1:2|0:0,0:0:0:0:
32,288,113285,2,0,L|121:291,1,90,8|2,0:0|0:0,0:0:0:0:
212,332,114004,2,0,L|301:335,2,90,2|2|10,1:2|0:0|0:0,0:0:0:0:
121,291,115081,1,2,0:0:0:0:
64,208,115441,6,0,P|60:164|68:116,1,90,4|8,1:2|1:2,0:0:0:0:
120,36,116159,2,0,P|164:28|212:32,1,90,0|8,1:0|1:2,0:0:0:0:
296,76,116878,2,0,P|340:84|388:80,1,90,0|8,1:0|1:2,0:0:0:0:
480,48,117596,2,0,L|488:144,1,90,10|10,1:2|1:2,0:0:0:0:
472,236,118315,6,0,L|480:332,2,90,6|0|8,1:2|0:0|0:0,0:0:0:0:
384,192,119393,1,0,0:0:0:0:
308,252,119752,2,0,L|316:348,2,90,2|2|10,1:2|0:0|0:0,0:0:0:0:
220,208,120830,1,2,0:0:0:0:
132,248,121189,6,0,P|88:256|40:248,1,90,4|8,1:2|1:2,0:0:0:0:
44,148,121908,2,0,P|88:140|136:148,1,90,0|8,1:0|1:2,0:0:0:0:
220,208,122626,2,0,L|220:304,2,90,0|8|0,1:0|1:2|1:0,0:0:0:0:
276,124,123704,1,8,1:2:0:0:
364,168,124063,6,0,P|368:92|293:26,2,180,0|0|0,1:0|1:0|1:0,0:0:0:0:
136,352,126938,6,0,P|92:356|44:348,1,90,4|8,1:2|1:2,0:0:0:0:
20,252,127656,2,0,P|16:208|24:160,1,90,0|8,1:2|1:2,0:0:0:0:
64,72,128375,2,0,L|156:64,2,90,0|8|0,1:0|1:2|1:0,0:0:0:0:
116,156,129453,1,8,1:2:0:0:
216,144,129812,6,0,P|244:112|256:64,1,90,0|8,1:0|1:2,0:0:0:0:
344,20,130531,2,0,L|352:120,1,90,0|8,1:0|1:2,0:0:0:0:
380,204,131249,2,0,L|387:293,1,90,0|8,1:0|1:2,0:0:0:0:
480,260,131968,2,0,L|472:170,1,90,0|0,1:0|1:0,0:0:0:0:
468,72,132686,6,0,P|424:66|372:68,1,90,4|8,1:2|1:2,0:0:0:0:
288,104,133405,2,0,P|244:109|192:108,1,90,0|8,1:0|1:2,0:0:0:0:
108,72,134123,2,0,L|104:172,2,90,0|8|0,1:0|1:2|1:0,0:0:0:0:
20,116,135201,1,8,1:2:0:0:
24,216,135560,6,0,P|56:248|104:260,1,90,0|12,1:0|1:2,0:0:0:0:
196,244,136279,2,0,P|239:237|288:244,1,90,0|12,1:0|1:2,0:0:0:0:
372,292,136998,1,4,1:2:0:0:
472,288,137357,1,12,1:2:0:0:
420,204,137716,2,0,P|412:160|416:108,1,90,12|12,1:2|1:2,0:0:0:0:
464,29,138435,6,0,P|420:18|368:25,1,90,4|8,1:2|1:2,0:0:0:0:
296,80,139153,2,0,P|285:124|292:176,1,90,0|8,1:2|1:2,0:0:0:0:
320,260,139872,2,0,L|412:256,2,90,0|8|0,1:0|1:2|1:0,0:0:0:0:
236,316,140950,1,8,1:2:0:0:
140,288,141309,6,0,P|132:244|136:192,1,90,0|8,1:0|1:2,0:0:0:0:
232,176,142028,2,0,P|240:132|236:80,1,90,0|8,1:0|1:2,0:0:0:0:
152,40,142746,2,0,L|56:40,2,90,0|8|0,1:0|1:2|1:0,0:0:0:0:
237,87,143824,1,0,1:0:0:0:
320,36,144183,6,0,P|364:32|412:36,1,90,4|8,1:2|1:2,0:0:0:0:
484,100,144902,2,0,P|488:144|484:192,1,90,0|8,1:0|1:2,0:0:0:0:
416,260,145620,2,0,P|412:304|416:352,2,90,0|8|0,1:0|1:2|1:0,0:0:0:0:
360,180,146698,1,8,1:2:0:0:
280,240,147057,6,0,P|235:243|190:239,1,90,0|12,1:0|1:2,0:0:0:0:
100,200,147776,2,0,L|92:108,1,90,0|12,1:0|1:2,0:0:0:0:
124,16,148495,1,4,1:2:0:0:
188,92,148854,1,12,1:2:0:0:
244,12,149213,2,0,P|288:20|328:40,1,90,12|12,1:2|1:2,0:0:0:0:
344,136,149932,6,0,L|444:132,1,90,6|2,1:2|0:0,0:0:0:0:
440,232,150650,2,0,L|350:235,1,90,2|2,1:2|0:0,0:0:0:0:
356,334,151369,2,0,L|446:331,2,90,2|2|2,1:2|1:2|1:2,0:0:0:0:
156,334,152806,6,0,L|66:331,1,90,2|2,1:2|0:0,0:0:0:0:
72,232,153524,2,0,L|162:235,1,90,2|2,1:2|0:0,0:0:0:0:
168,136,154243,2,0,L|78:132,2,90,2|2|2,1:2|1:2|1:2,0:0:0:0:
352,212,155680,6,0,P|394:204|444:208,1,90,6|2,1:2|0:0,0:0:0:0:
468,112,156399,2,0,P|439:79|418:34,1,90,10|2,1:2|0:0,0:0:0:0:
324,61,157117,2,0,P|309:101|281:142,2,90,2|2|10,1:2|1:2|1:2,0:0:0:0:
160,172,158554,6,0,P|117:180|68:176,1,90,2|2,1:2|0:0,0:0:0:0:
44,272,159273,2,0,P|72:304|93:349,1,90,10|2,1:2|0:0,0:0:0:0:
188,323,159991,2,0,P|202:282|230:241,2,90,2|2|2,0:0|0:0|0:0,0:0:0:0:
288,324,161069,1,0,1:0:0:0:
332,236,161429,6,0,P|336:192|328:144,1,90,4|8,1:2|1:2,0:0:0:0:
280,60,162147,2,0,P|236:56|188:60,1,90,0|8,1:0|1:2,0:0:0:0:
112,120,162866,2,0,P|68:124|20:120,1,90,0|8,1:0|1:2,0:0:0:0:
8,220,163584,2,0,P|52:216|100:220,1,90,0|8,1:0|1:2,0:0:0:0:
180,276,164303,5,4,1:2:0:0:
268,236,164662,2,0,L|272:136,2,90,8|0|8,1:2|1:0|1:2,0:0:0:0:
336,308,165740,2,0,L|432:312,1,90,0|8,1:0|1:2,0:0:0:0:
456,216,166459,2,0,L|366:212,1,90,0|0,1:0|1:0,0:0:0:0:
268,236,167177,6,0,P|224:240|178:232,1,90,4|8,1:2|1:2,0:0:0:0:
108,164,167896,2,0,P|104:120|111:74,1,90,0|8,1:0|1:2,0:0:0:0:
208,52,168614,2,0,P|212:96|204:141,1,90,0|8,1:0|1:2,0:0:0:0:
179,232,169333,2,0,L|184:328,1,90,0|8,1:0|1:2,0:0:0:0:
280,352,170051,5,4,1:2:0:0:
368,308,170411,2,0,P|413:302|460:304,2,90,8|0|8,1:2|1:2|1:2,0:0:0:0:
292,244,171489,2,0,P|246:249|200:248,1,90,4|12,1:2|1:2,0:0:0:0:
112,204,172207,2,0,P|106:158|108:112,1,90,12|12,1:2|1:2,0:0:0:0:
152,24,172926,6,0,L|336:20,1,180,4|8,1:2|0:0,0:0:0:0:
428,44,174004,1,0,0:0:0:0:
484,128,174363,2,0,L|304:131,1,180,4|8,1:2|0:0,0:0:0:0:
120,208,175800,6,0,P|112:252|116:304,1,90,4|8,1:2|1:2,0:0:0:0:
212,284,176519,2,0,P|220:240|216:188,1,90,0|8,1:0|1:2,0:0:0:0:
168,112,177237,2,0,L|72:108,1,90,0|8,1:0|1:2,0:0:0:0:
112,16,177956,2,0,L|201:19,1,90,0|0,1:0|1:0,0:0:0:0:
268,92,178674,6,0,P|260:160|167:214,1,180,4|8,1:2|0:0,0:0:0:0:
168,112,179752,1,0,0:0:0:0:
268,92,180111,2,0,P|336:100|392:192,1,180,4|8,1:2|0:0,0:0:0:0:
376,288,181189,1,0,1:0:0:0:
296,344,181548,6,0,L|192:340,1,90,4|8,1:2|1:2,0:0:0:0:
112,316,182267,2,0,L|8:312,1,90,2|8,1:2|1:2,0:0:0:0:
72,228,182986,2,0,L|176:224,1,90,8|8,1:2|1:2,0:0:0:0:
256,200,183705,2,0,L|360:196,1,90,8|8,1:2|1:2,0:0:0:0:
336,296,184423,6,0,P|445:196|301:106,1,360,4|0,1:2|0:0,0:0:0:0:
224,156,186219,2,0,L|219:245,2,90,0|0|0,0:0|0:0|0:0,0:0:0:0:
140,104,187297,2,0,L|130:289,2,180,4|4|4,1:2|1:2|1:2,0:0:0:0:
500,272,190171,5,4,1:2:0:0:
396,304,201668,6,0,P|413:265|412:216,1,90,4|8,1:2|1:2,0:0:0:0:
360,132,202387,2,0,L|268:128,1,90,0|8,1:0|1:2,0:0:0:0:
172,148,203105,2,0,L|80:144,2,90,0|8|0,1:0|1:2|1:0,0:0:0:0:
236,224,204183,1,8,1:2:0:0:
270,128,204542,6,0,L|266:36,1,90,0|8,1:0|1:2,0:0:0:0:
360,64,205261,2,0,L|363:153,1,90,0|8,1:0|1:2,0:0:0:0:
384,252,205980,2,0,P|428:260|480:256,1,90,0|8,1:0|1:2,0:0:0:0:
436,348,206698,2,0,P|392:340|340:344,1,90,8|0,1:2|1:0,0:0:0:0:
248,364,207417,6,0,L|152:360,1,90,4|8,1:2|1:2,0:0:0:0:
116,272,208135,2,0,L|205:275,1,90,0|8,1:0|1:2,0:0:0:0:
288,220,208854,2,0,L|292:128,2,90,0|8|0,1:0|1:2|1:0,0:0:0:0:
348,300,209932,1,8,1:2:0:0:
440,260,210291,6,0,P|448:216|444:168,1,90,0|12,1:0|1:2,0:0:0:0:
408,80,211010,2,0,P|364:72|316:76,1,90,0|12,1:0|1:2,0:0:0:0:
224,108,211728,1,4,1:2:0:0:
172,192,212087,1,4,1:2:0:0:
124,104,212447,2,0,L|120:14,2,90,12|12|0,1:2|1:2|0:0,0:0:0:0:
72,188,213525,5,4,1:2:0:0:
272,232,214244,1,4,1:2:0:0:
372,237,214602,2,0,L|464:241,2,90,8|8|8,0:0|0:0|0:0,0:0:0:0:
320,320,215680,1,4,1:2:0:0:
272,232,216039,6,0,P|268:188|272:140,1,90,4|8,1:2|1:2,0:0:0:0:
372,148,216758,2,0,P|376:192|372:240,1,90,0|8,1:2|1:2,0:0:0:0:
320,320,217477,2,0,L|224:316,1,90,0|8,1:0|1:2,0:0:0:0:
160,244,218195,2,0,L|64:240,1,90,0|0,1:0|1:0,0:0:0:0:
24,152,218914,6,0,P|16:108|20:60,1,90,4|8,1:2|1:2,0:0:0:0:
112,96,219632,2,0,P|156:104|204:100,1,90,0|8,1:2|1:2,0:0:0:0:
296,68,220351,2,0,P|340:60|388:64,2,90,0|8|0,1:0|1:2|1:0,0:0:0:0:
260,160,221429,1,0,1:0:0:0:
240,256,221788,6,0,L|244:352,1,90,4|12,1:2|1:2,0:0:0:0:
340,316,222507,2,0,L|336:226,1,90,4|12,1:2|1:2,0:0:0:0:
260,160,223225,2,0,P|216:154|168:156,1,90,8|8,1:2|1:2,0:0:0:0:
84,204,223944,2,0,P|78:248|80:296,1,90,8|0,1:2|1:2,0:0:0:0:
156,356,224662,6,0,P|204:360|260:352,1,90,4|8,1:2|1:2,0:0:0:0:
336,316,225381,2,0,P|384:312|440:320,1,90,2|8,1:2|1:2,0:0:0:0:
492,244,226099,2,0,P|496:196|488:140,1,90,2|8,1:2|1:2,0:0:0:0:
468,60,226818,1,2,1:2:0:0:
372,80,227177,1,10,1:2:0:0:
280,48,227536,6,0,L|176:44,1,90,0|8,1:0|1:2,0:0:0:0:
168,140,228255,2,0,L|257:143,1,90,0|8,1:0|1:2,0:0:0:0:
332,212,228974,2,0,P|376:220|424:216,2,90,0|8|0,1:0|1:2|1:0,0:0:0:0:
256,272,230051,1,0,1:0:0:0:
168,224,230411,6,0,P|124:216|76:220,1,90,4|8,1:2|1:2,0:0:0:0:
8,148,231129,2,0,L|12:56,1,90,2|8,1:2|1:2,0:0:0:0:
108,32,231848,2,0,L|104:121,1,90,2|8,1:2|1:2,0:0:0:0:
79,219,232566,1,2,1:2:0:0:
88,316,232926,1,10,1:2:0:0:
180,356,233285,6,0,L|276:352,1,90,0|8,1:0|1:2,0:0:0:0:
320,268,234004,2,0,L|412:264,1,90,0|8,1:0|1:2,0:0:0:0:
492,320,234722,2,0,P|504:272|500:224,1,90,8|8,1:2|1:2,0:0:0:0:
468,140,235441,2,0,P|456:92|460:44,1,90,8|8,1:2|1:2,0:0:0:0:
364,88,236159,6,0,L|268:84,1,90,4|0,1:2|1:0,0:0:0:0:
240,176,236878,2,0,L|329:179,1,90,0|0,1:0|1:0,0:0:0:0:
384,264,237596,2,0,P|388:312|384:360,1,90,4|0,1:2|1:0,0:0:0:0:
284,356,238315,2,0,P|280:308|284:260,1,90,0|0,1:0|1:0,0:0:0:0:
329,179,239033,6,0,P|331:134|328:89,1,90,2|2,1:2|1:2,0:0:0:0:
248,28,239752,2,0,P|203:25|158:28,2,90,2|2|2,1:2|1:2|1:2,0:0:0:0:
232,124,240830,2,0,P|187:127|142:124,1,90,4|4,1:2|1:2,0:0:0:0:
