osu file format v14

[General]
AudioFilename: A M D.mp3
AudioLeadIn: 0
PreviewTime: 64684
Countdown: 0
SampleSet: Soft
StackLeniency: 0.7
Mode: 3
LetterboxInBreaks: 0
SpecialStyle: 1
WidescreenStoryboard: 1

[Editor]
Bookmarks: 6697,13140,21194,34080,46966,85624,98510,111395,124281,137167,146832,170993,188711,219315
DistanceSpacing: 0.8
BeatDivisor: 4
GridSize: 32
TimelineZoom: 1.7

[Metadata]
Title:Guren Yasha
TitleUnicode:紅蓮夜叉
Artist:Hatsuki Yura
ArtistUnicode:葉月ゆら
Creator:A M D
Version:Poke's Insane
Source:
Tags:tech yasha drop japanese 妖華語り Ayakashibanagatari HATU-032 vocal famoss pokesky AMD rock jrock j-rock electronic pop
BeatmapID:2640990
BeatmapSetID:1008060

[Difficulty]
HPDrainRate:7.8
CircleSize:4
OverallDifficulty:7.8
ApproachRate:5
SliderMultiplier:1.4
SliderTickRate:1

[Events]
//Background and Video events
0,0,"A_M_Dyes.jpg",0,0
//Break Periods
//Storyboard Layer 0 (Background)
//Storyboard Layer 1 (Fail)
//Storyboard Layer 2 (Pass)
//Storyboard Layer 3 (Foreground)
//Storyboard Layer 4 (Overlay)
//Storyboard Sound Samples
Sample,56161,0,"LR_Chm J Whistle.wav",50
Sample,76362,0,"LR_J Hit Pong Drop.wav",50
Sample,91865,0,"LR_J Hit Pong Drop.wav",70
Sample,146362,0,"LR_Chm J Whistle.wav",50
Sample,166563,0,"LR_J Hit Pong Drop.wav",50
Sample,176228,0,"LR_J Hit Pong Drop.wav",50
Sample,176630,0,"LR_J Hit Pong Drop.wav",70
Sample,182671,0,"LR_J Hit Pong Drop.wav",50
Sample,213275,0,"LR_J Hit Pong Drop.wav",50

[TimingPoints]
255,402.684563758389,4,2,1,50,1,0
5087,-40.0,4,2,1,50,0,0
5187,-200.0,4,2,1,50,0,0
5489,-40.0,4,2,1,50,0,0
5589,-200.0,4,2,1,50,0,0
5892,-50.0,4,2,1,50,0,0
5992,-200.0,4,2,1,50,0,0
6194,-100.0,4,2,1,50,0,0
17973,-66.6666666666667,4,2,1,50,0,0
18024,-200.0,4,2,1,50,0,0
18074,-100.0,4,2,1,50,0,0
18275,-66.6666666666667,4,2,1,50,0,0
18326,-200.0,4,2,1,50,0,0
18376,-100.0,4,2,1,50,0,0
18577,-66.6666666666667,4,2,1,50,0,0
18628,-200.0,4,2,1,50,0,0
18678,-100.0,4,2,1,50,0,0
19583,-66.6666666666667,4,2,1,50,0,0
19684,-200.0,4,2,1,50,0,0
19785,-66.6666666666667,4,2,1,50,0,0
19886,-200.0,4,2,1,50,0,0
19986,-100.0,4,2,1,50,0,0
20087,-66.6666666666667,4,2,1,50,0,0
20188,-200.0,4,2,1,50,0,0
20288,-100.0,4,2,1,50,0,0
20389,-66.6666666666667,4,2,1,50,0,0
20490,-200.0,4,2,1,50,0,0
20590,-100.0,4,2,1,50,0,0
20791,-200.0,4,2,1,50,0,0
20992,-66.6666666666667,4,2,1,50,0,0
21194,-100.0,4,2,1,50,0,0
56630,-66.6666666666667,4,2,1,50,0,0
56681,-200.0,4,2,1,50,0,0
56731,-100.0,4,2,1,50,0,0
57436,-66.6666666666667,4,2,1,50,0,0
57487,-200.0,4,2,1,50,0,0
57537,-100.0,4,2,1,50,0,0
58241,-66.6666666666667,4,2,1,50,0,0
58292,-200.0,4,2,1,50,0,0
58342,-100.0,4,2,1,50,0,0
59046,-66.6666666666667,4,2,1,50,0,0
59097,-200.0,4,2,1,50,0,0
59147,-100.0,4,2,1,50,0,0
59852,-50.0,4,2,1,50,0,0
59952,-200.0,4,2,1,50,0,0
60154,-50.0,4,2,1,50,0,0
60254,-200.0,4,2,1,50,0,0
60456,-66.6666666666667,4,2,1,50,0,0
60557,-200.0,4,2,1,50,0,0
60657,-50.0,4,2,1,50,0,0
60757,-200.0,4,2,1,50,0,0
60959,-50.0,4,2,1,50,0,0
61059,-200.0,4,2,1,50,0,0
61261,-66.6666666666667,4,2,1,50,0,0
61362,-200.0,4,2,1,50,0,0
61463,-100.0,4,2,1,50,0,0
64281,-200.0,4,2,1,50,0,0
64482,-66.6666666666667,4,2,1,50,0,0
64684,-100.0,4,2,1,50,0,1
70322,-66.6666666666667,4,2,1,50,0,1
70373,-200.0,4,2,1,50,0,1
70423,-100.0,4,2,1,50,0,1
70724,-66.6666666666667,4,2,1,50,0,1
70775,-200.0,4,2,1,50,0,1
70825,-100.0,4,2,1,50,0,1
77570,-50.0,4,2,1,50,0,0
77670,-200.0,4,2,1,50,0,0
77872,-50.0,4,2,1,50,0,0
77972,-200.0,4,2,1,50,0,0
78174,-66.6666666666667,4,2,1,50,0,0
78275,-200.0,4,2,1,50,0,0
78375,-66.6666666666667,4,2,1,50,0,0
78476,-200.0,4,2,1,50,0,0
78577,-100.0,4,2,1,50,0,0
78778,-200.0,4,2,1,50,0,0
78979,-66.6666666666667,4,2,1,50,0,0
79181,-100.0,4,2,1,50,0,0
84013,-40.0,4,2,1,50,0,0
84113,-200.0,4,2,1,50,0,0
84415,-40.0,4,2,1,50,0,0
84515,-200.0,4,2,1,50,0,0
84818,-50.0,4,2,1,50,0,0
84918,-200.0,4,2,1,50,0,0
85120,-100.0,4,2,1,50,0,0
146832,-66.6666666666667,4,2,1,50,0,0
146883,-200.0,4,2,1,50,0,0
146933,-100.0,4,2,1,50,0,0
147637,-66.6666666666667,4,2,1,50,0,0
147688,-200.0,4,2,1,50,0,0
147738,-100.0,4,2,1,50,0,0
148442,-66.6666666666667,4,2,1,50,0,0
148493,-200.0,4,2,1,50,0,0
148543,-100.0,4,2,1,50,0,0
149248,-66.6666666666667,4,2,1,50,0,0
149299,-200.0,4,2,1,50,0,0
149349,-100.0,4,2,1,50,0,0
150053,-50.0,4,2,1,50,0,0
150153,-200.0,4,2,1,50,0,0
150355,-50.0,4,2,1,50,0,0
150455,-200.0,4,2,1,50,0,0
150657,-66.6666666666667,4,2,1,50,0,0
150758,-200.0,4,2,1,50,0,0
150858,-50.0,4,2,1,50,0,0
150958,-200.0,4,2,1,50,0,0
151160,-50.0,4,2,1,50,0,0
151260,-200.0,4,2,1,50,0,0
151462,-66.6666666666667,4,2,1,50,0,0
151563,-200.0,4,2,1,50,0,0
151664,-100.0,4,2,1,50,0,0
154482,-200.0,4,2,1,50,0,0
154683,-66.6666666666667,4,2,1,50,0,0
154885,-100.0,4,2,1,50,0,1
160523,-66.6666666666667,4,2,1,50,0,1
160574,-200.0,4,2,1,50,0,1
160624,-100.0,4,2,1,50,0,1
160926,-66.6666666666667,4,2,1,50,0,1
160977,-200.0,4,2,1,50,0,1
161027,-100.0,4,2,1,50,0,1
167771,-50.0,4,2,1,50,0,0
167871,-200.0,4,2,1,50,0,0
168073,-50.0,4,2,1,50,0,0
168173,-200.0,4,2,1,50,0,0
168375,-66.6666666666667,4,2,1,50,0,0
168476,-200.0,4,2,1,50,0,0
168576,-66.6666666666667,4,2,1,50,0,0
168677,-200.0,4,2,1,50,0,0
168778,-100.0,4,2,1,50,0,0
168979,-200.0,4,2,1,50,0,0
169180,-66.6666666666667,4,2,1,50,0,0
169382,-100.0,4,2,1,50,0,0
183879,-50.0,4,2,1,50,0,0
183979,-200.0,4,2,1,50,0,0
184181,-50.0,4,2,1,50,0,0
184281,-200.0,4,2,1,50,0,0
184483,-66.6666666666667,4,2,1,50,0,0
184583,-200.0,4,2,1,50,0,0
184684,-50.0,4,2,1,50,0,0
184784,-200.0,4,2,1,50,0,0
184986,-50.0,4,2,1,50,0,0
185086,-200.0,4,2,1,50,0,0
185288,-66.6666666666667,4,2,1,50,0,0
185388,-200.0,4,2,1,50,0,0
185489,-40.0,4,2,1,50,0,0
185589,-200.0,4,2,1,50,0,0
185892,-40.0,4,2,1,50,0,0
185992,-200.0,4,2,1,50,0,0
186295,-40.0,4,2,1,50,0,0
186395,-200.0,4,2,1,50,0,0
186697,-100.0,4,2,1,50,0,0
188711,-100.0,4,2,1,30,0,0
195154,-100.0,4,2,1,50,0,0
199986,-50.0,4,2,1,50,0,0
200087,-200.0,4,2,1,50,0,0
200288,-50.0,4,2,1,50,0,0
200389,-200.0,4,2,1,50,0,0
200590,-66.6666666666667,4,2,1,50,0,0
200691,-200.0,4,2,1,50,0,0
200791,-40.0,4,2,1,50,0,0
200892,-200.0,4,2,1,50,0,0
201194,-100.0,4,2,1,50,0,0
201597,-100.0,4,2,1,50,0,1
207234,-66.6666666666667,4,2,1,50,0,1
207285,-200.0,4,2,1,50,0,1
207335,-100.0,4,2,1,50,0,1
207637,-66.6666666666667,4,2,1,50,0,1
207688,-200.0,4,2,1,50,0,1
207738,-100.0,4,2,1,50,0,1
214483,-50.0,4,2,1,50,0,0
214583,-200.0,4,2,1,50,0,0
214785,-50.0,4,2,1,50,0,0
214885,-200.0,4,2,1,50,0,0
215087,-66.6666666666667,4,2,1,50,0,0
215188,-200.0,4,2,1,50,0,0
215288,-40.0,4,2,1,50,0,0
215389,-500.0,4,2,1,50,0,0
215489,-333.333333333333,4,2,1,50,0,0
215590,-200.0,4,2,1,50,0,0
215691,-125.0,4,2,1,50,0,0
215791,-83.3333333333333,4,2,1,50,0,0
215892,-100.0,4,2,1,50,0,0
217704,-40.0,4,2,1,50,0,0
217804,-200.0,4,2,1,50,0,0
218107,-40.0,4,2,1,50,0,0
218207,-200.0,4,2,1,50,0,0
218510,-66.6666666666667,4,2,1,50,0,0
218610,-200.0,4,2,1,50,0,0
218711,-100.0,4,2,1,50,0,0
230590,-66.6666666666667,4,2,1,50,0,0
230641,-200.0,4,2,1,50,0,0
230691,-100.0,4,2,1,50,0,0
230892,-66.6666666666667,4,2,1,50,0,0
230943,-200.0,4,2,1,50,0,0
230993,-100.0,4,2,1,50,0,0
231194,-66.6666666666667,4,2,1,50,0,0
231245,-200.0,4,2,1,50,0,0
231295,-100.0,4,2,1,50,0,0
232201,-66.6666666666667,4,2,1,50,0,0
232302,-200.0,4,2,1,50,0,0
232402,-66.6666666666667,4,2,1,50,0,0
232503,-200.0,4,2,1,50,0,0
232603,-100.0,4,2,1,50,0,0
232704,-66.6666666666667,4,2,1,50,0,0
232805,-200.0,4,2,1,50,0,0
232906,-100.0,4,2,1,50,0,0
233006,-66.6666666666667,4,2,1,50,0,0
233107,-200.0,4,2,1,50,0,0
233208,-100.0,4,2,1,50,0,0
233409,-200.0,4,2,1,50,0,0
233610,-66.6666666666667,4,2,1,50,0,0
233812,-40.0,4,2,1,50,0,0
233912,-1000.0,4,2,1,50,0,0
234013,-500.0,4,2,1,50,0,0
234114,-250.0,4,2,1,50,0,0
234214,-142.857142857143,4,2,1,50,0,0
234315,-90.9090909090909,4,2,1,50,0,0
234483,-100.0,4,2,1,50,0,0

[HitObjects]
64,192,255,128,0,1865:0:0:0:0:
448,192,255,1,0,0:0:0:0:
192,192,1865,1,0,0:0:0:0:
320,192,1865,128,0,3476:0:0:0:0:
64,192,3476,128,0,4281:0:0:0:70:HHOpen.wav
192,192,3476,1,0,0:0:0:0:
320,192,4281,128,0,5087:0:0:0:70:HHOpen.wav
448,192,4281,1,0,0:0:0:0:
192,192,4684,128,0,5087:0:0:0:0:
64,192,5087,1,2,0:0:0:0:
448,192,5087,1,4,0:0:0:0:
64,192,5489,1,2,0:0:0:0:
192,192,5489,1,4,0:0:0:0:
448,192,5489,1,0,0:0:0:0:
192,192,5892,1,2,0:0:0:0:
320,192,5892,1,4,0:0:0:0:
448,192,5892,1,0,0:0:0:0:
64,192,6194,1,0,0:0:0:70:LR_Snare Drum 3.wav
192,192,6244,1,0,0:0:0:70:LR_Snare Drum 3.wav
320,192,6295,1,0,0:0:0:70:LR_Snare Drum 3.wav
448,192,6295,1,0,0:0:0:0:
64,192,6395,1,0,0:0:0:70:LR_Snare Drum 3.wav
192,192,6395,1,0,0:0:0:0:
320,192,6496,1,2,0:0:0:0:
448,192,6496,1,0,0:0:0:0:
192,192,6597,1,0,0:0:0:70:tom03.wav
320,192,6647,1,0,0:0:0:70:tom04.wav
64,192,6697,1,2,0:0:0:0:
448,192,6697,1,4,0:0:0:0:
64,192,6899,1,8,0:0:0:0:
192,192,6899,1,0,0:0:0:0:
320,192,6999,1,0,0:0:0:0:
448,192,6999,1,0,0:0:0:0:
64,192,7100,1,2,0:0:0:0:
192,192,7100,1,0,0:0:0:0:
192,192,7301,1,8,0:0:0:0:
320,192,7301,1,0,0:0:0:0:
448,192,7301,1,0,0:0:0:0:
64,192,7503,1,2,0:0:0:0:
320,192,7503,1,0,0:0:0:0:
64,192,7704,1,8,0:0:0:0:
192,192,7704,1,0,0:0:0:0:
448,192,7704,1,0,0:0:0:0:
320,192,7805,1,2,0:0:0:0:
448,192,7805,1,0,0:0:0:0:
320,192,8006,1,2,0:0:0:0:
448,192,8006,1,0,0:0:0:0:
64,192,8107,1,8,0:0:0:0:
192,192,8107,1,0,0:0:0:0:
448,192,8107,1,0,0:0:0:0:
64,192,8308,1,2,0:0:0:0:
320,192,8308,1,0,0:0:0:70:HHOpen.wav
192,192,8510,1,8,0:0:0:0:
320,192,8510,1,0,0:0:0:0:
448,192,8510,1,0,0:0:0:0:
64,192,8711,1,2,0:0:0:0:
448,192,8711,1,0,0:0:0:0:
64,192,8912,1,8,0:0:0:0:
192,192,8912,1,0,0:0:0:0:
320,192,8912,1,0,0:0:0:0:
192,192,9114,1,2,0:0:0:0:
448,192,9114,1,0,0:0:0:0:
320,192,9315,1,8,0:0:0:0:
448,192,9315,1,0,0:0:0:0:
64,192,9416,1,2,0:0:0:0:
192,192,9416,1,0,0:0:0:0:
448,192,9516,1,0,0:0:0:70:LR_Drum Rim Fast.wav
192,192,9617,1,2,0:0:0:0:
320,192,9617,1,0,0:0:0:0:
64,192,9718,1,8,0:0:0:0:
448,192,9718,1,0,0:0:0:70:LR_Drum Rim Fast.wav
320,192,9818,1,0,0:0:0:0:
64,192,9919,1,2,0:0:0:0:
192,192,9919,1,4,0:0:0:0:
448,192,9919,1,0,0:0:0:0:
64,192,10120,1,8,0:0:0:0:
320,192,10120,1,0,0:0:0:0:
448,192,10120,1,0,0:0:0:0:
192,192,10322,1,2,0:0:0:0:
320,192,10322,1,0,0:0:0:0:
64,192,10523,1,8,0:0:0:0:
192,192,10523,1,0,0:0:0:0:
448,192,10523,1,0,0:0:0:0:
320,192,10624,1,0,0:0:0:0:
64,192,10724,1,2,0:0:0:0:
192,192,10724,1,0,0:0:0:0:
64,192,10926,1,8,0:0:0:0:
320,192,10926,1,0,0:0:0:0:
448,192,10926,1,0,0:0:0:0:
64,192,11026,1,2,0:0:0:0:
192,192,11026,1,0,0:0:0:0:
64,192,11228,1,2,0:0:0:0:
192,192,11228,1,0,0:0:0:0:
64,192,11328,1,8,0:0:0:0:
320,192,11328,1,0,0:0:0:0:
448,192,11328,1,0,0:0:0:0:
192,192,11530,1,2,0:0:0:0:
448,192,11530,1,0,0:0:0:70:HHOpen.wav
64,192,11731,1,4,0:0:0:0:
192,192,11731,1,8,0:0:0:0:
320,192,11731,1,0,0:0:0:70:LR_J Hit Pong Drop.wav
320,192,11932,1,2,0:0:0:0:
448,192,11932,1,0,0:0:0:70:LR_J Hit Pong Drop.wav
64,192,12033,1,2,0:0:0:0:
192,192,12033,1,0,0:0:0:0:
64,192,12134,1,4,0:0:0:0:
320,192,12134,1,8,0:0:0:0:
448,192,12134,1,0,0:0:0:70:LR_J Hit Pong Drop.wav
192,192,12335,1,2,0:0:0:0:
448,192,12335,1,0,0:0:0:70:LR_J Hit Pong Drop.wav
64,192,12536,1,12,0:0:0:0:
192,192,12536,1,0,0:0:0:70:LR_J Hit Pong Drop.wav
320,192,12637,1,2,0:0:0:0:
448,192,12637,1,0,0:0:0:0:
64,192,12738,1,2,0:0:0:0:
192,192,12738,1,0,0:0:0:70:LR_J Hit Pong Drop.wav
320,192,12838,1,8,0:0:0:0:
448,192,12838,1,0,0:0:0:0:
64,192,12939,1,12,0:0:0:0:
192,192,12939,1,0,0:0:0:70:LR_J Hit Pong Drop.wav
320,192,13040,1,8,0:0:0:0:
448,192,13040,1,0,0:0:0:0:
64,192,13140,1,4,0:0:0:0:
192,192,13140,1,2,0:0:0:0:
448,192,13140,1,0,0:0:0:0:
320,192,13342,1,8,0:0:0:0:
448,192,13342,1,0,0:0:0:0:
64,192,13442,1,0,0:0:0:0:
192,192,13442,1,0,0:0:0:0:
320,192,13543,1,2,0:0:0:0:
448,192,13543,1,0,0:0:0:0:
64,192,13744,1,8,0:0:0:0:
192,192,13744,1,0,0:0:0:0:
320,192,13744,1,0,0:0:0:0:
192,192,13946,1,2,0:0:0:0:
448,192,13946,1,0,0:0:0:0:
64,192,14147,1,8,0:0:0:0:
320,192,14147,1,0,0:0:0:0:
448,192,14147,1,0,0:0:0:0:
64,192,14248,1,2,0:0:0:0:
192,192,14248,1,0,0:0:0:0:
64,192,14449,1,2,0:0:0:0:
192,192,14449,1,0,0:0:0:0:
64,192,14550,1,8,0:0:0:0:
320,192,14550,1,0,0:0:0:0:
448,192,14550,1,0,0:0:0:0:
192,192,14751,1,2,0:0:0:0:
320,192,14751,1,0,0:0:0:70:HHOpen.wav
64,192,14952,1,8,0:0:0:0:
192,192,14952,1,0,0:0:0:0:
448,192,14952,1,0,0:0:0:0:
64,192,15154,1,2,0:0:0:0:
320,192,15154,1,0,0:0:0:0:
192,192,15355,1,8,0:0:0:0:
320,192,15355,1,0,0:0:0:0:
448,192,15355,1,0,0:0:0:0:
64,192,15557,1,2,0:0:0:0:
192,192,15557,1,0,0:0:0:0:
64,192,15758,1,8,0:0:0:0:
448,192,15758,1,0,0:0:0:0:
192,192,15859,1,2,0:0:0:0:
320,192,15859,1,0,0:0:0:0:
448,192,15959,1,0,0:0:0:70:LR_Drum Rim Fast.wav
64,192,16060,1,2,0:0:0:0:
192,192,16060,1,0,0:0:0:0:
320,192,16161,1,8,0:0:0:0:
448,192,16161,1,0,0:0:0:70:LR_Drum Rim Fast.wav
192,192,16261,1,0,0:0:0:0:
64,192,16362,1,4,0:0:0:0:
320,192,16362,1,2,0:0:0:0:
448,192,16362,1,0,0:0:0:0:
192,192,16563,1,8,0:0:0:0:
320,192,16563,1,0,0:0:0:0:
448,192,16563,1,0,0:0:0:0:
64,192,16765,1,2,0:0:0:0:
192,192,16765,1,0,0:0:0:0:
64,192,16966,1,8,0:0:0:0:
320,192,16966,1,0,0:0:0:0:
448,192,16966,1,0,0:0:0:0:
192,192,17067,1,0,0:0:0:0:
320,192,17167,1,2,0:0:0:0:
448,192,17167,1,0,0:0:0:0:
64,192,17369,1,8,0:0:0:0:
192,192,17369,1,0,0:0:0:0:
448,192,17369,1,0,0:0:0:0:
320,192,17469,1,2,0:0:0:0:
448,192,17469,1,0,0:0:0:0:
320,192,17671,1,2,0:0:0:0:
448,192,17671,1,0,0:0:0:0:
64,192,17771,1,8,0:0:0:0:
192,192,17771,1,0,0:0:0:0:
448,192,17771,1,0,0:0:0:0:
64,192,17973,1,4,0:0:0:0:
320,192,17973,1,0,0:0:0:70:LR_Drum Rim Fast.wav
448,192,17973,1,0,0:0:0:0:
64,192,18174,1,2,0:0:0:0:
192,192,18174,1,0,0:0:0:0:
64,192,18275,1,4,0:0:0:0:
192,192,18275,1,0,0:0:0:70:LR_Drum Rim Fast.wav
448,192,18275,1,0,0:0:0:0:
320,192,18476,1,2,0:0:0:0:
448,192,18476,1,0,0:0:0:0:
64,192,18577,1,4,0:0:0:0:
320,192,18577,1,0,0:0:0:70:LR_Drum Rim Fast.wav
448,192,18577,1,0,0:0:0:0:
448,192,18778,1,12,0:0:0:0:
320,192,18828,1,8,0:0:0:0:
64,192,18879,1,8,0:0:0:0:
192,192,18879,1,0,0:0:0:0:
320,192,18979,1,0,0:0:0:70:tom02.wav
448,192,18979,1,0,0:0:0:0:
192,192,19080,1,0,0:0:0:70:tom02.wav
320,192,19080,1,0,0:0:0:0:
64,192,19181,1,0,0:0:0:70:tom03.wav
192,192,19181,1,0,0:0:0:0:
448,192,19281,1,0,0:0:0:70:tom03.wav
320,192,19382,1,0,0:0:0:70:tom04.wav
192,192,19483,1,0,0:0:0:70:tom04.wav
64,192,19583,1,8,0:0:0:0:
320,192,19583,1,0,0:0:0:50:HHOpen.wav
448,192,19583,1,0,0:0:0:0:
64,192,19785,1,8,0:0:0:0:
320,192,19785,1,0,0:0:0:50:HHOpen.wav
448,192,19785,1,0,0:0:0:0:
64,192,19986,1,2,0:0:0:0:
192,192,19986,1,0,0:0:0:0:
64,192,20087,1,8,0:0:0:0:
320,192,20087,1,0,0:0:0:50:HHOpen.wav
448,192,20087,1,0,0:0:0:0:
192,192,20288,1,2,0:0:0:0:
320,192,20338,1,2,0:0:0:0:
64,192,20389,1,8,0:0:0:0:
448,192,20389,1,0,0:0:0:0:
320,192,20590,1,0,0:0:0:70:tom01.wav
448,192,20590,1,0,0:0:0:0:
64,192,20657,1,0,0:0:0:70:tom02.wav
192,192,20657,1,0,0:0:0:0:
320,192,20724,1,0,0:0:0:70:tom03.wav
64,192,20791,1,8,0:0:0:0:
192,192,20791,1,0,0:0:0:70:LR_J Hit Pong Drop.wav
448,192,20791,1,0,0:0:0:0:
64,192,21194,128,4,21395:0:0:0:0:
320,192,21194,1,2,0:0:0:0:
448,192,21194,1,0,0:0:0:0:
192,192,21597,1,2,0:0:0:0:
320,192,21597,128,0,21798:0:0:0:0:
64,192,21798,128,0,21999:0:0:0:0:
192,192,21999,1,2,0:0:0:0:
448,192,21999,128,0,22201:0:0:0:0:
192,192,22402,128,2,22603:0:0:0:0:
320,192,22402,1,0,0:0:0:0:
448,192,22603,128,0,22805:0:0:0:0:
64,192,22805,128,2,23006:0:0:0:0:
320,192,22805,1,0,0:0:0:0:
192,192,23006,128,0,23208:0:0:0:0:
320,192,23107,1,0,0:0:0:0:
64,192,23208,1,2,0:0:0:0:
448,192,23208,128,0,23409:0:0:0:0:
192,192,23409,1,0,0:0:0:0:
320,192,23409,128,0,23610:0:0:0:0:
64,192,23610,128,2,23812:0:0:0:0:
448,192,23610,1,0,0:0:0:0:
192,192,23812,1,0,0:0:0:0:
320,192,23812,1,0,0:0:0:0:
64,192,24013,1,2,0:0:0:0:
448,192,24013,1,0,0:0:0:0:
320,192,24080,1,0,0:0:0:0:
192,192,24147,1,0,0:0:0:0:
64,192,24214,1,0,0:0:0:0:
192,192,24416,128,2,24617:0:0:0:0:
448,192,24416,1,0,0:0:0:0:
64,192,24818,1,2,0:0:0:0:
448,192,24818,128,0,25020:0:0:0:0:
320,192,25020,128,0,25221:0:0:0:0:
64,192,25221,128,2,25422:0:0:0:0:
192,192,25221,1,0,0:0:0:0:
192,192,25624,1,2,0:0:0:0:
448,192,25624,128,0,25825:0:0:0:0:
64,192,26026,1,2,0:0:0:0:
192,192,26026,128,0,26228:0:0:0:0:
448,192,26228,1,0,0:0:0:0:
64,192,26429,1,2,0:0:0:0:
320,192,26429,128,0,26630:0:0:0:0:
192,192,26630,1,0,0:0:0:0:
320,192,26832,1,2,0:0:0:0:
448,192,26832,128,0,27033:0:0:0:0:
64,192,27033,1,0,0:0:0:0:
320,192,27234,1,2,0:0:0:0:
448,192,27234,1,0,0:0:0:70:LR_Chm J Whistle.wav
192,192,27335,1,0,0:0:0:0:
448,192,27436,1,0,0:0:0:70:HHOpen.wav
320,192,27536,1,0,0:0:0:0:
64,192,27637,128,2,27838:0:0:0:0:
192,192,27637,1,0,0:0:0:0:
192,192,28040,1,2,0:0:0:0:
448,192,28040,128,0,28241:0:0:0:0:
320,192,28241,128,0,28442:0:0:0:0:
64,192,28442,1,2,0:0:0:0:
192,192,28442,128,0,28644:0:0:0:0:
320,192,28845,1,2,0:0:0:0:
448,192,28845,128,0,29046:0:0:0:0:
64,192,29046,128,0,29248:0:0:0:0:
192,192,29248,1,2,0:0:0:0:
320,192,29248,128,0,29449:0:0:0:0:
192,192,29449,128,0,29650:0:0:0:0:
448,192,29449,1,0,0:0:0:0:
64,192,29650,1,2,0:0:0:0:
448,192,29650,128,0,29852:0:0:0:0:
192,192,29852,1,0,0:0:0:0:
320,192,29852,128,0,30053:0:0:0:0:
64,192,30053,128,2,30254:0:0:0:0:
448,192,30053,1,0,0:0:0:0:
192,192,30254,1,0,0:0:0:0:
320,192,30254,1,0,0:0:0:0:
64,192,30456,1,2,0:0:0:0:
448,192,30456,1,0,0:0:0:0:
192,192,30523,1,0,0:0:0:0:
320,192,30590,1,0,0:0:0:0:
448,192,30657,128,0,30859:0:0:0:0:
64,192,30859,1,2,0:0:0:0:
192,192,30859,128,0,31060:0:0:0:0:
64,192,31261,1,2,0:0:0:0:
448,192,31261,128,0,31463:0:0:0:0:
320,192,31463,128,0,31664:0:0:0:0:
64,192,31664,128,2,31865:0:0:0:0:
192,192,31664,1,0,0:0:0:0:
320,192,31865,1,0,0:0:0:0:
448,192,31865,1,0,0:0:0:0:
64,192,32067,1,2,0:0:0:0:
192,192,32067,128,0,32268:0:0:0:0:
320,192,32268,1,0,0:0:0:0:
448,192,32268,1,0,0:0:0:0:
64,192,32469,128,2,32671:0:0:0:0:
448,192,32469,1,0,0:0:0:0:
320,192,32671,128,0,32872:0:0:0:0:
64,192,32872,1,2,0:0:0:0:
192,192,32872,128,0,33073:0:0:0:70:HHOpen.wav
448,192,33073,128,0,33275:0:0:0:0:
64,192,33275,1,2,0:0:0:0:
320,192,33275,1,0,0:0:0:70:HHOpen.wav
192,192,33375,1,0,0:0:0:0:
320,192,33476,1,8,0:0:0:0:
448,192,33476,1,0,0:0:0:0:
64,192,33577,1,8,0:0:0:0:
192,192,33577,1,0,0:0:0:0:
320,192,33677,1,0,0:0:0:70:tom01.wav
448,192,33677,1,0,0:0:0:70:LR_J Hit Pong Drop.wav
64,192,33778,1,0,0:0:0:70:tom02.wav
192,192,33778,1,0,0:0:0:0:
320,192,33879,1,0,0:0:0:70:tom03.wav
448,192,33879,1,0,0:0:0:0:
64,192,33979,1,0,0:0:0:70:tom04.wav
192,192,33979,1,0,0:0:0:0:
64,192,34080,1,2,0:0:0:0:
320,192,34080,1,4,0:0:0:0:
448,192,34080,1,0,0:0:0:0:
192,192,34281,1,0,0:0:0:0:
64,192,34483,1,8,0:0:0:0:
320,192,34483,1,0,0:0:0:0:
448,192,34483,1,0,0:0:0:0:
192,192,34684,1,0,0:0:0:70:LR_Drum Rim Fast.wav
320,192,34785,1,0,0:0:0:70:LR_Drum Rim Fast.wav
64,192,34885,1,2,0:0:0:0:
448,192,34885,1,0,0:0:0:0:
192,192,34986,1,0,0:0:0:70:LR_Drum Rim Fast.wav
320,192,35087,1,0,0:0:0:0:
64,192,35288,1,8,0:0:0:0:
192,192,35288,1,0,0:0:0:0:
448,192,35288,1,0,0:0:0:0:
320,192,35489,1,0,0:0:0:0:
64,192,35691,1,2,0:0:0:0:
192,192,35691,1,0,0:0:0:0:
320,192,35892,1,0,0:0:0:0:
192,192,35993,1,0,0:0:0:0:
64,192,36093,1,8,0:0:0:0:
320,192,36093,1,0,0:0:0:0:
448,192,36093,1,0,0:0:0:0:
192,192,36295,1,0,0:0:0:70:LR_Drum Rim Fast.wav
448,192,36395,1,0,0:0:0:70:LR_Drum Rim Fast.wav
64,192,36496,1,2,0:0:0:0:
320,192,36496,1,0,0:0:0:0:
192,192,36597,1,0,0:0:0:70:LR_Drum Rim Fast.wav
320,192,36697,1,0,0:0:0:0:
448,192,36697,1,0,0:0:0:0:
64,192,36899,1,8,0:0:0:0:
192,192,36899,1,0,0:0:0:0:
448,192,36899,1,0,0:0:0:0:
320,192,36966,1,0,0:0:0:0:
192,192,37033,1,0,0:0:0:0:
64,192,37100,1,0,0:0:0:0:
320,192,37301,1,2,0:0:0:0:
448,192,37301,1,0,0:0:0:0:
192,192,37503,1,0,0:0:0:0:
64,192,37704,1,8,0:0:0:0:
320,192,37704,1,0,0:0:0:0:
448,192,37704,1,0,0:0:0:0:
192,192,37906,1,0,0:0:0:70:LR_Drum Rim Fast.wav
64,192,38006,1,0,0:0:0:70:LR_Drum Rim Fast.wav
320,192,38107,1,2,0:0:0:0:
448,192,38107,1,0,0:0:0:0:
192,192,38208,1,0,0:0:0:70:LR_Drum Rim Fast.wav
64,192,38308,1,0,0:0:0:0:
192,192,38510,1,8,0:0:0:0:
320,192,38510,1,0,0:0:0:0:
448,192,38510,1,0,0:0:0:0:
64,192,38711,1,0,0:0:0:0:
320,192,38912,1,2,0:0:0:0:
448,192,38912,1,0,0:0:0:0:
192,192,39114,1,0,0:0:0:0:
64,192,39315,1,8,0:0:0:0:
320,192,39315,1,0,0:0:0:0:
448,192,39315,1,0,0:0:0:0:
192,192,39516,1,0,0:0:0:70:LR_Drum Rim Fast.wav
320,192,39617,1,0,0:0:0:70:LR_Drum Rim Fast.wav
64,192,39718,1,2,0:0:0:0:
448,192,39718,1,0,0:0:0:0:
320,192,39818,1,0,0:0:0:70:LR_Drum Rim Fast.wav
192,192,39919,1,0,0:0:0:70:HHOpen.wav
64,192,40120,1,8,0:0:0:0:
320,192,40120,1,0,0:0:0:70:LR_Chm J Whistle.wav
448,192,40120,1,0,0:0:0:0:
192,192,40322,1,0,0:0:0:70:HHOpen.wav
320,192,40523,1,2,0:0:0:0:
448,192,40523,1,0,0:0:0:0:
64,192,40724,1,0,0:0:0:0:
192,192,40926,1,8,0:0:0:0:
320,192,40926,1,0,0:0:0:0:
448,192,40926,1,0,0:0:0:0:
64,192,41127,1,0,0:0:0:70:LR_Drum Rim Fast.wav
320,192,41228,1,0,0:0:0:70:LR_Drum Rim Fast.wav
192,192,41328,1,2,0:0:0:0:
448,192,41328,1,0,0:0:0:0:
64,192,41429,1,0,0:0:0:70:LR_Drum Rim Fast.wav
320,192,41530,1,0,0:0:0:0:
64,192,41731,1,8,0:0:0:0:
192,192,41731,1,0,0:0:0:0:
448,192,41731,1,0,0:0:0:0:
320,192,41932,1,0,0:0:0:0:
64,192,42134,1,2,0:0:0:0:
448,192,42134,1,0,0:0:0:0:
192,192,42335,1,0,0:0:0:0:
64,192,42536,1,8,0:0:0:0:
320,192,42536,1,0,0:0:0:0:
448,192,42536,1,0,0:0:0:0:
192,192,42738,1,0,0:0:0:70:LR_Drum Rim Fast.wav
320,192,42838,1,0,0:0:0:70:LR_Drum Rim Fast.wav
64,192,42939,1,2,0:0:0:0:
448,192,42939,1,0,0:0:0:0:
192,192,43040,1,0,0:0:0:70:LR_Drum Rim Fast.wav
320,192,43140,1,0,0:0:0:0:
448,192,43140,1,0,0:0:0:0:
64,192,43342,1,8,0:0:0:0:
192,192,43342,1,0,0:0:0:0:
448,192,43342,1,0,0:0:0:0:
320,192,43409,1,0,0:0:0:0:
192,192,43476,1,0,0:0:0:0:
64,192,43543,1,0,0:0:0:0:
320,192,43744,1,2,0:0:0:0:
448,192,43744,1,0,0:0:0:0:
64,192,43946,1,0,0:0:0:0:
192,192,44147,1,8,0:0:0:0:
320,192,44147,1,0,0:0:0:0:
448,192,44147,1,0,0:0:0:0:
64,192,44348,1,0,0:0:0:70:LR_Drum Rim Fast.wav
192,192,44449,1,0,0:0:0:70:LR_Drum Rim Fast.wav
320,192,44550,1,2,0:0:0:0:
448,192,44550,1,0,0:0:0:0:
64,192,44650,1,0,0:0:0:70:LR_Drum Rim Fast.wav
192,192,44751,1,0,0:0:0:0:
320,192,44751,1,0,0:0:0:0:
64,192,44952,1,8,0:0:0:0:
192,192,44952,1,0,0:0:0:0:
448,192,44952,1,0,0:0:0:0:
64,192,45154,1,0,0:0:0:0:
320,192,45154,1,0,0:0:0:0:
320,192,45355,1,2,0:0:0:0:
448,192,45355,1,0,0:0:0:70:HHOpen.wav
64,192,45557,1,0,0:0:0:70:tom01.wav
192,192,45557,1,0,0:0:0:0:
320,192,45624,1,0,0:0:0:70:tom02.wav
448,192,45624,1,0,0:0:0:0:
192,192,45691,1,0,0:0:0:70:tom03.wav
64,192,45758,1,8,0:0:0:0:
320,192,45758,1,0,0:0:0:70:HHOpen.wav
448,192,45758,1,0,0:0:0:0:
64,192,45959,1,0,0:0:0:70:LR_Drum Rim Fast.wav
192,192,45959,1,0,0:0:0:0:
320,192,46026,1,0,0:0:0:70:LR_Drum Rim Fast.wav
448,192,46026,1,0,0:0:0:0:
192,192,46093,1,0,0:0:0:70:LR_Drum Rim Fast.wav
64,192,46161,1,2,0:0:0:0:
320,192,46161,1,4,0:0:0:0:
448,192,46161,1,0,0:0:0:0:
64,192,46362,1,8,0:0:0:0:
192,192,46362,1,0,0:0:0:0:
320,192,46463,1,8,0:0:0:0:
448,192,46463,1,0,0:0:0:0:
64,192,46563,1,0,0:0:0:70:tom01.wav
192,192,46563,1,0,0:0:0:70:LR_J Hit Pong Drop.wav
320,192,46664,1,0,0:0:0:70:tom02.wav
448,192,46664,1,0,0:0:0:0:
64,192,46765,1,0,0:0:0:70:tom03.wav
192,192,46765,1,0,0:0:0:0:
320,192,46865,1,0,0:0:0:70:tom04.wav
448,192,46865,1,0,0:0:0:0:
64,192,46966,1,2,0:0:0:0:
192,192,46966,1,4,0:0:0:0:
448,192,46966,1,0,0:0:0:0:
320,192,47067,1,0,0:0:0:0:
64,192,47167,1,0,0:0:0:0:
192,192,47268,1,0,0:0:0:0:
320,192,47369,1,0,0:0:0:0:
64,192,47570,1,2,0:0:0:0:
448,192,47570,1,0,0:0:0:0:
192,192,47671,1,0,0:0:0:0:
64,192,47771,1,2,0:0:0:0:
448,192,47771,1,0,0:0:0:0:
320,192,47872,1,0,0:0:0:0:
192,192,47973,1,0,0:0:0:70:LR_J Hit Pong Drop.wav
320,192,48174,1,2,0:0:0:0:
448,192,48174,1,0,0:0:0:70:LR_J Hit Pong Drop.wav
64,192,48375,1,0,0:0:0:0:
192,192,48577,1,2,0:0:0:0:
320,192,48577,1,0,0:0:0:0:
448,192,48778,1,0,0:0:0:0:
64,192,48979,1,0,0:0:0:0:
320,192,49181,1,2,0:0:0:0:
448,192,49181,1,0,0:0:0:0:
192,192,49281,1,0,0:0:0:0:
64,192,49382,1,2,0:0:0:0:
320,192,49382,1,0,0:0:0:0:
64,192,49583,1,0,0:0:0:70:tom02.wav
448,192,49583,1,0,0:0:0:50:LR_Chm J Whistle.wav
320,192,49650,1,0,0:0:0:50:LR_Chm J Whistle.wav
192,192,49718,1,0,0:0:0:50:LR_Chm J Whistle.wav
64,192,49785,1,0,0:0:0:50:LR_Chm J Whistle.wav
448,192,49785,1,0,0:0:0:0:
192,192,49986,1,2,0:0:0:0:
320,192,49986,1,4,0:0:0:0:
64,192,50187,1,4,0:0:0:0:
192,192,50187,1,2,0:0:0:0:
448,192,50187,1,0,0:0:0:0:
320,192,50288,1,0,0:0:0:0:
64,192,50389,1,0,0:0:0:0:
448,192,50489,1,0,0:0:0:0:
192,192,50590,1,0,0:0:0:0:
64,192,50791,1,2,0:0:0:0:
448,192,50791,1,0,0:0:0:0:
192,192,50892,1,0,0:0:0:0:
320,192,50993,1,2,0:0:0:0:
448,192,50993,1,0,0:0:0:0:
64,192,51093,1,0,0:0:0:0:
192,192,51194,1,0,0:0:0:0:
320,192,51295,1,0,0:0:0:0:
64,192,51395,1,2,0:0:0:0:
448,192,51395,1,0,0:0:0:0:
192,192,51597,1,0,0:0:0:0:
320,192,51798,1,2,0:0:0:0:
448,192,51798,128,0,52201:0:0:0:0:
64,192,52201,1,0,0:0:0:0:
320,192,52402,1,2,0:0:0:0:
448,192,52402,1,0,0:0:0:0:
192,192,52503,1,0,0:0:0:0:
64,192,52603,1,2,0:0:0:0:
320,192,52603,1,0,0:0:0:0:
192,192,52805,1,2,0:0:0:0:
448,192,52805,1,0,0:0:0:70:LR_J Hit Pong Drop.wav
64,192,53006,1,2,0:0:0:0:
320,192,53006,1,0,0:0:0:70:LR_J Hit Pong Drop.wav
448,192,53006,1,0,0:0:0:70:HHOpen.wav
192,192,53208,1,0,0:0:0:0:
64,192,53409,1,2,0:0:0:0:
320,192,53409,1,4,0:0:0:0:
448,192,53409,1,0,0:0:0:0:
192,192,53610,1,0,0:0:0:0:
320,192,53711,1,0,0:0:0:0:
64,192,53812,1,0,0:0:0:0:
192,192,53912,1,0,0:0:0:0:
320,192,54013,1,2,0:0:0:0:
448,192,54013,1,0,0:0:0:0:
192,192,54114,1,0,0:0:0:0:
64,192,54214,1,2,0:0:0:0:
448,192,54214,1,0,0:0:0:0:
320,192,54416,1,0,0:0:0:0:
64,192,54617,1,2,0:0:0:0:
192,192,54617,1,0,0:0:0:0:
448,192,54818,1,0,0:0:0:0:
64,192,55020,1,2,0:0:0:0:
320,192,55020,1,0,0:0:0:0:
192,192,55221,1,0,0:0:0:0:
448,192,55422,1,0,0:0:0:0:
64,192,55624,1,2,0:0:0:0:
192,192,55624,1,0,0:0:0:0:
320,192,55724,1,0,0:0:0:0:
64,192,55825,1,2,0:0:0:0:
448,192,55825,1,0,0:0:0:0:
64,192,56026,1,0,0:0:0:70:tom02.wav
192,192,56026,1,0,0:0:0:50:LR_Chm J Whistle.wav
320,192,56093,1,2,0:0:0:0:
448,192,56093,1,0,0:0:0:50:LR_Chm J Whistle.wav
192,192,56161,1,2,0:0:0:0:
64,192,56228,1,8,0:0:0:0:
320,192,56228,1,0,0:0:0:50:LR_Chm J Whistle.wav
448,192,56228,1,0,0:0:0:0:
192,192,56429,1,0,0:0:0:0:
64,192,56630,1,4,0:0:0:0:
320,192,56630,1,2,0:0:0:0:
448,192,56630,1,0,0:0:0:0:
192,192,56832,1,2,0:0:0:0:
448,192,56832,1,0,0:0:0:0:
64,192,57033,1,8,0:0:0:0:
192,192,57033,1,0,0:0:0:0:
320,192,57033,1,0,0:0:0:0:
320,192,57234,1,2,0:0:0:0:
448,192,57234,1,0,0:0:0:0:
64,192,57335,1,2,0:0:0:0:
192,192,57335,1,0,0:0:0:0:
64,192,57436,1,8,0:0:0:0:
320,192,57436,1,0,0:0:0:0:
448,192,57436,1,0,0:0:0:0:
192,192,57637,1,2,0:0:0:0:
320,192,57637,1,0,0:0:0:0:
64,192,57838,1,8,0:0:0:0:
192,192,57838,1,0,0:0:0:0:
448,192,57838,1,0,0:0:0:0:
320,192,58040,1,2,0:0:0:0:
448,192,58040,1,0,0:0:0:0:
64,192,58140,1,2,0:0:0:0:
192,192,58140,1,0,0:0:0:0:
64,192,58241,1,8,0:0:0:0:
320,192,58241,1,4,0:0:0:0:
448,192,58241,1,0,0:0:0:0:
192,192,58442,1,2,0:0:0:0:
448,192,58442,1,0,0:0:0:0:
64,192,58644,1,8,0:0:0:0:
192,192,58644,1,0,0:0:0:0:
320,192,58644,1,0,0:0:0:0:
320,192,58845,1,2,0:0:0:0:
448,192,58845,1,0,0:0:0:0:
64,192,58946,1,2,0:0:0:0:
192,192,58946,1,0,0:0:0:0:
64,192,59046,1,8,0:0:0:0:
320,192,59046,1,0,0:0:0:0:
448,192,59046,1,0,0:0:0:0:
192,192,59248,1,2,0:0:0:0:
320,192,59248,1,0,0:0:0:0:
64,192,59449,1,8,0:0:0:0:
192,192,59449,1,0,0:0:0:0:
448,192,59449,1,0,0:0:0:0:
320,192,59650,1,2,0:0:0:0:
448,192,59650,1,0,0:0:0:0:
64,192,59751,1,2,0:0:0:0:
192,192,59751,1,0,0:0:0:0:
64,192,59852,1,8,0:0:0:0:
320,192,59852,1,4,0:0:0:0:
448,192,59852,1,0,0:0:0:0:
192,192,60154,1,0,0:0:0:70:tom02.wav
320,192,60154,1,0,0:0:0:0:
64,192,60456,1,0,0:0:0:70:tom04.wav
192,192,60456,1,0,0:0:0:0:
64,192,60657,1,8,0:0:0:0:
320,192,60657,1,4,0:0:0:0:
448,192,60657,1,0,0:0:0:0:
192,192,60959,1,0,0:0:0:70:tom01.wav
320,192,60959,1,0,0:0:0:0:
320,192,61261,1,0,0:0:0:70:tom03.wav
448,192,61261,1,0,0:0:0:0:
64,192,61463,1,4,0:0:0:0:
192,192,61463,1,2,0:0:0:0:
448,192,61463,1,0,0:0:0:0:
64,192,61664,1,8,0:0:0:0:
192,192,61664,1,0,0:0:0:70:LR_J Hit Pong Drop.wav
320,192,61664,1,0,0:0:0:0:
64,192,61865,1,8,0:0:0:0:
320,192,61865,1,2,0:0:0:0:
448,192,61865,1,0,0:0:0:70:LR_J Hit Pong Drop.wav
192,192,62067,1,8,0:0:0:0:
320,192,62067,1,0,0:0:0:70:LR_J Hit Pong Drop.wav
448,192,62067,1,0,0:0:0:0:
64,192,62268,1,8,0:0:0:0:
192,192,62268,1,2,0:0:0:0:
448,192,62268,1,0,0:0:0:70:LR_J Hit Pong Drop.wav
64,192,62469,1,8,0:0:0:0:
192,192,62469,1,0,0:0:0:70:LR_J Hit Pong Drop.wav
320,192,62469,1,0,0:0:0:0:
64,192,62671,1,8,0:0:0:0:
320,192,62671,1,2,0:0:0:0:
448,192,62671,1,0,0:0:0:70:LR_J Hit Pong Drop.wav
192,192,62872,1,8,0:0:0:0:
320,192,62872,1,0,0:0:0:70:LR_J Hit Pong Drop.wav
448,192,62872,1,0,0:0:0:0:
64,192,63073,1,2,0:0:0:0:
192,192,63073,1,0,0:0:0:70:HHOpen.wav
448,192,63275,1,0,0:0:0:0:
192,192,63476,1,0,0:0:0:0:
320,192,63677,1,0,0:0:0:0:
64,192,63879,1,0,0:0:0:0:
320,192,64080,1,2,0:0:0:0:
448,192,64080,1,0,0:0:0:0:
64,192,64147,1,2,0:0:0:0:
192,192,64147,1,0,0:0:0:0:
320,192,64214,1,2,0:0:0:0:
64,192,64281,1,8,0:0:0:0:
192,192,64281,1,4,0:0:0:0:
448,192,64281,1,0,0:0:0:0:
64,192,64684,1,2,0:0:0:0:
320,192,64684,1,4,0:0:0:0:
448,192,64684,1,0,0:0:0:0:
64,192,64885,1,8,0:0:0:0:
192,192,64885,1,0,0:0:0:0:
448,192,64986,1,0,0:0:0:0:
192,192,65087,1,2,0:0:0:0:
320,192,65087,1,0,0:0:0:0:
64,192,65187,1,2,0:0:0:0:
448,192,65187,1,0,0:0:0:0:
192,192,65288,1,8,0:0:0:0:
320,192,65288,1,0,0:0:0:0:
64,192,65389,1,0,0:0:0:0:
320,192,65489,1,2,0:0:0:0:
448,192,65489,1,0,0:0:0:0:
192,192,65590,1,0,0:0:0:0:
64,192,65691,1,8,0:0:0:0:
448,192,65691,1,0,0:0:0:0:
192,192,65791,1,2,0:0:0:0:
320,192,65791,1,0,0:0:0:0:
448,192,65892,1,0,0:0:0:0:
64,192,65993,1,2,0:0:0:0:
192,192,65993,1,0,0:0:0:0:
320,192,66093,1,8,0:0:0:0:
448,192,66093,1,0,0:0:0:0:
192,192,66194,1,0,0:0:0:0:
64,192,66295,1,2,0:0:0:0:
448,192,66295,1,0,0:0:0:0:
320,192,66395,1,0,0:0:0:0:
64,192,66496,1,8,0:0:0:0:
192,192,66496,1,0,0:0:0:0:
320,192,66597,1,0,0:0:0:0:
64,192,66697,1,2,0:0:0:0:
448,192,66697,1,0,0:0:0:0:
192,192,66798,1,2,0:0:0:0:
320,192,66798,1,0,0:0:0:0:
64,192,66899,1,8,0:0:0:0:
448,192,66899,1,0,0:0:0:0:
192,192,66999,1,0,0:0:0:0:
320,192,67100,1,2,0:0:0:0:
448,192,67100,1,0,0:0:0:0:
64,192,67201,1,0,0:0:0:0:
192,192,67301,1,8,0:0:0:0:
320,192,67301,1,0,0:0:0:0:
64,192,67402,1,2,0:0:0:0:
448,192,67402,1,0,0:0:0:0:
320,192,67503,1,0,0:0:0:70:LR_J Hit Pong Drop.wav
64,192,67603,1,2,0:0:0:0:
192,192,67603,1,0,0:0:0:0:
320,192,67704,1,8,0:0:0:0:
448,192,67704,1,0,0:0:0:70:LR_J Hit Pong Drop.wav
192,192,67805,1,0,0:0:0:0:
64,192,67906,1,2,0:0:0:0:
448,192,67906,1,0,0:0:0:0:
320,192,68006,1,0,0:0:0:0:
64,192,68107,1,8,0:0:0:0:
192,192,68107,1,4,0:0:0:0:
448,192,68208,1,0,0:0:0:0:
192,192,68308,1,2,0:0:0:0:
320,192,68308,1,0,0:0:0:0:
64,192,68409,1,2,0:0:0:0:
448,192,68409,1,0,0:0:0:0:
192,192,68510,1,8,0:0:0:0:
320,192,68510,1,0,0:0:0:0:
64,192,68610,1,0,0:0:0:0:
320,192,68711,1,2,0:0:0:0:
448,192,68711,1,0,0:0:0:0:
192,192,68812,1,0,0:0:0:0:
64,192,68912,1,8,0:0:0:0:
448,192,68912,1,4,0:0:0:0:
192,192,69013,1,2,0:0:0:0:
320,192,69013,1,0,0:0:0:0:
448,192,69114,1,0,0:0:0:0:
64,192,69214,1,2,0:0:0:0:
192,192,69214,1,0,0:0:0:0:
320,192,69315,1,8,0:0:0:0:
448,192,69315,1,0,0:0:0:0:
64,192,69416,1,0,0:0:0:0:
192,192,69516,1,2,0:0:0:0:
448,192,69516,1,4,0:0:0:0:
320,192,69617,1,0,0:0:0:0:
64,192,69718,1,8,0:0:0:0:
192,192,69718,1,0,0:0:0:70:LR_Chm J Whistle.wav
448,192,69818,1,0,0:0:0:70:LR_Chm J Whistle.wav
192,192,69919,1,2,0:0:0:0:
320,192,69919,1,0,0:0:0:70:LR_Chm J Whistle.wav
64,192,70020,1,2,0:0:0:0:
448,192,70020,1,0,0:0:0:0:
192,192,70120,1,8,0:0:0:0:
320,192,70120,1,0,0:0:0:70:LR_Chm J Whistle.wav
64,192,70221,1,0,0:0:0:70:LR_Chm J Whistle.wav
320,192,70322,1,8,0:0:0:0:
448,192,70322,1,4,0:0:0:0:
64,192,70389,1,0,0:0:0:70:tom01.wav
192,192,70389,1,0,0:0:0:0:
320,192,70456,1,0,0:0:0:70:tom01.wav
448,192,70456,1,0,0:0:0:0:
64,192,70523,1,0,0:0:0:70:tom02.wav
192,192,70523,1,0,0:0:0:0:
320,192,70590,1,0,0:0:0:70:tom03.wav
448,192,70590,1,0,0:0:0:0:
192,192,70657,1,0,0:0:0:70:tom04.wav
64,192,70724,1,6,0:0:0:0:
448,192,70724,1,0,0:0:0:70:LR_J Hit Pong Drop.wav
192,192,70825,1,8,0:0:0:0:
320,192,70825,1,0,0:0:0:0:
64,192,70926,1,8,0:0:0:0:
448,192,70926,1,0,0:0:0:0:
320,192,71026,1,8,0:0:0:0:
64,192,71127,1,4,0:0:0:0:
192,192,71127,1,2,0:0:0:0:
448,192,71127,1,0,0:0:0:0:
320,192,71328,1,8,0:0:0:0:
448,192,71328,1,0,0:0:0:0:
192,192,71429,1,0,0:0:0:0:
64,192,71530,1,2,0:0:0:0:
448,192,71530,1,0,0:0:0:0:
192,192,71630,1,2,0:0:0:0:
320,192,71630,1,0,0:0:0:0:
64,192,71731,1,8,0:0:0:0:
448,192,71731,1,0,0:0:0:0:
320,192,71832,1,0,0:0:0:0:
64,192,71932,1,2,0:0:0:0:
192,192,71932,1,0,0:0:0:0:
448,192,72033,1,0,0:0:0:0:
192,192,72134,1,8,0:0:0:0:
320,192,72134,1,0,0:0:0:0:
64,192,72234,1,2,0:0:0:0:
448,192,72234,1,0,0:0:0:0:
192,192,72335,1,0,0:0:0:0:
320,192,72436,1,2,0:0:0:0:
448,192,72436,1,0,0:0:0:0:
64,192,72536,1,8,0:0:0:0:
192,192,72536,1,0,0:0:0:0:
320,192,72637,1,0,0:0:0:0:
64,192,72738,1,2,0:0:0:0:
448,192,72738,1,0,0:0:0:0:
192,192,72838,1,0,0:0:0:0:
320,192,72939,1,8,0:0:0:0:
448,192,72939,1,0,0:0:0:0:
192,192,73040,1,0,0:0:0:0:
64,192,73140,1,2,0:0:0:0:
448,192,73140,1,0,0:0:0:0:
192,192,73241,1,2,0:0:0:0:
320,192,73241,1,0,0:0:0:0:
64,192,73342,1,8,0:0:0:0:
448,192,73342,1,0,0:0:0:0:
320,192,73442,1,0,0:0:0:0:
64,192,73543,1,2,0:0:0:0:
192,192,73543,1,0,0:0:0:0:
448,192,73644,1,0,0:0:0:0:
192,192,73744,1,8,0:0:0:0:
320,192,73744,1,0,0:0:0:0:
64,192,73845,1,2,0:0:0:0:
448,192,73845,1,0,0:0:0:0:
192,192,73946,1,0,0:0:0:70:LR_Drum Rim Fast.wav
320,192,74046,1,2,0:0:0:0:
448,192,74046,1,0,0:0:0:0:
64,192,74147,1,8,0:0:0:0:
192,192,74147,1,0,0:0:0:0:
320,192,74248,1,0,0:0:0:0:
64,192,74348,1,6,0:0:0:0:
448,192,74348,1,0,0:0:0:70:LR_J Hit Pong Drop.wav
320,192,74449,1,0,0:0:0:0:
64,192,74550,1,8,0:0:0:0:
192,192,74550,1,0,0:0:0:70:LR_Chm J Whistle.wav
448,192,74650,1,0,0:0:0:0:
192,192,74751,1,2,0:0:0:0:
320,192,74751,1,0,0:0:0:70:LR_Chm J Whistle.wav
64,192,74852,1,2,0:0:0:0:
448,192,74852,1,0,0:0:0:0:
192,192,74952,1,8,0:0:0:0:
320,192,74952,1,0,0:0:0:70:LR_Chm J Whistle.wav
64,192,75053,1,0,0:0:0:0:
320,192,75154,1,4,0:0:0:0:
448,192,75154,1,2,0:0:0:0:
192,192,75254,1,0,0:0:0:0:
64,192,75355,1,8,0:0:0:0:
448,192,75355,1,0,0:0:0:70:LR_Chm J Whistle.wav
192,192,75456,1,2,0:0:0:0:
320,192,75456,1,0,0:0:0:0:
64,192,75557,1,0,0:0:0:0:
320,192,75657,1,2,0:0:0:0:
448,192,75657,1,0,0:0:0:0:
64,192,75758,1,8,0:0:0:0:
192,192,75758,1,0,0:0:0:70:LR_Chm J Whistle.wav
320,192,75859,1,0,0:0:0:70:LR_Chm J Whistle.wav
64,192,75959,1,4,0:0:0:0:
192,192,75959,1,2,0:0:0:0:
448,192,75959,1,0,0:0:0:0:
64,192,76161,1,8,0:0:0:0:
192,192,76161,1,0,0:0:0:50:LR_J Hit Pong Drop.wav
320,192,76161,1,0,0:0:0:0:
448,192,76362,1,8,0:0:0:0:
320,192,76412,1,8,0:0:0:0:
192,192,76463,1,8,0:0:0:0:
64,192,76513,1,8,0:0:0:0:
320,192,76563,1,8,0:0:0:0:
448,192,76563,1,0,0:0:0:0:
64,192,76664,1,8,0:0:0:0:
192,192,76664,1,0,0:0:0:0:
320,192,76765,1,0,0:0:0:70:tom01.wav
448,192,76765,1,0,0:0:0:0:
64,192,76865,1,0,0:0:0:70:tom01.wav
192,192,76865,1,0,0:0:0:0:
320,192,76966,1,0,0:0:0:70:tom02.wav
448,192,76966,1,0,0:0:0:0:
192,192,77067,1,0,0:0:0:70:tom02.wav
320,192,77067,1,0,0:0:0:0:
64,192,77167,1,0,0:0:0:70:tom03.wav
192,192,77167,1,0,0:0:0:0:
448,192,77268,1,0,0:0:0:70:tom03.wav
320,192,77369,1,0,0:0:0:70:tom04.wav
192,192,77469,1,0,0:0:0:70:tom04.wav
64,192,77570,1,4,0:0:0:0:
320,192,77570,1,8,0:0:0:0:
448,192,77570,1,0,0:0:0:0:
64,192,77872,1,0,0:0:0:70:tom01.wav
192,192,77872,1,0,0:0:0:0:
448,192,77872,1,0,0:0:0:0:
192,192,78174,1,8,0:0:0:0:
320,192,78174,1,2,0:0:0:0:
448,192,78174,1,0,0:0:0:0:
64,192,78375,1,2,0:0:0:0:
192,192,78375,1,0,0:0:0:50:HHOpen.wav
320,192,78375,1,0,0:0:0:0:
320,192,78577,1,2,0:0:0:0:
448,192,78577,1,0,0:0:0:0:
64,192,78644,1,2,0:0:0:0:
192,192,78644,1,0,0:0:0:0:
320,192,78711,1,2,0:0:0:0:
64,192,78778,1,0,0:0:0:70:LR_Chm J Whistle.wav
448,192,78778,1,0,0:0:0:0:
64,192,79181,128,2,80791:0:0:0:0:
448,192,79181,1,4,0:0:0:0:
448,192,79583,1,2,0:0:0:0:
448,192,79986,1,2,0:0:0:0:
448,192,80389,1,2,0:0:0:0:
192,192,80791,128,2,82402:0:0:0:0:
448,192,80791,1,0,0:0:0:0:
448,192,81194,1,2,0:0:0:0:
448,192,81597,1,2,0:0:0:0:
448,192,81999,1,2,0:0:0:0:
64,192,82402,1,2,0:0:0:0:
320,192,82402,128,0,83208:0:0:0:0:
64,192,82805,1,2,0:0:0:0:
64,192,83208,1,2,0:0:0:0:
448,192,83208,128,0,84013:0:0:0:0:
64,192,83610,1,2,0:0:0:0:
192,192,83610,128,0,84013:0:0:0:0:
64,192,84013,1,2,0:0:0:0:
320,192,84013,1,0,0:0:0:70:HHOpen.wav
192,192,84416,1,2,0:0:0:0:
320,192,84416,1,0,0:0:0:70:HHOpen.wav
448,192,84416,1,0,0:0:0:0:
64,192,84818,1,2,0:0:0:0:
192,192,84818,1,0,0:0:0:70:HHOpen.wav
448,192,84818,1,0,0:0:0:0:
320,192,85120,1,0,0:0:0:70:LR_Drum Rim Fast.wav
448,192,85120,1,0,0:0:0:0:
64,192,85221,1,2,0:0:0:0:
192,192,85221,1,0,0:0:0:70:HHOpen.wav
192,192,85422,1,0,0:0:0:70:tom03.wav
448,192,85422,1,0,0:0:0:0:
64,192,85624,1,4,0:0:0:0:
320,192,85624,1,2,0:0:0:0:
448,192,85624,1,0,0:0:0:0:
192,192,85724,1,0,0:0:0:0:
320,192,85825,1,0,0:0:0:0:
448,192,85926,1,0,0:0:0:0:
64,192,86026,1,8,0:0:0:0:
192,192,86026,1,0,0:0:0:0:
320,192,86127,1,0,0:0:0:0:
448,192,86228,1,0,0:0:0:0:
192,192,86328,1,0,0:0:0:0:
64,192,86429,128,2,86630:0:0:0:0:
320,192,86429,1,0,0:0:0:0:
448,192,86630,1,0,0:0:0:0:
192,192,86731,1,0,0:0:0:0:
320,192,86832,1,8,0:0:0:0:
448,192,86832,1,0,0:0:0:0:
192,192,86932,1,0,0:0:0:0:
64,192,87033,1,0,0:0:0:70:LR_Drum Rim Fast.wav
320,192,87134,1,0,0:0:0:70:LR_Drum Rim Fast.wav
64,192,87234,1,2,0:0:0:0:
192,192,87234,1,0,0:0:0:0:
448,192,87335,1,0,0:0:0:70:LR_Drum Rim Fast.wav
320,192,87436,1,0,0:0:0:0:
192,192,87536,1,0,0:0:0:0:
64,192,87637,1,8,0:0:0:0:
448,192,87637,1,0,0:0:0:0:
192,192,87738,1,0,0:0:0:0:
320,192,87838,1,0,0:0:0:70:LR_Drum Rim Fast.wav
64,192,87939,1,0,0:0:0:70:LR_Drum Rim Fast.wav
192,192,88040,1,2,0:0:0:0:
448,192,88040,128,0,88241:0:0:0:0:
320,192,88241,1,0,0:0:0:0:
64,192,88342,1,0,0:0:0:0:
192,192,88442,1,8,0:0:0:0:
448,192,88442,1,0,0:0:0:0:
320,192,88543,1,0,0:0:0:0:
64,192,88644,1,0,0:0:0:70:LR_Drum Rim Fast.wav
192,192,88744,1,0,0:0:0:70:LR_Drum Rim Fast.wav
320,192,88845,128,2,89046:0:0:0:0:
448,192,88845,1,0,0:0:0:0:
192,192,89046,128,0,89248:0:0:0:0:
64,192,89248,1,8,0:0:0:0:
448,192,89248,128,0,89449:0:0:0:0:
64,192,89449,128,0,89650:0:0:0:70:LR_Drum Rim Fast.wav
192,192,89650,1,2,0:0:0:0:
320,192,89650,1,0,0:0:0:0:
448,192,89751,1,0,0:0:0:70:LR_Drum Rim Fast.wav
320,192,89852,1,0,0:0:0:0:
64,192,89952,1,0,0:0:0:0:
192,192,90053,1,8,0:0:0:0:
448,192,90053,1,0,0:0:0:0:
320,192,90154,1,0,0:0:0:0:
64,192,90254,1,0,0:0:0:70:LR_Drum Rim Fast.wav
192,192,90355,1,0,0:0:0:70:LR_Drum Rim Fast.wav
320,192,90456,1,2,0:0:0:0:
448,192,90456,1,0,0:0:0:0:
192,192,90557,1,0,0:0:0:70:LR_Drum Rim Fast.wav
320,192,90657,1,0,0:0:0:0:
64,192,90758,1,0,0:0:0:0:
320,192,90859,1,8,0:0:0:0:
448,192,90859,1,0,0:0:0:0:
192,192,90959,1,0,0:0:0:0:
448,192,91060,1,0,0:0:0:70:LR_Drum Rim Fast.wav
320,192,91161,1,0,0:0:0:70:LR_Drum Rim Fast.wav
64,192,91261,1,2,0:0:0:0:
192,192,91261,128,0,91463:0:0:0:0:
448,192,91463,1,0,0:0:0:0:
320,192,91563,1,0,0:0:0:70:LR_Drum Rim Fast.wav
64,192,91664,1,8,0:0:0:0:
192,192,91664,1,0,0:0:0:70:LR_J Hit Pong Drop.wav
448,192,91765,1,0,0:0:0:0:
320,192,91865,1,2,0:0:0:0:
64,192,91966,1,0,0:0:0:0:
192,192,92067,1,2,0:0:0:0:
448,192,92067,1,4,0:0:0:0:
320,192,92167,1,0,0:0:0:0:
64,192,92268,1,0,0:0:0:0:
192,192,92369,1,0,0:0:0:0:
320,192,92469,1,8,0:0:0:0:
448,192,92469,1,0,0:0:0:0:
192,192,92570,1,0,0:0:0:0:
448,192,92671,1,0,0:0:0:70:LR_Drum Rim Fast.wav
320,192,92771,1,0,0:0:0:70:LR_Drum Rim Fast.wav
64,192,92872,128,2,93073:0:0:0:0:
192,192,92872,1,0,0:0:0:0:
320,192,93073,1,0,0:0:0:0:
448,192,93174,1,0,0:0:0:0:
64,192,93275,1,8,0:0:0:0:
192,192,93275,1,0,0:0:0:0:
320,192,93375,1,0,0:0:0:0:
192,192,93476,1,0,0:0:0:70:LR_Drum Rim Fast.wav
448,192,93577,1,0,0:0:0:70:LR_Drum Rim Fast.wav
64,192,93677,1,2,0:0:0:0:
320,192,93677,1,0,0:0:0:0:
192,192,93778,1,0,0:0:0:70:LR_Drum Rim Fast.wav
320,192,93879,1,0,0:0:0:0:
64,192,93979,1,0,0:0:0:0:
192,192,94080,1,8,0:0:0:0:
448,192,94080,1,0,0:0:0:0:
320,192,94181,1,0,0:0:0:0:
192,192,94281,1,0,0:0:0:70:LR_Drum Rim Fast.wav
64,192,94382,1,0,0:0:0:70:LR_Drum Rim Fast.wav
320,192,94483,1,2,0:0:0:0:
448,192,94483,128,0,94684:0:0:0:0:
64,192,94684,1,0,0:0:0:0:
192,192,94785,1,0,0:0:0:0:
64,192,94885,1,8,0:0:0:0:
320,192,94885,1,0,0:0:0:0:
448,192,94986,1,0,0:0:0:0:
192,192,95087,1,0,0:0:0:70:LR_Drum Rim Fast.wav
64,192,95187,1,0,0:0:0:70:LR_Drum Rim Fast.wav
320,192,95288,1,2,0:0:0:0:
448,192,95288,128,0,95489:0:0:0:0:
192,192,95489,128,0,95691:0:0:0:0:
64,192,95691,1,8,0:0:0:0:
320,192,95691,128,0,95892:0:0:0:0:
64,192,95892,128,0,96093:0:0:0:70:LR_Drum Rim Fast.wav
320,192,96093,1,2,0:0:0:0:
448,192,96093,1,0,0:0:0:0:
192,192,96194,1,0,0:0:0:70:LR_Drum Rim Fast.wav
64,192,96295,1,0,0:0:0:0:
320,192,96395,1,0,0:0:0:0:
64,192,96496,1,8,0:0:0:0:
192,192,96496,1,0,0:0:0:0:
448,192,96697,1,0,0:0:0:70:LR_Drum Rim Fast.wav
320,192,96798,1,0,0:0:0:70:LR_Drum Rim Fast.wav
64,192,96899,1,2,0:0:0:0:
192,192,96899,1,0,0:0:0:0:
320,192,96999,1,0,0:0:0:70:LR_Drum Rim Fast.wav
448,192,96999,1,0,0:0:0:0:
64,192,97100,1,0,0:0:0:0:
192,192,97100,1,0,0:0:0:0:
320,192,97201,1,0,0:0:0:70:LR_Drum Rim Fast.wav
448,192,97201,1,0,0:0:0:0:
64,192,97301,1,8,0:0:0:0:
192,192,97301,1,0,0:0:0:0:
320,192,97402,1,0,0:0:0:0:
448,192,97402,1,0,0:0:0:0:
64,192,97503,1,8,0:0:0:0:
192,192,97503,1,0,0:0:0:0:
320,192,97603,1,8,0:0:0:0:
448,192,97603,1,0,0:0:0:0:
64,192,97704,1,4,0:0:0:0:
448,192,97704,1,2,0:0:0:0:
192,192,97805,1,8,0:0:0:0:
320,192,97805,1,0,0:0:0:0:
64,192,97906,1,8,0:0:0:0:
448,192,97906,1,0,0:0:0:0:
192,192,98006,1,8,0:0:0:0:
320,192,98006,1,0,0:0:0:0:
64,192,98107,1,8,0:0:0:0:
448,192,98107,1,4,0:0:0:0:
320,192,98208,1,0,0:0:0:70:tom02.wav
192,192,98308,1,0,0:0:0:70:tom03.wav
64,192,98409,1,0,0:0:0:70:tom04.wav
320,192,98510,1,2,0:0:0:0:
448,192,98510,1,4,0:0:0:0:
192,192,98711,1,0,0:0:0:0:
64,192,98912,1,8,0:0:0:0:
320,192,98912,1,0,0:0:0:0:
448,192,98912,1,0,0:0:0:0:
192,192,99114,1,0,0:0:0:70:LR_Drum Rim Fast.wav
320,192,99214,1,0,0:0:0:70:LR_Drum Rim Fast.wav
64,192,99315,1,2,0:0:0:0:
448,192,99315,1,0,0:0:0:0:
320,192,99416,1,0,0:0:0:70:LR_Drum Rim Fast.wav
192,192,99516,1,0,0:0:0:0:
64,192,99718,1,8,0:0:0:0:
320,192,99718,1,0,0:0:0:0:
448,192,99718,1,0,0:0:0:0:
192,192,99919,1,0,0:0:0:0:
320,192,100120,1,2,0:0:0:0:
448,192,100120,1,0,0:0:0:0:
192,192,100322,1,0,0:0:0:0:
320,192,100422,1,0,0:0:0:0:
64,192,100523,1,8,0:0:0:0:
192,192,100523,1,0,0:0:0:0:
448,192,100523,1,0,0:0:0:0:
320,192,100724,1,0,0:0:0:70:LR_Drum Rim Fast.wav
192,192,100825,1,0,0:0:0:70:LR_Drum Rim Fast.wav
64,192,100926,1,2,0:0:0:0:
448,192,100926,1,0,0:0:0:0:
192,192,101026,1,0,0:0:0:70:LR_Drum Rim Fast.wav
320,192,101127,1,0,0:0:0:0:
448,192,101127,1,0,0:0:0:0:
64,192,101328,1,8,0:0:0:0:
192,192,101328,1,0,0:0:0:0:
448,192,101328,1,0,0:0:0:0:
320,192,101395,1,0,0:0:0:0:
192,192,101463,1,0,0:0:0:0:
64,192,101530,1,0,0:0:0:0:
320,192,101731,1,2,0:0:0:0:
448,192,101731,1,0,0:0:0:0:
192,192,101932,1,0,0:0:0:0:
64,192,102134,1,8,0:0:0:0:
320,192,102134,1,0,0:0:0:0:
448,192,102134,1,0,0:0:0:0:
192,192,102335,1,0,0:0:0:70:LR_Drum Rim Fast.wav
320,192,102436,1,0,0:0:0:70:LR_Drum Rim Fast.wav
64,192,102536,1,2,0:0:0:0:
448,192,102536,1,0,0:0:0:0:
192,192,102637,1,0,0:0:0:70:LR_Drum Rim Fast.wav
320,192,102738,1,0,0:0:0:0:
64,192,102939,1,8,0:0:0:0:
192,192,102939,1,0,0:0:0:0:
448,192,102939,1,0,0:0:0:0:
320,192,103140,1,0,0:0:0:0:
64,192,103342,1,2,0:0:0:0:
192,192,103342,1,0,0:0:0:0:
448,192,103543,1,0,0:0:0:0:
64,192,103744,1,8,0:0:0:0:
192,192,103744,1,0,0:0:0:0:
320,192,103744,1,0,0:0:0:0:
448,192,103946,1,0,0:0:0:70:LR_Drum Rim Fast.wav
320,192,104046,1,0,0:0:0:70:LR_Drum Rim Fast.wav
64,192,104147,1,2,0:0:0:0:
192,192,104147,1,0,0:0:0:0:
448,192,104248,1,0,0:0:0:70:LR_Drum Rim Fast.wav
320,192,104348,1,0,0:0:0:70:HHOpen.wav
64,192,104550,1,8,0:0:0:0:
192,192,104550,1,0,0:0:0:70:LR_Chm J Whistle.wav
448,192,104550,1,0,0:0:0:0:
320,192,104751,1,0,0:0:0:70:HHOpen.wav
64,192,104952,1,2,0:0:0:0:
192,192,104952,1,0,0:0:0:0:
448,192,105154,1,0,0:0:0:0:
64,192,105355,1,8,0:0:0:0:
192,192,105355,1,0,0:0:0:0:
320,192,105355,1,0,0:0:0:0:
448,192,105557,1,0,0:0:0:70:LR_Drum Rim Fast.wav
192,192,105657,1,0,0:0:0:70:LR_Drum Rim Fast.wav
64,192,105758,1,2,0:0:0:0:
320,192,105758,1,0,0:0:0:0:
448,192,105859,1,0,0:0:0:70:LR_Drum Rim Fast.wav
192,192,105959,1,0,0:0:0:0:
64,192,106161,1,8,0:0:0:0:
320,192,106161,1,0,0:0:0:0:
448,192,106161,1,0,0:0:0:0:
192,192,106362,1,0,0:0:0:0:
320,192,106563,1,2,0:0:0:0:
448,192,106563,1,0,0:0:0:0:
64,192,106765,1,0,0:0:0:0:
192,192,106966,1,8,0:0:0:0:
320,192,106966,1,0,0:0:0:0:
448,192,106966,1,0,0:0:0:0:
64,192,107167,1,0,0:0:0:70:LR_Drum Rim Fast.wav
192,192,107268,1,0,0:0:0:70:LR_Drum Rim Fast.wav
320,192,107369,1,2,0:0:0:0:
448,192,107369,1,0,0:0:0:0:
192,192,107469,1,0,0:0:0:70:LR_Drum Rim Fast.wav
64,192,107570,1,0,0:0:0:0:
448,192,107570,1,0,0:0:0:0:
64,192,107771,1,8,0:0:0:0:
192,192,107771,1,0,0:0:0:0:
448,192,107771,1,0,0:0:0:0:
320,192,107838,1,0,0:0:0:0:
192,192,107906,1,0,0:0:0:0:
64,192,107973,1,0,0:0:0:0:
320,192,108174,1,2,0:0:0:0:
448,192,108174,1,0,0:0:0:0:
64,192,108375,1,0,0:0:0:0:
192,192,108577,1,8,0:0:0:0:
320,192,108577,1,0,0:0:0:0:
448,192,108577,1,0,0:0:0:0:
64,192,108778,1,0,0:0:0:70:LR_Drum Rim Fast.wav
448,192,108879,1,0,0:0:0:70:LR_Drum Rim Fast.wav
64,192,108979,1,2,0:0:0:0:
192,192,108979,1,0,0:0:0:0:
320,192,109080,1,0,0:0:0:70:LR_Drum Rim Fast.wav
192,192,109181,1,0,0:0:0:0:
448,192,109181,1,0,0:0:0:0:
64,192,109382,1,8,0:0:0:0:
320,192,109382,1,0,0:0:0:0:
448,192,109382,1,0,0:0:0:0:
192,192,109583,1,0,0:0:0:0:
320,192,109583,1,0,0:0:0:0:
64,192,109785,1,2,0:0:0:0:
448,192,109785,1,0,0:0:0:70:HHOpen.wav
320,192,109986,1,0,0:0:0:70:tom01.wav
448,192,109986,1,0,0:0:0:0:
64,192,110053,1,0,0:0:0:70:tom02.wav
192,192,110053,1,0,0:0:0:0:
320,192,110120,1,0,0:0:0:70:tom03.wav
64,192,110187,1,8,0:0:0:0:
192,192,110187,1,0,0:0:0:70:HHOpen.wav
448,192,110187,1,0,0:0:0:0:
320,192,110389,1,0,0:0:0:70:LR_Drum Rim Fast.wav
448,192,110389,1,0,0:0:0:0:
64,192,110456,1,0,0:0:0:70:LR_Drum Rim Fast.wav
192,192,110456,1,0,0:0:0:0:
320,192,110523,1,0,0:0:0:70:LR_Drum Rim Fast.wav
64,192,110590,1,2,0:0:0:0:
192,192,110590,1,4,0:0:0:0:
448,192,110590,1,0,0:0:0:0:
320,192,110791,1,8,0:0:0:0:
448,192,110791,1,0,0:0:0:0:
64,192,110892,1,8,0:0:0:0:
192,192,110892,1,0,0:0:0:0:
320,192,110993,1,0,0:0:0:70:tom01.wav
448,192,110993,1,0,0:0:0:70:LR_J Hit Pong Drop.wav
64,192,111093,1,0,0:0:0:70:tom02.wav
192,192,111093,1,0,0:0:0:0:
320,192,111194,1,0,0:0:0:70:tom03.wav
448,192,111194,1,0,0:0:0:0:
64,192,111295,1,0,0:0:0:70:tom04.wav
192,192,111295,1,0,0:0:0:0:
64,192,111395,1,4,0:0:0:0:
320,192,111395,1,2,0:0:0:0:
448,192,111395,128,0,111999:0:0:0:0:
192,192,111597,1,0,0:0:0:0:
64,192,111798,1,8,0:0:0:0:
320,192,111798,1,0,0:0:0:0:
192,192,111999,128,0,112100:0:0:0:70:LR_Drum Rim Fast.wav
320,192,112100,1,0,0:0:0:70:LR_Drum Rim Fast.wav
192,192,112201,128,2,112805:0:0:0:0:
448,192,112201,1,0,0:0:0:0:
64,192,112301,1,0,0:0:0:70:LR_Drum Rim Fast.wav
320,192,112402,1,0,0:0:0:0:
64,192,112603,1,8,0:0:0:0:
448,192,112603,1,0,0:0:0:0:
320,192,112805,128,0,112906:0:0:0:0:
448,192,112906,1,0,0:0:0:70:LR_Drum Rim Fast.wav
64,192,113006,1,2,0:0:0:0:
320,192,113006,128,0,113711:0:0:0:0:
192,192,113208,1,0,0:0:0:0:
64,192,113409,1,8,0:0:0:0:
448,192,113409,1,0,0:0:0:0:
192,192,113610,1,0,0:0:0:70:LR_Drum Rim Fast.wav
64,192,113711,1,0,0:0:0:70:LR_Drum Rim Fast.wav
320,192,113812,128,2,114013:0:0:0:0:
448,192,113812,1,0,0:0:0:0:
192,192,113912,1,0,0:0:0:70:LR_Drum Rim Fast.wav
64,192,114013,128,0,114214:0:0:0:0:
192,192,114214,128,8,114416:0:0:0:0:
320,192,114214,1,0,0:0:0:0:
448,192,114416,128,0,114617:0:0:0:0:
64,192,114516,1,0,0:0:0:70:LR_Drum Rim Fast.wav
192,192,114617,1,2,0:0:0:0:
320,192,114617,128,0,115825:0:0:0:0:
64,192,114818,1,0,0:0:0:0:
192,192,115020,1,8,0:0:0:0:
448,192,115020,1,0,0:0:0:0:
64,192,115221,1,0,0:0:0:70:LR_Drum Rim Fast.wav
192,192,115322,1,0,0:0:0:70:LR_Drum Rim Fast.wav
448,192,115422,1,2,0:0:0:0:
192,192,115523,1,0,0:0:0:70:LR_Drum Rim Fast.wav
64,192,115624,1,0,0:0:0:0:
192,192,115825,1,8,0:0:0:0:
448,192,115825,1,0,0:0:0:0:
64,192,116026,128,0,116127:0:0:0:0:
192,192,116127,128,0,116228:0:0:0:70:LR_Drum Rim Fast.wav
64,192,116228,128,2,117637:0:0:0:0:
320,192,116228,1,0,0:0:0:0:
448,192,116429,1,0,0:0:0:0:
192,192,116630,1,8,0:0:0:0:
320,192,116630,1,4,0:0:0:0:
448,192,116832,1,0,0:0:0:70:LR_Drum Rim Fast.wav
320,192,116932,1,0,0:0:0:70:LR_Drum Rim Fast.wav
192,192,117033,1,2,0:0:0:0:
448,192,117134,1,0,0:0:0:70:LR_Drum Rim Fast.wav
320,192,117234,1,0,0:0:0:70:HHOpen.wav
448,192,117335,1,0,0:0:0:70:LR_Drum Rim Fast.wav
192,192,117436,1,8,0:0:0:0:
320,192,117436,1,0,0:0:0:50:ride01.wav
320,192,117637,1,8,0:0:0:0:
448,192,117637,1,0,0:0:0:0:
64,192,117738,1,8,0:0:0:0:
192,192,117738,1,0,0:0:0:0:
320,192,117838,1,2,0:0:0:0:
448,192,117838,128,4,118442:0:0:0:0:
64,192,118040,1,0,0:0:0:0:
64,192,118241,1,8,0:0:0:0:
192,192,118241,1,0,0:0:0:0:
320,192,118442,128,0,118543:0:0:0:70:LR_Drum Rim Fast.wav
192,192,118543,1,0,0:0:0:70:LR_Drum Rim Fast.wav
64,192,118644,1,2,0:0:0:0:
320,192,118644,128,0,119248:0:0:0:0:
448,192,118744,1,0,0:0:0:70:LR_Drum Rim Fast.wav
192,192,118845,1,0,0:0:0:0:
64,192,119046,1,8,0:0:0:0:
448,192,119046,1,0,0:0:0:0:
192,192,119248,128,0,119348:0:0:0:0:
448,192,119348,1,0,0:0:0:70:LR_Drum Rim Fast.wav
64,192,119449,1,2,0:0:0:0:
192,192,119449,128,0,120154:0:0:0:0:
320,192,119650,1,0,0:0:0:0:
64,192,119852,1,8,0:0:0:0:
448,192,119852,1,0,0:0:0:0:
320,192,120053,1,0,0:0:0:70:LR_Drum Rim Fast.wav
448,192,120154,1,0,0:0:0:70:LR_Drum Rim Fast.wav
64,192,120254,128,2,120456:0:0:0:0:
192,192,120254,1,0,0:0:0:0:
448,192,120355,1,0,0:0:0:70:LR_Drum Rim Fast.wav
320,192,120456,128,0,120657:0:0:0:0:
192,192,120557,1,0,0:0:0:0:
64,192,120657,128,8,120859:0:0:0:0:
448,192,120657,1,0,0:0:0:0:
448,192,120859,128,0,121060:0:0:0:0:
320,192,120959,1,0,0:0:0:70:LR_Drum Rim Fast.wav
64,192,121060,1,2,0:0:0:0:
192,192,121060,128,0,122268:0:0:0:0:
320,192,121261,1,0,0:0:0:0:
64,192,121463,1,8,0:0:0:0:
448,192,121463,1,0,0:0:0:0:
320,192,121664,1,0,0:0:0:70:LR_Drum Rim Fast.wav
448,192,121765,1,0,0:0:0:70:LR_Drum Rim Fast.wav
64,192,121865,1,2,0:0:0:0:
320,192,121966,1,0,0:0:0:70:LR_Drum Rim Fast.wav
448,192,122067,1,0,0:0:0:0:
64,192,122268,1,8,0:0:0:0:
320,192,122268,1,0,0:0:0:0:
448,192,122469,128,0,122570:0:0:0:0:
320,192,122570,128,0,122671:0:0:0:70:LR_Drum Rim Fast.wav
192,192,122671,1,2,0:0:0:0:
448,192,122671,128,0,123476:0:0:0:0:
64,192,122872,1,0,0:0:0:0:
192,192,122973,1,0,0:0:0:0:
64,192,123073,1,8,0:0:0:0:
320,192,123073,1,4,0:0:0:0:
192,192,123275,1,0,0:0:0:70:LR_Drum Rim Fast.wav
320,192,123375,1,0,0:0:0:70:LR_Drum Rim Fast.wav
64,192,123476,1,2,0:0:0:0:
192,192,123476,1,0,0:0:0:0:
320,192,123577,1,8,0:0:0:0:
448,192,123577,1,0,0:0:0:0:
64,192,123677,1,0,0:0:0:70:tom01.wav
192,192,123677,1,0,0:0:0:0:
320,192,123778,1,0,0:0:0:70:tom02.wav
448,192,123778,1,0,0:0:0:0:
64,192,123879,1,0,0:0:0:70:tom03.wav
192,192,123879,1,0,0:0:0:0:
320,192,123979,1,0,0:0:0:0:
448,192,123979,1,0,0:0:0:0:
64,192,124080,1,0,0:0:0:70:tom04.wav
192,192,124080,1,0,0:0:0:0:
320,192,124181,1,0,0:0:0:70:tom04.wav
448,192,124181,1,0,0:0:0:0:
64,192,124281,1,2,0:0:0:0:
192,192,124281,1,4,0:0:0:0:
448,192,124281,1,0,0:0:0:0:
320,192,124684,1,0,0:0:0:0:
64,192,124885,1,2,0:0:0:0:
448,192,124885,1,0,0:0:0:0:
64,192,125087,1,8,0:0:0:0:
192,192,125087,1,0,0:0:0:0:
320,192,125087,1,0,0:0:0:0:
448,192,125489,1,0,0:0:0:0:
192,192,125691,1,2,0:0:0:0:
320,192,125691,1,0,0:0:0:0:
64,192,125892,1,2,0:0:0:0:
192,192,125892,1,0,0:0:0:50:ride01.wav
64,192,126194,1,2,0:0:0:0:
448,192,126194,1,0,0:0:0:50:ride01.wav
64,192,126496,1,2,0:0:0:0:
320,192,126496,1,0,0:0:0:50:ride01.wav
64,192,126697,1,8,0:0:0:0:
448,192,126697,1,0,0:0:0:0:
192,192,126765,1,8,0:0:0:0:
320,192,126765,1,0,0:0:0:0:
448,192,126832,1,8,0:0:0:0:
64,192,126899,1,2,0:0:0:0:
192,192,126899,1,0,0:0:0:0:
320,192,126999,1,8,0:0:0:0:
448,192,126999,1,0,0:0:0:0:
64,192,127100,1,0,0:0:0:70:tom01.wav
192,192,127100,1,0,0:0:0:0:
320,192,127201,1,0,0:0:0:70:tom02.wav
448,192,127201,1,0,0:0:0:0:
64,192,127301,1,0,0:0:0:70:tom03.wav
192,192,127301,1,0,0:0:0:0:
320,192,127402,1,0,0:0:0:70:tom04.wav
448,192,127402,1,0,0:0:0:0:
64,192,127503,1,4,0:0:0:0:
192,192,127503,1,2,0:0:0:0:
448,192,127503,1,0,0:0:0:0:
320,192,127906,1,0,0:0:0:0:
64,192,128107,1,2,0:0:0:0:
192,192,128107,1,0,0:0:0:0:
64,192,128308,1,8,0:0:0:0:
320,192,128308,1,0,0:0:0:0:
448,192,128308,1,0,0:0:0:0:
64,192,128610,1,8,0:0:0:0:
192,192,128610,1,0,0:0:0:0:
448,192,128610,1,0,0:0:0:0:
320,192,128912,1,2,0:0:0:0:
448,192,128912,1,0,0:0:0:0:
64,192,129114,1,8,0:0:0:0:
448,192,129114,1,0,0:0:0:0:
192,192,129181,1,8,0:0:0:0:
320,192,129181,1,0,0:0:0:0:
64,192,129248,1,8,0:0:0:0:
320,192,129315,1,8,0:0:0:0:
448,192,129315,1,0,0:0:0:0:
64,192,129416,1,8,0:0:0:0:
192,192,129416,1,0,0:0:0:0:
320,192,129516,1,8,0:0:0:0:
448,192,129516,1,0,0:0:0:0:
64,192,129617,1,8,0:0:0:0:
192,192,129617,1,0,0:0:0:0:
320,192,129718,1,8,0:0:0:0:
448,192,129718,1,0,0:0:0:0:
64,192,129818,1,8,0:0:0:0:
192,192,129818,1,0,0:0:0:0:
320,192,129919,1,0,0:0:0:70:tom01.wav
448,192,129919,1,0,0:0:0:0:
64,192,130020,1,0,0:0:0:70:tom01.wav
192,192,130020,1,0,0:0:0:0:
320,192,130120,1,0,0:0:0:70:tom02.wav
448,192,130120,1,0,0:0:0:0:
192,192,130221,1,0,0:0:0:70:tom02.wav
320,192,130221,1,0,0:0:0:0:
64,192,130322,1,0,0:0:0:70:tom03.wav
192,192,130322,1,0,0:0:0:0:
448,192,130422,1,0,0:0:0:70:tom03.wav
320,192,130523,1,0,0:0:0:70:tom04.wav
192,192,130624,1,0,0:0:0:70:tom04.wav
64,192,130724,1,4,0:0:0:0:
320,192,130724,1,2,0:0:0:0:
448,192,130724,1,0,0:0:0:0:
192,192,130926,1,2,0:0:0:0:
320,192,130926,1,0,0:0:0:0:
64,192,131127,1,8,0:0:0:0:
192,192,131127,1,0,0:0:0:0:
448,192,131127,1,0,0:0:0:0:
320,192,131228,1,2,0:0:0:0:
448,192,131228,1,0,0:0:0:0:
64,192,131328,1,0,0:0:0:0:
192,192,131328,1,0,0:0:0:0:
320,192,131530,1,2,0:0:0:0:
448,192,131530,1,0,0:0:0:0:
64,192,131597,1,8,0:0:0:0:
192,192,131597,1,0,0:0:0:0:
320,192,131664,1,8,0:0:0:0:
448,192,131664,1,0,0:0:0:0:
64,192,131832,1,8,0:0:0:0:
448,192,131832,1,0,0:0:0:0:
192,192,131932,1,8,0:0:0:0:
320,192,131932,1,0,0:0:0:0:
64,192,132134,1,2,0:0:0:0:
192,192,132134,1,4,0:0:0:0:
448,192,132134,1,0,0:0:0:0:
320,192,132335,1,0,0:0:0:0:
64,192,132436,1,8,0:0:0:0:
192,192,132436,1,0,0:0:0:0:
64,192,132536,1,0,0:0:0:70:LR_Drum Rim Fast.wav
320,192,132536,1,0,0:0:0:0:
448,192,132536,1,0,0:0:0:0:
192,192,132738,1,2,0:0:0:0:
320,192,132738,1,4,0:0:0:0:
64,192,132939,1,0,0:0:0:0:
320,192,133040,1,8,0:0:0:0:
448,192,133040,1,0,0:0:0:0:
64,192,133140,1,8,0:0:0:0:
192,192,133140,1,4,0:0:0:0:
448,192,133140,1,0,0:0:0:0:
320,192,133342,1,0,0:0:0:0:
64,192,133442,1,8,0:0:0:0:
192,192,133442,1,0,0:0:0:0:
320,192,133543,1,8,0:0:0:0:
448,192,133543,1,0,0:0:0:0:
64,192,133644,1,8,0:0:0:0:
192,192,133644,1,0,0:0:0:0:
320,192,133744,1,0,0:0:0:70:tom03.wav
448,192,133744,1,0,0:0:0:0:
64,192,133845,1,0,0:0:0:70:tom04.wav
192,192,133845,1,0,0:0:0:0:
448,192,133946,1,0,0:0:0:70:tom01.wav
320,192,134013,1,0,0:0:0:70:tom02.wav
64,192,134080,1,0,0:0:0:70:tom01.wav
192,192,134080,1,0,0:0:0:0:
64,192,134248,1,0,0:0:0:70:tom03.wav
448,192,134248,1,0,0:0:0:0:
192,192,134348,1,0,0:0:0:70:tom01.wav
320,192,134348,1,0,0:0:0:0:
64,192,134483,1,0,0:0:0:70:tom02.wav
192,192,134550,1,0,0:0:0:70:tom03.wav
320,192,134617,1,0,0:0:0:70:tom04.wav
448,192,134617,1,0,0:0:0:0:
64,192,134751,1,0,0:0:0:70:tom03.wav
192,192,134751,1,0,0:0:0:0:
320,192,134919,1,0,0:0:0:70:tom04.wav
448,192,134919,1,0,0:0:0:0:
192,192,135053,1,0,0:0:0:70:tom02.wav
320,192,135053,1,0,0:0:0:0:
64,192,135154,1,0,0:0:0:70:tom03.wav
192,192,135154,1,0,0:0:0:0:
320,192,135322,1,0,0:0:0:70:tom04.wav
448,192,135322,1,0,0:0:0:0:
192,192,135456,1,0,0:0:0:70:tom03.wav
320,192,135456,1,0,0:0:0:0:
64,192,135557,1,8,0:0:0:0:
448,192,135557,1,0,0:0:0:0:
192,192,135624,1,0,0:0:0:70:tom01.wav
320,192,135691,1,0,0:0:0:70:tom03.wav
64,192,135758,1,8,0:0:0:0:
448,192,135758,1,0,0:0:0:0:
192,192,135825,1,0,0:0:0:70:tom01.wav
320,192,135892,1,0,0:0:0:70:tom02.wav
64,192,135959,1,8,0:0:0:0:
448,192,135959,1,0,0:0:0:0:
192,192,136026,1,0,0:0:0:70:tom03.wav
320,192,136093,1,0,0:0:0:70:tom02.wav
64,192,136161,1,8,0:0:0:0:
448,192,136161,1,0,0:0:0:0:
192,192,136228,1,0,0:0:0:70:tom03.wav
320,192,136295,1,0,0:0:0:70:tom04.wav
64,192,136362,1,8,0:0:0:0:
448,192,136362,1,0,0:0:0:0:
192,192,136429,1,0,0:0:0:70:tom01.wav
320,192,136496,1,0,0:0:0:70:tom02.wav
448,192,136563,1,0,0:0:0:70:tom03.wav
320,192,136630,1,0,0:0:0:70:tom03.wav
192,192,136697,1,0,0:0:0:70:tom04.wav
64,192,136765,1,8,0:0:0:0:
448,192,136765,1,4,0:0:0:0:
192,192,136966,1,0,0:0:0:0:
64,192,137167,1,2,0:0:0:0:
320,192,137167,1,4,0:0:0:0:
448,192,137167,1,0,0:0:0:0:
192,192,137268,1,0,0:0:0:0:
448,192,137369,1,0,0:0:0:0:
320,192,137469,1,0,0:0:0:0:
192,192,137570,1,0,0:0:0:0:
64,192,137771,1,2,0:0:0:0:
320,192,137771,1,0,0:0:0:0:
448,192,137872,1,0,0:0:0:0:
64,192,137973,1,2,0:0:0:0:
192,192,137973,1,0,0:0:0:0:
320,192,138073,1,0,0:0:0:0:
448,192,138174,1,0,0:0:0:70:LR_J Hit Pong Drop.wav
64,192,138375,1,2,0:0:0:0:
192,192,138375,1,0,0:0:0:70:LR_J Hit Pong Drop.wav
448,192,138577,1,0,0:0:0:0:
64,192,138778,1,2,0:0:0:0:
320,192,138778,1,0,0:0:0:0:
192,192,138979,1,0,0:0:0:0:
448,192,139181,1,0,0:0:0:0:
192,192,139382,1,2,0:0:0:0:
320,192,139382,1,0,0:0:0:0:
64,192,139483,1,0,0:0:0:0:
320,192,139583,1,2,0:0:0:0:
448,192,139583,1,0,0:0:0:0:
64,192,139785,1,0,0:0:0:70:tom02.wav
448,192,139785,1,0,0:0:0:50:LR_Chm J Whistle.wav
320,192,139852,1,0,0:0:0:50:LR_Chm J Whistle.wav
192,192,139919,1,0,0:0:0:50:LR_Chm J Whistle.wav
64,192,139986,1,0,0:0:0:50:LR_Chm J Whistle.wav
448,192,139986,1,0,0:0:0:0:
64,192,140187,1,2,0:0:0:0:
192,192,140187,1,4,0:0:0:0:
320,192,140187,1,0,0:0:0:0:
192,192,140389,1,4,0:0:0:0:
320,192,140389,1,2,0:0:0:0:
448,192,140389,1,0,0:0:0:0:
64,192,140489,1,0,0:0:0:0:
448,192,140590,1,0,0:0:0:0:
192,192,140691,1,0,0:0:0:0:
320,192,140791,1,0,0:0:0:0:
64,192,140892,1,0,0:0:0:0:
192,192,140993,1,2,0:0:0:0:
448,192,140993,1,0,0:0:0:0:
320,192,141093,1,0,0:0:0:0:
64,192,141194,1,2,0:0:0:0:
192,192,141194,1,0,0:0:0:0:
448,192,141295,1,0,0:0:0:0:
320,192,141395,1,0,0:0:0:0:
192,192,141496,1,0,0:0:0:0:
64,192,141597,1,2,0:0:0:0:
448,192,141597,1,0,0:0:0:0:
320,192,141798,1,0,0:0:0:0:
64,192,141999,128,2,142402:0:0:0:0:
192,192,141999,1,0,0:0:0:0:
448,192,142402,1,0,0:0:0:0:
64,192,142603,1,2,0:0:0:0:
192,192,142603,1,0,0:0:0:0:
320,192,142704,1,0,0:0:0:0:
192,192,142805,1,2,0:0:0:0:
448,192,142805,1,0,0:0:0:0:
64,192,143006,1,2,0:0:0:0:
320,192,143006,1,0,0:0:0:70:LR_J Hit Pong Drop.wav
64,192,143208,1,2,0:0:0:0:
192,192,143208,1,0,0:0:0:70:LR_J Hit Pong Drop.wav
448,192,143208,1,0,0:0:0:70:HHOpen.wav
320,192,143409,1,0,0:0:0:0:
64,192,143610,1,2,0:0:0:0:
192,192,143610,1,4,0:0:0:0:
448,192,143610,1,0,0:0:0:0:
320,192,143812,1,0,0:0:0:0:
192,192,143912,1,0,0:0:0:0:
448,192,144013,1,0,0:0:0:0:
320,192,144114,1,0,0:0:0:0:
64,192,144214,1,2,0:0:0:0:
192,192,144214,1,0,0:0:0:0:
320,192,144315,1,0,0:0:0:0:
64,192,144416,1,2,0:0:0:0:
448,192,144416,1,0,0:0:0:0:
192,192,144617,1,0,0:0:0:0:
320,192,144818,1,2,0:0:0:0:
448,192,144818,1,0,0:0:0:0:
64,192,145020,1,0,0:0:0:0:
192,192,145221,1,2,0:0:0:0:
448,192,145221,1,0,0:0:0:0:
320,192,145422,1,0,0:0:0:0:
64,192,145624,1,0,0:0:0:0:
320,192,145825,1,2,0:0:0:0:
448,192,145825,1,0,0:0:0:0:
192,192,145926,1,0,0:0:0:0:
64,192,146026,1,2,0:0:0:0:
448,192,146026,1,0,0:0:0:0:
64,192,146228,1,0,0:0:0:70:tom02.wav
192,192,146228,1,0,0:0:0:50:LR_Chm J Whistle.wav
320,192,146295,1,2,0:0:0:0:
448,192,146295,1,0,0:0:0:50:LR_Chm J Whistle.wav
192,192,146362,1,2,0:0:0:0:
64,192,146429,1,8,0:0:0:0:
320,192,146429,1,0,0:0:0:50:LR_Chm J Whistle.wav
448,192,146429,1,0,0:0:0:0:
192,192,146630,1,0,0:0:0:0:
64,192,146832,1,4,0:0:0:0:
320,192,146832,1,2,0:0:0:0:
448,192,146832,1,0,0:0:0:0:
192,192,147033,1,2,0:0:0:0:
320,192,147033,1,0,0:0:0:0:
64,192,147234,1,8,0:0:0:0:
192,192,147234,1,0,0:0:0:0:
448,192,147234,1,0,0:0:0:0:
320,192,147436,1,2,0:0:0:0:
448,192,147436,1,0,0:0:0:0:
64,192,147536,1,2,0:0:0:0:
192,192,147536,1,0,0:0:0:0:
64,192,147637,1,8,0:0:0:0:
320,192,147637,1,0,0:0:0:0:
448,192,147637,1,0,0:0:0:0:
192,192,147838,1,2,0:0:0:0:
320,192,147838,1,0,0:0:0:0:
64,192,148040,1,8,0:0:0:0:
192,192,148040,1,0,0:0:0:0:
448,192,148040,1,0,0:0:0:0:
320,192,148241,1,2,0:0:0:0:
448,192,148241,1,0,0:0:0:0:
64,192,148342,1,2,0:0:0:0:
192,192,148342,1,0,0:0:0:0:
64,192,148442,1,8,0:0:0:0:
320,192,148442,1,4,0:0:0:0:
448,192,148442,1,0,0:0:0:0:
192,192,148644,1,2,0:0:0:0:
320,192,148644,1,0,0:0:0:0:
64,192,148845,1,8,0:0:0:0:
320,192,148845,1,0,0:0:0:0:
448,192,148845,1,0,0:0:0:0:
64,192,149046,1,2,0:0:0:0:
192,192,149046,1,0,0:0:0:0:
320,192,149147,1,2,0:0:0:0:
448,192,149147,1,0,0:0:0:0:
64,192,149248,1,8,0:0:0:0:
192,192,149248,1,0,0:0:0:0:
448,192,149248,1,0,0:0:0:0:
192,192,149449,1,2,0:0:0:0:
320,192,149449,1,0,0:0:0:0:
64,192,149650,1,8,0:0:0:0:
320,192,149650,1,0,0:0:0:0:
448,192,149650,1,0,0:0:0:0:
64,192,149852,1,2,0:0:0:0:
192,192,149852,1,0,0:0:0:0:
320,192,149952,1,2,0:0:0:0:
448,192,149952,1,0,0:0:0:0:
64,192,150053,1,8,0:0:0:0:
192,192,150053,1,4,0:0:0:0:
448,192,150053,1,0,0:0:0:0:
192,192,150355,1,0,0:0:0:70:tom02.wav
448,192,150355,1,0,0:0:0:0:
64,192,150657,1,0,0:0:0:70:tom04.wav
320,192,150657,1,0,0:0:0:0:
64,192,150859,1,8,0:0:0:0:
192,192,150859,1,4,0:0:0:0:
448,192,150859,1,0,0:0:0:0:
192,192,151161,1,0,0:0:0:70:tom01.wav
320,192,151161,1,0,0:0:0:0:
320,192,151463,1,0,0:0:0:70:tom03.wav
448,192,151463,1,0,0:0:0:0:
64,192,151664,1,4,0:0:0:0:
192,192,151664,1,2,0:0:0:0:
448,192,151664,1,0,0:0:0:0:
64,192,151865,1,8,0:0:0:0:
192,192,151865,1,0,0:0:0:70:LR_J Hit Pong Drop.wav
320,192,151865,1,0,0:0:0:0:
64,192,152067,1,8,0:0:0:0:
192,192,152067,1,2,0:0:0:0:
448,192,152067,1,0,0:0:0:70:LR_J Hit Pong Drop.wav
64,192,152268,1,8,0:0:0:0:
192,192,152268,1,0,0:0:0:70:LR_J Hit Pong Drop.wav
320,192,152268,1,0,0:0:0:0:
64,192,152469,1,8,0:0:0:0:
320,192,152469,1,2,0:0:0:0:
448,192,152469,1,0,0:0:0:70:LR_J Hit Pong Drop.wav
192,192,152671,1,8,0:0:0:0:
320,192,152671,1,0,0:0:0:70:LR_J Hit Pong Drop.wav
448,192,152671,1,0,0:0:0:0:
64,192,152872,1,8,0:0:0:0:
320,192,152872,1,2,0:0:0:0:
448,192,152872,1,0,0:0:0:70:LR_J Hit Pong Drop.wav
192,192,153073,1,8,0:0:0:0:
320,192,153073,1,0,0:0:0:70:LR_J Hit Pong Drop.wav
448,192,153073,1,0,0:0:0:0:
64,192,153275,1,2,0:0:0:0:
192,192,153275,1,0,0:0:0:70:HHOpen.wav
448,192,153476,1,0,0:0:0:0:
320,192,153677,1,0,0:0:0:0:
192,192,153879,1,0,0:0:0:0:
64,192,154080,1,0,0:0:0:0:
320,192,154281,1,2,0:0:0:0:
448,192,154281,1,0,0:0:0:0:
64,192,154348,1,2,0:0:0:0:
192,192,154348,1,0,0:0:0:0:
320,192,154416,1,2,0:0:0:0:
64,192,154483,1,8,0:0:0:0:
192,192,154483,1,4,0:0:0:0:
448,192,154483,1,0,0:0:0:0:
192,192,154885,1,2,0:0:0:0:
320,192,154885,1,4,0:0:0:0:
448,192,154885,1,0,0:0:0:0:
64,192,155087,1,8,0:0:0:0:
192,192,155087,1,0,0:0:0:0:
320,192,155187,1,0,0:0:0:0:
64,192,155288,1,2,0:0:0:0:
448,192,155288,1,0,0:0:0:0:
192,192,155389,1,2,0:0:0:0:
320,192,155389,1,0,0:0:0:0:
64,192,155489,1,8,0:0:0:0:
448,192,155489,1,0,0:0:0:0:
192,192,155590,1,0,0:0:0:0:
320,192,155691,1,2,0:0:0:0:
448,192,155691,1,0,0:0:0:0:
64,192,155791,1,0,0:0:0:0:
192,192,155892,1,8,0:0:0:0:
320,192,155892,1,0,0:0:0:0:
64,192,155993,1,2,0:0:0:0:
448,192,155993,1,0,0:0:0:0:
320,192,156093,1,0,0:0:0:0:
64,192,156194,1,2,0:0:0:0:
192,192,156194,1,0,0:0:0:0:
320,192,156295,1,8,0:0:0:0:
448,192,156295,1,0,0:0:0:0:
192,192,156395,1,0,0:0:0:0:
64,192,156496,1,2,0:0:0:0:
448,192,156496,1,0,0:0:0:0:
320,192,156597,1,0,0:0:0:0:
64,192,156697,1,8,0:0:0:0:
192,192,156697,1,0,0:0:0:0:
448,192,156798,1,0,0:0:0:0:
192,192,156899,1,2,0:0:0:0:
320,192,156899,1,0,0:0:0:0:
64,192,156999,1,2,0:0:0:0:
448,192,156999,1,0,0:0:0:0:
192,192,157100,1,8,0:0:0:0:
320,192,157100,1,0,0:0:0:0:
64,192,157201,1,0,0:0:0:0:
320,192,157301,1,2,0:0:0:0:
448,192,157301,1,0,0:0:0:0:
192,192,157402,1,0,0:0:0:0:
64,192,157503,1,8,0:0:0:0:
448,192,157503,1,0,0:0:0:0:
192,192,157603,1,2,0:0:0:0:
320,192,157603,1,0,0:0:0:0:
64,192,157704,1,0,0:0:0:70:LR_J Hit Pong Drop.wav
320,192,157805,1,2,0:0:0:0:
448,192,157805,1,0,0:0:0:0:
64,192,157906,1,8,0:0:0:0:
192,192,157906,1,0,0:0:0:70:LR_J Hit Pong Drop.wav
320,192,158006,1,0,0:0:0:0:
192,192,158107,1,2,0:0:0:0:
448,192,158107,1,0,0:0:0:0:
64,192,158208,1,0,0:0:0:0:
320,192,158308,1,8,0:0:0:0:
448,192,158308,1,4,0:0:0:0:
192,192,158409,1,0,0:0:0:0:
64,192,158510,1,2,0:0:0:0:
448,192,158510,1,0,0:0:0:0:
192,192,158610,1,2,0:0:0:0:
320,192,158610,1,0,0:0:0:0:
64,192,158711,1,8,0:0:0:0:
448,192,158711,1,0,0:0:0:0:
320,192,158812,1,0,0:0:0:0:
64,192,158912,1,2,0:0:0:0:
192,192,158912,1,0,0:0:0:0:
448,192,159013,1,0,0:0:0:0:
192,192,159114,1,8,0:0:0:0:
320,192,159114,1,4,0:0:0:0:
64,192,159214,1,2,0:0:0:0:
320,192,159315,1,0,0:0:0:0:
448,192,159315,1,0,0:0:0:0:
64,192,159416,1,2,0:0:0:0:
192,192,159416,1,0,0:0:0:0:
320,192,159516,1,8,0:0:0:0:
448,192,159516,1,0,0:0:0:0:
192,192,159617,1,0,0:0:0:0:
64,192,159718,1,2,0:0:0:0:
448,192,159718,1,4,0:0:0:0:
320,192,159818,1,0,0:0:0:0:
64,192,159919,1,8,0:0:0:0:
192,192,159919,1,0,0:0:0:70:LR_Chm J Whistle.wav
320,192,160020,1,0,0:0:0:70:LR_Chm J Whistle.wav
64,192,160120,1,2,0:0:0:0:
448,192,160120,1,0,0:0:0:70:LR_Chm J Whistle.wav
192,192,160221,1,2,0:0:0:0:
320,192,160221,1,0,0:0:0:0:
64,192,160322,1,8,0:0:0:0:
448,192,160322,1,0,0:0:0:70:LR_Chm J Whistle.wav
192,192,160422,1,0,0:0:0:70:LR_Chm J Whistle.wav
320,192,160523,1,8,0:0:0:0:
448,192,160523,1,4,0:0:0:0:
64,192,160590,1,0,0:0:0:70:tom01.wav
192,192,160590,1,0,0:0:0:0:
320,192,160657,1,0,0:0:0:70:tom01.wav
448,192,160657,1,0,0:0:0:0:
64,192,160724,1,0,0:0:0:70:tom02.wav
192,192,160724,1,0,0:0:0:0:
320,192,160791,1,0,0:0:0:70:tom03.wav
448,192,160791,1,0,0:0:0:0:
192,192,160859,1,0,0:0:0:70:tom04.wav
64,192,160926,1,6,0:0:0:0:
448,192,160926,1,0,0:0:0:70:LR_J Hit Pong Drop.wav
192,192,161026,1,8,0:0:0:0:
320,192,161026,1,0,0:0:0:0:
64,192,161127,1,8,0:0:0:0:
448,192,161127,1,0,0:0:0:0:
192,192,161228,1,8,0:0:0:0:
64,192,161328,1,4,0:0:0:0:
320,192,161328,1,2,0:0:0:0:
448,192,161328,1,0,0:0:0:0:
64,192,161530,1,8,0:0:0:0:
192,192,161530,1,0,0:0:0:0:
320,192,161630,1,0,0:0:0:0:
64,192,161731,1,2,0:0:0:0:
448,192,161731,1,0,0:0:0:0:
192,192,161832,1,2,0:0:0:0:
320,192,161832,1,0,0:0:0:0:
64,192,161932,1,8,0:0:0:0:
448,192,161932,1,0,0:0:0:0:
192,192,162033,1,0,0:0:0:0:
320,192,162134,1,2,0:0:0:0:
448,192,162134,1,0,0:0:0:0:
64,192,162234,1,0,0:0:0:0:
192,192,162335,1,8,0:0:0:0:
320,192,162335,1,0,0:0:0:0:
64,192,162436,1,2,0:0:0:0:
448,192,162436,1,0,0:0:0:0:
320,192,162536,1,0,0:0:0:0:
64,192,162637,1,2,0:0:0:0:
192,192,162637,1,0,0:0:0:0:
320,192,162738,1,8,0:0:0:0:
448,192,162738,1,0,0:0:0:0:
192,192,162838,1,0,0:0:0:0:
64,192,162939,1,2,0:0:0:0:
448,192,162939,1,0,0:0:0:0:
320,192,163040,1,0,0:0:0:0:
64,192,163140,1,8,0:0:0:0:
192,192,163140,1,0,0:0:0:0:
448,192,163241,1,0,0:0:0:0:
192,192,163342,1,2,0:0:0:0:
320,192,163342,1,0,0:0:0:0:
64,192,163442,1,2,0:0:0:0:
448,192,163442,1,0,0:0:0:0:
192,192,163543,1,8,0:0:0:0:
320,192,163543,1,0,0:0:0:0:
64,192,163644,1,0,0:0:0:0:
320,192,163744,1,2,0:0:0:0:
448,192,163744,1,0,0:0:0:0:
192,192,163845,1,0,0:0:0:0:
64,192,163946,1,8,0:0:0:0:
448,192,163946,1,0,0:0:0:0:
192,192,164046,1,2,0:0:0:0:
320,192,164046,1,0,0:0:0:0:
448,192,164147,1,0,0:0:0:70:LR_Drum Rim Fast.wav
64,192,164248,1,2,0:0:0:0:
192,192,164248,1,0,0:0:0:0:
320,192,164348,1,8,0:0:0:0:
448,192,164348,1,0,0:0:0:0:
192,192,164449,1,0,0:0:0:0:
64,192,164550,1,6,0:0:0:0:
320,192,164550,1,0,0:0:0:70:LR_J Hit Pong Drop.wav
448,192,164650,1,0,0:0:0:0:
64,192,164751,1,8,0:0:0:0:
192,192,164751,1,0,0:0:0:70:LR_Chm J Whistle.wav
320,192,164852,1,0,0:0:0:0:
64,192,164952,1,2,0:0:0:0:
448,192,164952,1,0,0:0:0:70:LR_Chm J Whistle.wav
192,192,165053,1,2,0:0:0:0:
320,192,165053,1,0,0:0:0:0:
64,192,165154,1,8,0:0:0:0:
448,192,165154,1,0,0:0:0:70:LR_Chm J Whistle.wav
192,192,165254,1,0,0:0:0:0:
320,192,165355,1,4,0:0:0:0:
448,192,165355,1,2,0:0:0:0:
64,192,165456,1,0,0:0:0:0:
192,192,165557,1,8,0:0:0:0:
320,192,165557,1,0,0:0:0:70:LR_Chm J Whistle.wav
64,192,165657,1,2,0:0:0:0:
448,192,165657,1,0,0:0:0:0:
320,192,165758,1,0,0:0:0:0:
64,192,165859,1,2,0:0:0:0:
192,192,165859,1,0,0:0:0:0:
320,192,165959,1,8,0:0:0:0:
448,192,165959,1,0,0:0:0:70:LR_Chm J Whistle.wav
192,192,166060,1,0,0:0:0:70:LR_Chm J Whistle.wav
64,192,166161,1,4,0:0:0:0:
320,192,166161,1,2,0:0:0:0:
448,192,166161,1,0,0:0:0:0:
192,192,166362,1,8,0:0:0:0:
320,192,166362,1,0,0:0:0:50:LR_J Hit Pong Drop.wav
448,192,166362,1,0,0:0:0:0:
64,192,166563,1,8,0:0:0:0:
192,192,166614,1,8,0:0:0:0:
320,192,166664,1,8,0:0:0:0:
448,192,166714,1,8,0:0:0:0:
64,192,166765,1,8,0:0:0:0:
192,192,166765,1,0,0:0:0:0:
320,192,166865,1,8,0:0:0:0:
448,192,166865,1,0,0:0:0:0:
192,192,166966,1,0,0:0:0:70:tom01.wav
320,192,166966,1,0,0:0:0:0:
64,192,167067,1,0,0:0:0:70:tom01.wav
192,192,167067,1,0,0:0:0:0:
320,192,167167,1,0,0:0:0:70:tom02.wav
448,192,167167,1,0,0:0:0:0:
192,192,167268,1,0,0:0:0:70:tom02.wav
320,192,167268,1,0,0:0:0:0:
64,192,167369,1,0,0:0:0:70:tom03.wav
192,192,167369,1,0,0:0:0:0:
448,192,167469,1,0,0:0:0:70:tom03.wav
320,192,167570,1,0,0:0:0:70:tom04.wav
192,192,167671,1,0,0:0:0:70:tom04.wav
64,192,167771,1,4,0:0:0:0:
320,192,167771,1,8,0:0:0:0:
448,192,167771,1,0,0:0:0:0:
64,192,168073,1,0,0:0:0:70:tom01.wav
192,192,168073,1,0,0:0:0:0:
320,192,168073,1,0,0:0:0:0:
192,192,168375,1,8,0:0:0:0:
320,192,168375,1,2,0:0:0:0:
448,192,168375,1,0,0:0:0:0:
64,192,168577,1,2,0:0:0:0:
192,192,168577,1,0,0:0:0:50:HHOpen.wav
448,192,168577,1,0,0:0:0:0:
320,192,168778,1,2,0:0:0:0:
448,192,168778,1,0,0:0:0:0:
64,192,168845,1,2,0:0:0:0:
192,192,168845,1,0,0:0:0:0:
320,192,168912,1,2,0:0:0:0:
64,192,168979,1,0,0:0:0:70:LR_Chm J Whistle.wav
448,192,168979,1,0,0:0:0:0:
64,192,169382,1,2,0:0:0:0:
192,192,169382,1,4,0:0:0:0:
448,192,169382,1,0,0:0:0:0:
192,192,169583,1,2,0:0:0:0:
320,192,169583,1,0,0:0:0:0:
448,192,169583,1,0,0:0:0:0:
64,192,169785,1,2,0:0:0:0:
192,192,169785,1,0,0:0:0:0:
320,192,169785,1,0,0:0:0:0:
64,192,169986,1,2,0:0:0:0:
320,192,169986,1,0,0:0:0:0:
448,192,169986,1,0,0:0:0:0:
64,192,170187,1,2,0:0:0:0:
192,192,170187,1,0,0:0:0:0:
448,192,170187,1,0,0:0:0:0:
192,192,170389,1,2,0:0:0:0:
320,192,170389,1,0,0:0:0:0:
448,192,170389,1,0,0:0:0:0:
64,192,170590,1,2,0:0:0:0:
192,192,170590,1,0,0:0:0:0:
320,192,170691,1,8,0:0:0:0:
448,192,170691,1,0,0:0:0:0:
64,192,170791,1,2,0:0:0:0:
192,192,170791,1,0,0:0:0:0:
320,192,170892,1,8,0:0:0:0:
448,192,170892,1,0,0:0:0:0:
64,192,170993,1,2,0:0:0:0:
192,192,170993,1,4,0:0:0:0:
448,192,170993,1,0,0:0:0:0:
64,192,171194,1,8,0:0:0:0:
320,192,171194,1,0,0:0:0:50:LR_J Hit Pong Drop.wav
192,192,171395,1,2,0:0:0:0:
448,192,171395,1,0,0:0:0:0:
320,192,171496,1,2,0:0:0:0:
64,192,171597,1,8,0:0:0:0:
192,192,171597,1,0,0:0:0:50:LR_J Hit Pong Drop.wav
320,192,171798,1,2,0:0:0:0:
448,192,171798,1,0,0:0:0:0:
192,192,171899,1,0,0:0:0:0:
64,192,171999,1,8,0:0:0:0:
448,192,171999,1,0,0:0:0:50:LR_J Hit Pong Drop.wav
320,192,172100,1,2,0:0:0:0:
192,192,172201,1,0,0:0:0:0:
320,192,172301,1,2,0:0:0:0:
64,192,172402,1,8,0:0:0:0:
448,192,172402,1,0,0:0:0:50:LR_J Hit Pong Drop.wav
192,192,172503,1,0,0:0:0:0:
320,192,172603,1,2,0:0:0:0:
448,192,172603,1,0,0:0:0:0:
64,192,172805,1,8,0:0:0:0:
448,192,172805,1,0,0:0:0:50:LR_J Hit Pong Drop.wav
192,192,172906,1,0,0:0:0:0:
320,192,173006,1,2,0:0:0:0:
64,192,173107,1,2,0:0:0:0:
192,192,173208,1,8,0:0:0:0:
448,192,173208,1,0,0:0:0:50:LR_J Hit Pong Drop.wav
320,192,173308,1,0,0:0:0:0:
64,192,173409,1,2,0:0:0:0:
448,192,173476,1,0,0:0:0:0:
64,192,173543,1,0,0:0:0:0:
448,192,173610,1,8,0:0:0:0:
64,192,173677,1,0,0:0:0:0:
448,192,173744,1,0,0:0:0:0:
64,192,173812,1,0,0:0:0:70:LR_Drum Rim Fast.wav
320,192,173912,1,2,0:0:0:0:
64,192,174013,1,8,0:0:0:0:
192,192,174013,1,0,0:0:0:70:LR_Drum Rim Fast.wav
448,192,174114,1,0,0:0:0:0:
320,192,174214,1,2,0:0:0:0:
192,192,174315,1,0,0:0:0:0:
64,192,174416,1,8,0:0:0:0:
448,192,174416,1,0,0:0:0:50:LR_J Hit Pong Drop.wav
192,192,174516,1,0,0:0:0:0:
320,192,174617,1,2,0:0:0:0:
448,192,174718,1,2,0:0:0:0:
64,192,174818,1,8,0:0:0:0:
192,192,174818,1,0,0:0:0:50:LR_J Hit Pong Drop.wav
320,192,174919,1,0,0:0:0:0:
64,192,175020,1,2,0:0:0:0:
448,192,175020,1,0,0:0:0:0:
320,192,175221,1,8,0:0:0:0:
448,192,175221,1,0,0:0:0:50:LR_J Hit Pong Drop.wav
192,192,175322,1,2,0:0:0:0:
64,192,175422,1,0,0:0:0:0:
448,192,175422,1,0,0:0:0:0:
320,192,175523,1,2,0:0:0:0:
64,192,175624,1,8,0:0:0:0:
192,192,175624,1,0,0:0:0:50:LR_J Hit Pong Drop.wav
320,192,175825,1,2,0:0:0:0:
448,192,175825,1,0,0:0:0:0:
192,192,175926,1,0,0:0:0:0:
64,192,176026,1,8,0:0:0:0:
320,192,176026,1,0,0:0:0:50:LR_J Hit Pong Drop.wav
448,192,176127,1,0,0:0:0:0:
192,192,176228,1,2,0:0:0:0:
320,192,176328,1,2,0:0:0:0:
64,192,176429,1,8,0:0:0:0:
448,192,176429,1,0,0:0:0:50:LR_J Hit Pong Drop.wav
192,192,176530,1,0,0:0:0:0:
320,192,176630,1,2,0:0:0:0:
64,192,176731,1,0,0:0:0:0:
320,192,176832,1,12,0:0:0:0:
448,192,176832,1,0,0:0:0:70:LR_J Hit Pong Drop.wav
64,192,176932,1,2,0:0:0:0:
192,192,176932,1,0,0:0:0:0:
448,192,177033,1,0,0:0:0:70:LR_J Hit Pong Drop.wav
192,192,177134,1,2,0:0:0:0:
320,192,177134,1,0,0:0:0:0:
64,192,177234,1,12,0:0:0:0:
448,192,177234,1,0,0:0:0:70:LR_J Hit Pong Drop.wav
192,192,177335,1,0,0:0:0:0:
320,192,177436,1,2,0:0:0:0:
448,192,177436,1,4,0:0:0:0:
64,192,177637,1,8,0:0:0:0:
192,192,177637,1,0,0:0:0:50:LR_J Hit Pong Drop.wav
192,192,177838,1,2,0:0:0:0:
448,192,177838,1,0,0:0:0:0:
320,192,177939,1,2,0:0:0:0:
64,192,178040,1,8,0:0:0:0:
192,192,178040,1,0,0:0:0:50:LR_J Hit Pong Drop.wav
320,192,178241,1,2,0:0:0:0:
448,192,178241,1,0,0:0:0:0:
64,192,178342,1,0,0:0:0:0:
192,192,178442,1,8,0:0:0:0:
448,192,178442,1,0,0:0:0:50:LR_J Hit Pong Drop.wav
320,192,178543,1,2,0:0:0:0:
192,192,178644,1,0,0:0:0:0:
64,192,178744,1,2,0:0:0:0:
320,192,178845,1,8,0:0:0:0:
448,192,178845,1,0,0:0:0:50:LR_J Hit Pong Drop.wav
192,192,178946,1,0,0:0:0:0:
64,192,179046,1,2,0:0:0:0:
448,192,179046,1,0,0:0:0:0:
192,192,179248,1,8,0:0:0:0:
320,192,179248,1,0,0:0:0:50:LR_J Hit Pong Drop.wav
448,192,179348,1,0,0:0:0:0:
64,192,179449,1,2,0:0:0:0:
192,192,179550,1,2,0:0:0:0:
320,192,179650,1,8,0:0:0:0:
448,192,179650,1,0,0:0:0:50:LR_J Hit Pong Drop.wav
64,192,179751,1,0,0:0:0:0:
192,192,179852,1,2,0:0:0:0:
448,192,179919,1,0,0:0:0:0:
192,192,179986,1,0,0:0:0:0:
448,192,180053,1,8,0:0:0:0:
192,192,180120,1,0,0:0:0:0:
448,192,180187,1,0,0:0:0:0:
192,192,180254,1,0,0:0:0:70:LR_Drum Rim Fast.wav
320,192,180355,1,2,0:0:0:0:
64,192,180456,1,8,0:0:0:0:
448,192,180456,1,0,0:0:0:70:LR_Drum Rim Fast.wav
192,192,180557,1,0,0:0:0:70:LR_Drum Rim Fast.wav
64,192,180657,1,2,0:0:0:0:
320,192,180657,1,4,0:0:0:0:
448,192,180657,1,0,0:0:0:0:
192,192,180758,1,0,0:0:0:0:
320,192,180859,1,8,0:0:0:0:
448,192,180859,1,0,0:0:0:50:LR_J Hit Pong Drop.wav
64,192,180959,1,0,0:0:0:0:
192,192,181060,1,2,0:0:0:0:
320,192,181161,1,2,0:0:0:0:
64,192,181261,1,8,0:0:0:0:
192,192,181261,1,0,0:0:0:50:LR_J Hit Pong Drop.wav
448,192,181362,1,0,0:0:0:0:
64,192,181463,1,2,0:0:0:0:
192,192,181463,1,4,0:0:0:0:
320,192,181463,1,0,0:0:0:0:
448,192,181563,1,0,0:0:0:0:
192,192,181664,1,8,0:0:0:0:
320,192,181664,1,0,0:0:0:50:LR_J Hit Pong Drop.wav
64,192,181765,1,2,0:0:0:0:
448,192,181865,1,0,0:0:0:0:
320,192,181966,1,2,0:0:0:0:
64,192,182067,1,8,0:0:0:0:
192,192,182067,1,0,0:0:0:50:LR_J Hit Pong Drop.wav
448,192,182167,1,0,0:0:0:0:
64,192,182268,1,2,0:0:0:0:
192,192,182268,1,4,0:0:0:0:
320,192,182268,1,0,0:0:0:0:
448,192,182369,1,0,0:0:0:0:
192,192,182469,1,8,0:0:0:0:
320,192,182469,1,0,0:0:0:50:LR_J Hit Pong Drop.wav
64,192,182570,1,0,0:0:0:0:
448,192,182671,1,8,0:0:0:0:
320,192,182721,1,8,0:0:0:0:
192,192,182771,1,8,0:0:0:0:
64,192,182822,1,8,0:0:0:0:
320,192,182872,1,8,0:0:0:0:
448,192,182872,1,0,0:0:0:50:LR_J Hit Pong Drop.wav
64,192,182973,1,8,0:0:0:0:
192,192,182973,1,0,0:0:0:0:
320,192,183073,1,0,0:0:0:70:tom01.wav
448,192,183073,1,0,0:0:0:0:
64,192,183174,1,0,0:0:0:70:tom01.wav
192,192,183174,1,0,0:0:0:0:
320,192,183275,1,0,0:0:0:70:tom02.wav
448,192,183275,1,0,0:0:0:0:
192,192,183375,1,0,0:0:0:70:tom02.wav
320,192,183375,1,0,0:0:0:0:
64,192,183476,1,0,0:0:0:70:tom03.wav
192,192,183476,1,0,0:0:0:0:
448,192,183577,1,0,0:0:0:70:tom03.wav
320,192,183677,1,0,0:0:0:70:tom04.wav
192,192,183778,1,0,0:0:0:70:tom04.wav
64,192,183879,1,4,0:0:0:0:
320,192,183879,1,8,0:0:0:0:
448,192,183879,1,0,0:0:0:50:LR_J Hit Pong Drop.wav
64,192,184181,1,4,0:0:0:0:
192,192,184181,1,8,0:0:0:0:
448,192,184181,1,0,0:0:0:50:LR_J Hit Pong Drop.wav
192,192,184483,1,0,0:0:0:70:tom01.wav
320,192,184483,1,0,0:0:0:0:
448,192,184483,1,0,0:0:0:0:
64,192,184684,1,0,0:0:0:70:tom02.wav
320,192,184684,1,0,0:0:0:0:
64,192,184986,1,0,0:0:0:70:tom03.wav
192,192,184986,1,0,0:0:0:0:
320,192,185288,1,0,0:0:0:70:tom04.wav
448,192,185288,1,0,0:0:0:0:
64,192,185489,1,2,0:0:0:0:
192,192,185489,1,4,0:0:0:0:
448,192,185489,1,0,0:0:0:50:LR_J Hit Pong Drop.wav
192,192,185892,1,2,0:0:0:0:
320,192,185892,1,4,0:0:0:0:
448,192,185892,1,0,0:0:0:50:LR_J Hit Pong Drop.wav
64,192,186295,1,4,0:0:0:0:
320,192,186295,1,2,0:0:0:0:
448,192,186295,1,0,0:0:0:50:LR_J Hit Pong Drop.wav
64,192,186697,128,2,188711:0:0:0:0:
192,192,186697,1,4,0:0:0:0:
320,192,186697,1,0,0:0:0:50:LR_J Hit Pong Drop.wav
192,192,188308,128,0,188711:0:0:0:0:
320,192,188711,1,0,0:0:0:0:
448,192,188711,1,0,0:0:0:0:
192,192,188912,1,0,0:0:0:0:
320,192,189114,1,0,0:0:0:0:
448,192,189315,1,0,0:0:0:0:
64,192,189516,1,0,0:0:0:0:
192,192,189516,1,0,0:0:0:0:
320,192,189919,1,0,0:0:0:0:
448,192,190221,1,0,0:0:0:0:
320,192,190271,1,0,0:0:0:0:
192,192,190322,1,0,0:0:0:0:
320,192,190724,1,0,0:0:0:0:
192,192,190926,1,0,0:0:0:0:
320,192,191026,1,0,0:0:0:0:
64,192,191127,1,0,0:0:0:0:
448,192,191127,1,0,0:0:0:0:
192,192,191328,1,0,0:0:0:0:
320,192,191530,1,0,0:0:0:0:
64,192,191731,1,0,0:0:0:0:
320,192,191932,1,0,0:0:0:70:HHOpen.wav
448,192,191932,1,0,0:0:0:0:
192,192,192134,1,0,0:0:0:0:
448,192,192335,1,0,0:0:0:0:
320,192,192536,1,0,0:0:0:0:
64,192,192738,1,0,0:0:0:0:
192,192,192738,1,0,0:0:0:0:
320,192,192939,1,0,0:0:0:0:
192,192,193140,1,0,0:0:0:0:
448,192,193342,1,0,0:0:0:0:
64,192,193442,1,0,0:0:0:0:
192,192,193493,1,0,0:0:0:0:
320,192,193543,1,0,0:0:0:0:
448,192,194147,1,0,0:0:0:0:
192,192,194248,1,0,0:0:0:0:
64,192,194348,1,0,0:0:0:70:HHOpen.wav
320,192,194348,1,0,0:0:0:0:
320,192,194751,1,2,0:0:0:0:
448,192,194751,1,0,0:0:0:0:
64,192,195154,1,4,0:0:0:0:
192,192,195154,1,2,0:0:0:0:
448,192,195154,1,0,0:0:0:0:
192,192,195557,1,2,0:0:0:0:
320,192,195557,1,0,0:0:0:0:
64,192,195959,1,2,0:0:0:0:
192,192,195959,1,0,0:0:0:0:
64,192,196362,1,2,0:0:0:0:
448,192,196362,1,0,0:0:0:0:
320,192,196765,1,2,0:0:0:0:
448,192,196765,1,0,0:0:0:0:
192,192,197167,1,2,0:0:0:0:
320,192,197167,1,0,0:0:0:0:
64,192,197570,1,2,0:0:0:0:
448,192,197570,1,0,0:0:0:0:
192,192,197771,1,0,0:0:0:70:LR_Chm J Whistle.wav
320,192,197872,1,0,0:0:0:70:LR_Chm J Whistle.wav
64,192,197973,1,2,0:0:0:0:
448,192,197973,1,0,0:0:0:70:LR_Chm J Whistle.wav
64,192,198375,1,4,0:0:0:0:
320,192,198375,1,2,0:0:0:0:
448,192,198375,1,0,0:0:0:0:
192,192,198577,1,8,0:0:0:0:
320,192,198577,1,0,0:0:0:70:LR_J Hit Pong Drop.wav
448,192,198577,1,0,0:0:0:0:
64,192,198778,1,8,0:0:0:0:
192,192,198778,1,2,0:0:0:0:
448,192,198778,1,0,0:0:0:70:LR_J Hit Pong Drop.wav
64,192,198979,1,8,0:0:0:0:
192,192,198979,1,0,0:0:0:70:LR_J Hit Pong Drop.wav
320,192,198979,1,0,0:0:0:0:
64,192,199181,1,8,0:0:0:0:
320,192,199181,1,2,0:0:0:0:
448,192,199181,1,0,0:0:0:70:LR_J Hit Pong Drop.wav
64,192,199382,1,8,0:0:0:0:
192,192,199382,1,0,0:0:0:70:LR_J Hit Pong Drop.wav
448,192,199382,1,0,0:0:0:0:
192,192,199583,1,8,0:0:0:0:
320,192,199583,1,2,0:0:0:0:
448,192,199583,1,0,0:0:0:70:LR_J Hit Pong Drop.wav
64,192,199785,1,8,0:0:0:0:
192,192,199785,1,0,0:0:0:70:LR_J Hit Pong Drop.wav
320,192,199785,1,0,0:0:0:0:
64,192,199986,1,8,0:0:0:0:
320,192,199986,1,4,0:0:0:0:
448,192,199986,1,0,0:0:0:0:
64,192,200288,1,4,0:0:0:0:
192,192,200288,1,8,0:0:0:0:
448,192,200288,1,0,0:0:0:0:
192,192,200590,1,8,0:0:0:0:
320,192,200590,1,4,0:0:0:0:
448,192,200590,1,0,0:0:0:0:
64,192,200791,1,8,0:0:0:0:
320,192,200791,1,4,0:0:0:0:
448,192,200791,1,0,0:0:0:0:
64,192,201194,1,12,0:0:0:0:
192,192,201194,1,0,0:0:0:70:LR_J Hit Pong Drop.wav
320,192,201295,1,8,0:0:0:0:
448,192,201295,1,0,0:0:0:0:
64,192,201395,1,8,0:0:0:0:
192,192,201395,1,0,0:0:0:0:
320,192,201496,1,8,0:0:0:0:
448,192,201496,1,0,0:0:0:0:
64,192,201597,1,2,0:0:0:0:
192,192,201597,1,4,0:0:0:0:
448,192,201597,1,0,0:0:0:0:
320,192,201697,1,0,0:0:0:0:
64,192,201798,1,8,0:0:0:0:
192,192,201798,1,0,0:0:0:0:
448,192,201899,1,0,0:0:0:0:
64,192,201999,1,2,0:0:0:0:
320,192,201999,1,0,0:0:0:0:
192,192,202100,1,2,0:0:0:0:
448,192,202100,1,0,0:0:0:0:
64,192,202201,1,8,0:0:0:0:
320,192,202201,1,0,0:0:0:0:
192,192,202301,1,0,0:0:0:0:
320,192,202402,1,2,0:0:0:0:
448,192,202402,1,0,0:0:0:0:
64,192,202503,1,0,0:0:0:0:
192,192,202603,1,8,0:0:0:0:
320,192,202603,1,0,0:0:0:0:
64,192,202704,1,2,0:0:0:0:
448,192,202704,1,0,0:0:0:0:
192,192,202805,1,0,0:0:0:0:
320,192,202906,1,2,0:0:0:0:
448,192,202906,1,0,0:0:0:0:
64,192,203006,1,8,0:0:0:0:
192,192,203006,1,0,0:0:0:0:
320,192,203107,1,0,0:0:0:0:
64,192,203208,1,2,0:0:0:0:
448,192,203208,1,0,0:0:0:0:
192,192,203308,1,0,0:0:0:0:
320,192,203409,1,8,0:0:0:0:
448,192,203409,1,0,0:0:0:0:
192,192,203510,1,0,0:0:0:0:
64,192,203610,1,2,0:0:0:0:
448,192,203610,1,0,0:0:0:0:
192,192,203711,1,2,0:0:0:0:
320,192,203711,1,0,0:0:0:0:
64,192,203812,1,8,0:0:0:0:
448,192,203812,1,0,0:0:0:0:
320,192,203912,1,0,0:0:0:0:
64,192,204013,1,2,0:0:0:0:
192,192,204013,1,0,0:0:0:0:
448,192,204114,1,0,0:0:0:0:
64,192,204214,1,8,0:0:0:0:
320,192,204214,1,0,0:0:0:0:
192,192,204315,1,2,0:0:0:0:
448,192,204315,1,0,0:0:0:0:
64,192,204416,1,0,0:0:0:70:LR_J Hit Pong Drop.wav
320,192,204516,1,2,0:0:0:0:
448,192,204516,1,0,0:0:0:0:
64,192,204617,1,8,0:0:0:0:
192,192,204617,1,0,0:0:0:70:LR_J Hit Pong Drop.wav
320,192,204718,1,0,0:0:0:0:
64,192,204818,1,2,0:0:0:0:
448,192,204818,1,0,0:0:0:0:
192,192,204919,1,0,0:0:0:0:
320,192,205020,1,8,0:0:0:0:
448,192,205020,1,4,0:0:0:0:
64,192,205120,1,0,0:0:0:0:
192,192,205221,1,2,0:0:0:0:
448,192,205221,1,0,0:0:0:0:
64,192,205322,1,2,0:0:0:0:
320,192,205322,1,0,0:0:0:0:
192,192,205422,1,8,0:0:0:0:
448,192,205422,1,0,0:0:0:0:
320,192,205523,1,0,0:0:0:0:
64,192,205624,1,2,0:0:0:0:
192,192,205624,1,0,0:0:0:0:
448,192,205724,1,0,0:0:0:0:
192,192,205825,1,8,0:0:0:0:
320,192,205825,1,4,0:0:0:0:
64,192,205926,1,2,0:0:0:0:
448,192,205926,1,0,0:0:0:0:
192,192,206026,1,0,0:0:0:0:
320,192,206026,1,0,0:0:0:0:
64,192,206127,1,2,0:0:0:0:
448,192,206127,1,0,0:0:0:0:
192,192,206228,1,8,0:0:0:0:
320,192,206228,1,0,0:0:0:0:
64,192,206328,1,0,0:0:0:0:
320,192,206429,1,2,0:0:0:0:
448,192,206429,1,4,0:0:0:0:
192,192,206530,1,0,0:0:0:0:
64,192,206630,1,8,0:0:0:0:
320,192,206630,1,0,0:0:0:70:LR_Chm J Whistle.wav
448,192,206731,1,0,0:0:0:70:LR_Chm J Whistle.wav
192,192,206832,1,2,0:0:0:0:
320,192,206832,1,0,0:0:0:70:LR_Chm J Whistle.wav
64,192,206932,1,2,0:0:0:0:
448,192,206932,1,0,0:0:0:0:
192,192,207033,1,8,0:0:0:0:
320,192,207033,1,0,0:0:0:70:LR_Chm J Whistle.wav
64,192,207134,1,0,0:0:0:70:LR_Chm J Whistle.wav
320,192,207234,1,8,0:0:0:0:
448,192,207234,1,4,0:0:0:0:
64,192,207301,1,0,0:0:0:70:tom01.wav
192,192,207301,1,0,0:0:0:0:
320,192,207369,1,0,0:0:0:70:tom01.wav
448,192,207369,1,0,0:0:0:0:
64,192,207436,1,0,0:0:0:70:tom02.wav
192,192,207436,1,0,0:0:0:0:
320,192,207503,1,0,0:0:0:70:tom03.wav
448,192,207503,1,0,0:0:0:0:
192,192,207570,1,0,0:0:0:70:tom04.wav
64,192,207637,1,6,0:0:0:0:
448,192,207637,1,0,0:0:0:70:LR_J Hit Pong Drop.wav
192,192,207738,1,8,0:0:0:0:
320,192,207738,1,0,0:0:0:0:
64,192,207838,1,8,0:0:0:0:
448,192,207838,1,0,0:0:0:0:
320,192,207939,1,8,0:0:0:0:
64,192,208040,1,4,0:0:0:0:
192,192,208040,1,2,0:0:0:0:
448,192,208040,1,0,0:0:0:0:
320,192,208140,1,0,0:0:0:0:
64,192,208241,1,8,0:0:0:0:
192,192,208241,1,0,0:0:0:0:
448,192,208342,1,0,0:0:0:0:
192,192,208442,1,2,0:0:0:0:
320,192,208442,1,0,0:0:0:0:
64,192,208543,1,2,0:0:0:0:
448,192,208543,1,0,0:0:0:0:
192,192,208644,1,8,0:0:0:0:
320,192,208644,1,0,0:0:0:0:
64,192,208744,1,0,0:0:0:0:
320,192,208845,1,2,0:0:0:0:
448,192,208845,1,0,0:0:0:0:
192,192,208946,1,0,0:0:0:0:
64,192,209046,1,8,0:0:0:0:
320,192,209046,1,0,0:0:0:0:
192,192,209147,1,2,0:0:0:0:
448,192,209147,1,0,0:0:0:0:
320,192,209248,1,0,0:0:0:0:
64,192,209348,1,2,0:0:0:0:
192,192,209348,1,0,0:0:0:0:
320,192,209449,1,8,0:0:0:0:
448,192,209449,1,0,0:0:0:0:
64,192,209550,1,0,0:0:0:0:
192,192,209650,1,2,0:0:0:0:
448,192,209650,1,0,0:0:0:0:
320,192,209751,1,0,0:0:0:0:
64,192,209852,1,8,0:0:0:0:
192,192,209852,1,0,0:0:0:0:
448,192,209952,1,0,0:0:0:0:
64,192,210053,1,2,0:0:0:0:
320,192,210053,1,0,0:0:0:0:
192,192,210154,1,2,0:0:0:0:
448,192,210154,1,0,0:0:0:0:
64,192,210254,1,8,0:0:0:0:
320,192,210254,1,0,0:0:0:0:
192,192,210355,1,0,0:0:0:0:
320,192,210456,1,2,0:0:0:0:
448,192,210456,1,0,0:0:0:0:
64,192,210557,1,0,0:0:0:0:
192,192,210657,1,8,0:0:0:0:
448,192,210657,1,0,0:0:0:0:
64,192,210758,1,2,0:0:0:0:
320,192,210758,1,0,0:0:0:0:
448,192,210859,1,0,0:0:0:70:LR_Drum Rim Fast.wav
64,192,210959,1,2,0:0:0:0:
192,192,210959,1,0,0:0:0:0:
320,192,211060,1,8,0:0:0:0:
448,192,211060,1,0,0:0:0:0:
192,192,211161,1,0,0:0:0:0:
64,192,211261,1,6,0:0:0:0:
320,192,211261,1,0,0:0:0:70:LR_J Hit Pong Drop.wav
448,192,211362,1,0,0:0:0:0:
64,192,211463,1,8,0:0:0:0:
192,192,211463,1,0,0:0:0:70:LR_Chm J Whistle.wav
320,192,211563,1,0,0:0:0:0:
64,192,211664,1,2,0:0:0:0:
448,192,211664,1,0,0:0:0:70:LR_Chm J Whistle.wav
192,192,211765,1,2,0:0:0:0:
320,192,211765,1,0,0:0:0:0:
64,192,211865,1,8,0:0:0:0:
448,192,211865,1,0,0:0:0:70:LR_Chm J Whistle.wav
192,192,211966,1,0,0:0:0:0:
320,192,212067,1,4,0:0:0:0:
448,192,212067,1,2,0:0:0:0:
64,192,212167,1,0,0:0:0:0:
192,192,212268,1,8,0:0:0:0:
320,192,212268,1,0,0:0:0:70:LR_Chm J Whistle.wav
64,192,212369,1,2,0:0:0:0:
448,192,212369,1,0,0:0:0:0:
192,192,212469,1,0,0:0:0:0:
320,192,212570,1,2,0:0:0:0:
448,192,212570,1,0,0:0:0:0:
64,192,212671,1,8,0:0:0:0:
192,192,212671,1,0,0:0:0:70:LR_Chm J Whistle.wav
320,192,212771,1,0,0:0:0:70:LR_Chm J Whistle.wav
64,192,212872,1,4,0:0:0:0:
192,192,212872,1,2,0:0:0:0:
448,192,212872,1,0,0:0:0:0:
192,192,213073,1,8,0:0:0:0:
320,192,213073,1,0,0:0:0:50:LR_J Hit Pong Drop.wav
448,192,213073,1,0,0:0:0:0:
64,192,213275,1,8,0:0:0:0:
192,192,213325,1,8,0:0:0:0:
320,192,213375,1,8,0:0:0:0:
448,192,213426,1,8,0:0:0:0:
64,192,213476,1,8,0:0:0:0:
192,192,213476,1,0,0:0:0:0:
320,192,213577,1,8,0:0:0:0:
448,192,213577,1,0,0:0:0:0:
192,192,213677,1,0,0:0:0:70:tom01.wav
320,192,213677,1,0,0:0:0:0:
64,192,213778,1,0,0:0:0:70:tom01.wav
192,192,213778,1,0,0:0:0:0:
320,192,213879,1,0,0:0:0:70:tom02.wav
448,192,213879,1,0,0:0:0:0:
192,192,213979,1,0,0:0:0:70:tom02.wav
320,192,213979,1,0,0:0:0:0:
64,192,214080,1,0,0:0:0:70:tom03.wav
192,192,214080,1,0,0:0:0:0:
320,192,214181,1,0,0:0:0:70:tom03.wav
448,192,214181,1,0,0:0:0:0:
192,192,214281,1,0,0:0:0:70:tom04.wav
320,192,214281,1,0,0:0:0:0:
64,192,214382,1,0,0:0:0:70:tom04.wav
192,192,214382,1,0,0:0:0:0:
64,192,214483,1,4,0:0:0:0:
320,192,214483,1,8,0:0:0:0:
448,192,214483,1,0,0:0:0:0:
64,192,214785,1,0,0:0:0:70:tom01.wav
192,192,214785,1,0,0:0:0:0:
320,192,214785,1,0,0:0:0:0:
64,192,215087,1,8,0:0:0:0:
192,192,215087,1,2,0:0:0:0:
448,192,215087,1,0,0:0:0:0:
192,192,215288,1,2,0:0:0:0:
320,192,215288,1,0,0:0:0:50:HHOpen.wav
448,192,215288,1,0,0:0:0:0:
64,192,215892,1,2,0:0:0:0:
192,192,215892,1,0,0:0:0:0:
320,192,215959,1,2,0:0:0:0:
448,192,215959,1,0,0:0:0:0:
64,192,216026,1,2,0:0:0:0:
192,192,216026,1,0,0:0:0:0:
320,192,216093,1,2,0:0:0:0:
448,192,216093,1,0,0:0:0:0:
64,192,216295,1,2,0:0:0:0:
192,192,216295,1,0,0:0:0:0:
448,192,216295,1,0,0:0:0:0:
64,192,216496,1,2,0:0:0:0:
320,192,216496,1,0,0:0:0:0:
448,192,216496,1,0,0:0:0:0:
64,192,216697,1,2,0:0:0:0:
192,192,216697,1,0,0:0:0:0:
320,192,216697,1,0,0:0:0:0:
192,192,216899,1,2,0:0:0:0:
320,192,216899,1,0,0:0:0:0:
448,192,216899,1,0,0:0:0:0:
192,192,217100,1,2,0:0:0:0:
320,192,217100,1,0,0:0:0:0:
448,192,217100,1,0,0:0:0:0:
64,192,217301,1,2,0:0:0:0:
192,192,217301,1,0,0:0:0:0:
448,192,217301,1,0,0:0:0:0:
64,192,217503,1,2,0:0:0:0:
192,192,217503,1,0,0:0:0:0:
448,192,217503,1,0,0:0:0:0:
64,192,217704,1,2,0:0:0:0:
320,192,217704,1,4,0:0:0:0:
448,192,217704,1,0,0:0:0:0:
64,192,218107,1,2,0:0:0:0:
192,192,218107,1,4,0:0:0:0:
320,192,218107,1,0,0:0:0:0:
192,192,218510,1,4,0:0:0:0:
320,192,218510,1,2,0:0:0:0:
448,192,218510,1,0,0:0:0:0:
64,192,218711,1,8,0:0:0:0:
192,192,218711,1,0,0:0:0:0:
320,192,218778,1,8,0:0:0:0:
448,192,218778,1,0,0:0:0:0:
192,192,218845,1,8,0:0:0:0:
64,192,218912,1,2,0:0:0:0:
448,192,218912,1,4,0:0:0:0:
192,192,219013,1,8,0:0:0:0:
320,192,219013,1,0,0:0:0:0:
64,192,219114,1,8,0:0:0:0:
448,192,219114,1,0,0:0:0:0:
192,192,219214,1,8,0:0:0:0:
320,192,219214,1,0,0:0:0:0:
64,192,219315,1,2,0:0:0:0:
320,192,219315,1,4,0:0:0:0:
448,192,219315,1,0,0:0:0:0:
192,192,219516,1,8,0:0:0:0:
320,192,219516,1,0,0:0:0:0:
64,192,219617,1,0,0:0:0:0:
448,192,219617,1,0,0:0:0:0:
192,192,219718,1,2,0:0:0:0:
320,192,219718,1,0,0:0:0:0:
64,192,219919,1,8,0:0:0:0:
320,192,219919,1,0,0:0:0:0:
448,192,219919,1,0,0:0:0:0:
192,192,220120,1,2,0:0:0:0:
448,192,220120,1,0,0:0:0:0:
64,192,220322,1,8,0:0:0:0:
320,192,220322,1,0,0:0:0:0:
448,192,220322,1,0,0:0:0:0:
320,192,220422,1,2,0:0:0:0:
448,192,220422,1,0,0:0:0:0:
320,192,220624,1,2,0:0:0:0:
448,192,220624,1,0,0:0:0:0:
64,192,220724,1,8,0:0:0:0:
320,192,220724,1,0,0:0:0:0:
448,192,220724,1,0,0:0:0:0:
64,192,220926,1,2,0:0:0:0:
192,192,220926,1,0,0:0:0:70:HHOpen.wav
192,192,221127,1,8,0:0:0:0:
320,192,221127,1,0,0:0:0:0:
448,192,221127,1,0,0:0:0:0:
64,192,221328,1,2,0:0:0:0:
448,192,221328,1,0,0:0:0:0:
64,192,221530,1,8,0:0:0:0:
192,192,221530,1,0,0:0:0:0:
320,192,221530,1,0,0:0:0:0:
320,192,221731,1,2,0:0:0:0:
448,192,221731,1,0,0:0:0:0:
64,192,221932,1,8,0:0:0:0:
192,192,221932,1,0,0:0:0:0:
320,192,222033,1,2,0:0:0:0:
448,192,222033,1,0,0:0:0:0:
64,192,222134,1,0,0:0:0:70:LR_Drum Rim Fast.wav
192,192,222234,1,2,0:0:0:0:
320,192,222234,1,0,0:0:0:0:
64,192,222335,1,8,0:0:0:0:
448,192,222335,1,0,0:0:0:70:LR_Drum Rim Fast.wav
192,192,222436,1,0,0:0:0:0:
64,192,222536,1,2,0:0:0:0:
320,192,222536,1,4,0:0:0:0:
448,192,222536,1,0,0:0:0:0:
64,192,222738,1,8,0:0:0:0:
192,192,222738,1,0,0:0:0:0:
448,192,222738,1,0,0:0:0:0:
192,192,222939,1,2,0:0:0:0:
320,192,222939,1,0,0:0:0:0:
64,192,223140,1,8,0:0:0:0:
320,192,223140,1,0,0:0:0:0:
448,192,223140,1,0,0:0:0:0:
192,192,223241,1,0,0:0:0:0:
320,192,223342,1,2,0:0:0:0:
448,192,223342,1,0,0:0:0:0:
64,192,223543,1,8,0:0:0:0:
192,192,223543,1,0,0:0:0:0:
448,192,223543,1,0,0:0:0:0:
64,192,223644,1,2,0:0:0:0:
192,192,223644,1,0,0:0:0:0:
64,192,223845,1,2,0:0:0:0:
192,192,223845,1,0,0:0:0:0:
64,192,223946,1,8,0:0:0:0:
192,192,223946,1,0,0:0:0:0:
448,192,223946,1,0,0:0:0:0:
192,192,224147,1,2,0:0:0:0:
320,192,224147,1,0,0:0:0:70:HHOpen.wav
64,192,224348,1,4,0:0:0:0:
192,192,224348,1,8,0:0:0:0:
448,192,224348,1,0,0:0:0:70:LR_J Hit Pong Drop.wav
320,192,224550,1,2,0:0:0:0:
448,192,224550,1,0,0:0:0:70:LR_J Hit Pong Drop.wav
64,192,224650,1,2,0:0:0:0:
192,192,224650,1,0,0:0:0:0:
64,192,224751,1,4,0:0:0:0:
320,192,224751,1,8,0:0:0:0:
448,192,224751,1,0,0:0:0:70:LR_J Hit Pong Drop.wav
64,192,224952,1,2,0:0:0:0:
192,192,224952,1,0,0:0:0:70:LR_J Hit Pong Drop.wav
320,192,225154,1,12,0:0:0:0:
448,192,225154,1,0,0:0:0:70:LR_J Hit Pong Drop.wav
64,192,225254,1,2,0:0:0:0:
192,192,225254,1,0,0:0:0:0:
320,192,225355,1,2,0:0:0:0:
448,192,225355,1,0,0:0:0:70:LR_J Hit Pong Drop.wav
64,192,225456,1,8,0:0:0:0:
192,192,225456,1,0,0:0:0:0:
320,192,225557,1,12,0:0:0:0:
448,192,225557,1,0,0:0:0:70:LR_J Hit Pong Drop.wav
64,192,225657,1,8,0:0:0:0:
192,192,225657,1,0,0:0:0:0:
64,192,225758,1,4,0:0:0:0:
320,192,225758,1,2,0:0:0:0:
448,192,225758,1,0,0:0:0:0:
64,192,225959,1,8,0:0:0:0:
192,192,225959,1,0,0:0:0:0:
320,192,226060,1,0,0:0:0:0:
448,192,226060,1,0,0:0:0:0:
64,192,226161,1,2,0:0:0:0:
192,192,226161,1,0,0:0:0:0:
192,192,226362,1,8,0:0:0:0:
320,192,226362,1,0,0:0:0:0:
448,192,226362,1,0,0:0:0:0:
64,192,226563,1,2,0:0:0:0:
320,192,226563,1,0,0:0:0:0:
64,192,226765,1,8,0:0:0:0:
192,192,226765,1,0,0:0:0:0:
448,192,226765,1,0,0:0:0:0:
64,192,226865,1,2,0:0:0:0:
192,192,226865,1,0,0:0:0:0:
64,192,227067,1,2,0:0:0:0:
192,192,227067,1,0,0:0:0:0:
64,192,227167,1,8,0:0:0:0:
192,192,227167,1,0,0:0:0:0:
448,192,227167,1,0,0:0:0:0:
192,192,227369,1,2,0:0:0:0:
320,192,227369,1,0,0:0:0:70:HHOpen.wav
64,192,227570,1,8,0:0:0:0:
320,192,227570,1,0,0:0:0:0:
448,192,227570,1,0,0:0:0:0:
192,192,227771,1,2,0:0:0:0:
448,192,227771,1,0,0:0:0:0:
64,192,227973,1,8,0:0:0:0:
192,192,227973,1,0,0:0:0:0:
320,192,227973,1,0,0:0:0:0:
320,192,228174,1,2,0:0:0:0:
448,192,228174,1,0,0:0:0:0:
64,192,228375,1,8,0:0:0:0:
448,192,228375,1,0,0:0:0:0:
192,192,228476,1,2,0:0:0:0:
320,192,228476,1,0,0:0:0:0:
64,192,228577,1,0,0:0:0:70:LR_Drum Rim Fast.wav
320,192,228677,1,2,0:0:0:0:
448,192,228677,1,0,0:0:0:0:
64,192,228778,1,8,0:0:0:0:
192,192,228778,1,0,0:0:0:70:LR_Drum Rim Fast.wav
320,192,228879,1,0,0:0:0:0:
64,192,228979,1,4,0:0:0:0:
192,192,228979,1,2,0:0:0:0:
448,192,228979,1,0,0:0:0:0:
64,192,229181,1,8,0:0:0:0:
192,192,229181,1,0,0:0:0:0:
320,192,229181,1,0,0:0:0:0:
320,192,229382,1,2,0:0:0:0:
448,192,229382,1,0,0:0:0:0:
64,192,229583,1,8,0:0:0:0:
192,192,229583,1,0,0:0:0:0:
448,192,229583,1,0,0:0:0:0:
320,192,229684,1,0,0:0:0:0:
64,192,229785,1,2,0:0:0:0:
192,192,229785,1,0,0:0:0:0:
64,192,229986,1,8,0:0:0:0:
320,192,229986,1,0,0:0:0:0:
448,192,229986,1,0,0:0:0:0:
320,192,230087,1,2,0:0:0:0:
448,192,230087,1,0,0:0:0:0:
320,192,230288,1,2,0:0:0:0:
448,192,230288,1,0,0:0:0:0:
64,192,230389,1,8,0:0:0:0:
320,192,230389,1,0,0:0:0:0:
448,192,230389,1,0,0:0:0:0:
64,192,230590,1,4,0:0:0:0:
192,192,230590,1,0,0:0:0:70:LR_Drum Rim Fast.wav
448,192,230590,1,0,0:0:0:0:
64,192,230791,1,2,0:0:0:0:
192,192,230791,1,0,0:0:0:0:
64,192,230892,1,4,0:0:0:0:
192,192,230892,1,0,0:0:0:70:LR_Drum Rim Fast.wav
448,192,230892,1,0,0:0:0:0:
320,192,231093,1,2,0:0:0:0:
448,192,231093,1,0,0:0:0:0:
64,192,231194,1,4,0:0:0:0:
320,192,231194,1,0,0:0:0:70:LR_Drum Rim Fast.wav
448,192,231194,1,0,0:0:0:0:
64,192,231395,1,12,0:0:0:0:
192,192,231446,1,8,0:0:0:0:
320,192,231496,1,8,0:0:0:0:
448,192,231496,1,0,0:0:0:0:
64,192,231597,1,0,0:0:0:70:tom02.wav
192,192,231597,1,0,0:0:0:0:
192,192,231697,1,0,0:0:0:70:tom02.wav
320,192,231697,1,0,0:0:0:0:
320,192,231798,1,0,0:0:0:70:tom03.wav
448,192,231798,1,0,0:0:0:0:
64,192,231899,1,0,0:0:0:70:tom03.wav
192,192,231999,1,0,0:0:0:70:tom04.wav
320,192,232100,1,0,0:0:0:70:tom04.wav
64,192,232201,1,8,0:0:0:0:
192,192,232201,1,0,0:0:0:50:HHOpen.wav
448,192,232201,1,0,0:0:0:0:
64,192,232402,1,8,0:0:0:0:
192,192,232402,1,0,0:0:0:50:HHOpen.wav
448,192,232402,1,0,0:0:0:0:
320,192,232603,1,2,0:0:0:0:
448,192,232603,1,0,0:0:0:0:
64,192,232704,1,8,0:0:0:0:
320,192,232704,1,0,0:0:0:50:HHOpen.wav
448,192,232704,1,0,0:0:0:0:
192,192,232906,1,2,0:0:0:0:
320,192,232956,1,2,0:0:0:0:
64,192,233006,1,8,0:0:0:0:
448,192,233006,1,0,0:0:0:0:
64,192,233208,1,0,0:0:0:70:tom01.wav
192,192,233208,1,0,0:0:0:0:
320,192,233275,1,0,0:0:0:70:tom02.wav
448,192,233275,1,0,0:0:0:0:
192,192,233342,1,0,0:0:0:70:tom03.wav
64,192,233409,1,8,0:0:0:0:
320,192,233409,1,0,0:0:0:70:LR_J Hit Pong Drop.wav
448,192,233409,1,0,0:0:0:0:
64,192,233812,1,2,0:0:0:0:
192,192,233812,1,4,0:0:0:0:
448,192,233812,1,0,0:0:0:0:
64,192,234483,1,2,0:0:0:0:
192,192,234483,1,0,0:0:0:0:
320,192,234550,1,2,0:0:0:0:
448,192,234550,1,0,0:0:0:0:
64,192,234617,1,0,0:0:0:70:tom01.wav
192,192,234617,1,0,0:0:0:0:
192,192,234751,1,0,0:0:0:70:tom01.wav
320,192,234751,1,0,0:0:0:0:
320,192,234885,1,0,0:0:0:70:tom02.wav
448,192,234885,1,0,0:0:0:0:
64,192,235020,1,0,0:0:0:70:tom02.wav
192,192,235020,1,0,0:0:0:0:
192,192,235154,1,0,0:0:0:70:tom03.wav
320,192,235154,1,0,0:0:0:0:
320,192,235288,1,0,0:0:0:70:tom04.wav
448,192,235288,1,0,0:0:0:0:
64,192,235422,1,8,0:0:0:0:
192,192,235422,1,4,0:0:0:0:
448,192,235422,1,0,0:0:0:70:LR_Chm J Whistle.wav
