osu file format v14

[General]
AudioFilename: A M D.mp3
AudioLeadIn: 0
PreviewTime: 64684
Countdown: 0
SampleSet: Soft
StackLeniency: 0.7
Mode: 3
LetterboxInBreaks: 0
SpecialStyle: 1
WidescreenStoryboard: 1

[Editor]
DistanceSpacing: 0.8
BeatDivisor: 4
GridSize: 32
TimelineZoom: 2.4

[Metadata]
Title:Guren Yasha
TitleUnicode:紅蓮夜叉
Artist:Hatsuki Yura
ArtistUnicode:葉月ゆら
Creator:A M D
Version:Normal
Source:
Tags:tech yasha drop japanese 妖華語り Ayakashibanagatari HATU-032 vocal famoss pokesky AMD rock jrock j-rock electronic pop
BeatmapID:2183168
BeatmapSetID:1008060

[Difficulty]
HPDrainRate:7
CircleSize:4
OverallDifficulty:7
ApproachRate:5
SliderMultiplier:1.4
SliderTickRate:1

[Events]
//Background and Video events
0,0,"A_M_Dyes.jpg",0,0
//Break Periods
//Storyboard Layer 0 (Background)
//Storyboard Layer 1 (Fail)
//Storyboard Layer 2 (Pass)
//Storyboard Layer 3 (Foreground)
//Storyboard Layer 4 (Overlay)
//Storyboard Sound Samples
Sample,8308,0,"HHOpen.wav",70
Sample,9718,0,"LR_Drum Rim Fast.wav",70
Sample,11530,0,"HHOpen.wav",70
Sample,11731,0,"LR_J Hit Pong Drop.wav",70
Sample,11932,0,"LR_J Hit Pong Drop.wav",70
Sample,12134,0,"LR_J Hit Pong Drop.wav",70
Sample,12335,0,"LR_J Hit Pong Drop.wav",70
Sample,12536,0,"LR_J Hit Pong Drop.wav",70
Sample,12738,0,"LR_J Hit Pong Drop.wav",70
Sample,12939,0,"LR_J Hit Pong Drop.wav",70
Sample,14751,0,"HHOpen.wav",70
Sample,16161,0,"LR_Drum Rim Fast.wav",70
Sample,27234,0,"LR_Chm J Whistle.wav",70
Sample,32872,0,"HHOpen.wav",70
Sample,33275,0,"HHOpen.wav",70
Sample,33677,0,"LR_J Hit Pong Drop.wav",70
Sample,46563,0,"LR_J Hit Pong Drop.wav",70
Sample,48174,0,"LR_J Hit Pong Drop.wav",70
Sample,53006,0,"LR_J Hit Pong Drop.wav",70
Sample,53006,0,"HHOpen.wav",70
Sample,56228,0,"LR_Chm J Whistle.wav",50
Sample,61664,0,"LR_J Hit Pong Drop.wav",70
Sample,61865,0,"LR_J Hit Pong Drop.wav",70
Sample,62067,0,"LR_J Hit Pong Drop.wav",70
Sample,62268,0,"LR_J Hit Pong Drop.wav",70
Sample,62469,0,"LR_J Hit Pong Drop.wav",70
Sample,62671,0,"LR_J Hit Pong Drop.wav",70
Sample,62872,0,"LR_J Hit Pong Drop.wav",70
Sample,67704,0,"LR_J Hit Pong Drop.wav",70
Sample,69718,0,"LR_Chm J Whistle.wav",70
Sample,69919,0,"LR_Chm J Whistle.wav",70
Sample,70120,0,"LR_Chm J Whistle.wav",70
Sample,74348,0,"LR_J Hit Pong Drop.wav",70
Sample,74550,0,"LR_Chm J Whistle.wav",70
Sample,74751,0,"LR_Chm J Whistle.wav",70
Sample,74952,0,"LR_Chm J Whistle.wav",70
Sample,75355,0,"LR_Chm J Whistle.wav",70
Sample,75758,0,"LR_Chm J Whistle.wav",70
Sample,76161,0,"LR_J Hit Pong Drop.wav",50
Sample,76362,0,"LR_J Hit Pong Drop.wav",50
Sample,91664,0,"LR_J Hit Pong Drop.wav",70
Sample,91865,0,"LR_J Hit Pong Drop.wav",70
Sample,110993,0,"LR_J Hit Pong Drop.wav",70
Sample,117436,0,"ride01.wav",50
Sample,125892,0,"ride01.wav",50
Sample,126194,0,"ride01.wav",50
Sample,126496,0,"ride01.wav",50
Sample,138375,0,"LR_J Hit Pong Drop.wav",70
Sample,143208,0,"LR_J Hit Pong Drop.wav",70
Sample,143208,0,"HHOpen.wav",70
Sample,146429,0,"LR_Chm J Whistle.wav",50
Sample,151865,0,"LR_J Hit Pong Drop.wav",70
Sample,152067,0,"LR_J Hit Pong Drop.wav",70
Sample,152268,0,"LR_J Hit Pong Drop.wav",70
Sample,152469,0,"LR_J Hit Pong Drop.wav",70
Sample,152671,0,"LR_J Hit Pong Drop.wav",70
Sample,152872,0,"LR_J Hit Pong Drop.wav",70
Sample,153073,0,"LR_J Hit Pong Drop.wav",70
Sample,157906,0,"LR_J Hit Pong Drop.wav",70
Sample,159919,0,"LR_Chm J Whistle.wav",70
Sample,160120,0,"LR_Chm J Whistle.wav",70
Sample,160322,0,"LR_Chm J Whistle.wav",70
Sample,164550,0,"LR_J Hit Pong Drop.wav",70
Sample,164751,0,"LR_Chm J Whistle.wav",70
Sample,164952,0,"LR_Chm J Whistle.wav",70
Sample,165154,0,"LR_Chm J Whistle.wav",70
Sample,165557,0,"LR_Chm J Whistle.wav",70
Sample,165959,0,"LR_Chm J Whistle.wav",70
Sample,166362,0,"LR_J Hit Pong Drop.wav",50
Sample,166563,0,"LR_J Hit Pong Drop.wav",50
Sample,171194,0,"LR_J Hit Pong Drop.wav",50
Sample,171597,0,"LR_J Hit Pong Drop.wav",50
Sample,171999,0,"LR_J Hit Pong Drop.wav",50
Sample,172402,0,"LR_J Hit Pong Drop.wav",50
Sample,172805,0,"LR_J Hit Pong Drop.wav",50
Sample,173208,0,"LR_J Hit Pong Drop.wav",50
Sample,174013,0,"LR_Drum Rim Fast.wav",70
Sample,174416,0,"LR_J Hit Pong Drop.wav",50
Sample,174818,0,"LR_J Hit Pong Drop.wav",50
Sample,175221,0,"LR_J Hit Pong Drop.wav",50
Sample,175624,0,"LR_J Hit Pong Drop.wav",50
Sample,176026,0,"LR_J Hit Pong Drop.wav",50
Sample,176228,0,"LR_J Hit Pong Drop.wav",50
Sample,176429,0,"LR_J Hit Pong Drop.wav",50
Sample,176630,0,"LR_J Hit Pong Drop.wav",70
Sample,176832,0,"LR_J Hit Pong Drop.wav",70
Sample,177234,0,"LR_J Hit Pong Drop.wav",70
Sample,177637,0,"LR_J Hit Pong Drop.wav",50
Sample,178040,0,"LR_J Hit Pong Drop.wav",50
Sample,178442,0,"LR_J Hit Pong Drop.wav",50
Sample,178845,0,"LR_J Hit Pong Drop.wav",50
Sample,179248,0,"LR_J Hit Pong Drop.wav",50
Sample,179650,0,"LR_J Hit Pong Drop.wav",50
Sample,180456,0,"LR_Drum Rim Fast.wav",70
Sample,180859,0,"LR_J Hit Pong Drop.wav",50
Sample,181261,0,"LR_J Hit Pong Drop.wav",50
Sample,181664,0,"LR_J Hit Pong Drop.wav",50
Sample,182067,0,"LR_J Hit Pong Drop.wav",50
Sample,182469,0,"LR_J Hit Pong Drop.wav",50
Sample,182671,0,"LR_J Hit Pong Drop.wav",50
Sample,182872,0,"LR_J Hit Pong Drop.wav",50
Sample,184181,0,"LR_J Hit Pong Drop.wav",50
Sample,197973,0,"LR_Chm J Whistle.wav",70
Sample,198577,0,"LR_J Hit Pong Drop.wav",70
Sample,198778,0,"LR_J Hit Pong Drop.wav",70
Sample,198979,0,"LR_J Hit Pong Drop.wav",70
Sample,199181,0,"LR_J Hit Pong Drop.wav",70
Sample,199382,0,"LR_J Hit Pong Drop.wav",70
Sample,199583,0,"LR_J Hit Pong Drop.wav",70
Sample,199785,0,"LR_J Hit Pong Drop.wav",70
Sample,204617,0,"LR_J Hit Pong Drop.wav",70
Sample,206630,0,"LR_Chm J Whistle.wav",70
Sample,206832,0,"LR_Chm J Whistle.wav",70
Sample,207033,0,"LR_Chm J Whistle.wav",70
Sample,211261,0,"LR_J Hit Pong Drop.wav",70
Sample,211463,0,"LR_Chm J Whistle.wav",70
Sample,211664,0,"LR_Chm J Whistle.wav",70
Sample,211865,0,"LR_Chm J Whistle.wav",70
Sample,212268,0,"LR_Chm J Whistle.wav",70
Sample,212671,0,"LR_Chm J Whistle.wav",70
Sample,213073,0,"LR_J Hit Pong Drop.wav",50
Sample,213275,0,"LR_J Hit Pong Drop.wav",50
Sample,220926,0,"HHOpen.wav",70
Sample,222335,0,"LR_Drum Rim Fast.wav",70
Sample,224147,0,"HHOpen.wav",70
Sample,224348,0,"LR_J Hit Pong Drop.wav",70
Sample,224550,0,"LR_J Hit Pong Drop.wav",70
Sample,224751,0,"LR_J Hit Pong Drop.wav",70
Sample,224952,0,"LR_J Hit Pong Drop.wav",70
Sample,225154,0,"LR_J Hit Pong Drop.wav",70
Sample,225355,0,"LR_J Hit Pong Drop.wav",70
Sample,225557,0,"LR_J Hit Pong Drop.wav",70
Sample,227369,0,"HHOpen.wav",70
Sample,228778,0,"LR_Drum Rim Fast.wav",70

[TimingPoints]
255,402.684563758389,4,2,1,50,1,0
64684,-100,4,2,1,50,0,1
77570,-100,4,2,1,50,0,0
154885,-100,4,2,1,50,0,1
167771,-100,4,2,1,50,0,0
188711,-100,4,2,1,30,0,0
195154,-100,4,2,1,50,0,0
201597,-100,4,2,1,50,0,1
214483,-100,4,2,1,50,0,0

[HitObjects]
64,192,255,5,0,0:0:0:0:
192,192,1865,1,0,0:0:0:0:
320,192,3476,1,0,0:0:0:70:HHOpen.wav
448,192,4281,1,0,0:0:0:70:HHOpen.wav
320,192,4684,128,0,5087:0:0:0:0:
64,192,5087,1,6,0:0:0:0:
192,192,5489,1,6,0:0:0:0:
320,192,5892,1,6,0:0:0:0:
448,192,6295,1,0,0:0:0:70:LR_Snare Drum 3.wav
64,192,6697,128,2,6899:0:0:0:0:
448,192,6697,1,4,0:0:0:0:
192,192,6899,1,8,0:0:0:0:
320,192,6999,1,0,0:0:0:0:
448,192,7100,128,2,7301:0:0:0:0:
64,192,7301,128,8,7503:0:0:0:0:
192,192,7503,128,2,7704:0:0:0:0:
448,192,7704,1,8,0:0:0:0:
64,192,7805,128,2,8006:0:0:0:0:
192,192,8006,1,2,0:0:0:0:
448,192,8107,128,8,8308:0:0:0:0:
192,192,8308,128,2,9114:0:0:0:0:
448,192,8510,1,8,0:0:0:0:
320,192,8711,1,2,0:0:0:0:
64,192,8912,1,8,0:0:0:0:
448,192,9114,1,2,0:0:0:0:
64,192,9315,128,8,9516:0:0:0:0:
192,192,9315,1,0,0:0:0:0:
320,192,9516,128,0,9718:0:0:0:70:LR_Drum Rim Fast.wav
192,192,9718,128,8,9919:0:0:0:0:
448,192,9919,128,6,10523:0:0:0:0:
192,192,10120,1,8,0:0:0:0:
320,192,10322,1,2,0:0:0:0:
64,192,10523,1,8,0:0:0:0:
320,192,10624,1,0,0:0:0:0:
192,192,10724,128,2,11530:0:0:0:0:
448,192,10926,1,8,0:0:0:0:
64,192,11026,1,2,0:0:0:0:
448,192,11228,1,2,0:0:0:0:
64,192,11328,1,8,0:0:0:0:
320,192,11530,1,2,0:0:0:0:
64,192,11731,1,12,0:0:0:0:
192,192,11932,1,2,0:0:0:0:
448,192,12033,1,2,0:0:0:0:
64,192,12134,1,12,0:0:0:0:
448,192,12335,128,2,12536:0:0:0:0:
192,192,12536,128,12,12738:0:0:0:0:
64,192,12738,128,2,12939:0:0:0:0:
320,192,12939,128,12,13140:0:0:0:0:
192,192,13140,128,4,13342:0:0:0:0:
448,192,13140,1,2,0:0:0:0:
320,192,13342,1,8,0:0:0:0:
64,192,13442,1,0,0:0:0:0:
448,192,13543,128,2,13744:0:0:0:0:
192,192,13744,128,8,13946:0:0:0:0:
448,192,13946,128,2,14147:0:0:0:0:
64,192,14147,1,8,0:0:0:0:
320,192,14248,128,2,14449:0:0:0:0:
448,192,14449,1,2,0:0:0:0:
192,192,14550,128,8,14751:0:0:0:0:
64,192,14751,128,2,15557:0:0:0:0:
448,192,14952,1,8,0:0:0:0:
320,192,15154,1,2,0:0:0:0:
448,192,15355,1,8,0:0:0:0:
192,192,15557,1,2,0:0:0:0:
320,192,15758,1,8,0:0:0:0:
448,192,15758,128,0,15959:0:0:0:0:
192,192,15959,128,0,16161:0:0:0:70:LR_Drum Rim Fast.wav
320,192,16161,128,8,16362:0:0:0:0:
64,192,16362,128,6,16966:0:0:0:0:
448,192,16563,1,8,0:0:0:0:
320,192,16765,1,2,0:0:0:0:
192,192,16966,1,8,0:0:0:0:
320,192,17067,1,0,0:0:0:0:
448,192,17167,128,2,17973:0:0:0:0:
320,192,17369,1,8,0:0:0:0:
64,192,17469,1,2,0:0:0:0:
320,192,17671,1,2,0:0:0:0:
64,192,17771,1,8,0:0:0:0:
192,192,17973,1,4,0:0:0:0:
320,192,17973,1,0,0:0:0:70:LR_Drum Rim Fast.wav
448,192,18174,1,2,0:0:0:0:
64,192,18275,1,4,0:0:0:0:
192,192,18275,1,0,0:0:0:70:LR_Drum Rim Fast.wav
64,192,18476,1,2,0:0:0:0:
320,192,18577,1,4,0:0:0:0:
448,192,18577,1,0,0:0:0:70:LR_Drum Rim Fast.wav
192,192,18778,128,12,19583:0:0:0:0:
64,192,19181,128,0,19583:0:0:0:70:tom03.wav
320,192,19583,1,8,0:0:0:0:
448,192,19583,1,0,0:0:0:50:HHOpen.wav
64,192,19785,1,8,0:0:0:0:
192,192,19785,1,0,0:0:0:50:HHOpen.wav
320,192,20087,1,8,0:0:0:0:
448,192,20087,1,0,0:0:0:50:HHOpen.wav
64,192,20389,1,8,0:0:0:0:
192,192,20389,1,0,0:0:0:0:
192,192,20791,1,8,0:0:0:0:
320,192,20791,1,0,0:0:0:70:LR_J Hit Pong Drop.wav
64,192,21194,1,4,0:0:0:0:
448,192,21194,1,2,0:0:0:0:
320,192,21597,1,2,0:0:0:0:
192,192,21798,1,0,0:0:0:0:
64,192,21999,1,2,0:0:0:0:
192,192,22402,1,2,0:0:0:0:
448,192,22603,1,0,0:0:0:0:
64,192,22805,1,2,0:0:0:0:
320,192,23006,1,0,0:0:0:0:
192,192,23208,1,2,0:0:0:0:
320,192,23409,1,0,0:0:0:0:
64,192,23610,128,2,24013:0:0:0:0:
320,192,24013,1,2,0:0:0:0:
448,192,24416,1,2,0:0:0:0:
320,192,24818,1,2,0:0:0:0:
192,192,25020,1,0,0:0:0:0:
320,192,25221,1,2,0:0:0:0:
448,192,25624,1,2,0:0:0:0:
64,192,26026,1,2,0:0:0:0:
320,192,26429,1,2,0:0:0:0:
192,192,26832,128,2,27234:0:0:0:0:
320,192,27234,1,2,0:0:0:0:
64,192,27637,1,2,0:0:0:0:
320,192,28040,1,2,0:0:0:0:
192,192,28241,1,0,0:0:0:0:
64,192,28442,1,2,0:0:0:0:
64,192,28845,1,2,0:0:0:0:
448,192,29046,1,0,0:0:0:0:
192,192,29248,1,2,0:0:0:0:
320,192,29449,1,0,0:0:0:0:
64,192,29650,1,2,0:0:0:0:
448,192,29852,1,0,0:0:0:0:
64,192,30053,128,2,30456:0:0:0:0:
320,192,30456,1,2,0:0:0:0:
192,192,30657,1,0,0:0:0:0:
448,192,30859,1,2,0:0:0:0:
320,192,31261,1,2,0:0:0:0:
192,192,31463,1,0,0:0:0:0:
320,192,31664,1,2,0:0:0:0:
448,192,32067,1,2,0:0:0:0:
192,192,32469,1,2,0:0:0:0:
320,192,32671,1,0,0:0:0:0:
64,192,32872,1,2,0:0:0:0:
192,192,33073,1,0,0:0:0:0:
320,192,33275,128,2,33677:0:0:0:0:
64,192,33476,1,8,0:0:0:0:
192,192,33677,128,0,34080:0:0:0:70:tom01.wav
320,192,33879,1,0,0:0:0:70:tom03.wav
64,192,34080,1,2,0:0:0:0:
448,192,34080,1,4,0:0:0:0:
192,192,34483,1,8,0:0:0:0:
448,192,34483,1,0,0:0:0:0:
320,192,34684,1,0,0:0:0:70:LR_Drum Rim Fast.wav
64,192,34885,1,2,0:0:0:0:
64,192,35288,1,8,0:0:0:0:
320,192,35288,1,0,0:0:0:0:
192,192,35489,1,0,0:0:0:0:
448,192,35691,1,2,0:0:0:0:
192,192,35892,1,0,0:0:0:0:
64,192,36093,1,8,0:0:0:0:
320,192,36093,1,0,0:0:0:0:
448,192,36295,1,0,0:0:0:70:LR_Drum Rim Fast.wav
64,192,36496,128,2,36899:0:0:0:0:
320,192,36899,1,8,0:0:0:0:
448,192,36899,1,0,0:0:0:0:
192,192,37301,1,2,0:0:0:0:
64,192,37704,1,8,0:0:0:0:
448,192,37704,1,0,0:0:0:0:
192,192,37906,1,0,0:0:0:70:LR_Drum Rim Fast.wav
320,192,38107,1,2,0:0:0:0:
64,192,38510,1,8,0:0:0:0:
192,192,38510,1,0,0:0:0:0:
448,192,38912,1,2,0:0:0:0:
192,192,39315,1,8,0:0:0:0:
320,192,39315,1,0,0:0:0:0:
448,192,39718,128,2,40120:0:0:0:0:
64,192,40120,1,8,0:0:0:0:
192,192,40120,1,0,0:0:0:70:LR_Chm J Whistle.wav
448,192,40523,1,2,0:0:0:0:
192,192,40926,1,8,0:0:0:0:
320,192,40926,1,0,0:0:0:0:
64,192,41127,1,0,0:0:0:70:LR_Drum Rim Fast.wav
320,192,41328,1,2,0:0:0:0:
192,192,41731,1,8,0:0:0:0:
448,192,41731,1,0,0:0:0:0:
320,192,41932,1,0,0:0:0:0:
448,192,42134,1,2,0:0:0:0:
64,192,42335,1,0,0:0:0:0:
192,192,42536,1,8,0:0:0:0:
320,192,42536,1,0,0:0:0:0:
64,192,42738,1,0,0:0:0:70:LR_Drum Rim Fast.wav
448,192,42939,128,2,43342:0:0:0:0:
64,192,43342,1,8,0:0:0:0:
192,192,43342,1,0,0:0:0:0:
320,192,43543,1,0,0:0:0:0:
192,192,43744,1,2,0:0:0:0:
64,192,44147,1,8,0:0:0:0:
448,192,44147,1,0,0:0:0:0:
320,192,44348,1,0,0:0:0:70:LR_Drum Rim Fast.wav
192,192,44550,1,2,0:0:0:0:
320,192,44952,1,8,0:0:0:0:
448,192,44952,1,0,0:0:0:0:
64,192,45355,1,2,0:0:0:0:
192,192,45355,1,0,0:0:0:70:HHOpen.wav
448,192,45557,1,0,0:0:0:70:tom01.wav
64,192,45758,1,8,0:0:0:0:
320,192,45758,1,0,0:0:0:70:HHOpen.wav
192,192,45959,1,0,0:0:0:70:LR_Drum Rim Fast.wav
320,192,46161,1,2,0:0:0:0:
448,192,46161,1,4,0:0:0:0:
64,192,46362,1,8,0:0:0:0:
192,192,46563,1,0,0:0:0:70:tom01.wav
320,192,46765,1,0,0:0:0:70:tom03.wav
64,192,46966,1,2,0:0:0:0:
448,192,46966,1,4,0:0:0:0:
192,192,47570,1,2,0:0:0:0:
192,192,47771,1,2,0:0:0:0:
320,192,47973,1,0,0:0:0:70:LR_J Hit Pong Drop.wav
448,192,48174,1,2,0:0:0:0:
64,192,48375,1,0,0:0:0:0:
320,192,48577,128,2,49080:0:0:0:0:
64,192,49181,1,2,0:0:0:0:
192,192,49281,1,0,0:0:0:0:
448,192,49382,128,2,49785:0:0:0:0:
320,192,49785,1,0,0:0:0:50:LR_Chm J Whistle.wav
64,192,49986,1,6,0:0:0:0:
64,192,50187,1,4,0:0:0:0:
320,192,50187,1,2,0:0:0:0:
192,192,50791,1,2,0:0:0:0:
192,192,50993,1,2,0:0:0:0:
320,192,51194,1,0,0:0:0:0:
448,192,51395,1,2,0:0:0:0:
64,192,51597,1,0,0:0:0:0:
448,192,51798,128,2,52301:0:0:0:0:
64,192,52402,1,2,0:0:0:0:
192,192,52503,1,0,0:0:0:0:
320,192,52603,128,2,53006:0:0:0:0:
448,192,53006,1,2,0:0:0:0:
64,192,53208,1,0,0:0:0:0:
64,192,53409,1,2,0:0:0:0:
448,192,53409,1,4,0:0:0:0:
320,192,54013,1,2,0:0:0:0:
320,192,54214,1,2,0:0:0:0:
64,192,54416,1,0,0:0:0:0:
448,192,54617,1,2,0:0:0:0:
192,192,54818,1,0,0:0:0:0:
320,192,55020,128,2,55523:0:0:0:0:
64,192,55624,1,2,0:0:0:0:
192,192,55724,1,0,0:0:0:0:
448,192,55825,128,2,56228:0:0:0:0:
64,192,56228,1,8,0:0:0:0:
448,192,56429,1,0,0:0:0:0:
64,192,56630,1,4,0:0:0:0:
448,192,56630,1,2,0:0:0:0:
192,192,57033,1,8,0:0:0:0:
320,192,57033,1,0,0:0:0:0:
64,192,57234,1,2,0:0:0:0:
64,192,57436,1,8,0:0:0:0:
448,192,57436,1,0,0:0:0:0:
64,192,57838,1,8,0:0:0:0:
448,192,57838,1,0,0:0:0:0:
320,192,58040,1,2,0:0:0:0:
192,192,58241,1,8,0:0:0:0:
320,192,58241,1,4,0:0:0:0:
64,192,58644,1,8,0:0:0:0:
320,192,58644,1,0,0:0:0:0:
192,192,59046,1,8,0:0:0:0:
448,192,59046,1,0,0:0:0:0:
64,192,59449,1,8,0:0:0:0:
320,192,59449,1,0,0:0:0:0:
64,192,59852,1,8,0:0:0:0:
448,192,59852,1,4,0:0:0:0:
192,192,60154,1,0,0:0:0:70:tom02.wav
320,192,60456,1,0,0:0:0:70:tom04.wav
64,192,60657,1,8,0:0:0:0:
448,192,60657,1,4,0:0:0:0:
320,192,60959,1,0,0:0:0:70:tom01.wav
64,192,61261,1,0,0:0:0:70:tom03.wav
192,192,61463,1,6,0:0:0:0:
448,192,61664,1,8,0:0:0:0:
64,192,61865,1,10,0:0:0:0:
320,192,62067,1,8,0:0:0:0:
192,192,62268,1,10,0:0:0:0:
448,192,62469,1,8,0:0:0:0:
64,192,62671,1,10,0:0:0:0:
320,192,62872,1,8,0:0:0:0:
64,192,63073,1,2,0:0:0:0:
192,192,63073,1,0,0:0:0:70:HHOpen.wav
448,192,63275,1,0,0:0:0:0:
192,192,63476,1,0,0:0:0:0:
448,192,63677,1,0,0:0:0:0:
64,192,63879,128,0,64281:0:0:0:0:
320,192,64281,1,12,0:0:0:0:
320,192,64684,1,2,0:0:0:0:
448,192,64684,1,4,0:0:0:0:
64,192,64885,1,8,0:0:0:0:
320,192,65087,1,2,0:0:0:0:
192,192,65187,1,2,0:0:0:0:
448,192,65288,1,8,0:0:0:0:
64,192,65489,1,2,0:0:0:0:
320,192,65691,1,8,0:0:0:0:
192,192,65791,1,2,0:0:0:0:
192,192,65993,1,2,0:0:0:0:
320,192,66093,1,8,0:0:0:0:
64,192,66295,1,2,0:0:0:0:
448,192,66496,1,8,0:0:0:0:
192,192,66697,1,2,0:0:0:0:
448,192,66798,1,2,0:0:0:0:
64,192,66899,1,8,0:0:0:0:
192,192,67100,1,2,0:0:0:0:
320,192,67301,1,8,0:0:0:0:
64,192,67402,1,2,0:0:0:0:
448,192,67503,1,0,0:0:0:70:LR_J Hit Pong Drop.wav
192,192,67704,1,8,0:0:0:0:
320,192,67805,1,0,0:0:0:0:
64,192,67906,1,2,0:0:0:0:
448,192,68107,1,12,0:0:0:0:
64,192,68308,1,2,0:0:0:0:
192,192,68409,1,2,0:0:0:0:
448,192,68510,1,8,0:0:0:0:
192,192,68711,1,2,0:0:0:0:
448,192,68912,1,12,0:0:0:0:
320,192,69013,1,2,0:0:0:0:
64,192,69114,1,0,0:0:0:0:
192,192,69315,1,8,0:0:0:0:
448,192,69516,1,6,0:0:0:0:
64,192,69718,1,8,0:0:0:0:
448,192,69919,1,2,0:0:0:0:
320,192,70020,1,2,0:0:0:0:
192,192,70120,1,8,0:0:0:0:
320,192,70322,1,8,0:0:0:0:
448,192,70322,1,4,0:0:0:0:
64,192,70724,1,6,0:0:0:0:
192,192,70724,1,0,0:0:0:70:LR_J Hit Pong Drop.wav
64,192,71127,1,4,0:0:0:0:
448,192,71127,1,2,0:0:0:0:
192,192,71328,1,8,0:0:0:0:
320,192,71530,1,2,0:0:0:0:
448,192,71630,1,2,0:0:0:0:
192,192,71731,1,8,0:0:0:0:
64,192,71932,1,2,0:0:0:0:
320,192,72134,1,8,0:0:0:0:
192,192,72234,1,2,0:0:0:0:
192,192,72436,1,2,0:0:0:0:
320,192,72536,1,8,0:0:0:0:
448,192,72738,1,2,0:0:0:0:
192,192,72939,1,8,0:0:0:0:
448,192,73140,1,2,0:0:0:0:
64,192,73241,1,2,0:0:0:0:
320,192,73342,1,8,0:0:0:0:
448,192,73543,1,2,0:0:0:0:
192,192,73744,1,8,0:0:0:0:
320,192,73845,1,2,0:0:0:0:
64,192,73946,1,0,0:0:0:70:LR_Drum Rim Fast.wav
448,192,74147,1,8,0:0:0:0:
192,192,74248,1,0,0:0:0:0:
448,192,74348,1,6,0:0:0:0:
64,192,74550,1,8,0:0:0:0:
192,192,74751,1,2,0:0:0:0:
320,192,74852,1,2,0:0:0:0:
64,192,74952,1,8,0:0:0:0:
448,192,75154,1,6,0:0:0:0:
320,192,75355,1,8,0:0:0:0:
64,192,75456,1,2,0:0:0:0:
192,192,75557,1,0,0:0:0:0:
448,192,75657,1,2,0:0:0:0:
320,192,75758,1,8,0:0:0:0:
64,192,75959,1,4,0:0:0:0:
192,192,75959,1,2,0:0:0:0:
64,192,76161,1,8,0:0:0:0:
320,192,76362,1,8,0:0:0:0:
320,192,76563,1,8,0:0:0:0:
448,192,76765,1,0,0:0:0:70:tom01.wav
448,192,76966,1,0,0:0:0:70:tom02.wav
192,192,77167,1,0,0:0:0:70:tom03.wav
192,192,77369,1,0,0:0:0:70:tom04.wav
64,192,77570,1,4,0:0:0:0:
448,192,77570,1,8,0:0:0:0:
192,192,77872,1,0,0:0:0:70:tom01.wav
320,192,77872,1,0,0:0:0:0:
64,192,78174,1,8,0:0:0:0:
448,192,78174,1,2,0:0:0:0:
192,192,78375,1,2,0:0:0:0:
448,192,78375,1,0,0:0:0:50:HHOpen.wav
320,192,78577,1,2,0:0:0:0:
64,192,78778,1,0,0:0:0:70:LR_Chm J Whistle.wav
448,192,78778,1,0,0:0:0:0:
192,192,79181,1,2,0:0:0:0:
448,192,79181,1,4,0:0:0:0:
192,192,79583,1,2,0:0:0:0:
192,192,79986,1,2,0:0:0:0:
192,192,80389,1,2,0:0:0:0:
64,192,80791,1,2,0:0:0:0:
320,192,80791,1,0,0:0:0:0:
320,192,81194,1,2,0:0:0:0:
320,192,81597,1,2,0:0:0:0:
320,192,81999,1,2,0:0:0:0:
64,192,82402,1,2,0:0:0:0:
448,192,82402,1,0,0:0:0:0:
64,192,82805,1,2,0:0:0:0:
192,192,83208,1,2,0:0:0:0:
448,192,83208,1,0,0:0:0:0:
448,192,83610,1,2,0:0:0:0:
64,192,84013,1,2,0:0:0:0:
192,192,84013,1,0,0:0:0:70:HHOpen.wav
192,192,84416,1,2,0:0:0:0:
320,192,84416,1,0,0:0:0:70:HHOpen.wav
320,192,84818,1,2,0:0:0:0:
448,192,84818,1,0,0:0:0:70:HHOpen.wav
64,192,85221,1,2,0:0:0:0:
448,192,85221,1,0,0:0:0:70:HHOpen.wav
64,192,85624,1,4,0:0:0:0:
320,192,85624,1,2,0:0:0:0:
192,192,85825,1,0,0:0:0:0:
448,192,86026,1,8,0:0:0:0:
320,192,86228,1,0,0:0:0:0:
64,192,86429,1,2,0:0:0:0:
320,192,86630,1,0,0:0:0:0:
448,192,86832,1,8,0:0:0:0:
320,192,87033,1,0,0:0:0:70:LR_Drum Rim Fast.wav
192,192,87234,1,2,0:0:0:0:
448,192,87436,1,0,0:0:0:0:
320,192,87637,1,8,0:0:0:0:
64,192,87838,1,0,0:0:0:70:LR_Drum Rim Fast.wav
192,192,88040,1,2,0:0:0:0:
448,192,88241,1,0,0:0:0:0:
320,192,88442,1,8,0:0:0:0:
192,192,88644,1,0,0:0:0:70:LR_Drum Rim Fast.wav
64,192,88845,1,2,0:0:0:0:
448,192,89046,1,0,0:0:0:0:
192,192,89248,1,8,0:0:0:0:
320,192,89449,1,0,0:0:0:70:LR_Drum Rim Fast.wav
64,192,89650,1,2,0:0:0:0:
448,192,89852,1,0,0:0:0:0:
320,192,90053,1,8,0:0:0:0:
192,192,90254,1,0,0:0:0:70:LR_Drum Rim Fast.wav
448,192,90456,1,2,0:0:0:0:
64,192,90657,1,0,0:0:0:0:
192,192,90859,1,8,0:0:0:0:
448,192,91060,1,0,0:0:0:70:LR_Drum Rim Fast.wav
320,192,91261,1,2,0:0:0:0:
64,192,91463,1,0,0:0:0:0:
192,192,91664,1,8,0:0:0:0:
448,192,91865,1,2,0:0:0:0:
64,192,92067,1,2,0:0:0:0:
320,192,92067,1,4,0:0:0:0:
192,192,92268,1,0,0:0:0:0:
448,192,92469,1,8,0:0:0:0:
320,192,92671,1,0,0:0:0:70:LR_Drum Rim Fast.wav
64,192,92872,1,2,0:0:0:0:
320,192,93073,1,0,0:0:0:0:
448,192,93275,1,8,0:0:0:0:
320,192,93476,1,0,0:0:0:70:LR_Drum Rim Fast.wav
192,192,93677,1,2,0:0:0:0:
448,192,93879,1,0,0:0:0:0:
320,192,94080,1,8,0:0:0:0:
64,192,94281,1,0,0:0:0:70:LR_Drum Rim Fast.wav
192,192,94483,1,2,0:0:0:0:
448,192,94684,1,0,0:0:0:0:
320,192,94885,1,8,0:0:0:0:
192,192,95087,1,0,0:0:0:70:LR_Drum Rim Fast.wav
64,192,95288,1,2,0:0:0:0:
448,192,95489,1,0,0:0:0:0:
192,192,95691,1,8,0:0:0:0:
320,192,95892,1,0,0:0:0:70:LR_Drum Rim Fast.wav
64,192,96093,1,2,0:0:0:0:
192,192,96295,1,0,0:0:0:0:
320,192,96496,1,8,0:0:0:0:
192,192,96697,1,0,0:0:0:70:LR_Drum Rim Fast.wav
64,192,96899,1,2,0:0:0:0:
448,192,96899,1,0,0:0:0:0:
448,192,97100,1,0,0:0:0:0:
192,192,97301,1,8,0:0:0:0:
320,192,97301,1,0,0:0:0:0:
320,192,97503,1,8,0:0:0:0:
64,192,97704,1,4,0:0:0:0:
192,192,97704,1,2,0:0:0:0:
320,192,97906,1,8,0:0:0:0:
448,192,97906,1,0,0:0:0:0:
64,192,98107,1,8,0:0:0:0:
192,192,98107,1,4,0:0:0:0:
320,192,98308,1,0,0:0:0:70:tom03.wav
64,192,98510,1,2,0:0:0:0:
448,192,98510,1,4,0:0:0:0:
192,192,98912,1,8,0:0:0:0:
320,192,98912,1,0,0:0:0:0:
64,192,99114,1,0,0:0:0:70:LR_Drum Rim Fast.wav
320,192,99315,1,2,0:0:0:0:
64,192,99718,1,8,0:0:0:0:
320,192,99718,1,0,0:0:0:0:
192,192,99919,1,0,0:0:0:0:
448,192,100120,1,2,0:0:0:0:
64,192,100322,1,0,0:0:0:0:
192,192,100523,1,8,0:0:0:0:
320,192,100523,1,0,0:0:0:0:
64,192,100724,1,0,0:0:0:70:LR_Drum Rim Fast.wav
448,192,100926,128,2,101328:0:0:0:0:
64,192,101328,1,8,0:0:0:0:
192,192,101328,1,0,0:0:0:0:
320,192,101731,1,2,0:0:0:0:
192,192,102134,1,8,0:0:0:0:
448,192,102134,1,0,0:0:0:0:
320,192,102335,1,0,0:0:0:70:LR_Drum Rim Fast.wav
64,192,102536,1,2,0:0:0:0:
192,192,102939,1,8,0:0:0:0:
320,192,102939,1,0,0:0:0:0:
448,192,103342,1,2,0:0:0:0:
192,192,103744,1,8,0:0:0:0:
320,192,103744,1,0,0:0:0:0:
64,192,104147,128,2,104550:0:0:0:0:
320,192,104550,1,8,0:0:0:0:
448,192,104550,1,0,0:0:0:70:LR_Chm J Whistle.wav
192,192,104952,1,2,0:0:0:0:
64,192,105355,1,8,0:0:0:0:
320,192,105355,1,0,0:0:0:0:
448,192,105557,1,0,0:0:0:70:LR_Drum Rim Fast.wav
192,192,105758,1,2,0:0:0:0:
64,192,106161,1,8,0:0:0:0:
320,192,106161,1,0,0:0:0:0:
192,192,106362,1,0,0:0:0:0:
320,192,106563,1,2,0:0:0:0:
448,192,106765,1,0,0:0:0:0:
64,192,106966,1,8,0:0:0:0:
320,192,106966,1,0,0:0:0:0:
192,192,107167,1,0,0:0:0:70:LR_Drum Rim Fast.wav
64,192,107369,128,2,107771:0:0:0:0:
320,192,107771,1,8,0:0:0:0:
448,192,107771,1,0,0:0:0:0:
192,192,107973,1,0,0:0:0:0:
320,192,108174,1,2,0:0:0:0:
64,192,108577,1,8,0:0:0:0:
448,192,108577,1,0,0:0:0:0:
320,192,108778,1,0,0:0:0:70:LR_Drum Rim Fast.wav
448,192,108979,1,2,0:0:0:0:
192,192,109382,1,8,0:0:0:0:
320,192,109382,1,0,0:0:0:0:
64,192,109785,1,2,0:0:0:0:
192,192,109785,1,0,0:0:0:70:HHOpen.wav
448,192,109986,1,0,0:0:0:70:tom01.wav
64,192,110187,1,8,0:0:0:0:
320,192,110187,1,0,0:0:0:70:HHOpen.wav
192,192,110389,1,0,0:0:0:70:LR_Drum Rim Fast.wav
64,192,110590,1,2,0:0:0:0:
448,192,110590,1,4,0:0:0:0:
320,192,110791,1,8,0:0:0:0:
192,192,110993,1,0,0:0:0:70:tom01.wav
64,192,111395,128,4,111999:0:0:0:0:
448,192,111395,1,2,0:0:0:0:
192,192,111798,1,8,0:0:0:0:
448,192,111999,1,0,0:0:0:70:LR_Drum Rim Fast.wav
320,192,112201,128,2,112805:0:0:0:0:
64,192,112603,1,8,0:0:0:0:
448,192,112805,1,0,0:0:0:0:
192,192,113006,128,2,114013:0:0:0:0:
64,192,113409,1,8,0:0:0:0:
320,192,113812,1,2,0:0:0:0:
448,192,114013,1,0,0:0:0:0:
64,192,114214,1,8,0:0:0:0:
448,192,114416,1,0,0:0:0:0:
320,192,114617,128,2,115825:0:0:0:0:
192,192,115020,1,8,0:0:0:0:
448,192,115422,1,2,0:0:0:0:
64,192,115825,1,8,0:0:0:0:
448,192,116026,1,0,0:0:0:0:
320,192,116127,1,0,0:0:0:70:LR_Drum Rim Fast.wav
192,192,116228,128,2,117838:0:0:0:0:
448,192,116630,1,12,0:0:0:0:
64,192,117033,1,2,0:0:0:0:
448,192,117436,1,8,0:0:0:0:
64,192,117838,1,2,0:0:0:0:
448,192,117838,128,4,118442:0:0:0:0:
320,192,118241,1,8,0:0:0:0:
192,192,118442,1,0,0:0:0:70:LR_Drum Rim Fast.wav
64,192,118644,128,2,119248:0:0:0:0:
192,192,119046,1,8,0:0:0:0:
448,192,119248,1,0,0:0:0:0:
320,192,119449,128,2,120254:0:0:0:0:
448,192,119852,1,8,0:0:0:0:
192,192,120254,1,2,0:0:0:0:
64,192,120456,1,0,0:0:0:0:
192,192,120657,1,8,0:0:0:0:
448,192,120859,1,0,0:0:0:0:
192,192,121060,128,2,122268:0:0:0:0:
320,192,121463,1,8,0:0:0:0:
64,192,121865,1,2,0:0:0:0:
448,192,122268,1,8,0:0:0:0:
320,192,122469,1,0,0:0:0:0:
192,192,122570,1,0,0:0:0:70:LR_Drum Rim Fast.wav
64,192,122671,128,2,124281:0:0:0:0:
448,192,123073,1,12,0:0:0:0:
192,192,123476,1,2,0:0:0:0:
320,192,123879,1,0,0:0:0:70:tom03.wav
448,192,124281,1,6,0:0:0:0:
320,192,124684,1,0,0:0:0:0:
64,192,124885,1,2,0:0:0:0:
448,192,125087,1,8,0:0:0:0:
192,192,125489,1,0,0:0:0:0:
320,192,125691,1,2,0:0:0:0:
64,192,125892,1,2,0:0:0:0:
64,192,126194,1,2,0:0:0:0:
64,192,126496,1,2,0:0:0:0:
448,192,126697,1,8,0:0:0:0:
320,192,127100,1,0,0:0:0:70:tom01.wav
64,192,127503,1,6,0:0:0:0:
448,192,127906,1,0,0:0:0:0:
64,192,128107,1,2,0:0:0:0:
320,192,128308,1,8,0:0:0:0:
320,192,128610,1,8,0:0:0:0:
192,192,128912,1,2,0:0:0:0:
448,192,129114,1,8,0:0:0:0:
448,192,129315,1,8,0:0:0:0:
64,192,129516,1,8,0:0:0:0:
64,192,129718,1,8,0:0:0:0:
320,192,129919,1,0,0:0:0:70:tom01.wav
320,192,130120,1,0,0:0:0:70:tom02.wav
192,192,130322,1,0,0:0:0:70:tom03.wav
192,192,130523,1,0,0:0:0:70:tom04.wav
448,192,130724,1,6,0:0:0:0:
64,192,130926,1,2,0:0:0:0:
320,192,131127,1,8,0:0:0:0:
448,192,131228,1,2,0:0:0:0:
64,192,131530,1,2,0:0:0:0:
192,192,131832,1,8,0:0:0:0:
320,192,131932,1,8,0:0:0:0:
64,192,132134,1,6,0:0:0:0:
320,192,132436,1,8,0:0:0:0:
448,192,132536,1,0,0:0:0:70:LR_Drum Rim Fast.wav
64,192,132738,1,6,0:0:0:0:
192,192,133040,1,8,0:0:0:0:
320,192,133140,1,12,0:0:0:0:
448,192,133442,1,8,0:0:0:0:
64,192,133543,1,8,0:0:0:0:
192,192,133644,1,8,0:0:0:0:
320,192,133744,1,0,0:0:0:70:tom03.wav
64,192,133946,1,0,0:0:0:70:tom01.wav
192,192,133946,1,0,0:0:0:0:
192,192,134348,1,0,0:0:0:70:tom01.wav
320,192,134348,1,0,0:0:0:0:
320,192,134751,1,0,0:0:0:70:tom03.wav
448,192,134751,1,0,0:0:0:0:
64,192,135154,1,0,0:0:0:70:tom03.wav
192,192,135154,1,0,0:0:0:0:
448,192,135557,1,8,0:0:0:0:
64,192,135758,1,8,0:0:0:0:
448,192,135959,1,8,0:0:0:0:
320,192,136161,1,8,0:0:0:0:
320,192,136362,1,8,0:0:0:0:
64,192,136765,1,8,0:0:0:0:
192,192,136765,1,4,0:0:0:0:
448,192,136966,1,0,0:0:0:0:
192,192,137167,1,2,0:0:0:0:
448,192,137167,1,4,0:0:0:0:
320,192,137771,1,2,0:0:0:0:
64,192,137973,1,2,0:0:0:0:
448,192,138174,1,0,0:0:0:70:LR_J Hit Pong Drop.wav
192,192,138375,1,2,0:0:0:0:
320,192,138577,1,0,0:0:0:0:
64,192,138778,128,2,139382:0:0:0:0:
320,192,139382,1,2,0:0:0:0:
192,192,139483,1,0,0:0:0:0:
448,192,139583,128,2,139986:0:0:0:0:
64,192,139986,1,0,0:0:0:50:LR_Chm J Whistle.wav
320,192,140187,1,6,0:0:0:0:
192,192,140389,128,4,140791:0:0:0:0:
320,192,140389,1,2,0:0:0:0:
448,192,140993,1,2,0:0:0:0:
192,192,141194,1,2,0:0:0:0:
320,192,141395,1,0,0:0:0:0:
64,192,141597,1,2,0:0:0:0:
448,192,141798,1,0,0:0:0:0:
192,192,141999,128,2,142402:0:0:0:0:
448,192,142603,1,2,0:0:0:0:
64,192,142704,1,0,0:0:0:0:
320,192,142805,128,2,143208:0:0:0:0:
192,192,143208,1,2,0:0:0:0:
448,192,143409,1,0,0:0:0:0:
64,192,143610,128,2,144013:0:0:0:0:
448,192,143610,1,4,0:0:0:0:
192,192,144214,1,2,0:0:0:0:
320,192,144416,1,2,0:0:0:0:
64,192,144617,1,0,0:0:0:0:
448,192,144818,1,2,0:0:0:0:
192,192,145020,1,0,0:0:0:0:
448,192,145221,128,2,145624:0:0:0:0:
64,192,145825,1,2,0:0:0:0:
320,192,145926,1,0,0:0:0:0:
192,192,146026,128,2,146429:0:0:0:0:
320,192,146429,1,8,0:0:0:0:
64,192,146630,1,0,0:0:0:0:
64,192,146832,1,4,0:0:0:0:
192,192,146832,1,2,0:0:0:0:
320,192,147234,1,8,0:0:0:0:
448,192,147234,1,0,0:0:0:0:
192,192,147436,1,2,0:0:0:0:
192,192,147637,1,8,0:0:0:0:
320,192,147637,1,0,0:0:0:0:
64,192,148040,1,8,0:0:0:0:
192,192,148040,1,0,0:0:0:0:
448,192,148241,1,2,0:0:0:0:
320,192,148442,1,8,0:0:0:0:
448,192,148442,1,4,0:0:0:0:
64,192,148845,1,8,0:0:0:0:
320,192,148845,1,0,0:0:0:0:
192,192,149248,1,8,0:0:0:0:
448,192,149248,1,0,0:0:0:0:
64,192,149650,1,8,0:0:0:0:
192,192,149650,1,0,0:0:0:0:
192,192,150053,1,8,0:0:0:0:
448,192,150053,1,4,0:0:0:0:
320,192,150355,1,0,0:0:0:70:tom02.wav
64,192,150657,1,0,0:0:0:70:tom04.wav
192,192,150859,1,8,0:0:0:0:
320,192,150859,1,4,0:0:0:0:
448,192,151161,1,0,0:0:0:70:tom01.wav
64,192,151463,1,0,0:0:0:70:tom03.wav
192,192,151664,1,4,0:0:0:0:
320,192,151664,1,2,0:0:0:0:
448,192,151865,1,8,0:0:0:0:
64,192,152067,1,10,0:0:0:0:
320,192,152268,1,8,0:0:0:0:
192,192,152469,1,10,0:0:0:0:
448,192,152671,1,8,0:0:0:0:
64,192,152872,1,10,0:0:0:0:
320,192,153073,1,8,0:0:0:0:
64,192,153275,1,2,0:0:0:0:
192,192,153275,1,0,0:0:0:70:HHOpen.wav
448,192,153476,1,0,0:0:0:0:
192,192,153677,1,0,0:0:0:0:
448,192,153879,1,0,0:0:0:0:
64,192,154080,128,0,154483:0:0:0:0:
320,192,154483,1,12,0:0:0:0:
64,192,154885,1,2,0:0:0:0:
192,192,154885,1,4,0:0:0:0:
448,192,155087,1,8,0:0:0:0:
192,192,155288,1,2,0:0:0:0:
320,192,155389,1,2,0:0:0:0:
64,192,155489,1,8,0:0:0:0:
448,192,155691,1,2,0:0:0:0:
192,192,155892,1,8,0:0:0:0:
320,192,155993,1,2,0:0:0:0:
320,192,156194,1,2,0:0:0:0:
192,192,156295,1,8,0:0:0:0:
448,192,156496,1,2,0:0:0:0:
64,192,156697,1,8,0:0:0:0:
320,192,156899,1,2,0:0:0:0:
64,192,156999,1,2,0:0:0:0:
448,192,157100,1,8,0:0:0:0:
320,192,157301,1,2,0:0:0:0:
192,192,157503,1,8,0:0:0:0:
448,192,157603,1,2,0:0:0:0:
64,192,157704,1,0,0:0:0:70:LR_J Hit Pong Drop.wav
320,192,157906,1,8,0:0:0:0:
192,192,158006,1,0,0:0:0:0:
448,192,158107,1,2,0:0:0:0:
64,192,158308,1,12,0:0:0:0:
448,192,158510,1,2,0:0:0:0:
320,192,158610,1,2,0:0:0:0:
64,192,158711,1,8,0:0:0:0:
320,192,158912,1,2,0:0:0:0:
64,192,159114,1,12,0:0:0:0:
192,192,159214,1,2,0:0:0:0:
448,192,159315,1,0,0:0:0:0:
320,192,159516,1,8,0:0:0:0:
64,192,159718,1,6,0:0:0:0:
448,192,159919,1,8,0:0:0:0:
64,192,160120,1,2,0:0:0:0:
192,192,160221,1,2,0:0:0:0:
320,192,160322,1,8,0:0:0:0:
64,192,160523,1,8,0:0:0:0:
192,192,160523,1,4,0:0:0:0:
320,192,160926,1,6,0:0:0:0:
448,192,160926,1,0,0:0:0:70:LR_J Hit Pong Drop.wav
64,192,161328,1,4,0:0:0:0:
448,192,161328,1,2,0:0:0:0:
320,192,161530,1,8,0:0:0:0:
192,192,161731,1,2,0:0:0:0:
64,192,161832,1,2,0:0:0:0:
320,192,161932,1,8,0:0:0:0:
448,192,162134,1,2,0:0:0:0:
192,192,162335,1,8,0:0:0:0:
320,192,162436,1,2,0:0:0:0:
320,192,162637,1,2,0:0:0:0:
192,192,162738,1,8,0:0:0:0:
64,192,162939,1,2,0:0:0:0:
320,192,163140,1,8,0:0:0:0:
64,192,163342,1,2,0:0:0:0:
448,192,163442,1,2,0:0:0:0:
192,192,163543,1,8,0:0:0:0:
64,192,163744,1,2,0:0:0:0:
320,192,163946,1,8,0:0:0:0:
192,192,164046,1,2,0:0:0:0:
448,192,164147,1,0,0:0:0:70:LR_Drum Rim Fast.wav
64,192,164348,1,8,0:0:0:0:
320,192,164449,1,0,0:0:0:0:
64,192,164550,1,6,0:0:0:0:
448,192,164751,1,8,0:0:0:0:
320,192,164952,1,2,0:0:0:0:
192,192,165053,1,2,0:0:0:0:
448,192,165154,1,8,0:0:0:0:
64,192,165355,1,6,0:0:0:0:
192,192,165557,1,8,0:0:0:0:
448,192,165657,1,2,0:0:0:0:
320,192,165758,1,0,0:0:0:0:
64,192,165859,1,2,0:0:0:0:
192,192,165959,1,8,0:0:0:0:
320,192,166161,1,4,0:0:0:0:
448,192,166161,1,2,0:0:0:0:
448,192,166362,1,8,0:0:0:0:
192,192,166563,1,8,0:0:0:0:
192,192,166765,1,8,0:0:0:0:
64,192,166966,1,0,0:0:0:70:tom01.wav
64,192,167167,1,0,0:0:0:70:tom02.wav
320,192,167369,1,0,0:0:0:70:tom03.wav
320,192,167570,1,0,0:0:0:70:tom04.wav
64,192,167771,1,4,0:0:0:0:
448,192,167771,1,8,0:0:0:0:
192,192,168073,1,0,0:0:0:70:tom01.wav
320,192,168073,1,0,0:0:0:0:
64,192,168375,1,8,0:0:0:0:
448,192,168375,1,2,0:0:0:0:
192,192,168577,1,2,0:0:0:0:
448,192,168577,1,0,0:0:0:50:HHOpen.wav
320,192,168778,1,2,0:0:0:0:
64,192,168979,1,0,0:0:0:70:LR_Chm J Whistle.wav
448,192,168979,1,0,0:0:0:0:
192,192,169382,1,2,0:0:0:0:
448,192,169382,1,4,0:0:0:0:
192,192,169583,1,2,0:0:0:0:
448,192,169785,1,2,0:0:0:0:
448,192,169986,1,2,0:0:0:0:
64,192,170187,1,2,0:0:0:0:
64,192,170389,1,2,0:0:0:0:
320,192,170590,1,2,0:0:0:0:
320,192,170791,1,2,0:0:0:0:
192,192,170993,1,6,0:0:0:0:
320,192,171194,1,8,0:0:0:0:
448,192,171395,1,2,0:0:0:0:
64,192,171597,1,8,0:0:0:0:
448,192,171798,1,2,0:0:0:0:
320,192,171999,1,8,0:0:0:0:
192,192,172201,1,0,0:0:0:0:
320,192,172402,1,8,0:0:0:0:
64,192,172603,1,2,0:0:0:0:
192,192,172805,1,8,0:0:0:0:
320,192,173006,1,2,0:0:0:0:
64,192,173208,1,8,0:0:0:0:
448,192,173409,1,2,0:0:0:0:
448,192,173610,1,8,0:0:0:0:
448,192,173812,1,0,0:0:0:70:LR_Drum Rim Fast.wav
192,192,174013,1,8,0:0:0:0:
320,192,174214,1,2,0:0:0:0:
192,192,174416,1,8,0:0:0:0:
64,192,174617,1,2,0:0:0:0:
192,192,174818,1,8,0:0:0:0:
448,192,175020,1,2,0:0:0:0:
320,192,175221,1,8,0:0:0:0:
64,192,175422,1,0,0:0:0:0:
448,192,175624,1,8,0:0:0:0:
64,192,175825,1,2,0:0:0:0:
320,192,176026,1,8,0:0:0:0:
448,192,176228,1,2,0:0:0:0:
192,192,176429,1,8,0:0:0:0:
448,192,176630,1,2,0:0:0:0:
320,192,176832,1,12,0:0:0:0:
192,192,177033,1,0,0:0:0:70:LR_J Hit Pong Drop.wav
64,192,177234,1,12,0:0:0:0:
320,192,177436,1,6,0:0:0:0:
192,192,177637,1,8,0:0:0:0:
320,192,177838,1,2,0:0:0:0:
64,192,178040,1,8,0:0:0:0:
448,192,178241,1,2,0:0:0:0:
192,192,178442,1,8,0:0:0:0:
320,192,178644,1,0,0:0:0:0:
64,192,178845,1,8,0:0:0:0:
192,192,179046,1,2,0:0:0:0:
448,192,179248,1,8,0:0:0:0:
320,192,179449,1,2,0:0:0:0:
192,192,179650,1,8,0:0:0:0:
64,192,179852,1,2,0:0:0:0:
64,192,180053,1,8,0:0:0:0:
64,192,180254,1,0,0:0:0:70:LR_Drum Rim Fast.wav
448,192,180456,1,8,0:0:0:0:
64,192,180657,1,6,0:0:0:0:
320,192,180859,1,8,0:0:0:0:
192,192,181060,1,2,0:0:0:0:
320,192,181261,1,8,0:0:0:0:
64,192,181463,1,6,0:0:0:0:
192,192,181664,1,8,0:0:0:0:
320,192,181865,1,0,0:0:0:0:
64,192,182067,1,8,0:0:0:0:
448,192,182268,1,6,0:0:0:0:
192,192,182469,1,8,0:0:0:0:
448,192,182671,1,8,0:0:0:0:
192,192,182872,1,8,0:0:0:0:
320,192,183073,1,0,0:0:0:70:tom01.wav
64,192,183275,1,0,0:0:0:70:tom02.wav
320,192,183476,1,0,0:0:0:70:tom03.wav
64,192,183677,1,0,0:0:0:70:tom04.wav
192,192,183879,1,12,0:0:0:0:
448,192,183879,1,0,0:0:0:50:LR_J Hit Pong Drop.wav
448,192,184181,1,12,0:0:0:0:
448,192,184483,1,0,0:0:0:70:tom01.wav
64,192,184684,1,0,0:0:0:70:tom02.wav
320,192,184684,1,0,0:0:0:0:
64,192,184986,1,0,0:0:0:70:tom03.wav
64,192,185288,1,0,0:0:0:70:tom04.wav
192,192,185489,1,6,0:0:0:0:
320,192,185489,1,0,0:0:0:50:LR_J Hit Pong Drop.wav
192,192,185892,1,6,0:0:0:0:
320,192,185892,1,0,0:0:0:50:LR_J Hit Pong Drop.wav
64,192,186295,1,6,0:0:0:0:
448,192,186295,1,0,0:0:0:50:LR_J Hit Pong Drop.wav
192,192,186697,128,6,188308:0:0:0:0:
320,192,186697,128,0,188308:0:0:0:50:LR_J Hit Pong Drop.wav
64,192,188711,1,0,0:0:0:0:
448,192,188711,1,0,0:0:0:0:
192,192,189013,1,0,0:0:0:0:
320,192,189315,1,0,0:0:0:0:
64,192,189516,1,0,0:0:0:0:
448,192,189818,1,0,0:0:0:0:
64,192,190120,1,0,0:0:0:0:
192,192,190322,1,0,0:0:0:0:
448,192,190523,1,0,0:0:0:0:
320,192,190724,1,0,0:0:0:0:
192,192,190926,1,0,0:0:0:0:
320,192,191127,1,0,0:0:0:0:
64,192,191328,1,0,0:0:0:0:
448,192,191429,1,0,0:0:0:0:
192,192,191731,1,0,0:0:0:0:
320,192,191832,1,0,0:0:0:0:
448,192,191932,1,0,0:0:0:70:HHOpen.wav
192,192,192134,1,0,0:0:0:0:
320,192,192335,1,0,0:0:0:0:
448,192,192536,1,0,0:0:0:0:
320,192,192738,1,0,0:0:0:0:
64,192,192939,1,0,0:0:0:0:
448,192,193040,1,0,0:0:0:0:
192,192,193342,1,0,0:0:0:0:
448,192,193543,1,0,0:0:0:0:
320,192,194147,1,0,0:0:0:0:
192,192,194248,1,0,0:0:0:0:
64,192,194348,1,0,0:0:0:70:HHOpen.wav
192,192,194751,1,2,0:0:0:0:
320,192,194751,1,0,0:0:0:0:
64,192,195154,1,4,0:0:0:0:
448,192,195154,1,2,0:0:0:0:
320,192,195456,1,0,0:0:0:0:
64,192,195758,1,0,0:0:0:0:
448,192,195959,1,2,0:0:0:0:
192,192,196261,1,0,0:0:0:0:
448,192,196563,1,0,0:0:0:0:
64,192,196765,1,2,0:0:0:0:
192,192,196966,1,0,0:0:0:0:
320,192,197167,1,2,0:0:0:0:
448,192,197369,1,0,0:0:0:0:
64,192,197570,1,2,0:0:0:0:
448,192,197771,1,0,0:0:0:70:LR_Chm J Whistle.wav
64,192,197872,1,0,0:0:0:70:LR_Chm J Whistle.wav
320,192,197973,1,2,0:0:0:0:
64,192,198174,1,0,0:0:0:0:
192,192,198275,1,0,0:0:0:0:
320,192,198375,1,6,0:0:0:0:
320,192,198577,1,8,0:0:0:0:
64,192,198778,1,10,0:0:0:0:
64,192,198979,1,8,0:0:0:0:
448,192,199181,1,10,0:0:0:0:
448,192,199382,1,8,0:0:0:0:
192,192,199583,1,10,0:0:0:0:
192,192,199785,1,8,0:0:0:0:
320,192,199986,1,8,0:0:0:0:
448,192,199986,1,4,0:0:0:0:
320,192,200288,1,4,0:0:0:0:
448,192,200288,1,8,0:0:0:0:
64,192,200590,1,8,0:0:0:0:
192,192,200590,1,4,0:0:0:0:
320,192,200791,1,8,0:0:0:0:
448,192,200791,1,4,0:0:0:0:
64,192,201194,1,12,0:0:0:0:
192,192,201194,1,0,0:0:0:70:LR_J Hit Pong Drop.wav
320,192,201597,1,2,0:0:0:0:
448,192,201597,1,4,0:0:0:0:
64,192,201798,1,8,0:0:0:0:
320,192,201999,1,2,0:0:0:0:
192,192,202100,1,2,0:0:0:0:
448,192,202201,1,8,0:0:0:0:
64,192,202402,1,2,0:0:0:0:
320,192,202603,1,8,0:0:0:0:
192,192,202704,1,2,0:0:0:0:
192,192,202906,1,2,0:0:0:0:
320,192,203006,1,8,0:0:0:0:
64,192,203208,1,2,0:0:0:0:
448,192,203409,1,8,0:0:0:0:
192,192,203610,1,2,0:0:0:0:
448,192,203711,1,2,0:0:0:0:
64,192,203812,1,8,0:0:0:0:
192,192,204013,1,2,0:0:0:0:
320,192,204214,1,8,0:0:0:0:
64,192,204315,1,2,0:0:0:0:
448,192,204416,1,0,0:0:0:70:LR_J Hit Pong Drop.wav
192,192,204617,1,8,0:0:0:0:
320,192,204718,1,0,0:0:0:0:
64,192,204818,1,2,0:0:0:0:
448,192,205020,1,12,0:0:0:0:
64,192,205221,1,2,0:0:0:0:
192,192,205322,1,2,0:0:0:0:
448,192,205422,1,8,0:0:0:0:
192,192,205624,1,2,0:0:0:0:
448,192,205825,1,12,0:0:0:0:
320,192,205926,1,2,0:0:0:0:
64,192,206026,1,0,0:0:0:0:
192,192,206228,1,8,0:0:0:0:
448,192,206429,1,6,0:0:0:0:
192,192,206630,1,8,0:0:0:0:
448,192,206832,1,2,0:0:0:0:
320,192,206932,1,2,0:0:0:0:
192,192,207033,1,8,0:0:0:0:
320,192,207234,1,8,0:0:0:0:
448,192,207234,1,4,0:0:0:0:
64,192,207637,1,6,0:0:0:0:
192,192,207637,1,0,0:0:0:70:LR_J Hit Pong Drop.wav
64,192,208040,1,4,0:0:0:0:
448,192,208040,1,2,0:0:0:0:
192,192,208241,1,8,0:0:0:0:
320,192,208442,1,2,0:0:0:0:
448,192,208543,1,2,0:0:0:0:
192,192,208644,1,8,0:0:0:0:
64,192,208845,1,2,0:0:0:0:
320,192,209046,1,8,0:0:0:0:
192,192,209147,1,2,0:0:0:0:
192,192,209348,1,2,0:0:0:0:
320,192,209449,1,8,0:0:0:0:
64,192,209650,1,2,0:0:0:0:
448,192,209852,1,8,0:0:0:0:
64,192,210053,1,2,0:0:0:0:
192,192,210154,1,2,0:0:0:0:
320,192,210254,1,8,0:0:0:0:
64,192,210456,1,2,0:0:0:0:
320,192,210657,1,8,0:0:0:0:
192,192,210758,1,2,0:0:0:0:
448,192,210859,1,0,0:0:0:70:LR_Drum Rim Fast.wav
64,192,210959,1,2,0:0:0:0:
320,192,211060,1,8,0:0:0:0:
448,192,211261,1,6,0:0:0:0:
64,192,211463,1,8,0:0:0:0:
320,192,211664,1,2,0:0:0:0:
192,192,211765,1,2,0:0:0:0:
448,192,211865,1,8,0:0:0:0:
64,192,212067,1,6,0:0:0:0:
320,192,212268,1,8,0:0:0:0:
64,192,212369,1,2,0:0:0:0:
192,192,212469,1,0,0:0:0:0:
448,192,212570,1,2,0:0:0:0:
320,192,212671,1,8,0:0:0:0:
64,192,212872,1,4,0:0:0:0:
192,192,212872,1,2,0:0:0:0:
64,192,213073,1,8,0:0:0:0:
320,192,213275,1,8,0:0:0:0:
320,192,213476,1,8,0:0:0:0:
448,192,213677,1,0,0:0:0:70:tom01.wav
448,192,213879,1,0,0:0:0:70:tom02.wav
192,192,214080,1,0,0:0:0:70:tom03.wav
192,192,214281,1,0,0:0:0:70:tom04.wav
64,192,214483,1,4,0:0:0:0:
448,192,214483,1,8,0:0:0:0:
192,192,214785,1,0,0:0:0:70:tom01.wav
320,192,214785,1,0,0:0:0:0:
64,192,215087,1,8,0:0:0:0:
448,192,215087,1,2,0:0:0:0:
192,192,215288,1,2,0:0:0:0:
448,192,215288,1,0,0:0:0:50:HHOpen.wav
192,192,215892,1,2,0:0:0:0:
64,192,216093,1,2,0:0:0:0:
448,192,216093,1,0,0:0:0:0:
64,192,216295,1,2,0:0:0:0:
192,192,216496,1,2,0:0:0:0:
192,192,216697,1,2,0:0:0:0:
320,192,216899,1,2,0:0:0:0:
320,192,217100,1,2,0:0:0:0:
448,192,217301,1,2,0:0:0:0:
448,192,217503,1,2,0:0:0:0:
64,192,217704,1,2,0:0:0:0:
320,192,217704,1,4,0:0:0:0:
192,192,218107,1,2,0:0:0:0:
320,192,218107,1,4,0:0:0:0:
320,192,218510,1,4,0:0:0:0:
448,192,218510,1,2,0:0:0:0:
64,192,218912,1,2,0:0:0:0:
192,192,218912,1,4,0:0:0:0:
64,192,219315,1,2,0:0:0:0:
448,192,219315,128,4,219516:0:0:0:0:
320,192,219516,1,8,0:0:0:0:
192,192,219617,1,0,0:0:0:0:
64,192,219718,128,2,219919:0:0:0:0:
448,192,219919,128,8,220120:0:0:0:0:
320,192,220120,128,2,220322:0:0:0:0:
64,192,220322,1,8,0:0:0:0:
448,192,220422,128,2,220624:0:0:0:0:
192,192,220624,1,2,0:0:0:0:
64,192,220724,128,8,220926:0:0:0:0:
320,192,220926,128,2,221731:0:0:0:0:
64,192,221127,1,8,0:0:0:0:
192,192,221328,1,2,0:0:0:0:
448,192,221530,1,8,0:0:0:0:
64,192,221731,1,2,0:0:0:0:
320,192,221932,1,8,0:0:0:0:
448,192,221932,128,0,222134:0:0:0:0:
192,192,222134,128,0,222335:0:0:0:70:LR_Drum Rim Fast.wav
320,192,222335,128,8,222536:0:0:0:0:
64,192,222536,128,6,223140:0:0:0:0:
320,192,222738,1,8,0:0:0:0:
192,192,222939,1,2,0:0:0:0:
448,192,223140,1,8,0:0:0:0:
192,192,223241,1,0,0:0:0:0:
320,192,223342,128,2,224147:0:0:0:0:
64,192,223543,1,8,0:0:0:0:
448,192,223644,1,2,0:0:0:0:
64,192,223845,1,2,0:0:0:0:
448,192,223946,1,8,0:0:0:0:
192,192,224147,1,2,0:0:0:0:
448,192,224348,1,12,0:0:0:0:
320,192,224550,1,2,0:0:0:0:
64,192,224650,1,2,0:0:0:0:
448,192,224751,1,12,0:0:0:0:
192,192,224952,128,2,225154:0:0:0:0:
320,192,225154,128,12,225355:0:0:0:0:
64,192,225355,128,2,225557:0:0:0:0:
448,192,225557,128,12,225758:0:0:0:0:
192,192,225758,1,4,0:0:0:0:
320,192,225758,128,2,225959:0:0:0:0:
448,192,225959,1,8,0:0:0:0:
192,192,226060,1,0,0:0:0:0:
64,192,226161,128,2,226362:0:0:0:0:
320,192,226362,128,8,226563:0:0:0:0:
64,192,226563,128,2,226765:0:0:0:0:
448,192,226765,1,8,0:0:0:0:
192,192,226865,128,2,227067:0:0:0:0:
64,192,227067,1,2,0:0:0:0:
320,192,227167,128,8,227369:0:0:0:0:
448,192,227369,128,2,228174:0:0:0:0:
64,192,227570,1,8,0:0:0:0:
192,192,227771,1,2,0:0:0:0:
64,192,227973,1,8,0:0:0:0:
320,192,228174,1,2,0:0:0:0:
64,192,228375,128,8,228577:0:0:0:0:
192,192,228375,1,0,0:0:0:0:
320,192,228577,128,0,228778:0:0:0:70:LR_Drum Rim Fast.wav
192,192,228778,128,8,228979:0:0:0:0:
448,192,228979,128,6,229583:0:0:0:0:
64,192,229181,1,8,0:0:0:0:
192,192,229382,1,2,0:0:0:0:
320,192,229583,1,8,0:0:0:0:
192,192,229684,1,0,0:0:0:0:
64,192,229785,128,2,230590:0:0:0:0:
192,192,229986,1,8,0:0:0:0:
448,192,230087,1,2,0:0:0:0:
192,192,230288,1,2,0:0:0:0:
448,192,230389,1,8,0:0:0:0:
192,192,230590,1,4,0:0:0:0:
320,192,230590,1,0,0:0:0:70:LR_Drum Rim Fast.wav
320,192,230892,1,4,0:0:0:0:
448,192,230892,1,0,0:0:0:70:LR_Drum Rim Fast.wav
64,192,231194,1,4,0:0:0:0:
192,192,231194,1,0,0:0:0:70:LR_Drum Rim Fast.wav
320,192,231395,128,12,232201:0:0:0:0:
448,192,231798,128,0,232201:0:0:0:70:tom03.wav
64,192,232201,1,8,0:0:0:0:
192,192,232201,1,0,0:0:0:50:HHOpen.wav
320,192,232402,1,8,0:0:0:0:
448,192,232402,1,0,0:0:0:50:HHOpen.wav
64,192,232704,1,8,0:0:0:0:
192,192,232704,1,0,0:0:0:50:HHOpen.wav
320,192,233006,1,8,0:0:0:0:
448,192,233006,1,0,0:0:0:0:
192,192,233409,1,8,0:0:0:0:
320,192,233409,1,0,0:0:0:70:LR_J Hit Pong Drop.wav
64,192,233812,128,2,234416:0:0:0:0:
320,192,233812,128,4,234416:0:0:0:0:
64,192,234617,1,0,0:0:0:70:tom01.wav
448,192,234617,1,0,0:0:0:0:
192,192,234751,1,0,0:0:0:70:tom01.wav
320,192,234885,1,0,0:0:0:70:tom02.wav
64,192,235020,1,0,0:0:0:70:tom02.wav
448,192,235020,1,0,0:0:0:0:
192,192,235154,1,0,0:0:0:70:tom03.wav
320,192,235288,1,0,0:0:0:70:tom04.wav
64,192,235422,128,12,235825:0:0:0:0:
192,192,235422,128,0,235825:0:0:0:70:LR_Chm J Whistle.wav
